osu file format v14

[General]
AudioFilename: audio.ogg
AudioLeadIn: 0
PreviewTime: 54863
Countdown: 0
SampleSet: Normal
StackLeniency: 0.7
Mode: 1
LetterboxInBreaks: 0
WidescreenStoryboard: 1

[Editor]
Bookmarks: 14787,17679,29245,40814,46598,78405
DistanceSpacing: 0.3
BeatDivisor: 4
GridSize: 32
TimelineZoom: 1.8

[Metadata]
Title:Idol (TV Size)
TitleUnicode:アイドル (TV Size)
Artist:YOASOBI
ArtistUnicode:YOASOBI
Creator:BlackBN
Version:Oni
Source:【推しの子】
Tags:BlackBq jpop j-pop pop anime japanese opening op 【Oshi No Ko】 [Oshi no Ko] My Favorite Idol Their Idol's Children 星野アイ Hoshino Ai 高橋李依 Takahashi Rie 幾田りら Ikuta Rira Lilas Ikura Ayase Aidoru my star
BeatmapID:4103587
BeatmapSetID:1976837

[Difficulty]
HPDrainRate:5.5
CircleSize:2
OverallDifficulty:5.5
ApproachRate:10
SliderMultiplier:1.4
SliderTickRate:1

[Events]
//Background and Video events
0,0,"bg.jpg",0,-42
Video,-275,"idol.mp4"
//Break Periods
//Storyboard Layer 0 (Background)
//Storyboard Layer 1 (Fail)
//Storyboard Layer 2 (Pass)
//Storyboard Layer 3 (Foreground)
//Storyboard Layer 4 (Overlay)
//Storyboard Sound Samples

[TimingPoints]
333,361.44578313253,4,1,0,80,1,0
333,-90.9090909090909,4,1,0,80,0,0
693,-100,4,1,0,80,0,0
2139,-90.9090909090909,4,1,0,80,0,0
2501,-100,4,1,0,80,0,0
2681,-90.9090909090909,4,1,0,80,0,0
3043,-100,4,1,0,80,0,0
3224,-90.9090909090909,4,1,0,80,0,0
3585,-100,4,1,0,80,0,0
5031,-90.9090909090909,4,1,0,80,0,0
5392,-100,4,1,0,80,0,0
5573,-90.9090909090909,4,1,0,80,0,0
5934,-100,4,1,0,80,0,0
6115,-90.9090909090909,4,1,0,80,0,0
6477,-100,4,1,0,80,0,0
7922,-90.9090909090909,4,1,0,80,0,0
8284,-100,4,1,0,80,0,0
8465,-90.9090909090909,4,1,0,80,0,0
8826,-100,4,1,0,80,0,0
9007,-90.9090909090909,4,1,0,80,0,0
9368,-100,4,1,0,80,0,0
10814,-90.9090909090909,4,1,0,80,0,0
11175,-100,4,1,0,80,0,0
11356,-90.9090909090909,4,1,0,80,0,0
11718,-100,4,1,0,80,0,0
11898,-90.9090909090909,4,1,0,80,0,0
12260,-100,4,1,0,80,0,0
12621,-90.9090909090909,4,1,0,80,0,0
12983,-100,4,1,0,80,0,0
13163,-90.9090909090909,4,1,0,80,0,0
14699,-111.111111111111,4,1,0,75,0,0
17591,-100,4,1,0,80,0,0
23465,-90.9090909090909,4,1,0,80,0,0
23645,-100,4,1,0,80,0,0
29248,-90.9090909090909,4,1,0,80,0,0
29519,-100,4,1,0,80,0,0
35031,-90.9090909090909,4,1,0,80,0,0
35302,-100,4,1,0,80,0,0
39728,-100,4,1,0,80,0,0
39909,-101.688555347092,4,1,0,80,0,0
39999,-102.554399243141,4,1,0,80,0,0
40090,-103.444985208512,4,1,0,80,0,0
40270,-105.252937178367,4,1,0,80,0,0
40451,-107.135797588456,4,1,0,80,0,0
40632,-109.08724967294,4,1,0,80,0,0
40723,-111.099723275597,4,1,0,70,0,0
40813,-111.111111111111,4,1,0,70,0,0
41898,-100,4,1,0,70,0,0
42079,-111.111111111111,4,1,0,70,0,0
43344,-100,4,1,0,70,0,0
43705,-111.111111111111,4,1,0,70,0,0
44790,-100,4,1,0,70,0,0
45151,-111.111111111111,4,1,0,70,0,0
46506,-100,4,1,0,80,0,0
49489,-111.111111111111,4,1,0,80,0,0
53645,-100,4,1,0,80,0,0
54819,-100,4,1,0,40,0,0
55181,-100,4,1,0,85,0,0
55272,-90.9090909090909,4,1,0,85,0,1
61055,-83.3333333333333,4,1,0,85,0,1
61416,-90.9090909090909,4,1,0,85,0,1
66792,-90.9090909090909,4,1,0,80,0,1
66839,-90.9090909090909,4,1,0,80,0,0
67019,-100,4,1,0,80,0,0
76778,-90.9090909090909,4,1,0,80,0,0
76959,-100,4,1,0,80,0,0
78313,-111.111111111111,4,1,0,75,0,0
82740,-111.111111111111,4,1,0,75,0,0
82741,-111.111111111111,4,1,0,75,0,0
83102,-108.110130181056,4,1,0,75,0,0
83282,-106.673556769526,4,1,0,75,0,0
83463,-105.266992059445,4,1,0,75,0,0
83644,-103.897037676158,4,1,0,75,0,0
83824,-102.569562748438,4,1,0,75,0,0
83915,-101.91127724099,4,1,0,75,0,0
84005,-101.268484126428,4,1,0,75,0,0
84097,-100,4,1,0,80,0,0
87079,-90.9090909090909,4,1,0,80,0,0
87440,-100,4,1,0,80,0,0
88434,-100,4,1,0,75,0,0

[HitObjects]
384,96,333,5,12,0:0:0:0:
256,192,694,1,8,0:0:0:0:
256,192,784,1,8,0:0:0:0:
256,192,875,1,0,0:0:0:0:
256,192,965,1,0,0:0:0:0:
256,192,1055,1,8,0:0:0:0:
256,192,1236,1,8,0:0:0:0:
256,192,1417,1,0,0:0:0:0:
256,192,1598,1,0,0:0:0:0:
256,192,1688,1,0,0:0:0:0:
256,192,1778,1,8,0:0:0:0:
256,192,1959,1,0,0:0:0:0:
384,96,2140,1,12,0:0:0:0:
256,192,2501,1,8,0:0:0:0:
384,96,2682,1,4,0:0:0:0:
256,192,3043,1,0,0:0:0:0:
384,96,3224,1,12,0:0:0:0:
256,192,3586,1,0,0:0:0:0:
256,192,3676,1,0,0:0:0:0:
256,192,3766,1,8,0:0:0:0:
256,192,3857,1,8,0:0:0:0:
256,192,3947,1,0,0:0:0:0:
256,192,4128,1,0,0:0:0:0:
256,192,4308,1,8,0:0:0:0:
256,192,4489,1,8,0:0:0:0:
256,192,4579,1,8,0:0:0:0:
256,192,4670,1,0,0:0:0:0:
256,192,4851,1,8,0:0:0:0:
384,96,5031,1,4,0:0:0:0:
256,192,5393,1,0,0:0:0:0:
384,96,5573,1,12,0:0:0:0:
256,192,5935,1,8,0:0:0:0:
384,96,6116,1,4,0:0:0:0:
256,192,6477,1,8,0:0:0:0:
256,192,6567,1,8,0:0:0:0:
256,192,6658,1,0,0:0:0:0:
256,192,6748,1,0,0:0:0:0:
256,192,6839,1,8,0:0:0:0:
256,192,7019,1,0,0:0:0:0:
256,192,7200,1,8,0:0:0:0:
256,192,7381,1,8,0:0:0:0:
256,192,7471,1,8,0:0:0:0:
256,192,7561,1,0,0:0:0:0:
256,192,7742,1,0,0:0:0:0:
384,96,7923,1,12,0:0:0:0:
256,192,8284,1,8,0:0:0:0:
384,96,8465,1,4,0:0:0:0:
256,192,8826,1,0,0:0:0:0:
384,96,9007,1,12,0:0:0:0:
256,192,9369,1,8,0:0:0:0:
256,192,9459,1,8,0:0:0:0:
256,192,9549,1,8,0:0:0:0:
256,192,9640,1,8,0:0:0:0:
256,192,9730,1,0,0:0:0:0:
256,192,9911,1,0,0:0:0:0:
256,192,10092,1,8,0:0:0:0:
256,192,10272,1,8,0:0:0:0:
256,192,10453,1,0,0:0:0:0:
256,192,10634,1,8,0:0:0:0:
384,96,10814,1,4,0:0:0:0:
256,192,11176,1,0,0:0:0:0:
384,96,11357,1,12,0:0:0:0:
256,192,11718,1,8,0:0:0:0:
384,96,11899,1,4,0:0:0:0:
256,192,12260,1,8,0:0:0:0:
384,96,12622,1,4,0:0:0:0:
256,192,12983,1,0,0:0:0:0:
384,96,13164,1,12,0:0:0:0:
384,96,13525,1,12,0:0:0:0:
384,96,13887,1,4,0:0:0:0:
384,96,14067,1,4,0:0:0:0:
256,192,14429,1,8,0:0:0:0:
384,96,14790,1,4,0:0:0:0:
256,192,15061,1,0,0:0:0:0:
256,192,15332,1,0,0:0:0:0:
256,192,15513,1,8,0:0:0:0:
256,192,15694,1,0,0:0:0:0:
256,192,16055,1,0,0:0:0:0:
256,192,16236,1,0,0:0:0:0:
256,192,16507,1,0,0:0:0:0:
256,192,16778,1,0,0:0:0:0:
256,192,16959,1,8,0:0:0:0:
256,192,17140,1,0,0:0:0:0:
256,192,17320,1,8,0:0:0:0:
384,96,17682,1,4,0:0:0:0:
256,192,17863,1,8,0:0:0:0:
256,192,17953,1,8,0:0:0:0:
256,192,18043,1,0,0:0:0:0:
256,192,18224,1,0,0:0:0:0:
256,192,18314,1,0,0:0:0:0:
256,192,18405,1,8,0:0:0:0:
256,192,18586,1,0,0:0:0:0:
256,192,18766,1,8,0:0:0:0:
256,192,18947,1,0,0:0:0:0:
256,192,19037,1,8,0:0:0:0:
256,192,19128,1,0,0:0:0:0:
256,192,19308,1,0,0:0:0:0:
256,192,19489,1,8,0:0:0:0:
256,192,19670,1,8,0:0:0:0:
256,192,19851,1,0,0:0:0:0:
256,192,20212,1,0,0:0:0:0:
256,192,20393,1,8,0:0:0:0:
256,192,20483,1,8,0:0:0:0:
256,192,20573,1,0,0:0:0:0:
256,192,20754,1,0,0:0:0:0:
256,192,20935,1,8,0:0:0:0:
256,192,21116,1,0,0:0:0:0:
256,192,21206,1,0,0:0:0:0:
256,192,21296,1,0,0:0:0:0:
256,192,21477,1,8,0:0:0:0:
256,192,21658,1,0,0:0:0:0:
256,192,21839,1,8,0:0:0:0:
256,192,21929,1,8,0:0:0:0:
256,192,22019,1,0,0:0:0:0:
256,192,22200,1,0,0:0:0:0:
256,192,22381,1,0,0:0:0:0:
256,192,22471,1,0,0:0:0:0:
256,192,22561,1,8,0:0:0:0:
256,192,22742,1,0,0:0:0:0:
256,192,23104,1,8,0:0:0:0:
256,192,23284,1,8,0:0:0:0:
384,96,23465,1,4,0:0:0:0:
256,192,23646,1,8,0:0:0:0:
256,192,23736,1,8,0:0:0:0:
256,192,23826,1,0,0:0:0:0:
256,192,24007,1,0,0:0:0:0:
256,192,24098,1,8,0:0:0:0:
256,192,24188,1,0,0:0:0:0:
256,192,24369,1,0,0:0:0:0:
256,192,24549,1,8,0:0:0:0:
256,192,24730,1,0,0:0:0:0:
256,192,24820,1,0,0:0:0:0:
256,192,24911,1,8,0:0:0:0:
256,192,25092,1,0,0:0:0:0:
256,192,25272,1,8,0:0:0:0:
256,192,25453,1,8,0:0:0:0:
256,192,25634,1,0,0:0:0:0:
256,192,25995,1,0,0:0:0:0:
256,192,26176,1,8,0:0:0:0:
256,192,26266,1,8,0:0:0:0:
256,192,26357,1,0,0:0:0:0:
256,192,26537,1,0,0:0:0:0:
256,192,26718,1,8,0:0:0:0:
256,192,26899,1,0,0:0:0:0:
256,192,26989,1,0,0:0:0:0:
256,192,27079,1,0,0:0:0:0:
256,192,27260,1,0,0:0:0:0:
256,192,27441,1,8,0:0:0:0:
256,192,27622,1,8,0:0:0:0:
256,192,27712,1,8,0:0:0:0:
256,192,27802,1,0,0:0:0:0:
256,192,27983,1,0,0:0:0:0:
256,192,28164,1,0,0:0:0:0:
256,192,28254,1,0,0:0:0:0:
256,192,28345,1,8,0:0:0:0:
256,192,28525,1,0,0:0:0:0:
256,192,28706,1,8,0:0:0:0:
256,192,28887,1,0,0:0:0:0:
384,96,29248,1,12,0:0:0:0:
256,192,29519,1,0,0:0:0:0:
256,192,29610,1,8,0:0:0:0:
256,192,29790,1,8,0:0:0:0:
256,192,29971,1,0,0:0:0:0:
256,192,30152,1,8,0:0:0:0:
256,192,30242,1,0,0:0:0:0:
256,192,30332,1,8,0:0:0:0:
256,192,30513,1,8,0:0:0:0:
256,192,30694,1,0,0:0:0:0:
256,192,30965,1,0,0:0:0:0:
256,192,31055,1,8,0:0:0:0:
256,192,31236,1,8,0:0:0:0:
256,192,31417,1,0,0:0:0:0:
256,192,31598,1,0,0:0:0:0:
256,192,31688,1,0,0:0:0:0:
256,192,31778,1,8,0:0:0:0:
256,192,31959,1,8,0:0:0:0:
256,192,32140,1,0,0:0:0:0:
256,192,32320,1,8,0:0:0:0:
256,192,32501,1,8,0:0:0:0:
256,192,32863,1,0,0:0:0:0:
256,192,33043,1,0,0:0:0:0:
256,192,33224,1,8,0:0:0:0:
256,192,33586,1,0,0:0:0:0:
256,192,33766,1,8,0:0:0:0:
256,192,33947,1,0,0:0:0:0:
256,192,34128,1,8,0:0:0:0:
256,192,34308,1,0,0:0:0:0:
256,192,34489,1,8,0:0:0:0:
256,192,34579,1,8,0:0:0:0:
256,192,34670,1,8,0:0:0:0:
256,192,34851,1,0,0:0:0:0:
384,96,35031,1,12,0:0:0:0:
256,192,35302,1,0,0:0:0:0:
256,192,35393,1,8,0:0:0:0:
256,192,35573,1,8,0:0:0:0:
256,192,35754,1,0,0:0:0:0:
256,192,35935,1,8,0:0:0:0:
256,192,36025,1,8,0:0:0:0:
256,192,36116,1,0,0:0:0:0:
256,192,36296,1,0,0:0:0:0:
256,192,36477,1,8,0:0:0:0:
256,192,36748,1,0,0:0:0:0:
256,192,36839,1,8,0:0:0:0:
256,192,37019,1,8,0:0:0:0:
256,192,37200,1,0,0:0:0:0:
256,192,37381,1,0,0:0:0:0:
256,192,37471,1,0,0:0:0:0:
256,192,37561,1,8,0:0:0:0:
256,192,37742,1,8,0:0:0:0:
256,192,37923,1,0,0:0:0:0:
256,192,38104,1,0,0:0:0:0:
256,192,38194,1,8,0:0:0:0:
256,192,38284,1,0,0:0:0:0:
256,192,38555,1,8,0:0:0:0:
256,192,38646,1,0,0:0:0:0:
256,192,38826,1,0,0:0:0:0:
256,192,39007,1,8,0:0:0:0:
256,192,39188,1,8,0:0:0:0:
256,192,39369,1,0,0:0:0:0:
256,192,39549,1,8,0:0:0:0:
256,192,39730,1,0,0:0:0:0:
256,192,39911,1,8,0:0:0:0:
256,192,40001,1,8,0:0:0:0:
256,192,40092,1,0,0:0:0:0:
256,192,40272,1,0,0:0:0:0:
256,192,40453,1,8,0:0:0:0:
256,192,40634,1,8,0:0:0:0:
256,192,40814,1,0,0:0:0:0:
256,192,41357,1,0,0:0:0:0:
256,192,41537,1,0,0:0:0:0:
256,192,41899,1,8,0:0:0:0:
256,192,42079,1,0,0:0:0:0:
256,192,42441,1,0,0:0:0:0:
256,192,42802,1,0,0:0:0:0:
256,192,42983,1,0,0:0:0:0:
256,192,43345,1,8,0:0:0:0:
256,192,43706,1,0,0:0:0:0:
256,192,44248,1,0,0:0:0:0:
256,192,44429,1,0,0:0:0:0:
256,192,44790,1,8,0:0:0:0:
256,192,45152,1,0,0:0:0:0:
256,192,45513,1,0,0:0:0:0:
256,192,45875,1,0,0:0:0:0:
256,192,45965,1,0,0:0:0:0:
256,192,46055,1,0,0:0:0:0:
256,192,46236,1,8,0:0:0:0:
384,96,46598,1,4,0:0:0:0:
256,192,46959,1,8,0:0:0:0:
256,192,47140,1,8,0:0:0:0:
256,192,47230,1,8,0:0:0:0:
256,192,47320,1,0,0:0:0:0:
256,192,47501,1,0,0:0:0:0:
256,192,47682,1,8,0:0:0:0:
256,192,47863,1,8,0:0:0:0:
256,192,48043,1,0,0:0:0:0:
256,192,48224,1,0,0:0:0:0:
256,192,48314,1,0,0:0:0:0:
256,192,48405,1,8,0:0:0:0:
256,192,48586,1,8,0:0:0:0:
256,192,48766,1,0,0:0:0:0:
256,192,48947,1,8,0:0:0:0:
256,192,49037,1,8,0:0:0:0:
256,192,49128,1,0,0:0:0:0:
256,192,49308,1,0,0:0:0:0:
384,96,49489,1,12,0:0:0:0:
256,192,49851,1,8,0:0:0:0:
256,192,50212,1,0,0:0:0:0:
256,192,50483,1,0,0:0:0:0:
256,192,50573,1,8,0:0:0:0:
256,192,50754,1,8,0:0:0:0:
256,192,50935,1,0,0:0:0:0:
256,192,51116,1,8,0:0:0:0:
256,192,51206,1,0,0:0:0:0:
256,192,51296,1,8,0:0:0:0:
256,192,51477,1,8,0:0:0:0:
256,192,51658,1,0,0:0:0:0:
256,192,51839,1,8,0:0:0:0:
256,192,52019,1,0,0:0:0:0:
256,192,52200,1,8,0:0:0:0:
256,192,52290,1,8,0:0:0:0:
256,192,52381,1,0,0:0:0:0:
256,192,52561,1,8,0:0:0:0:
256,192,52742,1,8,0:0:0:0:
256,192,52923,1,0,0:0:0:0:
256,192,53104,1,8,0:0:0:0:
256,192,53284,1,0,0:0:0:0:
256,192,53375,1,0,0:0:0:0:
256,192,53465,1,0,0:0:0:0:
384,96,53646,1,12,0:0:0:0:
384,96,54007,1,4,0:0:0:0:
384,96,54369,1,12,0:0:0:0:
384,96,54549,1,12,0:0:0:0:
384,96,55272,1,4,0:0:0:0:
256,192,55634,1,8,0:0:0:0:
256,192,55814,1,0,0:0:0:0:
256,192,55995,1,8,0:0:0:0:
256,192,56086,1,8,0:0:0:0:
256,192,56176,1,0,0:0:0:0:
256,192,56357,1,8,0:0:0:0:
256,192,56537,1,0,0:0:0:0:
256,192,56628,1,0,0:0:0:0:
256,192,56718,1,0,0:0:0:0:
256,192,56899,1,8,0:0:0:0:
256,192,56989,1,8,0:0:0:0:
256,192,57079,1,0,0:0:0:0:
256,192,57260,1,8,0:0:0:0:
256,192,57441,1,0,0:0:0:0:
256,192,57622,1,8,0:0:0:0:
256,192,57712,1,8,0:0:0:0:
256,192,57802,1,0,0:0:0:0:
256,192,57893,1,0,0:0:0:0:
256,192,57983,1,8,0:0:0:0:
256,192,58164,1,0,0:0:0:0:
256,192,58525,1,8,0:0:0:0:
256,192,58706,1,0,0:0:0:0:
256,192,58796,1,0,0:0:0:0:
256,192,58887,1,8,0:0:0:0:
256,192,58977,1,8,0:0:0:0:
256,192,59067,1,0,0:0:0:0:
256,192,59248,1,8,0:0:0:0:
256,192,59429,1,8,0:0:0:0:
256,192,59519,1,8,0:0:0:0:
256,192,59610,1,0,0:0:0:0:
256,192,59790,1,0,0:0:0:0:
256,192,59881,1,0,0:0:0:0:
256,192,59971,1,8,0:0:0:0:
256,192,60152,1,8,0:0:0:0:
256,192,60332,1,0,0:0:0:0:
256,192,60513,1,8,0:0:0:0:
256,192,60604,1,8,0:0:0:0:
256,192,60694,1,0,0:0:0:0:
256,192,60875,1,0,0:0:0:0:
384,96,61055,1,12,0:0:0:0:
256,192,61417,1,8,0:0:0:0:
256,192,61598,1,0,0:0:0:0:
256,192,61778,1,8,0:0:0:0:
256,192,61869,1,8,0:0:0:0:
256,192,61959,1,0,0:0:0:0:
256,192,62140,1,8,0:0:0:0:
256,192,62320,1,0,0:0:0:0:
256,192,62411,1,0,0:0:0:0:
256,192,62501,1,0,0:0:0:0:
256,192,62682,1,8,0:0:0:0:
256,192,62772,1,0,0:0:0:0:
256,192,62863,1,8,0:0:0:0:
256,192,63043,1,0,0:0:0:0:
256,192,63224,1,8,0:0:0:0:
256,192,63314,1,0,0:0:0:0:
256,192,63405,1,0,0:0:0:0:
256,192,63495,1,0,0:0:0:0:
256,192,63586,1,8,0:0:0:0:
256,192,63766,1,8,0:0:0:0:
256,192,63947,1,0,0:0:0:0:
256,192,64308,1,8,0:0:0:0:
256,192,64489,1,0,0:0:0:0:
256,192,64579,1,0,0:0:0:0:
256,192,64670,1,8,0:0:0:0:
256,192,64851,1,0,0:0:0:0:
256,192,65031,1,8,0:0:0:0:
256,192,65212,1,8,0:0:0:0:
256,192,65393,1,0,0:0:0:0:
256,192,65573,1,8,0:0:0:0:
256,192,65664,1,8,0:0:0:0:
256,192,65754,1,0,0:0:0:0:
256,192,65935,1,0,0:0:0:0:
256,192,66116,1,8,0:0:0:0:
256,192,66296,1,8,0:0:0:0:
256,192,66387,1,8,0:0:0:0:
256,192,66477,1,0,0:0:0:0:
256,192,66567,1,0,0:0:0:0:
256,192,66658,1,8,0:0:0:0:
384,96,66839,1,4,0:0:0:0:
256,192,67200,1,8,0:0:0:0:
256,192,67561,1,0,0:0:0:0:
256,192,67832,1,8,0:0:0:0:
256,192,67923,1,0,0:0:0:0:
256,192,68104,1,8,0:0:0:0:
256,192,68284,1,0,0:0:0:0:
256,192,68465,1,8,0:0:0:0:
256,192,68555,1,8,0:0:0:0:
256,192,68646,1,8,0:0:0:0:
256,192,68826,1,8,0:0:0:0:
256,192,69007,1,0,0:0:0:0:
256,192,69188,1,8,0:0:0:0:
256,192,69278,1,0,0:0:0:0:
256,192,69369,1,8,0:0:0:0:
256,192,69549,1,8,0:0:0:0:
256,192,69730,1,0,0:0:0:0:
256,192,70092,1,8,0:0:0:0:
256,192,70453,1,0,0:0:0:0:
256,192,70724,1,0,0:0:0:0:
256,192,70814,1,8,0:0:0:0:
256,192,70995,1,8,0:0:0:0:
256,192,71176,1,0,0:0:0:0:
256,192,71357,1,8,0:0:0:0:
256,192,71447,1,8,0:0:0:0:
256,192,71537,1,0,0:0:0:0:
256,192,71718,1,8,0:0:0:0:
256,192,71899,1,0,0:0:0:0:
256,192,71989,1,8,0:0:0:0:
256,192,72079,1,0,0:0:0:0:
256,192,72260,1,8,0:0:0:0:
256,192,72441,1,0,0:0:0:0:
256,192,72622,1,8,0:0:0:0:
256,192,72802,1,8,0:0:0:0:
256,192,72983,1,0,0:0:0:0:
256,192,73345,1,0,0:0:0:0:
256,192,73616,1,0,0:0:0:0:
256,192,73706,1,8,0:0:0:0:
256,192,73887,1,8,0:0:0:0:
256,192,74067,1,0,0:0:0:0:
256,192,74248,1,8,0:0:0:0:
256,192,74339,1,8,0:0:0:0:
256,192,74429,1,0,0:0:0:0:
256,192,74610,1,8,0:0:0:0:
256,192,74700,1,8,0:0:0:0:
256,192,74790,1,8,0:0:0:0:
256,192,74971,1,0,0:0:0:0:
256,192,75152,1,8,0:0:0:0:
256,192,75332,1,8,0:0:0:0:
256,192,75513,1,0,0:0:0:0:
256,192,75694,1,0,0:0:0:0:
256,192,75784,1,0,0:0:0:0:
256,192,75875,1,8,0:0:0:0:
256,192,76055,1,0,0:0:0:0:
256,192,76236,1,8,0:0:0:0:
256,192,76326,1,8,0:0:0:0:
256,192,76417,1,0,0:0:0:0:
256,192,76598,1,8,0:0:0:0:
384,96,76778,1,4,0:0:0:0:
256,192,77140,1,8,0:0:0:0:
256,192,77320,1,0,0:0:0:0:
256,192,77501,1,0,0:0:0:0:
256,192,77592,1,0,0:0:0:0:
256,192,77682,1,8,0:0:0:0:
256,192,77863,1,8,0:0:0:0:
256,192,78043,1,0,0:0:0:0:
384,96,78405,1,12,0:0:0:0:
256,192,78766,1,0,0:0:0:0:
256,192,79128,1,8,0:0:0:0:
256,192,79489,1,8,0:0:0:0:
256,192,79851,1,0,0:0:0:0:
256,192,80212,1,0,0:0:0:0:
256,192,80393,1,0,0:0:0:0:
256,192,80573,1,8,0:0:0:0:
256,192,80935,1,8,0:0:0:0:
256,192,81296,1,0,0:0:0:0:
256,192,81658,1,0,0:0:0:0:
256,192,81839,1,0,0:0:0:0:
256,192,82019,1,8,0:0:0:0:
256,192,82381,1,8,0:0:0:0:
256,192,82742,1,0,0:0:0:0:
256,192,83104,1,0,0:0:0:0:
256,192,83284,1,8,0:0:0:0:
256,192,83465,1,0,0:0:0:0:
256,192,83646,1,0,0:0:0:0:
256,192,83826,1,8,0:0:0:0:
256,192,83917,1,8,0:0:0:0:
256,192,84007,1,8,0:0:0:0:
384,96,84188,1,4,0:0:0:0:
256,192,84549,1,0,0:0:0:0:
256,192,84730,1,8,0:0:0:0:
256,192,84820,1,8,0:0:0:0:
256,192,84911,1,0,0:0:0:0:
256,192,85092,1,0,0:0:0:0:
256,192,85272,1,8,0:0:0:0:
256,192,85453,1,8,0:0:0:0:
256,192,85634,1,0,0:0:0:0:
256,192,85995,1,8,0:0:0:0:
256,192,86086,1,8,0:0:0:0:
256,192,86176,1,8,0:0:0:0:
256,192,86357,1,0,0:0:0:0:
256,192,86537,1,8,0:0:0:0:
256,192,86718,1,0,0:0:0:0:
256,192,86899,1,8,0:0:0:0:
384,96,87079,1,4,0:0:0:0:
256,192,87441,1,8,0:0:0:0:
256,192,87622,1,0,0:0:0:0:
256,192,87712,1,8,0:0:0:0:
256,192,87802,1,0,0:0:0:0:
256,192,87983,1,0,0:0:0:0:
256,192,88164,1,8,0:0:0:0:
256,192,88345,1,8,0:0:0:0:
256,192,88525,1,0,0:0:0:0:
256,192,88796,1,0,0:0:0:0:
256,192,89067,1,0,0:0:0:0:
