osu file format v14

[General]
AudioFilename: audio.ogg
AudioLeadIn: 0
PreviewTime: 54863
Countdown: 0
SampleSet: Normal
StackLeniency: 0.7
Mode: 1
LetterboxInBreaks: 0
WidescreenStoryboard: 1

[Editor]
Bookmarks: 14787,17679,29245,40814,46598,78405
DistanceSpacing: 0.3
BeatDivisor: 4
GridSize: 32
TimelineZoom: 0.6999999

[Metadata]
Title:Idol (TV Size)
TitleUnicode:アイドル (TV Size)
Artist:YOASOBI
ArtistUnicode:YOASOBI
Creator:BlackBN
Version:Futsuu
Source:【推しの子】
Tags:BlackBq jpop j-pop pop anime japanese opening op 【Oshi No Ko】 [Oshi no Ko] My Favorite Idol Their Idol's Children 星野アイ Hoshino Ai 高橋李依 Takahashi Rie 幾田りら Ikuta Rira Lilas Ikura Ayase Aidoru my star
BeatmapID:4103583
BeatmapSetID:1976837

[Difficulty]
HPDrainRate:7
CircleSize:2
OverallDifficulty:4
ApproachRate:10
SliderMultiplier:1.4
SliderTickRate:1

[Events]
//Background and Video events
0,0,"bg.jpg",0,-42
Video,-275,"idol.mp4"
//Break Periods
//Storyboard Layer 0 (Background)
//Storyboard Layer 1 (Fail)
//Storyboard Layer 2 (Pass)
//Storyboard Layer 3 (Foreground)
//Storyboard Layer 4 (Overlay)
//Storyboard Sound Samples

[TimingPoints]
333,361.44578313253,4,1,0,80,1,0
14700,-100,4,1,0,75,0,0
17592,-100,4,1,0,80,0,0
40724,-100,4,1,0,70,0,0
46507,-100,4,1,0,80,0,0
54820,-100,4,1,0,40,0,0
55182,-100,4,1,0,85,0,0
55272,-100,4,1,0,85,0,1
66793,-100,4,1,0,80,0,1
66839,-100,4,1,0,80,0,0
78314,-100,4,1,0,75,0,0
84098,-100,4,1,0,80,0,0
88435,-100,4,1,0,75,0,0

[HitObjects]
384,96,333,5,12,0:0:0:0:
256,192,694,1,0,0:0:0:0:
256,192,1055,1,0,0:0:0:0:
256,192,1236,1,0,0:0:0:0:
256,192,1417,1,8,0:0:0:0:
256,192,1778,1,0,0:0:0:0:
384,96,2140,1,12,0:0:0:0:
384,96,3224,1,12,0:0:0:0:
256,192,3586,1,0,0:0:0:0:
256,192,3947,1,8,0:0:0:0:
256,192,4128,1,8,0:0:0:0:
256,192,4308,1,0,0:0:0:0:
256,192,4670,1,8,0:0:0:0:
384,96,5031,1,4,0:0:0:0:
384,96,6116,1,4,0:0:0:0:
256,192,6477,1,8,0:0:0:0:
256,192,6839,1,8,0:0:0:0:
256,192,7019,1,0,0:0:0:0:
256,192,7200,1,8,0:0:0:0:
256,192,7561,1,0,0:0:0:0:
384,96,7923,1,12,0:0:0:0:
384,96,9007,1,12,0:0:0:0:
256,192,9369,1,0,0:0:0:0:
256,192,9730,1,0,0:0:0:0:
256,192,9911,1,8,0:0:0:0:
256,192,10092,1,0,0:0:0:0:
256,192,10453,1,8,0:0:0:0:
384,96,10814,1,4,0:0:0:0:
384,96,11899,1,4,0:0:0:0:
384,96,12622,1,4,0:0:0:0:
384,96,13164,1,12,0:0:0:0:
384,96,13525,1,12,0:0:0:0:
384,96,13887,1,4,0:0:0:0:
384,96,14067,1,4,0:0:0:0:
384,96,14790,1,4,0:0:0:0:
256,192,15513,1,8,0:0:0:0:
256,192,15875,1,8,0:0:0:0:
256,192,16236,1,0,0:0:0:0:
256,192,16959,1,8,0:0:0:0:
384,96,17682,1,4,0:0:0:0:
256,192,18043,1,8,0:0:0:0:
256,192,18224,1,8,0:0:0:0:
256,192,18405,1,0,0:0:0:0:
256,192,18766,1,8,0:0:0:0:
256,192,19128,1,8,0:0:0:0:
256,192,19308,1,8,0:0:0:0:
256,192,19489,1,0,0:0:0:0:
256,192,19670,1,0,0:0:0:0:
256,192,19851,1,8,0:0:0:0:
256,192,20573,1,0,0:0:0:0:
256,192,20935,1,8,0:0:0:0:
256,192,21296,1,0,0:0:0:0:
256,192,21477,1,8,0:0:0:0:
256,192,21658,1,0,0:0:0:0:
256,192,22019,1,0,0:0:0:0:
256,192,22200,1,0,0:0:0:0:
256,192,22381,1,8,0:0:0:0:
256,192,22561,1,8,0:0:0:0:
256,192,22742,1,0,0:0:0:0:
384,96,23465,1,4,0:0:0:0:
256,192,23826,1,0,0:0:0:0:
256,192,24007,1,0,0:0:0:0:
256,192,24188,1,8,0:0:0:0:
256,192,24549,1,0,0:0:0:0:
256,192,24911,1,8,0:0:0:0:
256,192,25092,1,0,0:0:0:0:
256,192,25272,1,8,0:0:0:0:
256,192,25453,1,8,0:0:0:0:
256,192,25634,1,0,0:0:0:0:
256,192,26357,1,0,0:0:0:0:
256,192,26718,1,8,0:0:0:0:
256,192,27079,1,0,0:0:0:0:
256,192,27260,1,0,0:0:0:0:
256,192,27441,1,8,0:0:0:0:
256,192,27802,1,8,0:0:0:0:
256,192,27983,1,8,0:0:0:0:
256,192,28164,1,0,0:0:0:0:
256,192,28345,1,8,0:0:0:0:
256,192,28525,1,0,0:0:0:0:
384,96,29248,1,12,0:0:0:0:
256,192,29519,1,8,0:0:0:0:
256,192,29790,1,8,0:0:0:0:
256,192,30332,1,8,0:0:0:0:
256,192,30694,1,0,0:0:0:0:
256,192,30965,1,0,0:0:0:0:
256,192,31236,1,8,0:0:0:0:
256,192,31778,1,8,0:0:0:0:
256,192,32140,1,0,0:0:0:0:
256,192,32863,1,0,0:0:0:0:
256,192,33586,1,0,0:0:0:0:
256,192,33947,1,0,0:0:0:0:
256,192,34128,1,8,0:0:0:0:
256,192,34308,1,0,0:0:0:0:
256,192,34670,1,8,0:0:0:0:
384,96,35031,1,12,0:0:0:0:
256,192,35302,1,8,0:0:0:0:
256,192,35573,1,8,0:0:0:0:
256,192,36116,1,0,0:0:0:0:
256,192,36477,1,8,0:0:0:0:
256,192,36748,1,8,0:0:0:0:
256,192,37019,1,8,0:0:0:0:
256,192,37561,1,8,0:0:0:0:
256,192,37923,1,0,0:0:0:0:
256,192,38646,1,0,0:0:0:0:
256,192,39007,1,0,0:0:0:0:
256,192,39188,1,8,0:0:0:0:
256,192,39730,1,8,0:0:0:0:
256,192,39911,1,8,0:0:0:0:
256,192,40092,1,0,0:0:0:0:
256,192,40814,1,0,0:0:0:0:
256,192,41357,1,0,0:0:0:0:
256,192,41537,1,0,0:0:0:0:
256,192,42079,1,0,0:0:0:0:
256,192,42441,1,0,0:0:0:0:
256,192,42802,1,0,0:0:0:0:
256,192,42983,1,0,0:0:0:0:
256,192,43706,1,0,0:0:0:0:
256,192,44248,1,0,0:0:0:0:
256,192,44429,1,0,0:0:0:0:
256,192,45152,1,0,0:0:0:0:
256,192,45513,1,0,0:0:0:0:
256,192,45875,1,0,0:0:0:0:
256,192,46055,1,0,0:0:0:0:
256,192,46236,1,8,0:0:0:0:
384,96,46598,1,4,0:0:0:0:
256,192,46959,1,8,0:0:0:0:
256,192,47140,1,8,0:0:0:0:
256,192,47501,1,0,0:0:0:0:
256,192,47682,1,8,0:0:0:0:
256,192,48043,1,0,0:0:0:0:
256,192,48405,1,0,0:0:0:0:
256,192,48586,1,8,0:0:0:0:
256,192,48766,1,0,0:0:0:0:
384,96,49489,1,12,0:0:0:0:
256,192,49851,1,8,0:0:0:0:
256,192,50212,1,0,0:0:0:0:
256,192,50483,1,8,0:0:0:0:
256,192,50754,1,8,0:0:0:0:
256,192,51296,1,0,0:0:0:0:
256,192,51658,1,0,0:0:0:0:
256,192,52019,1,8,0:0:0:0:
256,192,52200,1,8,0:0:0:0:
256,192,52381,1,0,0:0:0:0:
256,192,52923,1,8,0:0:0:0:
256,192,53104,1,8,0:0:0:0:
384,96,53646,1,12,0:0:0:0:
384,96,54007,1,4,0:0:0:0:
384,96,54369,1,12,0:0:0:0:
384,96,54549,1,12,0:0:0:0:
384,96,55272,1,4,0:0:0:0:
256,192,55634,1,8,0:0:0:0:
256,192,55995,1,8,0:0:0:0:
256,192,56176,1,8,0:0:0:0:
256,192,56357,1,0,0:0:0:0:
256,192,56537,1,8,0:0:0:0:
256,192,56899,1,8,0:0:0:0:
256,192,57079,1,0,0:0:0:0:
256,192,57441,1,8,0:0:0:0:
256,192,58164,1,0,0:0:0:0:
256,192,58525,1,8,0:0:0:0:
256,192,58706,1,0,0:0:0:0:
256,192,58887,1,8,0:0:0:0:
256,192,59248,1,8,0:0:0:0:
256,192,59429,1,0,0:0:0:0:
256,192,59790,1,0,0:0:0:0:
256,192,59971,1,8,0:0:0:0:
256,192,60332,1,8,0:0:0:0:
384,96,61055,1,12,0:0:0:0:
256,192,61417,1,8,0:0:0:0:
256,192,61778,1,0,0:0:0:0:
256,192,61959,1,0,0:0:0:0:
256,192,62140,1,8,0:0:0:0:
256,192,62320,1,0,0:0:0:0:
256,192,62682,1,0,0:0:0:0:
256,192,62863,1,8,0:0:0:0:
256,192,63224,1,0,0:0:0:0:
256,192,63947,1,0,0:0:0:0:
256,192,64308,1,8,0:0:0:0:
256,192,64489,1,8,0:0:0:0:
256,192,64670,1,0,0:0:0:0:
256,192,65031,1,0,0:0:0:0:
256,192,65212,1,8,0:0:0:0:
256,192,65573,1,0,0:0:0:0:
256,192,65935,1,8,0:0:0:0:
256,192,66116,1,8,0:0:0:0:
384,96,66839,1,4,0:0:0:0:
256,192,67200,1,8,0:0:0:0:
256,192,67561,1,0,0:0:0:0:
256,192,67923,1,8,0:0:0:0:
256,192,68104,1,8,0:0:0:0:
256,192,68284,1,0,0:0:0:0:
256,192,68465,1,0,0:0:0:0:
256,192,68646,1,8,0:0:0:0:
256,192,69007,1,0,0:0:0:0:
256,192,69730,1,0,0:0:0:0:
256,192,70092,1,8,0:0:0:0:
256,192,70453,1,0,0:0:0:0:
256,192,70814,1,8,0:0:0:0:
256,192,71176,1,8,0:0:0:0:
256,192,71357,1,8,0:0:0:0:
256,192,71537,1,0,0:0:0:0:
256,192,71899,1,0,0:0:0:0:
256,192,72260,1,8,0:0:0:0:
256,192,72441,1,0,0:0:0:0:
256,192,72622,1,8,0:0:0:0:
256,192,72802,1,8,0:0:0:0:
256,192,72983,1,0,0:0:0:0:
256,192,73345,1,0,0:0:0:0:
256,192,74067,1,0,0:0:0:0:
256,192,74429,1,8,0:0:0:0:
256,192,74610,1,0,0:0:0:0:
256,192,74790,1,8,0:0:0:0:
256,192,75152,1,8,0:0:0:0:
256,192,75513,1,0,0:0:0:0:
256,192,75875,1,8,0:0:0:0:
256,192,76236,1,0,0:0:0:0:
384,96,76778,1,4,0:0:0:0:
256,192,77140,1,8,0:0:0:0:
256,192,77501,1,8,0:0:0:0:
256,192,77682,1,8,0:0:0:0:
384,96,78405,1,12,0:0:0:0:
256,192,79128,1,8,0:0:0:0:
256,192,79489,1,8,0:0:0:0:
256,192,79851,1,0,0:0:0:0:
256,192,80573,1,8,0:0:0:0:
256,192,80935,1,8,0:0:0:0:
256,192,81296,1,0,0:0:0:0:
256,192,82019,1,8,0:0:0:0:
256,192,82381,1,8,0:0:0:0:
256,192,82742,1,0,0:0:0:0:
256,192,83104,1,0,0:0:0:0:
256,192,83465,1,8,0:0:0:0:
384,96,84188,1,4,0:0:0:0:
256,192,84911,1,0,0:0:0:0:
256,192,85272,1,8,0:0:0:0:
256,192,85634,1,0,0:0:0:0:
256,192,85995,1,8,0:0:0:0:
256,192,86357,1,0,0:0:0:0:
256,192,86537,1,0,0:0:0:0:
256,192,86718,1,8,0:0:0:0:
384,96,87079,1,4,0:0:0:0:
256,192,87802,1,0,0:0:0:0:
256,192,88164,1,8,0:0:0:0:
256,192,88525,1,0,0:0:0:0:
256,192,88796,1,0,0:0:0:0:
256,192,89067,1,0,0:0:0:0:
