osu file format v14

[General]
AudioFilename: audio.mp3
AudioLeadIn: 0
PreviewTime: 72747
Countdown: 0
SampleSet: Soft
StackLeniency: 0.7
Mode: 3
LetterboxInBreaks: 0
SpecialStyle: 0
WidescreenStoryboard: 0

[Editor]
DistanceSpacing: 0.7
BeatDivisor: 8
GridSize: 32
TimelineZoom: 1.9

[Metadata]
Title:Haruka
TitleUnicode:ハルカ
Artist:YOASOBI
ArtistUnicode:YOASOBI
Creator:deta5859
Version:Kimi no Egao
Source:
Tags:Dudehacker Drum-Hitnormal Faputa ML-ysg Ayase ikura 伊豆見 香苗 Izumi Kanae いしいめぐみ Ishii Megumi フナカワ Funakawa 鈴木おさむ Suzuki osamu 月王子 TOKYO FM JUMP UP MELODIES Top 20 THE BOOK EP 1 Japanese pop J-pop jpop
BeatmapID:2749011
BeatmapSetID:1326928

[Difficulty]
HPDrainRate:8.3
CircleSize:4
OverallDifficulty:7.3
ApproachRate:5
SliderMultiplier:1.4
SliderTickRate:1

[Events]
//Background and Video events
0,0,"82065627_p0.jpg",0,0
//Break Periods
//Storyboard Layer 0 (Background)
//Storyboard Layer 1 (Fail)
//Storyboard Layer 2 (Pass)
//Storyboard Layer 3 (Foreground)
//Storyboard Layer 4 (Overlay)
//Storyboard Sound Samples

[TimingPoints]
147,600,4,2,1,50,1,0

[HitObjects]
64,192,147,128,0,1347:0:0:0:40:LR_NBell_D6.wav
448,192,147,1,0,0:0:0:0:
320,192,297,1,0,0:0:0:40:LR_NBell_E6.wav
192,192,447,1,0,0:0:0:40:LR_NBell_F#6.wav
448,192,597,1,0,0:0:0:40:LR_NBell_A6.wav
320,192,897,1,0,0:0:0:40:LR_NBell_D6.wav
192,192,1197,1,0,0:0:0:40:LR_NBell_E6.wav
320,192,1347,1,0,0:0:0:0:
448,192,1347,128,0,2547:0:0:0:0:
192,192,1497,1,0,0:0:0:40:LR_NBell_D6.wav
64,192,1647,1,0,0:0:0:40:LR_NBell_E6.wav
320,192,1947,1,0,0:0:0:40:LR_NBell_F#6.wav
64,192,2247,1,0,0:0:0:40:LR_NBell_B5.wav
64,192,2547,128,0,3747:0:0:0:40:LR_NBell_D6.wav
192,192,2547,1,0,0:0:0:0:
320,192,2697,1,0,0:0:0:40:LR_NBell_E6.wav
448,192,2847,1,0,0:0:0:40:LR_NBell_F#6.wav
192,192,2997,1,0,0:0:0:40:LR_NBell_A6.wav
448,192,3297,1,0,0:0:0:40:LR_NBell_D6.wav
320,192,3597,1,0,0:0:0:40:LR_NBell_B6.wav
192,192,3747,1,0,0:0:0:0:
448,192,3747,128,0,4347:0:0:0:0:
64,192,3897,1,0,0:0:0:40:LR_NBell_A6.wav
320,192,4047,1,0,0:0:0:40:LR_NBell_F#6.wav
64,192,4347,128,2,4647:0:0:0:0:
192,192,4347,1,0,0:0:0:0:
320,192,4347,1,0,0:0:0:0:
448,192,4497,128,0,4647:0:0:0:0:
192,192,4647,128,2,4947:0:0:0:0:
320,192,4647,1,0,0:0:0:0:
64,192,4947,1,2,0:0:0:0:
448,192,4947,128,4,5097:0:0:0:0:
320,192,5097,128,0,5247:0:0:0:0:
192,192,5247,128,0,5397:0:0:0:0:
64,192,5397,128,0,5547:0:0:0:0:
192,192,5547,1,0,0:0:0:40:Clap.wav
320,192,5547,1,0,0:0:0:0:
448,192,5547,1,0,0:0:0:0:
64,192,5697,128,0,5847:0:0:0:0:
192,192,5847,1,0,0:0:0:0:
320,192,5997,128,0,6147:0:0:0:0:
192,192,6147,1,0,0:0:0:0:
448,192,6147,1,0,0:0:0:0:
64,192,6297,128,0,6447:0:0:0:0:
320,192,6447,128,2,6597:0:0:0:0:
448,192,6447,1,0,0:0:0:0:
192,192,6597,1,0,0:0:0:0:
64,192,6747,1,0,0:0:0:40:Clap.wav
320,192,6747,1,0,0:0:0:0:
448,192,6747,128,0,6897:0:0:0:0:
192,192,6897,1,0,0:0:0:0:
64,192,7047,128,0,7197:0:0:0:0:
320,192,7197,1,0,0:0:0:0:
192,192,7347,1,2,0:0:0:0:
448,192,7347,128,0,7497:0:0:0:0:
320,192,7497,128,0,7647:0:0:0:0:
192,192,7647,128,0,7797:0:0:0:0:
64,192,7797,128,0,7947:0:0:0:0:
192,192,7947,1,0,0:0:0:40:Clap.wav
320,192,7947,1,0,0:0:0:0:
448,192,7947,1,0,0:0:0:0:
64,192,8097,128,0,8247:0:0:0:0:
320,192,8247,1,0,0:0:0:0:
448,192,8397,128,0,8547:0:0:0:0:
64,192,8547,1,0,0:0:0:0:
192,192,8547,1,0,0:0:0:0:
320,192,8697,128,0,8847:0:0:0:0:
192,192,8847,128,2,8997:0:0:0:0:
448,192,8847,1,0,0:0:0:0:
64,192,8997,1,0,0:0:0:0:
192,192,9147,1,0,0:0:0:40:Clap.wav
320,192,9147,1,0,0:0:0:0:
448,192,9147,128,0,9297:0:0:0:0:
64,192,9297,1,0,0:0:0:0:
320,192,9447,128,0,9597:0:0:0:0:
192,192,9597,1,0,0:0:0:0:
64,192,9747,128,2,9897:0:0:0:0:
448,192,9747,1,0,0:0:0:0:
192,192,9897,128,0,10047:0:0:0:0:
320,192,10047,128,0,10197:0:0:0:0:
448,192,10197,128,0,10347:0:0:0:0:
64,192,10347,1,0,0:0:0:40:Clap.wav
192,192,10347,1,0,0:0:0:0:
320,192,10347,1,0,0:0:0:0:
448,192,10497,128,0,10647:0:0:0:0:
320,192,10647,1,0,0:0:0:0:
192,192,10797,128,0,10947:0:0:0:0:
320,192,10947,1,0,0:0:0:0:
448,192,10947,1,0,0:0:0:0:
64,192,11097,128,0,11247:0:0:0:0:
192,192,11247,128,2,11397:0:0:0:0:
320,192,11247,1,0,0:0:0:0:
448,192,11397,1,0,0:0:0:0:
64,192,11547,1,0,0:0:0:40:Clap.wav
192,192,11547,1,0,0:0:0:0:
320,192,11547,128,0,11697:0:0:0:0:
448,192,11697,1,0,0:0:0:0:
64,192,11847,128,0,11997:0:0:0:0:
192,192,11997,1,0,0:0:0:0:
320,192,12147,1,2,0:0:0:0:
448,192,12147,128,0,12297:0:0:0:0:
64,192,12297,1,0,0:0:0:0:
192,192,12447,128,0,12597:0:0:0:0:
320,192,12597,128,0,12747:0:0:0:0:
64,192,12747,1,0,0:0:0:40:Clap.wav
192,192,12747,1,0,0:0:0:0:
448,192,12747,1,0,0:0:0:0:
448,192,12897,128,0,13047:0:0:0:0:
192,192,13047,1,0,0:0:0:0:
448,192,13197,128,0,13347:0:0:0:0:
64,192,13347,1,0,0:0:0:0:
192,192,13347,1,0,0:0:0:0:
320,192,13497,128,0,13647:0:0:0:0:
64,192,13647,1,2,0:0:0:0:
192,192,13647,128,0,13797:0:0:0:0:
64,192,13947,1,0,0:0:0:40:Clap.wav
320,192,13947,1,0,0:0:0:0:
448,192,13947,128,0,14097:0:0:0:0:
192,192,14097,1,0,0:0:0:0:
320,192,14247,1,0,0:0:0:0:
64,192,14397,128,0,14547:0:0:0:0:
192,192,14547,128,4,14847:0:0:0:0:
448,192,14547,1,2,0:0:0:0:
320,192,14847,128,0,14997:0:0:0:0:
448,192,14997,128,0,15147:0:0:0:0:
64,192,15147,1,0,0:0:0:40:Clap.wav
192,192,15147,1,0,0:0:0:0:
320,192,15147,1,0,0:0:0:0:
448,192,15297,128,0,15597:0:0:0:0:
64,192,15447,1,0,0:0:0:0:
192,192,15597,128,0,16047:0:0:0:0:
320,192,15747,1,0,0:0:0:0:
448,192,15747,1,0,0:0:0:0:
64,192,15897,1,0,0:0:0:0:
320,192,16047,128,2,16347:0:0:0:0:
448,192,16047,1,0,0:0:0:0:
64,192,16197,1,0,0:0:0:0:
64,192,16347,1,0,0:0:0:40:Clap.wav
192,192,16347,1,0,0:0:0:0:
448,192,16347,1,0,0:0:0:0:
320,192,16497,1,0,0:0:0:0:
192,192,16647,1,0,0:0:0:0:
448,192,16797,128,0,16947:0:0:0:0:
64,192,16947,128,2,17247:0:0:0:0:
320,192,16947,1,0,0:0:0:0:
192,192,17097,1,0,0:0:0:0:
320,192,17247,128,0,17397:0:0:0:0:
448,192,17397,128,0,17697:0:0:0:0:
64,192,17547,1,0,0:0:0:40:Clap.wav
192,192,17547,1,0,0:0:0:0:
320,192,17547,1,0,0:0:0:0:
192,192,17697,128,0,17847:0:0:0:0:
320,192,17847,1,0,0:0:0:0:
64,192,17997,128,0,18297:0:0:0:0:
192,192,18147,1,0,0:0:0:0:
320,192,18147,1,0,0:0:0:0:
448,192,18297,1,0,0:0:0:0:
192,192,18447,1,2,0:0:0:0:
320,192,18447,128,0,18747:0:0:0:0:
64,192,18597,1,0,0:0:0:0:
64,192,18747,1,0,0:0:0:40:Clap.wav
192,192,18747,1,0,0:0:0:0:
448,192,18747,1,0,0:0:0:0:
320,192,18897,1,0,0:0:0:0:
192,192,19047,1,0,0:0:0:0:
448,192,19197,128,0,19347:0:0:0:0:
64,192,19347,128,2,19647:0:0:0:0:
192,192,19347,1,0,0:0:0:0:
320,192,19497,1,0,0:0:0:0:
448,192,19647,128,0,19797:0:0:0:0:
192,192,19797,128,0,19947:0:0:0:0:
64,192,19947,1,0,0:0:0:40:Clap.wav
320,192,19947,1,0,0:0:0:0:
448,192,19947,1,0,0:0:0:0:
192,192,20097,128,0,20397:0:0:0:0:
320,192,20247,1,0,0:0:0:0:
64,192,20397,128,0,20847:0:0:0:0:
320,192,20547,1,0,0:0:0:0:
448,192,20547,1,0,0:0:0:0:
192,192,20697,1,0,0:0:0:0:
320,192,20847,1,2,0:0:0:0:
448,192,20847,128,0,21147:0:0:0:0:
64,192,20997,1,0,0:0:0:0:
64,192,21147,1,0,0:0:0:40:Clap.wav
192,192,21147,1,0,0:0:0:0:
320,192,21147,1,0,0:0:0:0:
448,192,21297,1,0,0:0:0:0:
320,192,21447,128,0,21747:0:0:0:0:
64,192,21597,1,0,0:0:0:0:
192,192,21747,128,2,22047:0:0:0:0:
448,192,21747,1,0,0:0:0:0:
320,192,21897,1,0,0:0:0:0:
64,192,22047,128,0,22197:0:0:0:0:
448,192,22197,128,0,22347:0:0:0:0:
64,192,22347,1,0,0:0:0:40:Clap.wav
192,192,22347,1,0,0:0:0:0:
320,192,22347,1,0,0:0:0:0:
448,192,22497,128,0,22797:0:0:0:0:
320,192,22647,1,0,0:0:0:0:
192,192,22797,128,0,23247:0:0:0:0:
64,192,22947,1,0,0:0:0:0:
448,192,22947,1,0,0:0:0:0:
320,192,23097,1,0,0:0:0:0:
64,192,23247,1,2,0:0:0:0:
448,192,23247,128,0,23397:0:0:0:0:
320,192,23397,128,0,23547:0:0:0:0:
64,192,23547,1,0,0:0:0:40:Clap.wav
192,192,23547,1,0,0:0:0:0:
448,192,23547,1,0,0:0:0:0:
320,192,23697,1,0,0:0:0:0:
192,192,23847,1,0,0:0:0:0:
448,192,23997,128,0,24147:0:0:0:0:
64,192,24147,128,2,24447:0:0:0:0:
320,192,24147,1,0,0:0:0:0:
192,192,24297,1,0,0:0:0:0:
320,192,24447,128,0,24597:0:0:0:0:
192,192,24597,128,0,24747:0:0:0:0:
64,192,24747,1,0,0:0:0:40:Clap.wav
320,192,24747,1,0,0:0:0:0:
448,192,24747,128,0,24897:0:0:0:0:
64,192,24897,128,0,25047:0:0:0:0:
320,192,25047,1,0,0:0:0:0:
192,192,25197,128,0,25497:0:0:0:0:
64,192,25347,1,0,0:0:0:0:
320,192,25347,1,0,0:0:0:0:
448,192,25497,128,0,25647:0:0:0:0:
64,192,25647,128,2,25947:0:0:0:0:
320,192,25647,1,0,0:0:0:0:
448,192,25797,1,0,0:0:0:0:
192,192,25947,1,0,0:0:0:40:Clap.wav
320,192,25947,1,0,0:0:0:0:
448,192,25947,1,0,0:0:0:0:
64,192,26097,1,0,0:0:0:0:
192,192,26247,1,0,0:0:0:0:
320,192,26397,128,0,26547:0:0:0:0:
192,192,26547,128,2,26847:0:0:0:0:
448,192,26547,1,0,0:0:0:0:
64,192,26697,1,0,0:0:0:0:
320,192,26847,128,0,26997:0:0:0:0:
64,192,26997,128,0,27147:0:0:0:0:
192,192,27147,1,0,0:0:0:40:Clap.wav
320,192,27147,1,0,0:0:0:0:
448,192,27147,128,0,27297:0:0:0:0:
192,192,27297,128,0,27447:0:0:0:0:
320,192,27447,1,0,0:0:0:0:
448,192,27597,128,0,27897:0:0:0:0:
64,192,27747,1,0,0:0:0:0:
192,192,27747,1,0,0:0:0:0:
320,192,27897,128,0,28047:0:0:0:0:
64,192,28047,1,2,0:0:0:0:
192,192,28047,128,0,28347:0:0:0:0:
448,192,28197,1,0,0:0:0:0:
64,192,28347,1,0,0:0:0:40:Clap.wav
320,192,28347,1,0,0:0:0:0:
448,192,28347,1,0,0:0:0:0:
192,192,28497,1,0,0:0:0:0:
64,192,28647,1,0,0:0:0:0:
320,192,28797,128,0,28947:0:0:0:0:
192,192,28947,128,2,29247:0:0:0:0:
448,192,28947,1,0,0:0:0:0:
64,192,29097,1,0,0:0:0:0:
448,192,29247,128,0,29397:0:0:0:0:
320,192,29397,128,0,29547:0:0:0:0:
64,192,29547,1,0,0:0:0:40:Clap.wav
192,192,29547,1,0,0:0:0:0:
448,192,29547,1,0,0:0:0:0:
320,192,29697,128,0,29847:0:0:0:0:
192,192,29847,1,0,0:0:0:0:
64,192,29997,128,0,30447:0:0:0:0:
320,192,30147,1,0,0:0:0:0:
448,192,30147,1,0,0:0:0:0:
192,192,30297,1,0,0:0:0:0:
320,192,30447,1,2,0:0:0:0:
448,192,30447,128,0,30747:0:0:0:0:
64,192,30597,1,0,0:0:0:0:
64,192,30747,1,0,0:0:0:40:Clap.wav
192,192,30747,1,0,0:0:0:0:
320,192,30747,128,0,31047:0:0:0:0:
448,192,30897,1,0,0:0:0:0:
192,192,31047,128,0,31197:0:0:0:0:
320,192,31197,1,0,0:0:0:0:
64,192,31347,1,2,0:0:0:0:
448,192,31347,128,0,31647:0:0:0:0:
192,192,31497,1,0,0:0:0:0:
64,192,31647,128,0,31797:0:0:0:0:
320,192,31797,128,0,32097:0:0:0:0:
64,192,31947,1,0,0:0:0:40:Clap.wav
192,192,31947,1,0,0:0:0:0:
448,192,31947,1,0,0:0:0:0:
192,192,32097,128,0,32247:0:0:0:0:
448,192,32247,128,0,32547:0:0:0:0:
320,192,32397,1,0,0:0:0:0:
64,192,32547,1,0,0:0:0:0:
192,192,32547,1,0,0:0:0:0:
320,192,32697,1,0,0:0:0:0:
64,192,32847,1,2,0:0:0:0:
448,192,32847,1,0,0:0:0:0:
192,192,32997,1,0,0:0:0:0:
448,192,33147,128,0,33297:0:0:0:0:
320,192,33297,128,0,33447:0:0:0:0:
192,192,33447,128,0,33597:0:0:0:0:
64,192,33597,128,0,33747:0:0:0:0:
320,192,33747,128,4,33972:0:0:0:0:
448,192,33747,128,2,33972:0:0:0:0:
192,192,33897,1,0,0:0:0:0:
64,192,34047,128,2,34197:0:0:0:0:
320,192,34047,128,0,34272:0:0:0:0:
448,192,34047,128,0,34272:0:0:0:0:
192,192,34197,128,0,34347:0:0:0:0:
64,192,34347,1,0,0:0:0:40:Clap.wav
320,192,34347,128,0,34497:0:0:0:0:
448,192,34347,1,0,0:0:0:0:
192,192,34497,1,0,0:0:0:0:
64,192,34647,128,0,34797:0:0:0:0:
192,192,34797,128,0,34947:0:0:0:0:
320,192,34947,128,0,35097:0:0:0:0:
448,192,35097,1,0,0:0:0:0:
64,192,35247,128,2,35397:0:0:0:0:
192,192,35247,128,0,35397:0:0:0:0:
448,192,35397,1,0,0:0:0:0:
64,192,35547,1,0,0:0:0:40:Clap.wav
192,192,35547,1,0,0:0:0:0:
320,192,35547,128,0,35697:0:0:0:0:
64,192,35697,128,2,36147:0:0:0:0:
192,192,35697,128,0,36147:0:0:0:0:
448,192,35847,128,0,35997:0:0:0:0:
320,192,36147,128,2,36372:0:0:0:0:
448,192,36147,128,0,36372:0:0:0:0:
64,192,36447,128,2,36597:0:0:0:0:
320,192,36447,128,0,36672:0:0:0:0:
448,192,36447,128,0,36672:0:0:0:0:
192,192,36597,128,0,36747:0:0:0:0:
64,192,36747,128,0,36897:0:0:0:40:Clap.wav
320,192,36747,1,0,0:0:0:0:
448,192,36747,1,0,0:0:0:0:
448,192,37047,128,0,37197:0:0:0:0:
320,192,37197,128,0,37347:0:0:0:0:
448,192,37347,128,0,37497:0:0:0:0:
64,192,37497,1,0,0:0:0:0:
192,192,37647,128,2,37797:0:0:0:0:
320,192,37647,128,0,37797:0:0:0:0:
448,192,37797,1,0,0:0:0:0:
64,192,37947,128,0,38097:0:0:0:40:Clap.wav
192,192,37947,1,0,0:0:0:0:
320,192,37947,1,0,0:0:0:0:
192,192,38097,128,2,38547:0:0:0:0:
320,192,38097,128,0,38547:0:0:0:0:
448,192,38247,128,0,38397:0:0:0:0:
64,192,38547,128,2,38772:0:0:0:0:
448,192,38547,128,0,38772:0:0:0:0:
320,192,38697,1,0,0:0:0:0:
64,192,38847,128,2,39072:0:0:0:0:
192,192,38847,128,0,38997:0:0:0:0:
448,192,38847,128,0,39072:0:0:0:0:
320,192,38997,128,0,39147:0:0:0:0:
64,192,39147,1,0,0:0:0:40:Clap.wav
192,192,39147,128,0,39297:0:0:0:0:
448,192,39297,1,0,0:0:0:0:
192,192,39447,128,0,39597:0:0:0:0:
320,192,39597,128,0,39747:0:0:0:0:
64,192,39747,128,2,39972:0:0:0:0:
192,192,39747,128,0,39972:0:0:0:0:
448,192,39747,128,0,39897:0:0:0:0:
64,192,40047,128,2,40272:0:0:0:0:
192,192,40047,128,0,40272:0:0:0:0:
320,192,40047,128,0,40197:0:0:0:0:
448,192,40197,1,0,0:0:0:0:
64,192,40347,1,0,0:0:0:40:Clap.wav
192,192,40347,1,0,0:0:0:0:
320,192,40347,128,0,40497:0:0:0:0:
448,192,40497,1,0,0:0:0:0:
192,192,40647,128,0,40797:0:0:0:0:
448,192,40797,1,0,0:0:0:0:
320,192,40947,1,0,0:0:0:0:
64,192,41097,1,0,0:0:0:0:
192,192,41247,1,2,0:0:0:0:
320,192,41247,128,0,41397:0:0:0:0:
448,192,41247,128,0,41397:0:0:0:0:
64,192,41397,128,0,41547:0:0:0:0:
192,192,41547,128,0,41697:0:0:0:40:Clap.wav
320,192,41547,1,0,0:0:0:0:
448,192,41547,1,0,0:0:0:0:
320,192,41697,128,2,42072:0:0:0:0:
448,192,41697,128,0,42072:0:0:0:0:
64,192,41847,128,0,41997:0:0:0:0:
192,192,41997,128,0,42147:0:0:0:0:
64,192,42147,128,2,42372:0:0:0:0:
448,192,42147,128,0,42372:0:0:0:0:
320,192,42297,1,0,0:0:0:0:
64,192,42447,128,2,42672:0:0:0:0:
448,192,42447,128,0,42672:0:0:0:0:
192,192,42597,1,0,0:0:0:0:
64,192,42747,1,0,0:0:0:40:Clap.wav
320,192,42747,1,0,0:0:0:0:
448,192,42747,1,0,0:0:0:0:
192,192,42897,128,2,43347:0:0:0:0:
448,192,42897,128,0,43047:0:0:0:0:
320,192,43047,128,0,43197:0:0:0:0:
64,192,43197,128,0,43347:0:0:0:0:
320,192,43347,128,2,43572:0:0:0:0:
448,192,43347,128,0,43572:0:0:0:0:
64,192,43647,128,2,43797:0:0:0:0:
320,192,43647,128,0,43872:0:0:0:0:
448,192,43647,128,0,43872:0:0:0:0:
192,192,43797,128,0,43947:0:0:0:0:
64,192,43947,1,0,0:0:0:40:Clap.wav
320,192,43947,128,0,44097:0:0:0:0:
448,192,43947,1,0,0:0:0:0:
192,192,44097,1,0,0:0:0:0:
64,192,44247,128,0,44397:0:0:0:0:
192,192,44397,128,0,44547:0:0:0:0:
320,192,44547,128,0,44697:0:0:0:0:
448,192,44697,1,0,0:0:0:0:
64,192,44847,128,2,44997:0:0:0:0:
192,192,44847,128,0,44997:0:0:0:0:
448,192,44997,1,0,0:0:0:0:
64,192,45147,1,0,0:0:0:40:Clap.wav
192,192,45147,1,0,0:0:0:0:
320,192,45147,128,0,45297:0:0:0:0:
64,192,45297,128,2,45747:0:0:0:0:
192,192,45297,128,0,45747:0:0:0:0:
448,192,45447,128,0,45597:0:0:0:0:
320,192,45747,128,2,45972:0:0:0:0:
448,192,45747,128,0,45972:0:0:0:0:
64,192,46047,128,2,46197:0:0:0:0:
320,192,46047,128,0,46272:0:0:0:0:
448,192,46047,128,0,46272:0:0:0:0:
192,192,46197,128,0,46347:0:0:0:0:
64,192,46347,128,0,46497:0:0:0:40:Clap.wav
320,192,46347,1,0,0:0:0:0:
448,192,46347,1,0,0:0:0:0:
192,192,46497,1,0,0:0:0:0:
448,192,46647,128,0,46797:0:0:0:0:
320,192,46797,128,0,46947:0:0:0:0:
448,192,46947,128,0,47097:0:0:0:0:
192,192,47097,1,0,0:0:0:0:
64,192,47247,128,2,47397:0:0:0:0:
320,192,47247,128,0,47397:0:0:0:0:
192,192,47397,1,0,0:0:0:0:
64,192,47547,1,0,0:0:0:40:Clap.wav
320,192,47547,1,0,0:0:0:0:
448,192,47547,128,0,47697:0:0:0:0:
64,192,47697,128,2,48147:0:0:0:0:
320,192,47697,128,0,48147:0:0:0:0:
192,192,47847,128,0,47997:0:0:0:0:
192,192,48147,128,2,48372:0:0:0:0:
448,192,48147,128,0,48372:0:0:0:0:
320,192,48297,1,0,0:0:0:0:
64,192,48447,128,2,48597:0:0:0:0:
192,192,48447,128,0,48672:0:0:0:0:
448,192,48447,128,0,48672:0:0:0:0:
320,192,48597,128,0,48747:0:0:0:0:
64,192,48747,1,0,0:0:0:40:Clap.wav
192,192,48747,1,0,0:0:0:0:
448,192,48747,128,0,48897:0:0:0:0:
320,192,48897,1,0,0:0:0:0:
64,192,49047,128,0,49197:0:0:0:0:
320,192,49197,128,0,49347:0:0:0:0:
448,192,49347,128,0,49497:0:0:0:0:
320,192,49497,1,0,0:0:0:0:
64,192,49647,128,2,49797:0:0:0:0:
192,192,49647,128,0,49797:0:0:0:0:
448,192,49647,128,0,49797:0:0:0:0:
320,192,49797,1,0,0:0:0:0:
64,192,49947,1,0,0:0:0:40:Clap.wav
192,192,49947,1,0,0:0:0:0:
448,192,49947,128,0,50097:0:0:0:0:
64,192,50097,128,2,50547:0:0:0:0:
192,192,50097,128,0,50547:0:0:0:0:
320,192,50247,128,0,50397:0:0:0:0:
320,192,50547,1,2,0:0:0:0:
448,192,50547,128,0,51147:0:0:0:0:
192,192,50847,128,0,50997:0:0:0:0:
320,192,50997,128,0,51147:0:0:0:0:
64,192,51147,128,2,51747:0:0:0:0:
192,192,51147,128,0,51297:0:0:0:0:
320,192,51297,128,0,51447:0:0:0:0:
448,192,51447,128,0,51597:0:0:0:0:
192,192,51597,128,0,51747:0:0:0:0:
320,192,51747,128,2,51972:0:0:0:0:
448,192,51747,128,0,51972:0:0:0:0:
64,192,51897,1,0,0:0:0:0:
320,192,52047,128,2,52347:0:0:0:0:
448,192,52047,128,0,52347:0:0:0:0:
192,192,52197,1,0,0:0:0:0:
64,192,52347,1,2,0:0:0:0:
192,192,52347,1,0,0:0:0:0:
320,192,52647,1,2,0:0:0:0:
448,192,52647,128,0,52947:0:0:0:0:
64,192,52947,128,2,53247:0:0:0:0:
192,192,52947,1,4,0:0:0:0:
320,192,52947,1,0,0:0:0:0:
448,192,53097,1,0,0:0:0:0:
320,192,53247,128,0,53547:0:0:0:0:
192,192,53397,1,0,0:0:0:0:
64,192,53547,128,8,53847:0:0:0:0:
192,192,53547,1,2,0:0:0:0:
448,192,53547,1,0,0:0:0:0:
320,192,53697,1,0,0:0:0:0:
448,192,53847,128,0,54147:0:0:0:0:
192,192,53997,1,0,0:0:0:0:
64,192,54147,1,2,0:0:0:0:
320,192,54147,128,0,54447:0:0:0:0:
192,192,54297,1,0,0:0:0:0:
64,192,54447,128,0,54747:0:0:0:0:
320,192,54597,1,0,0:0:0:0:
192,192,54747,1,2,0:0:0:0:
320,192,54747,1,8,0:0:0:0:
448,192,54747,128,0,55047:0:0:0:0:
64,192,54897,1,0,0:0:0:0:
320,192,55047,128,0,55347:0:0:0:0:
64,192,55197,1,0,0:0:0:0:
192,192,55347,1,2,0:0:0:0:
448,192,55347,1,0,0:0:0:0:
320,192,55497,1,0,0:0:0:0:
64,192,55647,128,0,56247:0:0:0:0:
448,192,55797,1,0,0:0:0:0:
192,192,55947,1,8,0:0:0:0:
320,192,55947,1,2,0:0:0:0:
448,192,55947,1,0,0:0:0:0:
192,192,56097,1,0,0:0:0:0:
448,192,56247,128,0,56847:0:0:0:0:
320,192,56397,1,0,0:0:0:0:
64,192,56547,1,2,0:0:0:0:
192,192,56547,1,0,0:0:0:0:
320,192,56697,1,0,0:0:0:0:
64,192,56847,128,0,57147:0:0:0:0:
448,192,56997,1,0,0:0:0:0:
192,192,57147,1,2,0:0:0:0:
320,192,57147,128,8,57447:0:0:0:0:
448,192,57147,1,0,0:0:0:0:
64,192,57297,1,0,0:0:0:0:
192,192,57447,1,0,0:0:0:0:
320,192,57597,1,0,0:0:0:0:
64,192,57747,1,2,0:0:0:0:
448,192,57747,128,0,58047:0:0:0:0:
192,192,57897,1,0,0:0:0:0:
320,192,58047,128,0,58347:0:0:0:0:
64,192,58197,1,0,0:0:0:0:
64,192,58347,1,8,0:0:0:0:
192,192,58347,128,2,58647:0:0:0:0:
448,192,58347,1,0,0:0:0:0:
320,192,58497,1,0,0:0:0:0:
64,192,58647,128,0,58947:0:0:0:0:
320,192,58797,1,0,0:0:0:0:
192,192,58947,1,2,0:0:0:0:
448,192,58947,128,0,59247:0:0:0:0:
320,192,59097,1,0,0:0:0:0:
64,192,59247,128,0,59547:0:0:0:0:
448,192,59397,1,0,0:0:0:0:
192,192,59547,1,2,0:0:0:0:
320,192,59547,1,8,0:0:0:0:
448,192,59547,128,0,59847:0:0:0:0:
64,192,59697,1,0,0:0:0:0:
192,192,59847,128,0,60297:0:0:0:0:
64,192,59997,1,0,0:0:0:0:
320,192,60147,1,2,0:0:0:0:
448,192,60147,1,0,0:0:0:0:
64,192,60297,1,0,0:0:0:0:
320,192,60447,128,0,60897:0:0:0:0:
448,192,60597,1,0,0:0:0:0:
64,192,60747,1,8,0:0:0:0:
192,192,60747,1,2,0:0:0:0:
448,192,60747,1,0,0:0:0:0:
64,192,60897,1,0,0:0:0:0:
448,192,61047,128,0,61497:0:0:0:0:
192,192,61197,1,0,0:0:0:0:
64,192,61347,1,2,0:0:0:0:
320,192,61347,1,0,0:0:0:0:
192,192,61497,1,0,0:0:0:0:
64,192,61647,128,0,62097:0:0:0:0:
448,192,61797,1,0,0:0:0:0:
192,192,61947,1,2,0:0:0:0:
320,192,61947,1,8,0:0:0:0:
448,192,61947,1,0,0:0:0:0:
192,192,62097,1,0,0:0:0:0:
320,192,62247,128,0,62547:0:0:0:0:
64,192,62397,1,0,0:0:0:0:
192,192,62547,1,2,0:0:0:0:
448,192,62547,128,0,63147:0:0:0:0:
64,192,62697,1,0,0:0:0:0:
320,192,62847,1,0,0:0:0:0:
64,192,62997,1,0,0:0:0:0:
64,192,63147,1,2,0:0:0:0:
192,192,63147,1,8,0:0:0:0:
320,192,63147,1,0,0:0:0:0:
448,192,63297,1,0,0:0:0:0:
320,192,63447,128,0,63747:0:0:0:0:
64,192,63597,1,0,0:0:0:0:
192,192,63747,128,2,64347:0:0:0:0:
448,192,63747,1,0,0:0:0:0:
64,192,63897,1,0,0:0:0:0:
320,192,64047,1,0,0:0:0:0:
448,192,64197,1,0,0:0:0:0:
64,192,64347,128,8,64647:0:0:0:0:
320,192,64347,1,2,0:0:0:0:
448,192,64347,1,0,0:0:0:0:
192,192,64497,1,0,0:0:0:0:
320,192,64647,128,0,64947:0:0:0:0:
448,192,64797,1,0,0:0:0:0:
64,192,64947,1,2,0:0:0:0:
192,192,64947,128,0,65547:0:0:0:0:
448,192,65097,1,0,0:0:0:0:
320,192,65247,1,0,0:0:0:0:
64,192,65397,1,0,0:0:0:0:
64,192,65547,1,2,0:0:0:0:
320,192,65547,1,8,0:0:0:0:
448,192,65547,1,0,0:0:0:0:
192,192,65697,1,0,0:0:0:0:
64,192,65847,128,0,66147:0:0:0:0:
320,192,65997,1,0,0:0:0:0:
192,192,66147,1,2,0:0:0:0:
448,192,66147,128,0,66447:0:0:0:0:
64,192,66297,1,0,0:0:0:0:
320,192,66447,128,0,66747:0:0:0:0:
192,192,66597,1,0,0:0:0:0:
64,192,66747,128,8,67047:0:0:0:0:
192,192,66747,1,2,0:0:0:0:
448,192,66747,1,0,0:0:0:0:
320,192,66897,1,0,0:0:0:0:
448,192,67047,128,0,67347:0:0:0:0:
192,192,67197,1,0,0:0:0:0:
64,192,67347,1,2,0:0:0:0:
320,192,67347,128,0,67647:0:0:0:0:
192,192,67497,1,0,0:0:0:0:
64,192,67647,128,0,67797:0:0:0:0:
448,192,67797,128,0,67947:0:0:0:0:
64,192,67947,1,8,0:0:0:0:
192,192,67947,1,2,0:0:0:0:
320,192,67947,1,0,0:0:0:0:
448,192,68097,1,0,0:0:0:0:
192,192,68247,128,0,68547:0:0:0:0:
320,192,68397,1,0,0:0:0:0:
64,192,68547,128,2,68847:0:0:0:0:
448,192,68547,1,0,0:0:0:0:
192,192,68697,1,0,0:0:0:0:
320,192,68847,128,0,69147:0:0:0:0:
448,192,68997,1,0,0:0:0:0:
64,192,69147,1,2,0:0:0:0:
192,192,69147,128,8,69447:0:0:0:0:
448,192,69147,1,0,0:0:0:0:
320,192,69297,1,0,0:0:0:0:
448,192,69447,128,0,69747:0:0:0:0:
64,192,69597,1,0,0:0:0:0:
192,192,69747,1,2,0:0:0:0:
320,192,69747,128,0,69897:0:0:0:0:
64,192,69897,1,0,0:0:0:0:
448,192,70047,1,0,0:0:0:0:
192,192,70197,1,0,0:0:0:0:
64,192,70347,128,8,70947:0:0:0:0:
320,192,70347,1,2,0:0:0:0:
448,192,70347,1,0,0:0:0:0:
192,192,70497,1,0,0:0:0:0:
448,192,70647,1,0,0:0:0:0:
320,192,70797,1,0,0:0:0:0:
192,192,70947,1,2,0:0:0:0:
448,192,70947,128,0,71247:0:0:0:0:
64,192,71097,1,0,0:0:0:0:
320,192,71247,128,0,71547:0:0:0:0:
64,192,71397,1,0,0:0:0:0:
64,192,71547,1,2,0:0:0:0:
192,192,71547,128,8,71847:0:0:0:0:
448,192,71547,1,0,0:0:0:0:
320,192,71697,1,0,0:0:0:0:
448,192,71847,128,0,72147:0:0:0:0:
64,192,71997,1,0,0:0:0:0:
64,192,72147,128,2,72447:0:0:0:0:
192,192,72147,1,4,0:0:0:0:
320,192,72147,1,0,0:0:0:0:
448,192,72297,1,0,0:0:0:0:
320,192,72447,1,0,0:0:0:0:
192,192,72597,1,0,0:0:0:0:
64,192,72747,128,8,73047:0:0:0:0:
320,192,72747,1,2,0:0:0:0:
448,192,72747,1,0,0:0:0:0:
448,192,72897,1,0,0:0:0:0:
192,192,73047,128,0,73347:0:0:0:0:
64,192,73197,1,0,0:0:0:0:
320,192,73347,128,2,73647:0:0:0:0:
448,192,73347,1,0,0:0:0:0:
192,192,73497,1,0,0:0:0:0:
64,192,73647,128,0,73947:0:0:0:0:
448,192,73797,1,0,0:0:0:0:
192,192,73947,1,2,0:0:0:0:
320,192,73947,1,8,0:0:0:0:
448,192,73947,128,0,74247:0:0:0:0:
64,192,74097,1,0,0:0:0:0:
192,192,74247,128,0,74547:0:0:0:0:
320,192,74397,1,0,0:0:0:0:
64,192,74547,1,2,0:0:0:0:
448,192,74547,1,0,0:0:0:0:
320,192,74697,1,0,0:0:0:0:
64,192,74847,128,0,75447:0:0:0:0:
448,192,74997,1,0,0:0:0:0:
192,192,75147,1,8,0:0:0:0:
320,192,75147,1,2,0:0:0:0:
448,192,75147,1,0,0:0:0:0:
192,192,75297,1,0,0:0:0:0:
448,192,75447,128,0,76047:0:0:0:0:
320,192,75597,1,0,0:0:0:0:
64,192,75747,1,2,0:0:0:0:
192,192,75747,1,0,0:0:0:0:
320,192,75897,1,0,0:0:0:0:
192,192,76047,128,0,76347:0:0:0:0:
448,192,76197,1,0,0:0:0:0:
64,192,76347,1,2,0:0:0:0:
320,192,76347,128,8,76497:0:0:0:0:
448,192,76347,1,0,0:0:0:0:
64,192,76497,128,0,76797:0:0:0:0:
192,192,76647,1,0,0:0:0:0:
320,192,76797,1,0,0:0:0:0:
192,192,76947,128,2,77247:0:0:0:0:
448,192,76947,1,0,0:0:0:0:
64,192,77097,1,0,0:0:0:0:
320,192,77247,128,0,77547:0:0:0:0:
448,192,77397,1,0,0:0:0:0:
64,192,77547,128,8,77847:0:0:0:0:
192,192,77547,1,2,0:0:0:0:
448,192,77547,1,0,0:0:0:0:
320,192,77697,1,0,0:0:0:0:
192,192,77847,128,0,78147:0:0:0:0:
448,192,77997,1,0,0:0:0:0:
64,192,78147,1,2,0:0:0:0:
320,192,78147,128,0,78447:0:0:0:0:
192,192,78297,1,0,0:0:0:0:
64,192,78447,128,0,78747:0:0:0:0:
448,192,78597,1,0,0:0:0:0:
192,192,78747,1,2,0:0:0:0:
320,192,78747,1,8,0:0:0:0:
448,192,78747,128,0,79047:0:0:0:0:
64,192,78897,1,0,0:0:0:0:
320,192,79047,128,0,79647:0:0:0:0:
192,192,79197,1,0,0:0:0:0:
64,192,79347,1,2,0:0:0:0:
448,192,79347,1,0,0:0:0:0:
192,192,79497,1,0,0:0:0:0:
448,192,79647,128,0,80247:0:0:0:0:
64,192,79797,1,0,0:0:0:0:
64,192,79947,1,8,0:0:0:0:
192,192,79947,1,2,0:0:0:0:
320,192,79947,1,0,0:0:0:0:
320,192,80097,1,0,0:0:0:0:
192,192,80247,128,0,80847:0:0:0:0:
64,192,80397,1,0,0:0:0:0:
320,192,80547,1,2,0:0:0:0:
448,192,80547,1,0,0:0:0:0:
448,192,80697,1,0,0:0:0:0:
64,192,80847,128,0,81297:0:0:0:0:
448,192,80997,1,0,0:0:0:0:
192,192,81147,1,2,0:0:0:0:
320,192,81147,1,8,0:0:0:0:
448,192,81147,1,0,0:0:0:0:
192,192,81297,1,0,0:0:0:0:
448,192,81447,128,0,81747:0:0:0:0:
64,192,81597,1,0,0:0:0:0:
192,192,81747,1,2,0:0:0:0:
320,192,81747,128,0,82197:0:0:0:0:
64,192,81897,1,0,0:0:0:0:
448,192,82047,1,0,0:0:0:0:
192,192,82197,1,0,0:0:0:0:
64,192,82347,1,2,0:0:0:0:
320,192,82347,1,8,0:0:0:0:
448,192,82347,1,0,0:0:0:0:
192,192,82497,1,0,0:0:0:0:
448,192,82647,128,0,82947:0:0:0:0:
320,192,82797,1,0,0:0:0:0:
64,192,82947,1,2,0:0:0:0:
192,192,82947,128,0,83247:0:0:0:0:
448,192,83097,1,0,0:0:0:0:
320,192,83247,128,0,83547:0:0:0:0:
64,192,83397,1,0,0:0:0:0:
64,192,83547,1,8,0:0:0:0:
192,192,83547,1,2,0:0:0:0:
448,192,83547,128,0,83772:0:0:0:0:
320,192,83697,1,0,0:0:0:0:
192,192,83772,128,0,83997:0:0:0:0:
64,192,83847,1,0,0:0:0:0:
320,192,83997,128,0,84147:0:0:0:0:
64,192,84147,128,2,84747:0:0:0:0:
448,192,84147,1,0,0:0:0:0:
320,192,84297,1,0,0:0:0:0:
192,192,84447,1,0,0:0:0:0:
448,192,84597,1,0,0:0:0:0:
192,192,84747,1,2,0:0:0:0:
320,192,84747,1,8,0:0:0:0:
448,192,84747,1,0,0:0:0:0:
64,192,84897,1,0,0:0:0:0:
448,192,85047,128,0,85347:0:0:0:0:
192,192,85197,1,0,0:0:0:0:
192,192,85347,1,2,0:0:0:0:
320,192,85347,128,0,85647:0:0:0:0:
64,192,85497,1,0,0:0:0:0:
192,192,85647,128,0,85947:0:0:0:0:
448,192,85797,1,0,0:0:0:0:
64,192,85947,1,8,0:0:0:0:
320,192,85947,128,2,86247:0:0:0:0:
448,192,85947,1,0,0:0:0:0:
192,192,86097,1,0,0:0:0:0:
448,192,86247,128,0,86547:0:0:0:0:
64,192,86397,1,0,0:0:0:0:
64,192,86547,128,2,86997:0:0:0:0:
192,192,86547,128,0,86697:0:0:0:0:
320,192,86547,1,0,0:0:0:0:
448,192,86697,1,0,0:0:0:0:
320,192,86847,128,0,86997:0:0:0:0:
192,192,86997,1,0,0:0:0:0:
64,192,87147,1,8,0:0:0:0:
192,192,87147,128,2,87297:0:0:0:0:
448,192,87147,1,0,0:0:0:0:
320,192,87297,1,0,0:0:0:0:
64,192,87447,128,0,87747:0:0:0:0:
448,192,87447,128,0,87597:0:0:0:0:
320,192,87597,1,0,0:0:0:0:
192,192,87747,128,2,88047:0:0:0:0:
320,192,87747,128,0,88047:0:0:0:0:
448,192,87747,128,0,88047:0:0:0:0:
64,192,88047,128,0,88197:0:0:0:0:
64,192,88347,128,2,88647:0:0:0:0:
192,192,88347,128,0,88647:0:0:0:0:
448,192,88347,128,0,88647:0:0:0:0:
320,192,88647,128,0,88947:0:0:0:0:
192,192,88797,1,0,0:0:0:0:
64,192,88947,128,2,89097:0:0:0:0:
448,192,88947,1,4,0:0:0:0:
320,192,89097,128,0,89247:0:0:0:0:
192,192,89247,128,0,89397:0:0:0:0:
448,192,89397,128,0,89547:0:0:0:0:
64,192,89547,1,8,0:0:0:0:
192,192,89547,1,0,0:0:0:0:
320,192,89547,1,0,0:0:0:0:
448,192,89697,128,0,89847:0:0:0:0:
320,192,89847,1,0,0:0:0:0:
192,192,89997,128,0,90147:0:0:0:0:
64,192,90147,1,0,0:0:0:0:
320,192,90147,1,0,0:0:0:0:
448,192,90297,128,0,90447:0:0:0:0:
64,192,90447,1,2,0:0:0:0:
192,192,90447,128,0,90597:0:0:0:0:
320,192,90597,1,0,0:0:0:0:
64,192,90747,128,8,90897:0:0:0:0:
192,192,90747,1,0,0:0:0:0:
448,192,90747,1,0,0:0:0:0:
320,192,90897,1,0,0:0:0:0:
448,192,91047,128,0,91197:0:0:0:0:
192,192,91197,1,0,0:0:0:0:
64,192,91347,128,2,91497:0:0:0:0:
320,192,91347,1,0,0:0:0:0:
192,192,91497,128,0,91647:0:0:0:0:
320,192,91647,128,0,91797:0:0:0:0:
448,192,91797,128,0,91947:0:0:0:0:
64,192,91947,1,8,0:0:0:0:
192,192,91947,1,0,0:0:0:0:
320,192,91947,1,0,0:0:0:0:
448,192,92097,128,0,92247:0:0:0:0:
192,192,92247,1,0,0:0:0:0:
64,192,92397,128,0,92547:0:0:0:0:
320,192,92547,1,0,0:0:0:0:
448,192,92547,1,0,0:0:0:0:
192,192,92697,128,0,92847:0:0:0:0:
64,192,92847,1,2,0:0:0:0:
320,192,92847,128,0,92997:0:0:0:0:
448,192,92997,1,0,0:0:0:0:
64,192,93147,128,8,93297:0:0:0:0:
192,192,93147,1,0,0:0:0:0:
320,192,93147,1,0,0:0:0:0:
448,192,93297,1,0,0:0:0:0:
192,192,93447,128,0,93597:0:0:0:0:
320,192,93597,1,0,0:0:0:0:
64,192,93747,1,2,0:0:0:0:
448,192,93747,128,0,93897:0:0:0:0:
320,192,93897,128,0,94047:0:0:0:0:
192,192,94047,128,0,94197:0:0:0:0:
64,192,94197,128,0,94347:0:0:0:0:
192,192,94347,1,8,0:0:0:0:
320,192,94347,1,0,0:0:0:0:
448,192,94347,1,0,0:0:0:0:
64,192,94497,128,0,94647:0:0:0:0:
192,192,94647,1,0,0:0:0:0:
320,192,94797,128,0,94947:0:0:0:0:
64,192,94947,1,0,0:0:0:0:
192,192,94947,1,0,0:0:0:0:
448,192,95097,128,0,95247:0:0:0:0:
192,192,95247,1,2,0:0:0:0:
320,192,95247,128,0,95397:0:0:0:0:
64,192,95397,1,0,0:0:0:0:
192,192,95547,128,8,95697:0:0:0:0:
320,192,95547,1,0,0:0:0:0:
448,192,95547,1,0,0:0:0:0:
64,192,95697,1,0,0:0:0:0:
448,192,95847,128,0,95997:0:0:0:0:
320,192,95997,1,0,0:0:0:0:
64,192,96147,128,2,96297:0:0:0:0:
192,192,96147,1,0,0:0:0:0:
448,192,96297,1,0,0:0:0:0:
320,192,96447,128,0,96597:0:0:0:0:
192,192,96597,128,0,96747:0:0:0:0:
64,192,96747,1,8,0:0:0:0:
320,192,96747,1,0,0:0:0:0:
448,192,96747,1,0,0:0:0:0:
64,192,96897,128,0,97047:0:0:0:0:
320,192,97047,1,0,0:0:0:0:
64,192,97197,128,0,97347:0:0:0:0:
192,192,97347,128,2,97497:0:0:0:0:
448,192,97347,1,0,0:0:0:0:
320,192,97497,128,0,97647:0:0:0:0:
192,192,97647,1,2,0:0:0:0:
448,192,97647,128,0,97797:0:0:0:0:
64,192,97797,128,0,97947:0:0:0:0:
192,192,97947,128,0,98097:0:0:0:40:Clap.wav
320,192,97947,1,0,0:0:0:0:
448,192,97947,1,0,0:0:0:0:
320,192,98097,128,0,98247:0:0:0:0:
64,192,98247,128,0,98397:0:0:0:0:
448,192,98397,128,0,98547:0:0:0:0:
64,192,98547,128,2,98697:0:0:0:0:
192,192,98547,128,4,98697:0:0:0:0:
320,192,98697,1,0,0:0:0:0:
64,192,98847,128,0,99072:0:0:0:0:
192,192,98847,128,0,99072:0:0:0:0:
448,192,98997,1,0,0:0:0:0:
64,192,99147,1,2,0:0:0:0:
192,192,99147,1,0,0:0:0:40:Clap.wav
320,192,99147,1,0,0:0:0:0:
64,192,99297,128,0,99747:0:0:0:0:
192,192,99297,128,0,99747:0:0:0:0:
320,192,99447,1,0,0:0:0:0:
448,192,99597,1,0,0:0:0:0:
320,192,99747,128,2,100047:0:0:0:0:
448,192,99747,128,0,100047:0:0:0:0:
192,192,99897,1,0,0:0:0:0:
64,192,100047,1,0,0:0:0:0:
320,192,100197,128,0,100497:0:0:0:0:
448,192,100197,128,0,100497:0:0:0:0:
64,192,100347,1,2,0:0:0:0:
192,192,100347,1,0,0:0:0:40:Clap.wav
192,192,100497,1,0,0:0:0:0:
320,192,100647,128,0,100947:0:0:0:0:
448,192,100647,128,0,100947:0:0:0:0:
64,192,100797,1,0,0:0:0:0:
64,192,100947,128,2,101097:0:0:0:0:
192,192,100947,128,0,101097:0:0:0:0:
320,192,101097,1,0,0:0:0:0:
64,192,101247,128,0,101472:0:0:0:0:
192,192,101247,128,0,101472:0:0:0:0:
448,192,101397,1,0,0:0:0:0:
64,192,101547,1,2,0:0:0:0:
192,192,101547,1,0,0:0:0:40:Clap.wav
320,192,101547,1,0,0:0:0:0:
64,192,101697,128,0,102072:0:0:0:0:
192,192,101697,128,0,102072:0:0:0:0:
320,192,101847,1,0,0:0:0:0:
448,192,101997,1,0,0:0:0:0:
192,192,102147,128,2,102447:0:0:0:0:
320,192,102147,128,0,102447:0:0:0:0:
64,192,102297,1,0,0:0:0:0:
448,192,102447,128,0,102747:0:0:0:0:
64,192,102597,1,0,0:0:0:0:
64,192,102747,128,2,103047:0:0:0:0:
192,192,102747,128,0,103047:0:0:0:40:Clap.wav
320,192,102747,1,0,0:0:0:0:
448,192,102897,1,0,0:0:0:0:
320,192,103047,128,0,103347:0:0:0:0:
448,192,103197,1,0,0:0:0:0:
64,192,103347,128,2,103497:0:0:0:0:
192,192,103347,128,0,103497:0:0:0:0:
320,192,103497,1,0,0:0:0:0:
64,192,103647,128,0,103872:0:0:0:0:
192,192,103647,128,0,103872:0:0:0:0:
448,192,103797,1,0,0:0:0:0:
64,192,103947,1,2,0:0:0:0:
192,192,103947,1,0,0:0:0:40:Clap.wav
320,192,103947,1,0,0:0:0:0:
64,192,104097,128,0,104547:0:0:0:0:
192,192,104097,128,0,104547:0:0:0:0:
448,192,104247,1,0,0:0:0:0:
320,192,104397,1,0,0:0:0:0:
320,192,104547,128,2,104847:0:0:0:0:
448,192,104547,128,0,104847:0:0:0:0:
192,192,104697,1,0,0:0:0:0:
64,192,104847,1,0,0:0:0:0:
320,192,104997,128,0,105297:0:0:0:0:
448,192,104997,128,0,105297:0:0:0:0:
64,192,105147,1,2,0:0:0:0:
192,192,105147,1,0,0:0:0:40:Clap.wav
192,192,105297,1,0,0:0:0:0:
320,192,105447,128,0,105747:0:0:0:0:
448,192,105447,128,0,105747:0:0:0:0:
64,192,105597,1,0,0:0:0:0:
64,192,105747,128,2,105897:0:0:0:0:
192,192,105747,128,0,105897:0:0:0:0:
320,192,105897,1,0,0:0:0:0:
64,192,106047,128,0,106272:0:0:0:0:
192,192,106047,128,0,106272:0:0:0:0:
448,192,106197,1,0,0:0:0:0:
64,192,106347,1,2,0:0:0:0:
192,192,106347,1,0,0:0:0:40:Clap.wav
320,192,106347,1,0,0:0:0:0:
64,192,106497,128,0,106872:0:0:0:0:
192,192,106497,128,0,106872:0:0:0:0:
320,192,106647,1,0,0:0:0:0:
448,192,106797,1,0,0:0:0:0:
192,192,106947,128,2,107247:0:0:0:0:
320,192,106947,128,0,107247:0:0:0:0:
448,192,107097,1,0,0:0:0:0:
64,192,107247,128,0,107547:0:0:0:0:
448,192,107397,1,0,0:0:0:0:
192,192,107547,1,2,0:0:0:0:
320,192,107547,128,0,107847:0:0:0:40:Clap.wav
448,192,107547,128,0,107847:0:0:0:0:
64,192,107697,1,0,0:0:0:0:
192,192,107847,128,0,108147:0:0:0:0:
448,192,107997,1,0,0:0:0:0:
64,192,108147,1,2,0:0:0:0:
320,192,108147,1,0,0:0:0:0:
64,192,108297,1,0,0:0:0:0:
320,192,108297,1,0,0:0:0:0:
64,192,108447,128,2,108672:0:0:0:0:
320,192,108447,128,0,108672:0:0:0:0:
64,192,108747,1,0,0:0:0:40:Clap.wav
320,192,108747,1,0,0:0:0:0:
448,192,108747,1,0,0:0:0:0:
192,192,108897,1,0,0:0:0:0:
448,192,109047,1,0,0:0:0:0:
320,192,109197,1,0,0:0:0:0:
192,192,109347,1,0,0:0:0:0:
448,192,109497,1,0,0:0:0:0:
64,192,109647,128,2,109797:0:0:0:0:
192,192,109647,128,0,109797:0:0:0:0:
320,192,109797,1,0,0:0:0:0:
64,192,109947,1,0,0:0:0:40:Clap.wav
192,192,109947,1,0,0:0:0:0:
448,192,109947,1,0,0:0:0:0:
64,192,110097,128,2,110247:0:0:0:0:
192,192,110097,128,0,110247:0:0:0:0:
448,192,110247,1,0,0:0:0:0:
320,192,110397,1,0,0:0:0:0:
192,192,110547,1,2,0:0:0:0:
320,192,110547,128,4,110697:0:0:0:0:
448,192,110547,128,0,110697:0:0:0:0:
64,192,110697,1,0,0:0:0:0:
320,192,110847,128,0,111072:0:0:0:0:
448,192,110847,128,0,111072:0:0:0:0:
192,192,110997,1,0,0:0:0:0:
64,192,111147,1,2,0:0:0:0:
320,192,111147,1,0,0:0:0:40:Clap.wav
448,192,111147,1,0,0:0:0:0:
320,192,111297,128,0,111672:0:0:0:0:
448,192,111297,128,0,111672:0:0:0:0:
192,192,111447,1,0,0:0:0:0:
64,192,111597,1,0,0:0:0:0:
192,192,111747,128,2,112047:0:0:0:0:
320,192,111747,128,0,112047:0:0:0:0:
64,192,111897,1,0,0:0:0:0:
448,192,112047,128,0,112347:0:0:0:0:
320,192,112197,1,0,0:0:0:0:
64,192,112347,128,2,112647:0:0:0:0:
192,192,112347,128,0,112647:0:0:0:40:Clap.wav
448,192,112497,1,0,0:0:0:0:
320,192,112647,128,0,112947:0:0:0:0:
448,192,112797,1,0,0:0:0:0:
64,192,112947,128,2,113097:0:0:0:0:
192,192,112947,128,0,113097:0:0:0:0:
320,192,113097,1,0,0:0:0:0:
64,192,113247,128,0,113472:0:0:0:0:
192,192,113247,128,0,113472:0:0:0:0:
448,192,113397,1,0,0:0:0:0:
64,192,113547,1,2,0:0:0:0:
192,192,113547,1,0,0:0:0:40:Clap.wav
320,192,113547,1,0,0:0:0:0:
64,192,113697,128,0,114072:0:0:0:0:
192,192,113697,128,0,114072:0:0:0:0:
448,192,113847,1,0,0:0:0:0:
320,192,113997,1,0,0:0:0:0:
64,192,114147,128,2,114447:0:0:0:0:
448,192,114147,128,0,114447:0:0:0:0:
320,192,114297,1,0,0:0:0:0:
192,192,114447,1,0,0:0:0:0:
64,192,114597,128,0,114897:0:0:0:0:
448,192,114597,128,0,114897:0:0:0:0:
192,192,114747,1,2,0:0:0:0:
320,192,114747,1,0,0:0:0:40:Clap.wav
320,192,114897,1,0,0:0:0:0:
64,192,115047,128,0,115347:0:0:0:0:
448,192,115047,128,0,115347:0:0:0:0:
192,192,115197,1,0,0:0:0:0:
192,192,115347,128,2,115497:0:0:0:0:
320,192,115347,128,0,115497:0:0:0:0:
448,192,115497,1,0,0:0:0:0:
192,192,115647,128,0,115872:0:0:0:0:
320,192,115647,128,0,115872:0:0:0:0:
64,192,115797,1,0,0:0:0:0:
192,192,115947,1,2,0:0:0:0:
320,192,115947,1,0,0:0:0:40:Clap.wav
448,192,115947,1,0,0:0:0:0:
192,192,116097,128,0,116472:0:0:0:0:
320,192,116097,128,0,116472:0:0:0:0:
448,192,116247,1,0,0:0:0:0:
64,192,116397,1,0,0:0:0:0:
320,192,116547,128,2,116847:0:0:0:0:
448,192,116547,128,0,116847:0:0:0:0:
192,192,116697,1,0,0:0:0:0:
64,192,116847,128,0,117147:0:0:0:0:
448,192,116997,1,0,0:0:0:0:
192,192,117147,128,2,117447:0:0:0:0:
320,192,117147,128,0,117447:0:0:0:40:Clap.wav
448,192,117147,1,0,0:0:0:0:
64,192,117297,1,0,0:0:0:0:
448,192,117447,128,0,117747:0:0:0:0:
64,192,117597,1,0,0:0:0:0:
64,192,117747,1,2,0:0:0:0:
192,192,117747,128,4,117972:0:0:0:0:
320,192,117747,128,0,117972:0:0:0:0:
192,192,118047,128,2,118272:0:0:0:0:
320,192,118047,128,0,118272:0:0:0:0:
64,192,118197,1,0,0:0:0:0:
192,192,118347,1,0,0:0:0:40:Clap.wav
320,192,118347,1,0,0:0:0:0:
448,192,118347,1,0,0:0:0:0:
64,192,118497,1,0,0:0:0:0:
192,192,118647,1,0,0:0:0:0:
448,192,118947,1,0,0:0:0:0:
320,192,119097,1,0,0:0:0:0:
64,192,119247,128,2,119397:0:0:0:0:
192,192,119247,128,0,119397:0:0:0:0:
448,192,119397,1,0,0:0:0:0:
64,192,119547,1,0,0:0:0:40:Clap.wav
192,192,119547,1,0,0:0:0:0:
320,192,119547,1,0,0:0:0:0:
64,192,119697,128,2,120147:0:0:0:0:
192,192,119697,128,0,120147:0:0:0:0:
448,192,119847,1,0,0:0:0:0:
320,192,119997,1,0,0:0:0:0:
320,192,120147,128,2,120372:0:0:0:0:
448,192,120147,128,0,120372:0:0:0:0:
320,192,120447,128,2,120672:0:0:0:0:
448,192,120447,128,0,120672:0:0:0:0:
64,192,120597,1,0,0:0:0:0:
192,192,120747,1,0,0:0:0:40:Clap.wav
320,192,120747,1,0,0:0:0:0:
448,192,120747,1,0,0:0:0:0:
64,192,120897,1,0,0:0:0:0:
320,192,121047,1,0,0:0:0:0:
448,192,121047,1,0,0:0:0:0:
192,192,121197,1,0,0:0:0:0:
64,192,121347,1,0,0:0:0:0:
448,192,121497,1,0,0:0:0:0:
192,192,121647,128,2,121797:0:0:0:0:
320,192,121647,128,0,121797:0:0:0:0:
64,192,121797,1,0,0:0:0:0:
192,192,121947,1,0,0:0:0:40:Clap.wav
320,192,121947,1,0,0:0:0:0:
448,192,121947,1,0,0:0:0:0:
192,192,122097,128,2,122472:0:0:0:0:
320,192,122097,128,0,122472:0:0:0:0:
64,192,122247,1,0,0:0:0:0:
448,192,122397,1,0,0:0:0:0:
64,192,122547,128,2,122772:0:0:0:0:
192,192,122547,128,0,122772:0:0:0:0:
448,192,122697,1,0,0:0:0:0:
64,192,122847,128,2,123072:0:0:0:0:
192,192,122847,128,0,123072:0:0:0:0:
320,192,122997,1,0,0:0:0:0:
64,192,123147,1,0,0:0:0:40:Clap.wav
192,192,123147,1,0,0:0:0:0:
448,192,123147,1,0,0:0:0:0:
320,192,123297,1,0,0:0:0:0:
192,192,123447,1,0,0:0:0:0:
320,192,123597,128,2,123747:0:0:0:0:
448,192,123597,128,0,123747:0:0:0:0:
64,192,123747,1,0,0:0:0:0:
192,192,123897,1,0,0:0:0:0:
320,192,124047,128,2,124197:0:0:0:0:
448,192,124047,128,0,124197:0:0:0:0:
64,192,124197,1,0,0:0:0:0:
192,192,124347,1,0,0:0:0:40:Clap.wav
320,192,124347,1,0,0:0:0:0:
448,192,124347,1,0,0:0:0:0:
320,192,124497,128,2,124947:0:0:0:0:
448,192,124497,128,0,124947:0:0:0:0:
64,192,124647,1,0,0:0:0:0:
64,192,124947,1,0,0:0:0:0:
192,192,124947,1,0,0:0:0:0:
320,192,125247,128,2,125397:0:0:0:0:
448,192,125247,128,0,125397:0:0:0:0:
64,192,125397,1,0,0:0:0:0:
192,192,125547,1,0,0:0:0:40:Clap.wav
320,192,125547,1,0,0:0:0:0:
448,192,125547,1,0,0:0:0:0:
320,192,125697,128,2,125847:0:0:0:0:
448,192,125697,128,0,125847:0:0:0:0:
64,192,125847,1,0,0:0:0:0:
192,192,125997,128,2,126147:0:0:0:0:
320,192,125997,128,0,126147:0:0:0:0:
64,192,126147,1,0,0:0:0:0:
448,192,126297,1,0,0:0:0:0:
64,192,126447,128,2,126597:0:0:0:0:
192,192,126447,128,0,126597:0:0:0:0:
320,192,126597,1,0,0:0:0:0:
64,192,126747,1,0,0:0:0:40:Clap.wav
192,192,126747,1,0,0:0:0:0:
448,192,126747,1,0,0:0:0:0:
64,192,126897,128,2,127347:0:0:0:0:
192,192,126897,128,0,127347:0:0:0:0:
320,192,127047,1,0,0:0:0:0:
448,192,127197,1,0,0:0:0:0:
320,192,127347,128,2,127572:0:0:0:0:
448,192,127347,128,0,127572:0:0:0:0:
320,192,127647,128,2,127872:0:0:0:0:
448,192,127647,128,0,127872:0:0:0:0:
64,192,127797,1,0,0:0:0:0:
192,192,127947,1,0,0:0:0:40:Clap.wav
320,192,127947,1,0,0:0:0:0:
448,192,127947,1,0,0:0:0:0:
64,192,128097,1,0,0:0:0:0:
192,192,128247,1,0,0:0:0:0:
320,192,128397,1,0,0:0:0:0:
448,192,128547,1,0,0:0:0:0:
64,192,128697,1,0,0:0:0:0:
192,192,128847,128,2,128997:0:0:0:0:
320,192,128847,128,0,128997:0:0:0:0:
448,192,128997,1,0,0:0:0:0:
64,192,129147,1,0,0:0:0:40:Clap.wav
192,192,129147,1,0,0:0:0:0:
320,192,129147,1,0,0:0:0:0:
192,192,129297,128,2,129747:0:0:0:0:
320,192,129297,128,0,129747:0:0:0:0:
448,192,129447,1,0,0:0:0:0:
64,192,129597,1,0,0:0:0:0:
64,192,129747,128,2,129972:0:0:0:0:
448,192,129747,128,0,129972:0:0:0:0:
64,192,130047,128,2,130272:0:0:0:0:
448,192,130047,128,0,130272:0:0:0:0:
320,192,130197,1,0,0:0:0:0:
64,192,130347,1,0,0:0:0:40:Clap.wav
192,192,130347,1,0,0:0:0:0:
448,192,130347,1,0,0:0:0:0:
320,192,130497,1,0,0:0:0:0:
192,192,130647,1,0,0:0:0:0:
64,192,130797,1,0,0:0:0:0:
448,192,130947,1,0,0:0:0:0:
192,192,131097,1,0,0:0:0:0:
320,192,131247,128,2,131397:0:0:0:0:
448,192,131247,128,0,131397:0:0:0:0:
64,192,131397,1,0,0:0:0:0:
192,192,131547,1,0,0:0:0:40:Clap.wav
320,192,131547,1,0,0:0:0:0:
448,192,131547,1,0,0:0:0:0:
64,192,131697,128,2,132147:0:0:0:0:
192,192,131697,128,0,132147:0:0:0:0:
320,192,131847,1,0,0:0:0:0:
448,192,131997,1,0,0:0:0:0:
320,192,132147,128,2,132372:0:0:0:0:
448,192,132147,128,0,132372:0:0:0:0:
64,192,132297,1,0,0:0:0:0:
320,192,132447,128,2,132672:0:0:0:0:
448,192,132447,128,0,132672:0:0:0:0:
192,192,132597,1,0,0:0:0:0:
64,192,132747,1,0,0:0:0:40:Clap.wav
320,192,132747,1,0,0:0:0:0:
448,192,132747,1,0,0:0:0:0:
192,192,132897,1,0,0:0:0:0:
448,192,133047,1,0,0:0:0:0:
64,192,133197,1,0,0:0:0:0:
192,192,133347,128,2,133572:0:0:0:0:
320,192,133347,128,0,133572:0:0:0:0:
448,192,133497,1,0,0:0:0:0:
192,192,133647,128,2,133947:0:0:0:0:
320,192,133647,128,0,133947:0:0:0:0:
64,192,133797,1,0,0:0:0:0:
64,192,134547,128,0,134697:0:0:0:40:LR_NBell_C#6.wav
320,192,134697,128,0,134847:0:0:0:40:LR_NBell_D#6.wav
192,192,134847,128,0,134997:0:0:0:40:LR_NBell_F6.wav
448,192,134997,128,0,135147:0:0:0:40:LR_NBell_G#6.wav
64,192,135297,128,0,135447:0:0:0:40:LR_NBell_C#6.wav
320,192,135597,128,0,135747:0:0:0:40:LR_NBell_D#6.wav
64,192,135897,128,0,136047:0:0:0:40:LR_NBell_C#6.wav
320,192,136047,128,0,136197:0:0:0:40:LR_NBell_D#6.wav
448,192,136347,128,0,136497:0:0:0:40:LR_NBell_F6.wav
192,192,136647,128,0,136797:0:0:0:40:LR_NBell_A#5.wav
64,192,136947,128,0,137097:0:0:0:40:LR_NBell_C#6.wav
320,192,137097,128,0,137247:0:0:0:40:LR_NBell_D#6.wav
192,192,137247,128,0,137397:0:0:0:40:LR_NBell_F6.wav
448,192,137397,128,0,137547:0:0:0:40:LR_NBell_G#6.wav
64,192,137697,128,0,137847:0:0:0:40:LR_NBell_C#6.wav
448,192,137997,128,0,138147:0:0:0:40:LR_NBell_A#6.wav
320,192,138297,128,0,138447:0:0:0:40:LR_NBell_G#6.wav
192,192,138447,128,0,138597:0:0:0:40:LR_NBell_F6.wav
448,192,138747,128,0,138897:0:0:0:40:LR_NBell_G#6.wav
192,192,139047,128,0,139197:0:0:0:40:LR_NBell_A#5.wav
64,192,139347,128,0,139497:0:0:0:40:LR_NBell_C#6.wav
192,192,139497,128,0,139647:0:0:0:40:LR_NBell_D#6.wav
320,192,139647,128,0,139797:0:0:0:40:LR_NBell_F6.wav
448,192,139797,128,0,139947:0:0:0:40:LR_NBell_G#6.wav
64,192,140097,128,0,140247:0:0:0:40:LR_NBell_C#6.wav
320,192,140397,128,0,140547:0:0:0:40:LR_NBell_D#6.wav
64,192,140697,128,0,140847:0:0:0:40:LR_NBell_C#6.wav
320,192,140847,128,0,140997:0:0:0:40:LR_NBell_D#6.wav
448,192,141147,128,0,141297:0:0:0:40:LR_NBell_F6.wav
64,192,141447,128,0,141597:0:0:0:40:LR_NBell_G#5.wav
192,192,141747,128,0,141897:0:0:0:40:LR_NBell_A#5.wav
448,192,142047,128,0,142197:0:0:0:40:LR_NBell_F6.wav
320,192,142197,128,0,142347:0:0:0:40:LR_NBell_D#6.wav
192,192,142497,128,0,142647:0:0:0:40:LR_NBell_C#6.wav
192,192,142797,128,0,142947:0:0:0:40:LR_NBell_C#6.wav
448,192,143097,128,0,143247:0:0:0:40:LR_NBell_G#6.wav
64,192,143247,128,0,143397:0:0:0:40:LR_NBell_D#6.wav
192,192,143547,128,0,143847:0:0:0:40:LR_NBell_C#6.wav
64,192,144147,128,2,144297:0:0:0:0:
448,192,144147,1,0,0:0:0:0:
192,192,144297,128,0,144447:0:0:0:0:
320,192,144447,128,0,144597:0:0:0:0:
448,192,144597,128,0,144747:0:0:0:0:
64,192,144747,1,2,0:0:0:0:
192,192,144747,1,0,0:0:0:40:Clap.wav
320,192,144747,1,0,0:0:0:0:
64,192,144897,128,0,145047:0:0:0:0:
448,192,145047,1,0,0:0:0:0:
192,192,145197,128,0,145347:0:0:0:0:
64,192,145347,1,2,0:0:0:0:
320,192,145347,1,0,0:0:0:0:
448,192,145497,128,0,145647:0:0:0:0:
192,192,145647,128,0,145797:0:0:0:0:
320,192,145797,1,0,0:0:0:0:
64,192,145947,128,2,146097:0:0:0:0:
192,192,145947,1,0,0:0:0:40:Clap.wav
448,192,145947,1,0,0:0:0:0:
320,192,146097,1,0,0:0:0:0:
192,192,146247,128,0,146397:0:0:0:0:
320,192,146397,1,0,0:0:0:0:
64,192,146547,128,2,146697:0:0:0:0:
448,192,146547,1,0,0:0:0:0:
192,192,146697,128,0,146847:0:0:0:0:
320,192,146847,128,0,146997:0:0:0:0:
448,192,146997,128,0,147147:0:0:0:0:
64,192,147147,1,2,0:0:0:0:
192,192,147147,1,0,0:0:0:40:Clap.wav
320,192,147147,1,0,0:0:0:0:
192,192,147297,128,0,147447:0:0:0:0:
448,192,147447,1,0,0:0:0:0:
64,192,147597,128,0,147747:0:0:0:0:
192,192,147747,1,2,0:0:0:0:
320,192,147747,1,0,0:0:0:0:
448,192,147897,128,0,148047:0:0:0:0:
192,192,148047,128,0,148197:0:0:0:0:
64,192,148197,1,0,0:0:0:0:
192,192,148347,1,2,0:0:0:0:
320,192,148347,1,0,0:0:0:40:Clap.wav
448,192,148347,128,0,148497:0:0:0:0:
64,192,148497,1,0,0:0:0:0:
192,192,148647,128,0,148797:0:0:0:0:
320,192,148797,1,0,0:0:0:0:
64,192,148947,128,2,149097:0:0:0:0:
448,192,148947,1,0,0:0:0:0:
192,192,149097,128,0,149247:0:0:0:0:
320,192,149247,128,0,149397:0:0:0:0:
448,192,149397,128,0,149547:0:0:0:0:
64,192,149547,1,2,0:0:0:0:
192,192,149547,1,0,0:0:0:40:Clap.wav
320,192,149547,1,0,0:0:0:0:
192,192,149697,128,0,149847:0:0:0:0:
448,192,149847,1,0,0:0:0:0:
64,192,149997,128,0,150147:0:0:0:0:
320,192,150147,1,2,0:0:0:0:
448,192,150147,1,0,0:0:0:0:
192,192,150297,128,0,150447:0:0:0:0:
320,192,150447,128,0,150597:0:0:0:0:
64,192,150597,1,0,0:0:0:0:
192,192,150747,1,2,0:0:0:0:
320,192,150747,1,0,0:0:0:40:Clap.wav
448,192,150747,128,0,150897:0:0:0:0:
64,192,150897,1,0,0:0:0:0:
192,192,151047,128,0,151197:0:0:0:0:
320,192,151197,1,0,0:0:0:0:
64,192,151347,1,2,0:0:0:0:
448,192,151347,128,0,151497:0:0:0:0:
192,192,151497,1,0,0:0:0:0:
320,192,151647,128,0,151797:0:0:0:0:
192,192,151797,128,0,151947:0:0:0:0:
64,192,151947,1,2,0:0:0:0:
320,192,151947,1,0,0:0:0:40:Clap.wav
448,192,151947,1,0,0:0:0:0:
64,192,152097,128,0,152247:0:0:0:0:
320,192,152247,1,0,0:0:0:0:
64,192,152397,128,0,152547:0:0:0:0:
320,192,152547,1,2,0:0:0:0:
448,192,152547,1,0,0:0:0:0:
192,192,152697,128,0,152847:0:0:0:0:
448,192,152847,128,0,152997:0:0:0:0:
64,192,153147,128,2,153297:0:0:0:0:
192,192,153147,1,0,0:0:0:40:Clap.wav
320,192,153147,1,0,0:0:0:0:
192,192,153447,1,0,0:0:0:0:
320,192,153597,1,0,0:0:0:0:
64,192,153747,128,0,154947:0:0:0:0:
448,192,153747,1,0,0:0:0:0:
64,192,155922,128,0,157347:0:0:0:0:
192,192,155997,128,0,157347:0:0:0:0:
320,192,156072,128,0,157347:0:0:0:0:
448,192,156147,128,0,157347:0:0:0:0:
192,192,158547,128,0,159597:0:0:0:0:
320,192,158547,128,0,159597:0:0:0:0:
448,192,158547,128,0,159597:0:0:0:0:
64,192,159747,128,0,160797:0:0:0:0:
192,192,159747,128,0,160797:0:0:0:0:
320,192,159747,128,0,160797:0:0:0:0:
64,192,160947,128,0,161997:0:0:0:0:
320,192,160947,128,0,161997:0:0:0:0:
448,192,160947,128,0,161997:0:0:0:0:
64,192,163347,128,0,164397:0:0:0:0:
192,192,163347,128,0,164397:0:0:0:0:
448,192,163347,128,0,164397:0:0:0:0:
64,192,164547,128,0,165597:0:0:0:0:
192,192,164547,128,0,165597:0:0:0:0:
320,192,164547,128,0,165597:0:0:0:0:
192,192,165747,1,2,0:0:0:0:
320,192,165747,1,0,0:0:0:0:
448,192,165747,128,0,166047:0:0:0:0:
64,192,165897,1,0,0:0:0:0:
320,192,166047,1,0,0:0:0:0:
192,192,166197,1,0,0:0:0:0:
64,192,166347,1,0,0:0:0:40:Clap.wav
320,192,166347,1,0,0:0:0:0:
448,192,166347,1,0,0:0:0:0:
192,192,166497,1,0,0:0:0:0:
448,192,166647,1,0,0:0:0:0:
320,192,166797,1,0,0:0:0:0:
192,192,166947,128,0,167247:0:0:0:0:
448,192,167097,1,0,0:0:0:0:
64,192,167247,1,2,0:0:0:0:
320,192,167247,1,0,0:0:0:0:
192,192,167397,1,0,0:0:0:0:
64,192,167547,1,0,0:0:0:40:Clap.wav
320,192,167547,1,0,0:0:0:0:
448,192,167547,1,0,0:0:0:0:
192,192,167697,1,0,0:0:0:0:
448,192,167847,1,0,0:0:0:0:
64,192,167997,1,0,0:0:0:0:
192,192,168147,1,2,0:0:0:0:
320,192,168147,128,0,168447:0:0:0:0:
448,192,168297,1,0,0:0:0:0:
64,192,168447,1,0,0:0:0:0:
192,192,168597,1,0,0:0:0:0:
64,192,168747,1,0,0:0:0:40:Clap.wav
320,192,168747,1,0,0:0:0:0:
448,192,168747,1,0,0:0:0:0:
192,192,168897,1,0,0:0:0:0:
448,192,169047,1,0,0:0:0:0:
64,192,169197,1,0,0:0:0:0:
448,192,169347,128,0,169647:0:0:0:0:
320,192,169497,1,0,0:0:0:0:
64,192,169647,1,2,0:0:0:0:
192,192,169647,1,0,0:0:0:0:
448,192,169797,1,0,0:0:0:0:
64,192,169947,1,0,0:0:0:40:Clap.wav
192,192,169947,1,0,0:0:0:0:
320,192,169947,1,0,0:0:0:0:
448,192,170097,1,0,0:0:0:0:
64,192,170247,1,0,0:0:0:0:
192,192,170397,1,0,0:0:0:0:
64,192,170547,128,2,170847:0:0:0:0:
448,192,170547,1,0,0:0:0:0:
320,192,170697,1,0,0:0:0:0:
192,192,170847,1,0,0:0:0:0:
448,192,170997,1,0,0:0:0:0:
64,192,171147,1,0,0:0:0:40:Clap.wav
192,192,171147,1,0,0:0:0:0:
320,192,171147,1,0,0:0:0:0:
448,192,171297,1,0,0:0:0:0:
64,192,171447,1,0,0:0:0:0:
192,192,171597,1,0,0:0:0:0:
448,192,171747,128,0,172047:0:0:0:0:
320,192,171897,1,0,0:0:0:0:
64,192,172047,1,2,0:0:0:0:
192,192,172047,1,0,0:0:0:0:
320,192,172197,1,0,0:0:0:0:
64,192,172347,1,0,0:0:0:40:Clap.wav
192,192,172347,1,0,0:0:0:0:
448,192,172347,1,0,0:0:0:0:
320,192,172497,1,0,0:0:0:0:
64,192,172647,1,0,0:0:0:0:
448,192,172797,1,0,0:0:0:0:
64,192,172947,1,0,0:0:0:0:
320,192,172947,1,0,0:0:0:0:
192,192,173097,1,0,0:0:0:0:
320,192,173247,128,2,173472:0:0:0:0:
448,192,173247,128,0,173472:0:0:0:0:
64,192,173547,128,2,174147:0:0:0:0:
320,192,173547,128,0,173772:0:0:0:0:
448,192,173547,128,0,173772:0:0:0:0:
320,192,173847,128,2,174072:0:0:0:0:
448,192,173847,128,0,174072:0:0:0:0:
192,192,174147,128,2,174747:0:0:0:0:
320,192,174147,128,0,174672:0:0:0:0:
448,192,174147,128,0,174672:0:0:0:0:
64,192,174447,128,0,174747:0:0:0:0:
320,192,174747,1,2,0:0:0:0:
448,192,174747,128,0,175272:0:0:0:0:
192,192,174897,128,0,175272:0:0:0:0:
64,192,175047,128,0,175272:0:0:0:0:
64,192,175347,1,4,0:0:0:0:
192,192,175347,1,2,0:0:0:0:
320,192,175347,1,0,0:0:0:0:
448,192,175347,1,0,0:0:0:0:
320,192,175497,1,0,0:0:0:0:
192,192,175647,1,0,0:0:0:0:
64,192,175797,1,0,0:0:0:0:
192,192,175947,1,8,0:0:0:0:
320,192,175947,1,2,0:0:0:0:
448,192,175947,128,0,176247:0:0:0:0:
320,192,176097,1,0,0:0:0:0:
64,192,176247,128,0,176547:0:0:0:0:
192,192,176397,1,0,0:0:0:0:
320,192,176547,128,2,176847:0:0:0:0:
448,192,176547,1,0,0:0:0:0:
192,192,176697,1,0,0:0:0:0:
64,192,176847,128,0,177147:0:0:0:0:
320,192,176997,1,0,0:0:0:0:
192,192,177147,1,2,0:0:0:0:
320,192,177147,1,8,0:0:0:0:
448,192,177147,128,0,177447:0:0:0:0:
64,192,177297,1,0,0:0:0:0:
192,192,177447,128,0,177747:0:0:0:0:
448,192,177597,1,0,0:0:0:0:
64,192,177747,1,2,0:0:0:0:
320,192,177747,1,0,0:0:0:0:
192,192,177897,1,0,0:0:0:0:
64,192,178047,128,0,178647:0:0:0:0:
448,192,178197,1,0,0:0:0:0:
192,192,178347,1,8,0:0:0:0:
320,192,178347,1,2,0:0:0:0:
448,192,178347,1,0,0:0:0:0:
192,192,178497,1,0,0:0:0:0:
448,192,178647,128,0,179247:0:0:0:0:
320,192,178797,1,0,0:0:0:0:
64,192,178947,1,2,0:0:0:0:
192,192,178947,1,0,0:0:0:0:
320,192,179097,1,0,0:0:0:0:
64,192,179247,128,0,179547:0:0:0:0:
320,192,179397,1,0,0:0:0:0:
192,192,179547,1,2,0:0:0:0:
320,192,179547,1,8,0:0:0:0:
448,192,179547,128,0,179847:0:0:0:0:
64,192,179697,1,0,0:0:0:0:
192,192,179847,128,0,180147:0:0:0:0:
320,192,179997,1,0,0:0:0:0:
64,192,180147,1,2,0:0:0:0:
448,192,180147,1,0,0:0:0:0:
320,192,180297,1,0,0:0:0:0:
64,192,180447,128,0,180747:0:0:0:0:
448,192,180597,1,0,0:0:0:0:
192,192,180747,1,2,0:0:0:0:
320,192,180747,128,8,181047:0:0:0:0:
448,192,180747,1,0,0:0:0:0:
64,192,180897,1,0,0:0:0:0:
448,192,181047,128,0,181347:0:0:0:0:
192,192,181197,1,0,0:0:0:0:
64,192,181347,1,2,0:0:0:0:
320,192,181347,128,0,181647:0:0:0:0:
192,192,181497,1,0,0:0:0:0:
64,192,181647,128,0,181947:0:0:0:0:
448,192,181797,1,0,0:0:0:0:
192,192,181947,1,8,0:0:0:0:
320,192,181947,1,2,0:0:0:0:
448,192,181947,128,0,182247:0:0:0:0:
64,192,182097,1,0,0:0:0:0:
192,192,182247,128,0,182847:0:0:0:0:
64,192,182397,1,0,0:0:0:0:
320,192,182547,1,2,0:0:0:0:
448,192,182547,1,0,0:0:0:0:
64,192,182697,1,0,0:0:0:0:
448,192,182847,128,0,183447:0:0:0:0:
320,192,182997,1,0,0:0:0:0:
64,192,183147,1,2,0:0:0:0:
192,192,183147,1,8,0:0:0:0:
320,192,183147,1,0,0:0:0:0:
64,192,183297,1,0,0:0:0:0:
192,192,183447,128,0,183747:0:0:0:0:
448,192,183597,1,0,0:0:0:0:
64,192,183747,1,2,0:0:0:0:
320,192,183747,1,0,0:0:0:0:
192,192,183897,1,0,0:0:0:0:
64,192,184047,128,0,184647:0:0:0:0:
448,192,184197,1,0,0:0:0:0:
192,192,184347,1,8,0:0:0:0:
320,192,184347,1,2,0:0:0:0:
448,192,184347,1,0,0:0:0:0:
192,192,184497,1,0,0:0:0:0:
448,192,184647,128,0,184947:0:0:0:0:
192,192,184797,1,0,0:0:0:0:
64,192,184947,1,2,0:0:0:0:
320,192,184947,128,0,185547:0:0:0:0:
192,192,185097,1,0,0:0:0:0:
448,192,185247,1,0,0:0:0:0:
64,192,185397,1,0,0:0:0:0:
64,192,185547,1,8,0:0:0:0:
192,192,185547,1,2,0:0:0:0:
448,192,185547,1,0,0:0:0:0:
320,192,185697,1,0,0:0:0:0:
448,192,185847,128,0,186147:0:0:0:0:
192,192,185997,1,0,0:0:0:0:
64,192,186147,128,2,186747:0:0:0:0:
320,192,186147,1,0,0:0:0:0:
448,192,186297,1,0,0:0:0:0:
192,192,186447,1,0,0:0:0:0:
448,192,186597,1,0,0:0:0:0:
192,192,186747,1,2,0:0:0:0:
320,192,186747,128,8,187047:0:0:0:0:
448,192,186747,1,0,0:0:0:0:
64,192,186897,1,0,0:0:0:0:
192,192,187047,128,0,187347:0:0:0:0:
64,192,187197,1,0,0:0:0:0:
320,192,187347,1,2,0:0:0:0:
448,192,187347,128,0,187947:0:0:0:0:
64,192,187497,1,0,0:0:0:0:
192,192,187647,1,0,0:0:0:0:
320,192,187797,1,0,0:0:0:0:
64,192,187947,1,8,0:0:0:0:
192,192,187947,1,2,0:0:0:0:
320,192,187947,1,0,0:0:0:0:
448,192,188097,1,0,0:0:0:0:
192,192,188247,128,0,188547:0:0:0:0:
64,192,188397,1,0,0:0:0:0:
320,192,188547,128,2,188847:0:0:0:0:
448,192,188547,1,0,0:0:0:0:
192,192,188697,1,0,0:0:0:0:
64,192,188847,128,0,189147:0:0:0:0:
448,192,188997,1,0,0:0:0:0:
192,192,189147,128,2,189447:0:0:0:0:
320,192,189147,1,8,0:0:0:0:
448,192,189147,1,0,0:0:0:0:
64,192,189297,1,0,0:0:0:0:
448,192,189447,128,0,189747:0:0:0:0:
64,192,189597,1,0,0:0:0:0:
192,192,189747,1,2,0:0:0:0:
320,192,189747,128,0,190047:0:0:0:0:
64,192,189897,1,0,0:0:0:0:
192,192,190047,128,0,190197:0:0:0:0:
320,192,190197,128,0,190347:0:0:0:0:
64,192,190347,1,2,0:0:0:0:
192,192,190347,1,8,0:0:0:0:
448,192,190347,1,0,0:0:0:0:
320,192,190497,1,0,0:0:0:0:
192,192,190647,128,0,190947:0:0:0:0:
448,192,190797,1,0,0:0:0:0:
64,192,190947,128,2,191247:0:0:0:0:
320,192,190947,1,0,0:0:0:0:
448,192,191097,1,0,0:0:0:0:
320,192,191247,128,0,191547:0:0:0:0:
192,192,191397,1,0,0:0:0:0:
64,192,191547,1,8,0:0:0:0:
192,192,191547,128,2,191847:0:0:0:0:
448,192,191547,1,0,0:0:0:0:
320,192,191697,1,0,0:0:0:0:
448,192,191847,128,0,192147:0:0:0:0:
192,192,191997,1,0,0:0:0:0:
64,192,192147,128,2,192747:0:0:0:0:
320,192,192147,1,0,0:0:0:0:
448,192,192297,1,0,0:0:0:0:
192,192,192447,1,0,0:0:0:0:
448,192,192597,1,0,0:0:0:0:
192,192,192747,1,2,0:0:0:0:
320,192,192747,1,8,0:0:0:0:
448,192,192747,128,0,193347:0:0:0:0:
64,192,192897,1,0,0:0:0:0:
320,192,193047,1,0,0:0:0:0:
64,192,193197,1,0,0:0:0:0:
192,192,193347,128,2,193947:0:0:0:0:
320,192,193347,1,0,0:0:0:0:
64,192,193497,1,0,0:0:0:0:
448,192,193647,1,0,0:0:0:0:
320,192,193797,1,0,0:0:0:0:
64,192,193947,1,8,0:0:0:0:
320,192,193947,1,2,0:0:0:0:
448,192,193947,128,0,194547:0:0:0:0:
192,192,194097,1,0,0:0:0:0:
64,192,194247,1,0,0:0:0:0:
320,192,194397,1,0,0:0:0:0:
64,192,194547,128,2,194847:0:0:0:0:
192,192,194547,1,4,0:0:0:0:
320,192,194547,1,0,0:0:0:0:
448,192,194697,1,0,0:0:0:0:
192,192,194847,1,0,0:0:0:0:
320,192,194997,1,0,0:0:0:0:
64,192,195147,1,8,0:0:0:0:
192,192,195147,1,2,0:0:0:0:
448,192,195147,128,0,195447:0:0:0:0:
320,192,195297,1,0,0:0:0:0:
64,192,195447,128,0,195747:0:0:0:0:
192,192,195597,1,0,0:0:0:0:
320,192,195747,128,2,196047:0:0:0:0:
448,192,195747,1,0,0:0:0:0:
192,192,195897,1,0,0:0:0:0:
64,192,196047,128,0,196347:0:0:0:0:
448,192,196197,1,0,0:0:0:0:
192,192,196347,1,2,0:0:0:0:
320,192,196347,1,8,0:0:0:0:
448,192,196347,128,0,196647:0:0:0:0:
64,192,196497,1,0,0:0:0:0:
320,192,196647,128,0,196947:0:0:0:0:
64,192,196797,1,0,0:0:0:0:
192,192,196947,1,2,0:0:0:0:
448,192,196947,1,0,0:0:0:0:
320,192,197097,1,0,0:0:0:0:
64,192,197247,128,0,197547:0:0:0:0:
448,192,197397,1,0,0:0:0:0:
192,192,197547,1,8,0:0:0:0:
320,192,197547,128,2,197847:0:0:0:0:
448,192,197547,1,0,0:0:0:0:
64,192,197697,1,0,0:0:0:0:
448,192,197847,128,0,198147:0:0:0:0:
64,192,197997,1,0,0:0:0:0:
192,192,198147,1,2,0:0:0:0:
320,192,198147,1,0,0:0:0:0:
448,192,198297,1,0,0:0:0:0:
64,192,198447,128,0,198747:0:0:0:0:
448,192,198597,1,0,0:0:0:0:
192,192,198747,1,2,0:0:0:0:
320,192,198747,1,8,0:0:0:0:
448,192,198747,128,0,199047:0:0:0:0:
64,192,198897,1,0,0:0:0:0:
192,192,199047,1,0,0:0:0:0:
320,192,199197,1,0,0:0:0:0:
64,192,199347,1,2,0:0:0:0:
192,192,199347,128,0,199647:0:0:0:0:
448,192,199497,1,0,0:0:0:0:
320,192,199647,128,0,199947:0:0:0:0:
64,192,199797,1,0,0:0:0:0:
64,192,199947,1,2,0:0:0:0:
192,192,199947,1,8,0:0:0:0:
448,192,199947,128,0,200247:0:0:0:0:
320,192,200097,1,0,0:0:0:0:
64,192,200247,128,0,200547:0:0:0:0:
192,192,200397,1,0,0:0:0:0:
320,192,200547,1,2,0:0:0:0:
448,192,200547,128,0,200847:0:0:0:0:
192,192,200697,1,0,0:0:0:0:
64,192,200847,128,0,201147:0:0:0:0:
320,192,200997,1,0,0:0:0:0:
192,192,201147,1,8,0:0:0:0:
320,192,201147,1,2,0:0:0:0:
448,192,201147,128,0,201447:0:0:0:0:
64,192,201297,1,0,0:0:0:0:
192,192,201447,128,0,201897:0:0:0:0:
64,192,201597,1,0,0:0:0:0:
320,192,201747,1,2,0:0:0:0:
448,192,201747,1,0,0:0:0:0:
64,192,201897,1,0,0:0:0:0:
320,192,202047,128,0,202647:0:0:0:0:
448,192,202197,1,0,0:0:0:0:
64,192,202347,1,2,0:0:0:0:
192,192,202347,1,8,0:0:0:0:
448,192,202347,1,0,0:0:0:0:
64,192,202497,1,0,0:0:0:0:
192,192,202647,128,0,203247:0:0:0:0:
448,192,202797,1,0,0:0:0:0:
64,192,202947,1,2,0:0:0:0:
320,192,202947,1,0,0:0:0:0:
320,192,203097,1,0,0:0:0:0:
448,192,203247,128,0,203547:0:0:0:0:
64,192,203397,1,0,0:0:0:0:
64,192,203547,1,8,0:0:0:0:
192,192,203547,1,2,0:0:0:0:
320,192,203547,1,0,0:0:0:0:
448,192,203697,1,0,0:0:0:0:
192,192,203847,128,0,204147:0:0:0:0:
64,192,203997,1,0,0:0:0:0:
320,192,204147,128,2,204747:0:0:0:0:
448,192,204147,1,0,0:0:0:0:
64,192,204297,1,0,0:0:0:0:
192,192,204447,1,0,0:0:0:0:
448,192,204597,1,0,0:0:0:0:
64,192,204747,1,8,0:0:0:0:
192,192,204747,1,2,0:0:0:0:
448,192,204747,1,0,0:0:0:0:
320,192,204897,1,0,0:0:0:0:
64,192,205047,128,0,205347:0:0:0:0:
192,192,205197,1,0,0:0:0:0:
320,192,205347,128,2,205647:0:0:0:0:
448,192,205347,1,0,0:0:0:0:
64,192,205497,1,0,0:0:0:0:
192,192,205647,128,0,205947:0:0:0:0:
448,192,205797,1,0,0:0:0:0:
64,192,205947,128,2,206172:0:0:0:0:
320,192,205947,1,8,0:0:0:0:
448,192,205947,1,0,0:0:0:0:
192,192,206097,1,0,0:0:0:0:
320,192,206172,128,0,206397:0:0:0:0:
448,192,206247,1,0,0:0:0:0:
192,192,206397,128,0,206547:0:0:0:0:
64,192,206547,1,2,0:0:0:0:
448,192,206547,128,0,207147:0:0:0:0:
192,192,206697,1,0,0:0:0:0:
320,192,206847,1,0,0:0:0:0:
64,192,206997,1,0,0:0:0:0:
64,192,207147,1,8,0:0:0:0:
192,192,207147,1,2,0:0:0:0:
320,192,207147,1,0,0:0:0:0:
448,192,207297,1,0,0:0:0:0:
192,192,207447,128,0,207747:0:0:0:0:
448,192,207597,1,0,0:0:0:0:
64,192,207747,128,2,208047:0:0:0:0:
320,192,207747,1,0,0:0:0:0:
448,192,207897,1,0,0:0:0:0:
320,192,208047,128,0,208347:0:0:0:0:
192,192,208197,1,0,0:0:0:0:
64,192,208347,1,2,0:0:0:0:
192,192,208347,128,8,208647:0:0:0:0:
448,192,208347,1,0,0:0:0:0:
320,192,208497,1,0,0:0:0:0:
448,192,208647,128,0,208947:0:0:0:0:
320,192,208797,1,0,0:0:0:0:
64,192,208947,128,2,209547:0:0:0:0:
192,192,208947,1,0,0:0:0:0:
320,192,209097,1,0,0:0:0:0:
448,192,209247,1,0,0:0:0:0:
192,192,209397,1,0,0:0:0:0:
192,192,209547,1,2,0:0:0:0:
320,192,209547,1,8,0:0:0:0:
448,192,209547,1,0,0:0:0:0:
64,192,209697,1,0,0:0:0:0:
448,192,209847,128,0,210147:0:0:0:0:
320,192,209997,1,0,0:0:0:0:
64,192,210147,1,2,0:0:0:0:
192,192,210147,128,0,210447:0:0:0:0:
320,192,210297,1,0,0:0:0:0:
448,192,210447,128,0,210747:0:0:0:0:
64,192,210597,1,0,0:0:0:0:
64,192,210747,1,8,0:0:0:0:
192,192,210747,128,2,211047:0:0:0:0:
320,192,210747,1,0,0:0:0:0:
448,192,210897,1,0,0:0:0:0:
64,192,211047,128,0,211347:0:0:0:0:
320,192,211197,1,0,0:0:0:0:
192,192,211347,1,2,0:0:0:0:
448,192,211347,1,0,0:0:0:0:
64,192,211497,1,0,0:0:0:0:
320,192,211647,1,0,0:0:0:0:
192,192,211797,1,0,0:0:0:0:
64,192,211947,1,2,0:0:0:0:
320,192,211947,1,8,0:0:0:0:
448,192,211947,1,0,0:0:0:0:
192,192,212097,1,0,0:0:0:0:
320,192,212247,128,0,212547:0:0:0:0:
448,192,212397,1,0,0:0:0:0:
64,192,212547,1,2,0:0:0:0:
192,192,212547,128,0,212847:0:0:0:0:
320,192,212697,1,0,0:0:0:0:
448,192,212847,128,0,213147:0:0:0:0:
64,192,212997,1,0,0:0:0:0:
64,192,213147,128,8,213447:0:0:0:0:
192,192,213147,1,2,0:0:0:0:
320,192,213147,1,0,0:0:0:0:
448,192,213297,1,0,0:0:0:0:
320,192,213447,128,0,213747:0:0:0:0:
192,192,213597,1,0,0:0:0:0:
64,192,213747,1,2,0:0:0:0:
448,192,213747,128,0,214347:0:0:0:0:
192,192,214047,1,0,0:0:0:0:
64,192,214347,1,0,0:0:0:40:Clap.wav
192,192,214347,1,0,0:0:0:0:
320,192,214347,1,0,0:0:0:0:
64,192,214647,128,0,214947:0:0:0:0:
192,192,214947,128,0,215247:0:0:0:0:
320,192,215247,128,2,215547:0:0:0:0:
448,192,215247,1,0,0:0:0:0:
64,192,215547,1,0,0:0:0:40:Clap.wav
192,192,215547,1,0,0:0:0:0:
448,192,215547,128,0,215847:0:0:0:0:
192,192,215847,128,0,216147:0:0:0:0:
64,192,216147,1,2,0:0:0:0:
320,192,216147,128,0,216747:0:0:0:0:
448,192,216447,1,0,0:0:0:0:
64,192,216747,1,0,0:0:0:40:Clap.wav
192,192,216747,1,0,0:0:0:0:
448,192,216747,1,0,0:0:0:0:
448,192,217047,128,0,217347:0:0:0:0:
320,192,217347,128,0,217647:0:0:0:0:
64,192,217647,1,2,0:0:0:0:
192,192,217647,128,0,217947:0:0:0:0:
64,192,217947,1,0,0:0:0:40:Clap.wav
320,192,217947,1,0,0:0:0:0:
448,192,217947,128,0,218247:0:0:0:0:
192,192,218247,128,0,218547:0:0:0:0:
64,192,218547,128,2,219147:0:0:0:0:
448,192,218547,1,0,0:0:0:0:
320,192,218847,1,0,0:0:0:0:
192,192,219147,1,0,0:0:0:40:Clap.wav
320,192,219147,1,0,0:0:0:0:
448,192,219147,1,0,0:0:0:0:
320,192,219447,128,0,219747:0:0:0:0:
192,192,219747,128,2,220047:0:0:0:0:
448,192,219747,1,0,0:0:0:0:
320,192,220047,128,0,220197:0:0:0:0:
64,192,220197,128,0,220497:0:0:0:0:
192,192,220347,1,2,0:0:0:0:
320,192,220347,1,0,0:0:0:40:Clap.wav
448,192,220347,1,0,0:0:0:0:
448,192,220497,128,0,220647:0:0:0:0:
320,192,220647,128,0,220947:0:0:0:0:
64,192,220947,128,2,221097:0:0:0:0:
192,192,220947,1,4,0:0:0:0:
448,192,220947,1,0,0:0:0:0:
320,192,221097,128,0,221247:0:0:0:0:
192,192,221247,128,0,221397:0:0:0:0:
448,192,221397,128,0,221547:0:0:0:0:
64,192,221547,1,8,0:0:0:0:
192,192,221547,1,2,0:0:0:0:
320,192,221547,1,0,0:0:0:0:
64,192,221697,128,0,221847:0:0:0:0:
192,192,221847,1,0,0:0:0:0:
320,192,221997,128,0,222147:0:0:0:0:
64,192,222147,1,2,0:0:0:0:
448,192,222147,1,0,0:0:0:0:
192,192,222297,128,0,222447:0:0:0:0:
320,192,222447,128,0,222597:0:0:0:0:
448,192,222447,1,0,0:0:0:0:
64,192,222597,1,0,0:0:0:0:
192,192,222747,1,2,0:0:0:0:
320,192,222747,1,8,0:0:0:0:
448,192,222747,128,0,222897:0:0:0:0:
64,192,222897,1,0,0:0:0:0:
192,192,223047,128,0,223197:0:0:0:0:
320,192,223197,1,0,0:0:0:0:
64,192,223347,128,2,223497:0:0:0:0:
448,192,223347,1,0,0:0:0:0:
192,192,223497,128,0,223647:0:0:0:0:
320,192,223647,128,0,223797:0:0:0:0:
448,192,223797,128,0,223947:0:0:0:0:
64,192,223947,1,8,0:0:0:0:
192,192,223947,1,2,0:0:0:0:
320,192,223947,1,0,0:0:0:0:
448,192,224097,128,0,224247:0:0:0:0:
192,192,224247,1,0,0:0:0:0:
64,192,224397,128,0,224547:0:0:0:0:
320,192,224547,1,2,0:0:0:0:
448,192,224547,1,0,0:0:0:0:
192,192,224697,128,0,224847:0:0:0:0:
64,192,224847,1,0,0:0:0:0:
320,192,224847,128,0,224997:0:0:0:0:
448,192,224997,1,0,0:0:0:0:
64,192,225147,128,2,225297:0:0:0:0:
192,192,225147,1,8,0:0:0:0:
320,192,225147,1,0,0:0:0:0:
448,192,225297,1,0,0:0:0:0:
192,192,225447,128,0,225597:0:0:0:0:
320,192,225597,1,0,0:0:0:0:
64,192,225747,1,2,0:0:0:0:
448,192,225747,128,0,225897:0:0:0:0:
320,192,225897,128,0,226047:0:0:0:0:
192,192,226047,128,0,226197:0:0:0:0:
64,192,226197,128,0,226347:0:0:0:0:
192,192,226347,1,2,0:0:0:0:
320,192,226347,1,8,0:0:0:0:
448,192,226347,1,0,0:0:0:0:
64,192,226497,128,0,226647:0:0:0:0:
192,192,226647,1,0,0:0:0:0:
320,192,226797,128,0,226947:0:0:0:0:
64,192,226947,1,2,0:0:0:0:
192,192,226947,1,0,0:0:0:0:
448,192,227097,128,0,227247:0:0:0:0:
192,192,227247,1,0,0:0:0:0:
320,192,227247,128,0,227397:0:0:0:0:
64,192,227397,1,0,0:0:0:0:
192,192,227547,128,8,227697:0:0:0:0:
320,192,227547,1,2,0:0:0:0:
448,192,227547,1,0,0:0:0:0:
64,192,227697,1,0,0:0:0:0:
448,192,227847,128,0,227997:0:0:0:0:
320,192,227997,1,0,0:0:0:0:
64,192,228147,128,2,228297:0:0:0:0:
192,192,228147,1,0,0:0:0:0:
448,192,228297,1,0,0:0:0:0:
320,192,228447,128,0,228597:0:0:0:0:
192,192,228597,128,0,228747:0:0:0:0:
64,192,228747,1,2,0:0:0:0:
320,192,228747,1,8,0:0:0:0:
448,192,228747,1,0,0:0:0:0:
64,192,228897,128,0,229047:0:0:0:0:
320,192,229047,1,0,0:0:0:0:
64,192,229197,128,0,229347:0:0:0:0:
320,192,229347,1,2,0:0:0:0:
448,192,229347,1,0,0:0:0:0:
192,192,229497,128,0,229647:0:0:0:0:
320,192,229647,1,0,0:0:0:0:
448,192,229647,128,0,229797:0:0:0:0:
64,192,229797,1,0,0:0:0:0:
64,192,229947,128,8,230097:0:0:0:0:
192,192,229947,1,2,0:0:0:0:
320,192,229947,1,0,0:0:0:0:
448,192,230097,1,0,0:0:0:0:
192,192,230247,1,0,0:0:0:0:
320,192,230397,1,0,0:0:0:0:
64,192,230547,128,0,230697:0:0:0:0:
448,192,230547,128,0,231147:0:0:0:0:
192,192,230697,128,0,230847:0:0:0:0:
320,192,230847,128,0,230997:0:0:0:0:
64,192,230997,128,0,231147:0:0:0:0:
192,192,231297,128,0,231447:0:0:0:0:
320,192,231597,128,0,231747:0:0:0:0:
448,192,231747,128,0,232347:0:0:0:0:
64,192,231897,128,0,232047:0:0:0:0:
192,192,232047,128,0,232197:0:0:0:0:
320,192,232347,128,0,232497:0:0:0:0:
192,192,232647,128,0,232797:0:0:0:0:
64,192,232947,128,0,233547:0:0:0:0:
448,192,232947,128,0,233097:0:0:0:0:
320,192,233097,128,0,233247:0:0:0:0:
192,192,233247,128,0,233397:0:0:0:0:
448,192,233397,128,0,233547:0:0:0:0:
192,192,233697,128,0,233847:0:0:0:0:
448,192,233997,128,0,234147:0:0:0:0:
64,192,234147,128,0,234747:0:0:0:0:
320,192,234297,128,0,234447:0:0:0:0:
192,192,234447,128,0,234597:0:0:0:0:
320,192,234747,128,0,234897:0:0:0:0:
448,192,234747,128,0,235347:0:0:0:0:
64,192,235047,128,0,235197:0:0:0:0:
64,192,235347,128,0,235947:0:0:0:0:
192,192,235347,128,0,235497:0:0:0:0:
320,192,235497,128,0,235647:0:0:0:0:
448,192,235647,128,0,235797:0:0:0:0:
192,192,235797,128,0,235947:0:0:0:0:
320,192,236097,128,0,236247:0:0:0:0:
448,192,236397,128,0,236547:0:0:0:0:
64,192,236547,128,0,237147:0:0:0:0:
192,192,236697,128,0,236847:0:0:0:0:
320,192,236847,128,0,236997:0:0:0:0:
448,192,237147,128,0,237297:0:0:0:0:
64,192,237447,128,0,237597:0:0:0:0:
192,192,237747,128,0,237897:0:0:0:0:
448,192,237747,128,0,238347:0:0:0:0:
320,192,238047,128,0,238197:0:0:0:0:
64,192,238197,128,0,238347:0:0:0:0:
192,192,238497,128,0,238647:0:0:0:0:
320,192,238797,1,0,0:0:0:0:
64,192,239097,1,0,0:0:0:0:
448,192,239247,1,0,0:0:0:0:
320,192,239547,1,0,0:0:0:0:
