osu file format v14

[General]
AudioFilename: audio.mp3
AudioLeadIn: 0
PreviewTime: 43441
Countdown: 0
SampleSet: Soft
StackLeniency: 0.4
Mode: 0
LetterboxInBreaks: 0
WidescreenStoryboard: 0

[Editor]
Bookmarks: 32479,61556,77941,83479,85326,100095,114864,129633,144403,155479,170941
DistanceSpacing: 0.8
BeatDivisor: 4
GridSize: 16
TimelineZoom: 2.5

[Metadata]
Title:Halzion
TitleUnicode:ハルジオン
Artist:YOASOBI
ArtistUnicode:YOASOBI
Creator:Defy
Version:The Images of My Life
Source:
Tags:japanese pop jpop j-pop 幾田りら Ikuta Rira Lilas ayase ikura the book harujion airiesu mujina slyze- mousepikachu ioexception deadcode ceo of osu
BeatmapID:2852116
BeatmapSetID:1380291

[Difficulty]
HPDrainRate:5
CircleSize:4.1
OverallDifficulty:9
ApproachRate:9.4
SliderMultiplier:2.5
SliderTickRate:1

[Events]
//Background and Video events
0,0,"x.jpg",0,0
Video,0,"halzion-nosound.mp4"
//Break Periods
//Storyboard Layer 0 (Background)
//Storyboard Layer 1 (Fail)
//Storyboard Layer 2 (Pass)
//Storyboard Layer 3 (Foreground)
//Storyboard Layer 4 (Overlay)
//Storyboard Sound Samples

[TimingPoints]
403,461.538461538462,4,2,1,55,1,0
403,-90.9090909090909,4,2,1,55,0,0
7787,-90.9090909090909,4,2,1,65,0,0
13326,-125,4,2,1,55,0,0
15172,-125,4,2,1,50,0,0
29941,-100,4,2,1,60,0,0
43556,-100,4,2,1,55,0,0
44710,-76.9230769230769,4,2,1,75,0,1
68710,-76.9230769230769,4,2,1,70,0,0
68941,-76.9230769230769,4,2,1,80,0,0
70556,-125,4,2,1,50,0,0
77941,-90.9090909090909,4,2,1,65,0,0
83479,-90.9090909090909,4,2,1,70,0,0
85326,-111.111111111111,4,2,1,60,0,0
100095,-99.9999999999999,4,2,1,60,0,0
128941,-125,4,2,1,60,0,0
129633,-99.9999999999999,4,2,1,55,0,0
144403,-142.857142857143,4,2,1,40,0,0
153633,-142.857142857143,4,2,1,70,0,0
155479,-76.9230769230769,4,2,1,80,0,1
184095,-76.9230769230769,4,2,1,40,0,1
185018,-99.9999999999999,4,2,1,55,0,0
190556,-99.9999999999999,4,2,1,45,0,0
191364,-99.9999999999999,4,2,1,5,0,0

[Colours]
Combo1 : 255,128,192
Combo2 : 128,255,255
Combo3 : 255,128,255
Combo4 : 0,255,255

[HitObjects]
44,76,403,6,0,P|106:46|173:69,1,137.500004196167,2|0,3:2|0:0,0:0:0:0:
238,140,749,2,0,P|207:79|226:15,1,137.500004196167,2|2,3:2|0:0,0:0:0:0:
114,136,1095,2,0,L|114:170,4,34.3750010490418,2|2|2|2|2,3:2|0:0|0:0|0:0|0:0,0:0:0:0:
182,359,1556,5,2,1:2:0:0:
284,345,1787,5,2,0:0:0:0:
330,248,2018,5,2,0:0:0:0:
311,149,2249,6,0,P|375:168|434:137,1,137.500004196167,2|0,3:2|0:0,0:0:0:0:
478,73,2595,2,0,L|460:209,1,137.500004196167,2|2,3:2|0:0,0:0:0:0:
367,90,2941,2,0,L|364:49,4,34.3750010490418,2|2|2|2|2,3:2|0:0|0:0|0:0|0:0,0:0:0:0:
475,324,3403,5,2,1:2:0:0:
359,278,3633,5,2,0:0:0:0:
265,343,3864,5,2,0:0:0:0:
181,249,4095,6,0,B|96:251|134:301|45:294,1,137.500004196167,2|0,3:2|0:0,0:0:0:0:
20,228,4441,2,0,P|30:294|-10:355,1,137.500004196167,2|2,3:2|0:0,0:0:0:0:
166,341,4787,2,0,L|170:382,4,34.3750010490418,2|2|2|2|2,3:2|0:0|0:0|0:0|0:0,0:0:0:0:
20,228,5249,5,2,1:2:0:0:
87,138,5479,5,2,0:0:0:0:
42,42,5710,5,2,0:0:0:0:
267,54,5941,6,0,P|203:74|145:41,1,137.500004196167,2|0,3:2|0:0,0:0:0:0:
344,8,6287,2,0,P|310:66|331:129,1,137.500004196167,2|2,3:2|0:0,0:0:0:0:
400,73,6633,2,0,L|438:70,4,34.3750010490418,2|2|2|2|2,3:2|0:0|0:0|0:0|0:0,0:0:0:0:
352,233,7095,5,2,1:2:0:0:
394,313,7326,5,2,0:0:0:0:
479,335,7556,5,2,0:0:0:0:
296,301,7787,6,0,P|230:287|172:321,1,137.500004196167,6|2,3:2|0:0,0:0:0:0:
69,384,8133,2,0,P|81:352|81:317,1,68.7500020980836,2|8,0:0|1:0,0:0:0:0:
17,248,8364,1,2,0:0:0:0:
172,321,8479,2,0,P|166:287|149:257,1,68.7500020980836,2|0,0:0|0:0,0:0:0:0:
38,155,8710,5,0,3:2:0:0:
37,155,8941,6,0,P|52:124|52:90,1,68.7500020980836,2|0,0:0|0:0,0:0:0:0:
273,62,9172,2,0,P|253:33|223:17,1,68.7500020980836,8|0,1:0|0:0,0:0:0:0:
167,140,9403,2,0,P|165:106|147:76,1,68.7500020980836,2|0,0:0|0:0,0:0:0:0:
308,162,9633,6,0,P|370:138|390:75,1,137.500004196167,2|2,3:2|0:0,0:0:0:0:
458,18,9979,2,0,P|475:49|478:82,1,68.7500020980836,2|8,0:0|1:0,0:0:0:0:
428,209,10210,1,2,0:0:0:0:
340,30,10326,2,0,P|370:48|390:75,1,68.7500020980836,2|0,0:0|0:0,0:0:0:0:
341,251,10556,5,0,3:0:0:0:
340,251,10787,6,0,P|335:284|342:318,1,68.7500020980836,2|0,0:0|0:0,0:0:0:0:
229,269,11018,2,0,P|241:300|263:326,1,68.7500020980836,8|0,1:0|0:0,0:0:0:0:
141,340,11249,2,0,P|167:361|199:372,1,68.7500020980836,2|0,0:0|0:0,0:0:0:0:
17,184,11479,6,0,P|41:247|18:310,1,137.500004196167,2|2,3:2|0:0,0:0:0:0:
31,97,11826,2,0,P|64:103|87:128,1,68.7500020980836,2|8,0:0|1:0,0:0:0:0:
130,247,12056,1,2,0:0:0:0:
157,36,12172,2,0,P|182:57|190:90,1,68.7500020980836,2|2,0:0|0:0,0:0:0:0:
227,272,12403,5,0,3:2:0:0:
280,284,12518,1,0,3:2:0:0:
327,256,12633,1,2,3:2:0:0:
340,202,12749,1,0,3:2:0:0:
317,158,12864,5,8,1:0:0:0:
325,100,12979,1,8,1:0:0:0:
370,66,13095,1,8,1:0:0:0:
433,81,13210,1,8,1:0:0:0:
470,131,13326,6,0,L|476:195,1,50,2|2,0:0|0:0,0:0:0:0:
402,316,13556,1,2,0:0:0:0:
417,196,13787,1,2,0:0:0:0:
468,206,13903,1,2,0:0:0:0:
492,248,14018,1,2,0:0:0:0:
340,202,14133,6,0,P|291:198|256:163,1,100,2|2,0:0|0:0,0:0:0:0:
193,59,14479,2,0,L|185:108,1,50,8|0,3:0|3:0,0:0:0:0:
130,218,14710,5,4,3:0:0:0:
164,255,14826,1,0,3:0:0:0:
159,280,14941,1,4,3:0:0:0:
145,301,15056,1,4,3:0:0:0:
86,368,15172,6,0,P|134:346|184:352,2,100,2|2|2,3:2|0:0|0:0,0:0:0:0:
2,312,15864,2,0,P|21:266|11:217,1,100,2|0,3:2|0:0,0:0:0:0:
0,99,16326,6,0,P|48:109|95:93,1,100,2|0,0:0|1:0,0:0:0:0:
273,33,16787,2,0,P|224:43|177:27,1,100,2|0,0:0|3:0,0:0:0:0:
95,93,17249,5,2,0:0:0:0:
166,166,17479,1,2,0:0:0:0:
115,254,17710,2,0,P|92:298|93:347,1,100,2|0,3:2|0:0,0:0:0:0:
256,256,18172,1,0,3:0:0:0:
256,256,18287,1,0,3:0:0:0:
256,256,18403,2,0,P|278:300|277:349,1,100,0|2,1:0|0:0,0:0:0:0:
422,270,18864,6,0,L|414:156,2,100,2|2|2,3:2|0:0|0:0,0:0:0:0:
441,80,19556,2,0,B|334:64|363:159|232:106,1,200,2|2,3:2|0:0,0:0:0:0:
441,80,20249,1,0,1:0:0:0:
290,27,20479,2,0,P|258:64|252:113,1,100,2|0,0:0|3:0,0:0:0:0:
340,209,20941,1,2,0:0:0:0:
340,209,21056,1,0,0:0:0:0:
340,209,21172,1,2,0:0:0:0:
172,151,21403,6,0,B|131:126|131:126|77:146|64:210|100:278,1,200,2|0,3:2|3:0,0:0:0:0:
102,265,21979,1,0,3:0:0:0:
117,267,22095,1,0,1:0:0:0:
29,155,22326,1,2,1:2:0:0:
21,142,22441,1,0,1:0:0:0:
12,127,22556,6,0,L|25:15,2,100,2|2|2,3:2|0:0|0:0,0:0:0:0:
6,265,23249,2,0,P|78:261|124:204,1,150,2|0,3:2|0:0,0:0:0:0:
126,185,23710,1,2,0:0:0:0:
127,363,23941,1,2,1:2:0:0:
245,239,24172,2,0,P|294:232|341:246,1,100,2|0,0:0|3:0,0:0:0:0:
304,131,24633,5,2,0:0:0:0:
304,131,24749,1,2,3:2:0:0:
304,131,24864,1,2,0:0:0:0:
483,76,25095,2,0,B|407:69|407:69|374:42|374:42|293:35,1,200,2|2,3:2|3:2,0:0:0:0:
447,0,25787,1,2,1:2:0:0:
398,155,26018,6,0,P|389:220|422:269,1,100,2|0,0:0|3:0,0:0:0:0:
251,248,26479,1,2,0:0:0:0:
251,248,26595,1,2,3:2:0:0:
251,248,26710,1,2,0:0:0:0:
183,102,26941,2,0,B|153:52|153:52|72:65|63:175,1,200,2|2,3:2|0:0,0:0:0:0:
34,9,27633,1,2,1:2:0:0:
135,178,27864,6,0,P|181:192|227:175,1,100,2|0,0:0|3:0,0:0:0:0:
163,65,28326,1,2,0:0:0:0:
163,65,28441,1,2,3:2:0:0:
163,65,28556,1,2,0:0:0:0:
251,248,28787,1,8,3:0:0:0:
367,82,29018,5,0,3:0:0:0:
404,91,29133,1,4,3:0:0:0:
446,67,29249,1,2,1:2:0:0:
358,184,29479,5,2,3:2:0:0:
385,225,29595,1,0,1:0:0:0:
388,274,29710,1,2,1:2:0:0:
366,318,29826,1,0,1:0:0:0:
324,344,29941,6,0,P|294:352|263:349,1,62.5,6|0,3:2|0:0,0:0:0:0:
218,268,30172,2,0,P|187:260|157:263,1,62.5,2|0,0:0|0:0,0:0:0:0:
53,342,30403,2,0,L|60:280,1,62.5,8|0,1:0|0:0,0:0:0:0:
161,170,30633,2,0,L|155:108,1,62.5,2|0,3:2|0:0,0:0:0:0:
16,24,30864,5,2,3:2:0:0:
16,24,31095,6,0,P|5:54|5:85,1,62.5,2|0,0:0|0:0,0:0:0:0:
133,50,31326,2,0,P|138:80|154:107,1,62.5,8|0,1:0|0:0,0:0:0:0:
247,14,31556,2,0,P|266:37|293:53,1,62.5,2|0,3:2|0:0,0:0:0:0:
432,15,31787,6,0,L|430:77,1,62.5,2|0,3:2|0:0,0:0:0:0:
275,154,32018,2,0,L|276:216,1,62.5,2|0,0:0|0:0,0:0:0:0:
449,188,32249,2,0,L|447:250,1,62.5,8|0,1:0|0:0,0:0:0:0:
358,303,32479,2,0,L|359:365,1,62.5,2|0,3:2|0:0,0:0:0:0:
215,290,32710,5,2,3:2:0:0:
215,290,32941,6,0,P|185:301|155:297,1,62.5,2|0,0:0|0:0,0:0:0:0:
57,169,33172,2,0,P|80:188|92:217,1,62.5,8|0,1:0|0:0,0:0:0:0:
32,366,33403,2,0,P|37:335|56:311,1,62.5,2|0,3:2|0:0,0:0:0:0:
211,199,33633,6,0,L|291:191,1,62.5,2|0,3:2|0:0,0:0:0:0:
467,145,33864,2,0,L|387:153,1,62.5,2|0,0:0|0:0,0:0:0:0:
306,31,34095,2,0,L|314:111,1,62.5,8|0,1:0|0:0,0:0:0:0:
467,145,34326,2,0,L|459:65,1,62.5,2|0,3:2|0:0,0:0:0:0:
306,31,34556,5,2,3:2:0:0:
412,214,34787,1,2,0:0:0:0:
383,74,35018,1,8,1:0:0:0:
287,145,35249,2,0,P|219:156|172:123,1,125,2|0,3:2|3:0,0:0:0:0:
304,138,35710,5,2,0:0:0:0:
239,77,35941,1,8,1:0:0:0:
223,222,36172,1,2,3:2:0:0:
106,180,36403,1,2,3:2:0:0:
106,180,36518,2,0,P|93:241|121:295,1,125,8|0,1:0|3:0,0:0:0:0:
51,341,36864,2,0,B|162:379|126:295|248:332,1,187.5,8|0,1:0|1:0,0:0:0:0:
345,238,37326,6,0,P|336:267|337:298,1,62.5,2|0,3:2|0:0,0:0:0:0:
277,109,37556,2,0,P|285:138|284:169,1,62.5,2|0,0:0|0:0,0:0:0:0:
186,148,37787,2,0,L|278:145,1,62.5,8|0,1:0|0:0,0:0:0:0:
383,109,38018,2,0,L|474:117,1,62.5,2|0,3:2|0:0,0:0:0:0:
480,208,38249,5,2,3:2:0:0:
480,208,38479,6,0,P|474:238|479:269,1,62.5,2|0,0:0|0:0,0:0:0:0:
345,194,38710,2,0,P|355:223|375:247,1,62.5,8|0,1:0|0:0,0:0:0:0:
233,272,38941,2,0,P|257:291|285:303,1,62.5,2|0,3:2|0:0,0:0:0:0:
123,353,39172,6,0,L|131:291,1,62.5,2|0,3:2|0:0,0:0:0:0:
219,167,39403,2,0,L|211:105,1,62.5,2|0,0:0|0:0,0:0:0:0:
39,207,39633,6,0,L|106:203,1,62.5,8|0,1:0|0:0,0:0:0:0:
211,105,39864,2,0,L|278:109,1,62.5,2|0,3:2|0:0,0:0:0:0:
491,190,40095,6,0,P|475:130|500:74,1,125,2|2,3:2|0:0,0:0:0:0:
424,251,40556,2,0,P|439:310|414:366,1,125,8|2,1:0|3:2,0:0:0:0:
329,304,41018,5,6,3:2:0:0:
364,174,41249,5,0,1:0:0:0:
359,156,41364,1,0,1:0:0:0:
355,137,41479,1,0,1:0:0:0:
260,195,41710,5,0,3:0:0:0:
255,213,41826,1,0,3:0:0:0:
194,267,41941,5,0,1:0:0:0:
186,255,42056,2,0,L|172:176,1,62.5,0|0,1:0|1:0,0:0:0:0:
150,121,42287,1,0,1:0:0:0:
106,110,42403,1,0,1:0:0:0:
77,74,42518,1,0,3:0:0:0:
76,28,42633,2,0,L|3:40,1,62.5,2|0,3:2|3:0,0:0:0:0:
285,93,42864,5,2,3:2:0:0:
285,93,43210,5,0,3:0:0:0:
285,93,43556,5,2,0:0:0:0:
186,357,43787,1,2,0:0:0:0:
241,276,44018,1,2,0:0:0:0:
328,243,44249,1,2,0:0:0:0:
393,250,44479,1,2,0:0:0:0:
436,288,44710,6,0,P|420:247|426:204,1,81.2499962806703,6|0,3:2|0:0,0:0:0:0:
472,136,44941,1,2,0:0:0:0:
344,82,45056,2,0,P|256:84|218:155,1,162.499992561341,2|2,3:2|0:0,0:0:0:0:
295,284,45403,2,0,P|305:241|335:210,1,81.2499962806703,2|0,0:0|0:0,0:0:0:0:
123,295,45633,6,0,L|139:401,1,81.2499962806703,2|0,0:0|0:0,0:0:0:0:
209,233,45864,1,2,0:0:0:0:
68,179,45979,2,0,B|167:193|123:123|243:145,1,162.499992561341,2|2,3:2|0:2,0:0:0:0:
88,94,46326,2,0,L|104:-12,1,81.2499962806703,2|0,0:0|0:0,0:0:0:0:
332,18,46556,6,0,L|343:115,1,81.2499962806703,2|0,3:2|0:0,0:0:0:0:
402,276,46787,2,0,L|411:189,1,81.2499962806703,2|0,0:0|0:0,0:0:0:0:
512,70,47018,6,0,L|502:156,1,81.2499962806703,8|0,1:0|0:0,0:0:0:0:
266,176,47249,2,0,L|256:89,1,81.2499962806703,2|0,0:0|0:0,0:0:0:0:
45,214,47479,6,0,P|97:222|135:207,1,81.2499962806703,2|0,0:0|0:0,0:0:0:0:
178,87,47710,1,2,0:0:0:0:
10,24,47826,2,0,B|70:3|70:3|100:55|73:141,1,162.499992561341,2|2,3:2|0:2,0:0:0:0:
144,305,48172,2,0,P|191:281|213:247,1,81.2499962806703,2|0,0:0|0:0,0:0:0:0:
242,12,48403,6,0,L|332:20,1,81.2499962806703,2|0,3:2|0:0,0:0:0:0:
508,133,48633,2,0,L|417:141,1,81.2499962806703,2|0,0:0|0:0,0:0:0:0:
272,193,48864,6,0,P|291:231|286:273,1,81.2499962806703,8|0,1:0|0:0,0:0:0:0:
95,30,49095,2,0,P|75:68|80:110,1,81.2499962806703,2|0,0:0|0:0,0:0:0:0:
364,107,49326,6,0,L|375:196,1,81.2499962806703,2|0,3:2|0:0,0:0:0:0:
139,384,49556,2,0,L|142:296,1,81.2499962806703,0|0,3:0|0:0,0:0:0:0:
171,17,49787,6,0,P|131:34|88:27,1,81.2499962806703,8|0,1:0|0:0,0:0:0:0:
287,120,50018,2,0,P|326:102|369:109,1,81.2499962806703,2|0,0:0|0:0,0:0:0:0:
454,273,50249,6,0,B|371:321|382:227|286:273,1,162.499992561341,2|2,3:2|0:0,0:0:0:0:
225,280,50595,2,0,P|237:318|268:343,1,81.2499962806703,2|8,0:0|1:0,0:0:0:0:
256,200,50826,2,0,P|216:191|179:205,1,81.2499962806703,2|0,0:0|0:0,0:0:0:0:
397,359,51056,1,0,0:0:0:0:
428,357,51172,5,2,3:2:0:0:
429,333,51287,1,2,0:0:0:0:
430,309,51402,1,2,0:0:0:0:
431,286,51518,1,2,0:0:0:0:
454,273,51633,6,0,L|443:192,1,81.2499962806703,8|0,1:0|0:0,0:0:0:0:
497,86,51864,2,0,L|508:-1,1,81.2499962806703,2|8,0:0|1:0,0:0:0:0:
326,131,52095,6,0,B|229:117|271:187|149:165,1,162.499992561341,6|2,3:2|0:0,0:0:0:0:
138,15,52441,1,0,0:0:0:0:
173,15,52556,2,0,P|198:48|191:90,1,81.2499962806703,8|0,1:0|0:0,0:0:0:0:
81,92,52787,1,0,0:0:0:0:
24,274,52903,2,0,B|58:169|-25:204|25:90,1,162.499992561341,2|0,0:0|0:0,0:0:0:0:
177,375,53249,6,0,P|175:331|147:295,1,81.2499962806703,2|0,3:2|0:0,0:0:0:0:
241,123,53479,2,0,P|202:103|157:108,1,81.2499962806703,8|0,1:0|0:0,0:0:0:0:
243,258,53710,2,0,P|219:221|178:204,1,81.2499962806703,2|0,0:0|0:0,0:0:0:0:
390,187,53941,6,0,B|430:151|430:151|485:175|493:247,1,162.499992561341,2|2,3:2|0:0,0:0:0:0:
478,58,54287,1,2,0:0:0:0:
455,30,54403,2,0,P|416:10|373:14,1,81.2499962806703,8|0,1:0|0:0,0:0:0:0:
263,40,54633,1,2,0:0:0:0:
101,5,54749,2,0,P|150:67|229:67,1,162.499992561341,2|0,0:0|0:0,0:0:0:0:
78,218,55095,6,0,L|78:126,1,81.2499962806703,2|0,3:2|0:0,0:0:0:0:
259,378,55326,2,0,L|338:332,1,81.2499962806703,8|0,1:0|0:0,0:0:0:0:
190,274,55556,2,0,L|236:194,1,81.2499962806703,2|0,0:0|0:0,0:0:0:0:
478,57,55787,6,0,P|395:82|313:55,1,162.499992561341,2|0,3:2|0:0,0:0:0:0:
126,63,56133,1,2,0:0:0:0:
138,40,56249,2,0,P|184:25|243:44,1,81.2499962806703,8|0,1:0|0:0,0:0:0:0:
373,156,56479,2,0,P|327:141|268:160,1,81.2499962806703,2|0,0:0|0:0,0:0:0:0:
138,272,56710,2,0,P|184:257|243:276,1,81.2499962806703,2|0,3:2|0:0,0:0:0:0:
464,285,56941,6,0,L|481:405,1,81.2499962806703,2|0,3:2|0:0,0:0:0:0:
345,166,57172,2,0,L|362:46,1,81.2499962806703,8|0,1:0|0:0,0:0:0:0:
226,285,57403,2,0,L|243:405,1,81.2499962806703,2|0,0:0|0:0,0:0:0:0:
71,210,57633,6,0,B|54:104|129:146|116:21,1,162.499992561341,2|0,3:2|0:0,0:0:0:0:
233,149,57979,2,0,P|198:175|156:182,1,81.2499962806703,2|8,3:2|1:0,0:0:0:0:
29,64,58210,1,0,0:0:0:0:
223,12,58326,2,0,P|265:18|299:45,1,81.2499962806703,2|0,0:0|0:0,0:0:0:0:
309,270,58556,5,2,3:2:0:0:
271,232,58672,1,0,3:0:0:0:
309,195,58787,1,2,3:2:0:0:
346,232,58903,1,0,3:0:0:0:
241,236,59018,5,8,1:0:0:0:
310,168,59133,1,8,1:0:0:0:
378,236,59249,1,8,1:0:0:0:
310,305,59364,1,8,1:0:0:0:
75,295,59479,6,0,P|95:256|91:214,1,81.2499962806703,6|0,3:2|0:0,0:0:0:0:
8,132,59710,1,2,0:0:0:0:
97,58,59826,2,0,P|172:33|247:62,1,162.499992561341,2|2,3:2|0:0,0:0:0:0:
195,206,60172,2,0,P|192:162|167:127,1,81.2499962806703,2|0,0:0|0:0,0:0:0:0:
339,69,60403,6,0,P|378:86|421:81,1,81.2499962806703,2|0,0:0|0:0,0:0:0:0:
507,32,60633,1,2,0:0:0:0:
512,179,60749,2,0,B|526:244|483:284|483:284|434:257,1,162.499992561341,2|2,3:2|3:2,0:0:0:0:
246,138,61095,2,0,P|271:172|311:189,1,81.2499962806703,2|0,0:0|0:0,0:0:0:0:
484,283,61326,6,0,L|476:370,1,81.2499962806703,2|0,3:2|0:0,0:0:0:0:
313,268,61556,2,0,L|305:187,1,81.2499962806703,2|0,3:2|0:0,0:0:0:0:
275,7,61787,6,0,P|234:21|191:16,1,81.2499962806703,8|0,1:0|0:0,0:0:0:0:
85,165,62018,2,0,P|44:150|1:155,1,81.2499962806703,2|0,0:0|0:0,0:0:0:0:
127,373,62249,6,0,P|124:329|143:290,1,81.2499962806703,2|0,0:0|0:0,0:0:0:0:
260,200,62479,1,2,0:0:0:0:
356,322,62595,2,0,P|278:359|192:336,1,162.499992561341,2|2,3:2|3:2,0:0:0:0:
36,226,62941,2,0,P|55:187|91:162,1,81.2499962806703,2|0,0:0|0:0,0:0:0:0:
501,170,63172,6,0,L|387:154,1,81.2499962806703,2|0,3:2|0:0,0:0:0:0:
260,200,63403,2,0,L|146:216,1,81.2499962806703,2|0,0:0|0:0,0:0:0:0:
32,120,63633,6,0,P|46:89|39:27,1,81.2499962806703,8|0,1:0|0:0,0:0:0:0:
86,367,63864,2,0,P|81:323|97:283,1,81.2499962806703,2|0,0:0|0:0,0:0:0:0:
287,0,64095,6,0,L|298:91,1,81.2499962806703,2|0,3:2|0:0,0:0:0:0:
448,251,64326,2,0,L|437:342,1,81.2499962806703,2|0,3:2|0:0,0:0:0:0:
223,161,64556,6,0,P|174:150|135:164,1,81.2499962806703,8|0,1:0|0:0,0:0:0:0:
429,46,64787,2,0,P|478:57|516:42,1,81.2499962806703,2|0,0:0|0:0,0:0:0:0:
353,182,65018,6,0,P|369:221|362:264,1,81.2499962806703,2|0,3:2|0:0,0:0:0:0:
256,336,65249,1,2,0:0:0:0:
0,222,65364,2,0,B|110:194|72:276|191:232,1,162.499992561341,2|2,0:0|3:2,0:0:0:0:
33,384,65710,2,0,P|23:341|32:299,1,81.2499962806703,2|0,3:2|0:0,0:0:0:0:
261,79,65941,6,0,B|237:133|237:133|238:239,1,162.499992561341,2|0,3:2|0:0,0:0:0:0:
323,254,66287,1,0,3:0:0:0:
323,254,66403,6,0,P|366:265|404:244,1,81.2499962806703,8|0,1:0|0:0,0:0:0:0:
218,154,66633,2,0,P|179:172|138:161,1,81.2499962806703,2|8,0:0|1:0,0:0:0:0:
10,43,66864,6,0,B|64:32|64:32|81:89|32:142,1,162.499992561341,6|0,3:2|0:0,0:0:0:0:
0,241,67210,1,2,0:0:0:0:
19,280,67326,2,0,L|117:270,1,81.2499962806703,8|0,1:0|0:0,0:0:0:0:
218,154,67556,2,0,L|316:164,1,81.2499962806703,2|0,0:0|0:0,0:0:0:0:
454,317,67787,6,0,B|455:199|514:255|509:123,1,162.499992561341,2|0,3:2|3:0,0:0:0:0:
427,25,68133,1,2,0:0:0:0:
393,53,68249,2,0,P|374:92|381:134,1,81.2499962806703,8|0,1:0|0:0,0:0:0:0:
290,335,68479,2,0,P|308:295|301:253,1,81.2499962806703,2|0,0:0|0:0,0:0:0:0:
148,75,68710,5,2,3:2:0:0:
148,75,68941,6,0,P|126:112|122:155,1,81.2499962806703,0|0,3:0|0:0,0:0:0:0:
229,288,69172,2,0,P|207:250|171:225,1,81.2499962806703,0|0,3:0|0:0,0:0:0:0:
3,251,69403,2,0,P|46:250|85:232,1,81.2499962806703,0|0,3:0|0:0,0:0:0:0:
226,142,69633,5,2,0:0:0:0:
226,142,69979,1,2,0:0:0:0:
226,142,70326,1,2,0:0:0:0:
262,331,70556,6,0,P|289:285|294:231,1,100,4|0,3:1|0:0,0:0:0:0:
162,67,70903,2,0,P|189:114|233:144,1,100,2|0,3:2|0:0,0:0:0:0:
442,112,71249,2,0,P|388:113|340:135,1,100,2|0,3:2|0:0,0:0:0:0:
408,235,71595,1,2,0:0:0:0:
408,235,71710,2,0,L|416:284,1,50,2|2,0:0|0:0,0:0:0:0:
350,371,71941,5,2,1:2:0:0:
311,340,72056,1,2,0:0:0:0:
262,331,72172,1,2,0:0:0:0:
215,347,72287,1,2,0:0:0:0:
181,382,72403,6,0,P|156:338|155:289,1,100,2|0,3:2|0:0,0:0:0:0:
67,310,72749,2,0,P|67:260|91:216,1,100,2|0,3:2|0:0,0:0:0:0:
4,190,73095,2,0,P|29:147|71:121,1,100,2|0,3:2|0:0,0:0:0:0:
210,99,73441,1,2,0:0:0:0:
210,99,73556,2,0,L|200:25,1,50,2|2,3:2|0:0,0:0:0:0:
398,140,73787,5,2,1:2:0:0:
352,121,73903,1,2,0:0:0:0:
304,133,74018,1,2,0:0:0:0:
273,171,74133,1,2,0:0:0:0:
270,220,74249,6,0,P|264:269|224:306,1,100,2|0,3:2|0:0,0:0:0:0:
86,232,74595,2,0,P|131:212|183:228,1,100,2|0,3:2|0:0,0:0:0:0:
189,384,74941,2,0,P|148:354|137:301,1,100,2|0,3:2|0:0,0:0:0:0:
184,175,75287,1,2,0:0:0:0:
184,175,75403,2,0,L|174:251,1,50,2|2,0:0|0:0,0:0:0:0:
211,49,75633,5,2,1:2:0:0:
258,63,75749,1,2,0:0:0:0:
308,66,75864,1,2,0:0:0:0:
357,56,75979,1,2,0:0:0:0:
402,35,76095,6,0,P|392:83|408:130,1,100,2|0,3:2|0:0,0:0:0:0:
302,148,76441,2,0,P|317:194|355:227,1,100,2|0,3:2|0:0,0:0:0:0:
271,296,76787,2,0,P|308:328|356:337,1,100,2|0,3:2|0:0,0:0:0:0:
445,384,77133,5,2,0:0:0:0:
465,304,77249,1,2,0:0:0:0:
512,222,77364,1,2,0:0:0:0:
492,142,77479,1,2,1:2:0:0:
407,2,77710,5,2,1:2:0:0:
386,81,77826,1,2,1:2:0:0:
306,96,77941,2,0,P|269:100|228:82,1,68.7500020980836,6|2,3:2|0:0,0:0:0:0:
116,19,78172,1,2,0:0:0:0:
141,64,78287,2,0,P|145:101|127:142,1,68.7500020980836,2|8,0:0|1:0,0:0:0:0:
46,253,78518,5,2,0:0:0:0:
95,221,78633,1,2,0:0:0:0:
151,229,78749,2,0,P|183:243|217:239,1,68.7500020980836,2|0,0:0|3:0,0:0:0:0:
345,144,78979,5,2,0:0:0:0:
348,206,79095,1,2,0:0:0:0:
351,268,79210,2,0,L|358:351,1,68.7500020980836,2|8,0:0|1:0,0:0:0:0:
511,253,79441,1,2,0:0:0:0:
488,206,79556,2,0,P|459:181|416:172,1,68.7500020980836,2|2,0:0|0:0,0:0:0:0:
222,170,79787,6,0,L|214:251,1,68.7500020980836,2|2,3:2|0:0,0:0:0:0:
163,362,80018,1,2,0:0:0:0:
118,337,80133,2,0,P|81:333|40:351,1,68.7500020980836,2|8,0:0|1:0,0:0:0:0:
14,198,80364,1,2,0:0:0:0:
59,223,80479,2,0,P|96:227|137:209,2,68.7500020980836,2|2|0,0:0|0:0|3:0,0:0:0:0:
31,95,80826,5,2,0:0:0:0:
80,124,80941,1,2,0:0:0:0:
306,18,81172,5,8,1:0:0:0:
257,47,81287,1,2,0:0:0:0:
510,105,81518,5,2,0:0:0:0:
485,150,81633,2,0,P|481:187|499:228,1,68.7500020980836,2|2,3:2|0:0,0:0:0:0:
484,328,81864,5,2,0:0:0:0:
439,303,81979,2,0,P|402:299|361:317,1,68.7500020980836,2|8,0:0|1:0,0:0:0:0:
264,384,82210,1,2,0:0:0:0:
275,318,82326,1,2,0:0:0:0:
231,268,82441,2,0,P|215:231|217:204,1,68.7500020980836,2|0,0:0|3:0,0:0:0:0:
371,108,82672,5,2,0:0:0:0:
382,153,82787,2,0,L|378:221,1,68.7500020980836,2|2,0:0|0:0,0:0:0:0:
235,113,83018,5,8,1:0:0:0:
168,110,83133,1,2,0:0:0:0:
121,158,83249,1,2,0:0:0:0:
126,224,83364,1,2,0:0:0:0:
263,304,83479,5,8,3:1:0:0:
210,251,83595,1,8,3:1:0:0:
156,304,83710,1,8,3:1:0:0:
210,358,83826,1,8,3:1:0:0:
98,86,84056,6,0,L|108:8,1,68.7500020980836,8|8,3:1|3:1,0:0:0:0:
14,106,84287,1,8,3:1:0:0:
218,79,84518,6,0,L|296:89,1,68.7500020980836,8|8,3:1|1:0,0:0:0:0:
344,27,84749,1,2,3:2:0:0:
445,15,84864,5,2,3:2:0:0:
422,60,84979,1,0,3:0:0:0:
422,111,85095,1,4,3:0:0:0:
445,157,85210,1,4,3:0:0:0:
487,187,85326,6,0,L|487:282,1,56.2499982833863,6|0,3:2|0:0,0:0:0:0:
348,312,85556,2,0,L|341:256,1,56.2499982833863,2|0,0:0|0:0,0:0:0:0:
303,121,85787,2,0,P|256:150|200:148,1,112.499996566773,8|2,1:0|0:0,0:0:0:0:
101,63,86133,1,2,0:0:0:0:
101,63,86249,6,0,L|107:6,2,56.2499982833863,2|2|2,3:2|0:0|3:2,0:0:0:0:
4,115,86595,2,0,P|2:142|10:169,1,56.2499982833863,2|8,0:0|1:0,0:0:0:0:
147,170,86826,2,0,P|148:197|140:224,1,56.2499982833863,2|0,0:0|3:0,0:0:0:0:
13,308,87056,6,0,B|108:266|86:352|199:303,1,168.749994850159,2|2,0:0|0:0,0:0:0:0:
294,282,87518,1,2,0:0:0:0:
294,282,87633,2,0,L|303:370,1,56.2499982833863,8|0,1:0|0:0,0:0:0:0:
445,329,87864,2,0,L|436:417,1,56.2499982833863,2|2,0:0|0:0,0:0:0:0:
349,187,88095,6,0,P|285:169|236:194,1,112.499996566773,2|2,3:2|3:2,0:0:0:0:
140,223,88441,2,0,P|142:196|136:168,1,56.2499982833863,2|8,0:0|1:0,0:0:0:0:
35,39,88672,5,2,0:0:0:0:
74,75,88787,1,2,3:2:0:0:
122,76,88903,2,0,P|185:72|249:162,1,168.749994850159,2|2,0:0|3:2,0:0:0:0:
412,252,89479,6,0,P|398:197|410:143,1,112.499996566773,8|2,1:0|0:0,0:0:0:0:
483,51,89826,1,2,0:0:0:0:
483,51,89941,2,0,L|345:35,1,112.499996566773,2|2,3:2|3:2,0:0:0:0:
260,9,90287,2,0,L|243:89,1,56.2499982833863,2|8,0:0|1:0,0:0:0:0:
175,147,90518,2,0,L|192:227,1,56.2499982833863,2|0,0:0|3:0,0:0:0:0:
277,287,90749,6,0,B|268:343|268:343|203:355|164:318,1,168.749994850159,2|2,0:0|0:0,0:0:0:0:
69,231,91326,2,0,L|63:313,1,56.2499982833863,8|0,1:0|0:0,0:0:0:0:
4,159,91556,2,0,L|-2:77,1,56.2499982833863,2|2,0:0|0:0,0:0:0:0:
46,6,91787,6,0,P|96:28|148:13,1,112.499996566773,0|0,3:0|3:0,0:0:0:0:
255,24,92133,1,0,3:0:0:0:
255,24,92249,2,0,L|265:112,1,56.2499982833863,8|0,1:0|3:0,0:0:0:0:
283,220,92479,5,0,3:0:0:0:
332,194,92595,1,8,1:0:0:0:
386,200,92710,2,0,L|405:284,1,56.2499982833863,6|0,3:2|0:0,0:0:0:0:
499,137,92941,2,0,L|517:53,1,56.2499982833863,2|0,0:0|0:0,0:0:0:0:
368,79,93172,2,0,P|313:65|245:90,1,112.499996566773,8|2,1:0|0:0,0:0:0:0:
150,144,93518,1,2,0:0:0:0:
150,144,93633,2,0,L|152:66,2,56.2499982833863,2|2|0,3:2|0:0|3:2,0:0:0:0:
275,164,93979,6,0,L|285:239,1,56.2499982833863,2|8,0:0|1:0,0:0:0:0:
374,363,94210,2,0,L|384:288,1,56.2499982833863,2|0,0:0|3:0,0:0:0:0:
456,133,94441,6,0,P|439:205|517:263,1,168.749994850159,2|2,0:0|0:0,0:0:0:0:
338,212,94903,1,2,0:0:0:0:
338,212,95018,2,0,L|258:223,1,56.2499982833863,8|0,1:0|0:0,0:0:0:0:
179,291,95249,2,0,L|99:280,1,56.2499982833863,2|2,0:0|0:0,0:0:0:0:
0,222,95479,6,0,P|20:273|8:327,1,112.499996566773,2|2,3:2|3:2,0:0:0:0:
88,197,95826,2,0,L|105:129,1,56.2499982833863,2|8,0:0|1:0,0:0:0:0:
193,52,96056,2,0,L|210:120,1,56.2499982833863,2|2,0:0|3:2,0:0:0:0:
282,219,96287,6,0,P|328:163|284:73,1,168.749994850159,2|2,0:0|0:0,0:0:0:0:
414,13,96749,1,0,0:0:0:0:
414,13,96864,2,0,L|434:102,1,56.2499982833863,8|0,1:0|0:0,0:0:0:0:
512,152,97095,2,0,L|492:241,1,56.2499982833863,2|0,0:0|0:0,0:0:0:0:
376,307,97326,6,0,L|382:227,1,56.2499982833863,2|0,3:2|0:0,0:0:0:0:
277,275,97556,2,0,L|283:195,1,56.2499982833863,2|0,3:2|0:0,0:0:0:0:
465,299,97787,2,0,L|461:356,1,56.2499982833863,8|0,1:0|0:0,0:0:0:0:
337,161,98018,2,0,L|342:105,1,56.2499982833863,0|0,3:0|0:0,0:0:0:0:
244,28,98249,5,2,3:2:0:0:
205,68,98364,1,0,3:0:0:0:
151,81,98479,1,8,1:0:0:0:
99,63,98595,2,0,L|89:3,1,56.2499982833863,0|0,3:0|3:0,0:0:0:0:
21,156,98826,5,0,3:0:0:0:
69,173,98941,1,0,3:0:0:0:
76,228,99056,2,0,L|60:308,1,56.2499982833863,8|0,1:0|0:0,0:0:0:0:
192,155,99287,5,0,3:0:0:0:
192,155,99403,2,0,L|259:141,1,56.2499982833863,2|0,3:2|3:0,0:0:0:0:
289,245,99633,2,0,L|340:199,1,56.2499982833863,2|0,3:2|3:0,0:0:0:0:
418,274,99864,2,0,L|439:208,1,56.2499982833863,2|0,3:2|3:0,0:0:0:0:
472,48,100095,6,0,L|477:131,1,62.5,6|0,3:2|0:0,0:0:0:0:
291,82,100326,2,0,L|286:165,1,62.5,2|0,0:0|0:0,0:0:0:0:
444,197,100556,2,0,L|447:262,1,62.5,8|0,1:0|0:0,0:0:0:0:
343,278,100787,2,0,L|339:343,1,62.5,2|0,3:2|0:0,0:0:0:0:
188,289,101018,5,2,3:2:0:0:
188,289,101249,6,0,P|159:300|128:296,1,62.5,2|0,0:0|0:0,0:0:0:0:
25,194,101479,2,0,P|49:213|60:241,1,62.5,8|0,1:0|0:0,0:0:0:0:
24,383,101710,2,0,P|28:352|47:327,1,62.5,2|0,3:2|0:0,0:0:0:0:
168,206,101941,6,0,L|243:199,1,62.5,2|0,3:2|0:0,0:0:0:0:
107,43,102172,2,0,L|44:37,1,62.5,2|0,0:0|0:0,0:0:0:0:
220,117,102403,2,0,L|293:104,1,62.5,8|0,1:0|0:0,0:0:0:0:
332,37,102633,2,0,L|405:50,1,62.5,2|0,3:2|0:0,0:0:0:0:
508,126,102864,5,2,3:2:0:0:
509,125,103095,6,0,P|500:154|505:185,1,62.5,2|0,0:0|0:0,0:0:0:0:
384,146,103326,2,0,P|391:176|410:200,1,62.5,8|0,1:0|0:0,0:0:0:0:
287,225,103556,2,0,P|308:247|337:258,1,62.5,2|0,3:2|0:0,0:0:0:0:
501,308,103787,6,0,L|438:323,1,62.5,2|0,3:2|0:0,0:0:0:0:
306,360,104018,2,0,L|243:345,1,62.5,2|0,0:0|0:0,0:0:0:0:
140,248,104249,6,0,P|155:276|155:307,1,62.5,8|0,1:0|0:0,0:0:0:0:
14,186,104479,2,0,P|0:213|0:244,1,62.5,2|0,3:2|0:0,0:0:0:0:
136,128,104710,5,2,3:2:0:0:
46,90,104941,1,2,0:0:0:0:
14,186,105172,1,8,1:0:0:0:
129,36,105403,2,0,P|191:50|225:99,1,125,2|0,3:2|3:0,0:0:0:0:
274,316,105864,5,2,0:0:0:0:
222,187,106095,1,8,1:0:0:0:
406,277,106326,1,2,3:2:0:0:
354,148,106556,1,2,3:2:0:0:
381,138,106672,2,0,P|370:79|318:50,1,125,8|0,1:0|3:0,0:0:0:0:
211,9,107018,2,0,P|298:37|381:1,1,187.5,8|0,1:0|1:0,0:0:0:0:
492,0,107479,6,0,L|506:87,1,62.5,2|0,3:2|0:0,0:0:0:0:
462,172,107710,2,0,L|448:259,1,62.5,2|0,0:0|0:0,0:0:0:0:
346,343,107941,2,0,L|336:281,1,62.5,8|0,1:0|0:0,0:0:0:0:
212,248,108172,2,0,L|226:161,1,62.5,2|0,3:2|0:0,0:0:0:0:
125,344,108403,5,2,3:2:0:0:
124,344,108633,6,0,P|130:313|123:283,1,62.5,2|0,0:0|0:0,0:0:0:0:
212,248,108864,2,0,P|202:218|181:195,1,62.5,8|0,1:0|0:0,0:0:0:0:
240,120,109095,2,0,P|216:99|187:89,1,62.5,2|0,3:2|0:0,0:0:0:0:
12,35,109326,6,0,L|73:26,1,62.5,2|0,3:2|0:0,0:0:0:0:
240,120,109556,2,0,L|301:128,1,62.5,2|0,0:0|0:0,0:0:0:0:
485,122,109787,2,0,L|490:60,1,62.5,8|0,1:0|0:0,0:0:0:0:
377,284,110018,2,0,L|373:222,1,62.5,2|0,3:2|0:0,0:0:0:0:
330,56,110249,5,2,3:2:0:0:
330,56,110479,6,0,P|298:57|270:70,1,62.5,2|0,0:0|0:0,0:0:0:0:
127,28,110710,2,0,P|143:54|169:71,1,62.5,8|0,1:0|0:0,0:0:0:0:
205,216,110941,2,0,P|219:188|221:157,1,62.5,2|0,3:2|0:0,0:0:0:0:
20,181,111172,6,0,L|103:164,1,62.5,2|0,3:2|0:0,0:0:0:0:
205,216,111403,2,0,L|288:233,1,62.5,2|0,0:0|0:0,0:0:0:0:
421,314,111633,2,0,L|424:252,1,62.5,8|0,1:0|0:0,0:0:0:0:
508,76,111864,2,0,L|512:138,1,62.5,2|0,3:2|0:0,0:0:0:0:
276,79,112095,6,0,P|334:57|395:91,1,125,2|2,3:2|0:0,0:0:0:0:
471,211,112556,1,8,1:0:0:0:
327,263,112787,2,0,P|352:207|330:150,1,125,2|2,3:2|3:2,0:0:0:0:
178,301,113249,2,0,P|227:265|237:205,1,125,2|8,0:0|1:0,0:0:0:0:
167,81,113710,1,2,3:2:0:0:
46,150,113941,5,2,3:2:0:0:
17,204,114056,1,8,1:0:0:0:
33,263,114172,2,0,L|26:346,1,62.5,0|0,3:0|3:0,0:0:0:0:
166,239,114403,2,0,L|180:320,1,62.5,8|0,1:0|0:0,0:0:0:0:
288,181,114633,2,0,L|323:256,1,62.5,0|0,3:0|1:0,0:0:0:0:
436,380,114864,6,0,P|419:320|436:261,1,125,6|2,3:2|0:0,0:0:0:0:
409,6,115326,2,0,P|392:66|409:125,1,125,8|2,1:0|3:2,0:0:0:0:
488,187,115787,1,2,3:2:0:0:
375,53,116018,5,2,0:0:0:0:
338,220,116249,1,8,1:0:0:0:
294,100,116479,1,2,3:2:0:0:
294,100,116595,1,0,3:0:0:0:
294,100,116710,6,0,L|304:253,1,125,2|2,3:2|0:0,0:0:0:0:
165,368,117172,2,0,L|175:215,1,125,8|2,1:0|3:2,0:0:0:0:
302,224,117633,1,2,3:2:0:0:
211,146,117864,2,0,P|150:137|98:169,2,125,2|8|2,0:0|1:0|3:2,0:0:0:0:
302,224,118441,1,0,3:0:0:0:
302,224,118556,6,0,P|360:243|422:227,1,125,2|2,3:2|0:0,0:0:0:0:
512,108,119018,2,0,P|486:162|509:231,1,125,8|2,1:0|3:2,0:0:0:0:
294,336,119479,1,2,3:2:0:0:
294,141,119710,1,2,0:0:0:0:
391,238,119941,1,8,1:0:0:0:
196,238,120172,2,0,L|170:369,1,125,2|0,3:2|3:0,0:0:0:0:
80,183,120633,6,0,L|54:52,1,125,2|8,0:0|1:0,0:0:0:0:
0,221,121095,1,2,3:2:0:0:
137,58,121326,1,2,3:2:0:0:
136,58,121441,2,0,P|195:38|255:51,1,125,8|0,1:0|3:0,0:0:0:0:
404,110,121787,2,0,B|297:82|342:184|202:139,1,187.5,8|0,1:0|1:0,0:0:0:0:
381,266,122249,6,0,L|379:165,1,62.5,2|0,3:2|0:0,0:0:0:0:
512,65,122479,2,0,L|510:2,1,62.5,2|0,0:0|0:0,0:0:0:0:
317,46,122710,2,0,L|237:53,1,62.5,8|0,1:0|0:0,0:0:0:0:
142,158,122941,2,0,L|62:151,1,62.5,2|0,3:2|0:0,0:0:0:0:
34,35,123172,5,2,3:2:0:0:
33,34,123403,6,0,P|41:64|36:95,1,62.5,2|0,0:0|0:0,0:0:0:0:
170,104,123633,2,0,P|161:133|141:157,1,62.5,8|0,1:0|0:0,0:0:0:0:
254,231,123864,2,0,P|231:252|202:263,1,62.5,2|0,3:2|0:0,0:0:0:0:
51,367,124095,6,0,L|55:304,1,62.5,2|0,3:2|0:0,0:0:0:0:
202,263,124326,2,0,L|197:200,1,62.5,2|0,0:0|0:0,0:0:0:0:
270,8,124556,2,0,L|274:70,1,62.5,8|0,1:0|0:0,0:0:0:0:
382,104,124787,2,0,L|377:166,1,62.5,2|0,3:2|0:0,0:0:0:0:
431,284,125018,6,0,P|369:277|317:315,1,125,2|2,3:2|0:0,0:0:0:0:
166,332,125364,1,0,0:0:0:0:
166,332,125479,2,0,P|115:296|55:304,1,125,8|2,1:0|3:2,0:0:0:0:
252,366,125941,5,6,3:2:0:0:
312,224,126172,5,0,1:0:0:0:
314,192,126287,1,0,1:0:0:0:
316,161,126403,1,0,1:0:0:0:
184,137,126633,5,0,3:0:0:0:
152,135,126749,1,0,3:0:0:0:
185,51,126864,5,0,1:0:0:0:
199,47,126979,2,0,L|260:33,1,62.5,0|0,1:0|0:0,0:0:0:0:
425,1,127210,1,0,3:0:0:0:
448,6,127326,5,0,1:0:0:0:
408,46,127441,1,0,3:0:0:0:
399,102,127556,1,2,3:2:0:0:
423,154,127672,1,0,3:0:0:0:
471,183,127787,5,2,3:2:0:0:
443,264,128133,5,0,3:0:0:0:
413,344,128479,5,2,3:2:0:0:
413,344,128941,6,0,B|454:361|489:342|489:342|383:407|384:302|290:357,1,275
264,365,129633,6,0,L|121:353,1,125,6|2,3:2|0:0,0:0:0:0:
65,307,129979,2,0,L|48:394,1,62.5,2|0,0:0|3:0,0:0:0:0:
12,196,130326,1,2,0:0:0:0:
12,196,130441,1,2,0:0:0:0:
12,196,130556,6,0,L|0:63,1,125,2|2,3:2|0:0,0:0:0:0:
104,13,130903,2,0,L|25:6,1,62.5,2|0,0:0|3:0,0:0:0:0:
156,135,131249,1,2,0:0:0:0:
156,135,131364,1,2,0:0:0:0:
156,135,131479,6,0,P|214:152|270:127,1,125,2|2,3:2|0:0,0:0:0:0:
322,19,131941,1,2,3:2:0:0:
388,144,132172,1,2,0:0:0:0:
388,144,132287,1,2,0:0:0:0:
388,144,132403,2,0,P|370:202|395:258,1,125,2|2,3:2|0:0,0:0:0:0:
490,327,132749,2,0,P|459:319|429:323,1,62.5,2|0,0:0|3:0,0:0:0:0:
478,201,133095,1,2,0:0:0:0:
270,243,133326,6,0,L|122:231,2,125,2|2|2,3:2|0:0|3:2,0:0:0:0:
350,77,134018,1,2,0:0:0:0:
219,15,134249,2,0,P|245:70|227:135,1,125,2|2,3:2|0:0,0:0:0:0:
62,174,134710,2,0,P|35:229|54:293,1,125,2|2,3:2|0:0,0:0:0:0:
211,314,135172,6,0,L|349:295,1,125,2|2,3:2|0:0,0:0:0:0:
403,346,135518,2,0,P|379:289|397:231,1,125,2|2,0:0|0:0,0:0:0:0:
456,127,135864,1,0,0:0:0:0:
456,127,135979,1,2,0:0:0:0:
456,127,136095,2,0,B|354:97|385:188|256:133,1,187.5,2|0,3:2|0:0,0:0:0:0:
221,79,136556,2,0,L|234:208,1,125,2|2,3:2|0:0,0:0:0:0:
130,59,137018,6,0,P|71:38|11:51,1,125,2|2,3:2|0:0,0:0:0:0:
62,259,137479,2,0,L|56:103,1,125,2|2,3:2|0:0,0:0:0:0:
105,189,137826,2,0,P|162:210|220:190,1,125,2|0,0:0|0:0,0:0:0:0:
225,181,138172,5,2,0:0:0:0:
240,311,138403,1,2,3:2:0:0:
129,319,138633,1,2,0:0:0:0:
129,319,138749,1,2,0:0:0:0:
129,319,138864,6,0,L|3:344,1,125,2|2,3:2|0:0,0:0:0:0:
240,311,139326,2,0,L|362:335,1,125,2|2,3:2|0:0,0:0:0:0:
452,371,139672,2,0,P|437:311|461:254,1,125,2|0,0:0|0:0,0:0:0:0:
486,260,140018,5,2,0:0:0:0:
405,169,140249,1,2,3:2:0:0:
470,73,140479,1,2,0:0:0:0:
327,69,140710,6,0,B|228:56|272:136|141:107,1,187.5,2|0,3:2|0:0,0:0:0:0:
122,85,141172,1,2,3:2:0:0:
281,281,141403,2,0,P|310:227|307:165,1,125,2|0,0:0|3:0,0:0:0:0:
214,200,141864,1,2,0:0:0:0:
245,374,142095,2,0,P|302:381|360:316,1,125,2|0,3:2|0:0,0:0:0:0:
489,154,142556,5,2,3:2:0:0:
489,154,142787,1,2,3:2:0:0:
386,85,143018,5,2,3:2:0:0:
374,62,143249,2,0,L|382:-13,1,62.5,2|0,3:2|3:0,0:0:0:0:
337,177,143479,5,2,3:2:0:0:
335,262,143710,1,2,3:2:0:0:
167,197,143941,5,2,3:2:0:0:
237,44,144172,1,2,3:2:0:0:
115,130,144403,6,0,B|199:73|203:165|289:113,1,174.999994659424,2|2,3:2|0:0,0:0:0:0:
385,41,145210,2,0,B|310:42|310:42|280:106|349:193,1,218.74999332428,2|2,0:0|0:0,0:0:0:0:
424,177,146018,1,2,0:0:0:0:
424,177,146133,1,2,0:0:0:0:
424,177,146249,6,0,L|327:176,2,87.499997329712,2|2|2,0:0|0:0|0:0,0:0:0:0:
484,107,146941,1,2,0:0:0:0:
484,107,147056,1,2,0:0:0:0:
484,107,147172,2,0,P|516:185|469:255,1,174.999994659424,0|2,0:0|0:0,0:0:0:0:
336,277,147864,1,2,0:0:0:0:
336,277,147979,1,2,0:0:0:0:
336,277,148095,6,0,L|325:384,2,87.499997329712,2|2|2,0:0|0:0|0:0,0:0:0:0:
216,253,148787,1,2,0:0:0:0:
216,253,148903,1,2,0:0:0:0:
216,253,149018,2,0,L|205:146,2,87.499997329712,2|2|2,0:0|0:0|0:0,0:0:0:0:
133,114,149710,1,2,0:0:0:0:
133,114,149826,1,2,0:0:0:0:
133,114,149941,2,0,P|210:77|293:154,1,174.999994659424,2|2,0:0|0:0,0:0:0:0:
273,206,150749,6,0,L|280:118,1,87.499997329712,2|2,0:0|0:0,0:0:0:0:
282,96,151095,1,2,0:0:0:0:
350,36,151326,2,0,P|314:11|271:8,1,87.499997329712,2|2,0:0|0:0,0:0:0:0:
193,60,151672,1,2,0:0:0:0:
193,60,151787,6,0,P|134:84|73:63,1,131.249995994568,2|2,0:0|0:0,0:0:0:0:
65,49,152249,1,2,0:0:0:0:
87,206,152479,1,2,0:0:0:0:
87,206,152710,6,0,P|148:185|214:211,1,131.249995994568,2|2,0:0|0:0,0:0:0:0:
262,258,153172,2,0,P|250:216|258:173,1,87.499997329712,2|2,0:0|0:0,0:0:0:0:
151,293,153633,5,6,3:0:0:0:
151,293,153979,1,6,3:0:0:0:
401,152,154787,5,0,3:0:0:0:
399,122,154864,5,0,3:0:0:0:
397,93,154941,5,0,3:0:0:0:
395,64,155018,6,0,L|395:32,6,21.874999332428,2|2|2|2|2|2|2,0:0|0:0|0:0|0:0|0:0|0:0|0:0,0:0:0:0:
271,23,155479,6,0,B|249:65|249:65|254:100,1,81.2499962806703,6|0,3:2|0:0,0:0:0:0:
302,185,155710,1,2,0:0:0:0:
178,27,155826,2,0,B|89:11|89:11|13:52,1,162.499992561341,2|2,3:2|0:0,0:0:0:0:
146,195,156172,2,0,B|145:149|145:149|122:120,1,81.2499962806703,2|0,0:0|0:0,0:0:0:0:
270,277,156403,6,0,L|273:359,1,81.2499962806703,2|0,3:2|0:0,0:0:0:0:
397,279,156633,1,2,0:0:0:0:
302,185,156749,2,0,B|253:178|253:178|211:200|211:200|146:195,1,162.499992561341,2|2,3:2|0:2,0:0:0:0:
37,142,157095,2,0,L|34:60,1,81.2499962806703,2|0,0:0|0:0,0:0:0:0:
205,14,157326,6,0,L|212:122,1,81.2499962806703,2|0,3:2|0:0,0:0:0:0:
95,352,157556,2,0,L|100:270,1,81.2499962806703,2|0,0:0|0:0,0:0:0:0:
313,53,157787,6,0,L|410:41,1,81.2499962806703,8|0,1:0|0:0,0:0:0:0:
491,286,158018,2,0,L|410:276,1,81.2499962806703,2|0,0:0|0:0,0:0:0:0:
221,232,158249,6,0,L|224:150,1,81.2499962806703,2|0,3:2|0:0,0:0:0:0:
227,369,158479,1,2,0:0:0:0:
90,289,158595,2,0,B|58:210|58:210|87:138,1,162.499992561341,2|2,3:2|3:2,0:0:0:0:
286,44,158941,2,0,L|367:48,1,81.2499962806703,2|0,0:0|0:0,0:0:0:0:
408,238,159172,6,0,L|303:228,1,81.2499962806703,2|0,3:2|0:0,0:0:0:0:
90,289,159403,2,0,L|-15:299,1,81.2499962806703,2|0,0:0|0:0,0:0:0:0:
46,67,159633,6,0,B|32:110|32:110|38:146,1,81.2499962806703,8|0,1:0|0:0,0:0:0:0:
177,238,159864,2,0,B|191:281|191:281|184:317,1,81.2499962806703,2|0,0:0|0:0,0:0:0:0:
334,313,160095,6,0,L|440:306,1,81.2499962806703,2|0,3:2|0:0,0:0:0:0:
430,138,160326,2,0,L|536:145,1,81.2499962806703,0|0,3:0|0:0,0:0:0:0:
313,0,160556,6,0,B|311:44|311:44|321:79,1,81.2499962806703,8|0,1:0|0:0,0:0:0:0:
286,243,160787,2,0,B|288:199|288:199|277:163,1,81.2499962806703,2|0,0:0|0:0,0:0:0:0:
26,71,161018,6,0,L|199:61,1,162.499992561341,2|2,3:2|0:0,0:0:0:0:
78,253,161364,2,0,L|65:172,1,81.2499962806703,2|8,0:0|1:0,0:0:0:0:
251,137,161595,1,2,0:0:0:0:
277,163,161710,2,0,L|289:243,1,81.2499962806703
381,384,161941,5,2,3:2:0:0:
371,305,162056,1,2,3:2:0:0:
418,242,162172,1,2,3:2:0:0:
497,230,162287,1,2,3:2:0:0:
439,155,162403,6,0,L|450:43,1,81.2499962806703,8|0,1:0|0:0,0:0:0:0:
292,10,162633,2,0,L|303:122,1,81.2499962806703,2|0,0:0|3:0,0:0:0:0:
156,243,162864,6,0,B|98:237|98:237|60:259|60:259|-16:252,1,162.499992561341,6|2,3:2|0:0,0:0:0:0:
18,56,163210,1,0,0:0:0:0:
66,124,163326,2,0,B|80:168|80:168|70:203,1,81.2499962806703,8|0,1:0|0:0,0:0:0:0:
0,253,163556,1,2,0:0:0:0:
165,146,163672,2,0,P|242:139|290:200,1,162.499992561341,2|0,0:0|0:0,0:0:0:0:
255,384,164018,6,0,L|273:286,1,81.2499962806703,2|0,3:2|0:0,0:0:0:0:
388,171,164249,2,0,L|402:251,1,81.2499962806703,8|0,1:0|0:0,0:0:0:0:
255,126,164479,2,0,L|269:45,1,81.2499962806703,2|0,0:0|0:0,0:0:0:0:
467,318,164710,6,0,B|388:343|388:343|316:301,1,162.499992561341,2|2,3:2|0:0,0:0:0:0:
171,181,165056,1,0,0:0:0:0:
210,255,165172,2,0,B|212:301|212:301|196:332,1,81.2499962806703,8|0,1:0|0:0,0:0:0:0:
135,384,165403,1,2,0:0:0:0:
304,208,165518,2,0,L|471:220,1,162.499992561341,2|0,0:0|0:0,0:0:0:0:
484,49,165864,6,0,B|466:88|466:88|476:124,1,81.2499962806703,2|0,3:2|0:0,0:0:0:0:
387,316,166095,2,0,B|368:277|368:277|378:240,1,81.2499962806703,8|0,1:0|0:0,0:0:0:0:
289,49,166326,2,0,B|270:87|270:87|280:124,1,81.2499962806703,2|0,0:0|0:0,0:0:0:0:
158,29,166556,6,0,B|71:7|71:7|0:23,1,162.499992561341,2|0,3:2|0:0,0:0:0:0:
0,231,166903,1,0,0:0:0:0:
43,168,167018,2,0,L|58:81,1,81.2499962806703,8|0,1:0|0:0,0:0:0:0:
233,298,167249,2,0,B|210:256|172:252|172:252|131:273|86:230,1,162.499992561341,2|0,0:0|3:0,0:0:0:0:
56,87,167595,5,0,0:0:0:0:
136,93,167710,2,0,L|216:85,1,81.2499962806703,2|0,3:2|0:0,0:0:0:0:
512,162,167941,2,0,L|431:154,1,81.2499962806703,8|0,1:0|0:0,0:0:0:0:
136,231,168172,2,0,L|216:223,1,81.2499962806703,2|0,0:0|0:0,0:0:0:0:
379,336,168403,6,0,B|425:361|425:361|460:307|436:257,1,162.499992561341,2|0,3:2|0:0,0:0:0:0:
290,164,168749,1,2,3:0:0:0:
216,222,168864,2,0,L|225:303,1,81.2499962806703,8|0,1:0|0:0,0:0:0:0:
122,105,169095,2,0,L|131:24,1,81.2499962806703,2|0,0:0|0:0,0:0:0:0:
349,105,169326,5,2,3:2:0:0:
290,164,169441,1,0,3:0:0:0:
231,105,169556,1,2,3:2:0:0:
290,46,169672,1,0,3:0:0:0:
383,102,169787,5,2,3:2:0:0:
290,194,169903,1,0,3:0:0:0:
198,102,170018,1,2,3:2:0:0:
290,9,170133,1,0,3:0:0:0:
489,37,170249,6,0,L|492:124,1,81.2499962806703,6|0,3:2|0:0,0:0:0:0:
497,237,170479,1,2,0:0:0:0:
392,349,170595,2,0,B|355:355|355:355|330:280|380:229,1,162.499992561341,2|2,3:2|0:0,0:0:0:0:
261,283,170941,2,0,L|180:281,1,81.2499962806703,2|0,0:0|0:0,0:0:0:0:
50,286,171172,6,0,B|43:236|43:236|59:208,1,81.2499962806703,2|0,3:2|0:0,0:0:0:0:
180,68,171403,1,2,0:0:0:0:
295,199,171518,2,0,B|229:192|229:192|194:161|194:161|117:157,1,162.499992561341,2|2,3:2|0:2,0:0:0:0:
2,106,171864,2,0,B|21:59|21:59|48:43,1,81.2499962806703,2|0,0:0|0:0,0:0:0:0:
290,0,172095,6,0,L|295:107,1,81.2499962806703,2|0,3:2|0:0,0:0:0:0:
512,138,172326,2,0,L|507:245,1,81.2499962806703,2|0,0:0|0:0,0:0:0:0:
367,363,172556,6,0,B|323:354|323:354|287:363,1,81.2499962806703,8|0,1:0|0:0,0:0:0:0:
87,216,172787,2,0,B|131:207|131:207|166:216,1,81.2499962806703,2|0,0:0|0:0,0:0:0:0:
392,276,173018,6,0,L|392:172,1,81.2499962806703,2|0,3:2|0:0,0:0:0:0:
400,70,173249,1,2,0:0:0:0:
189,64,173364,2,0,B|244:101|244:101|290:99|290:99|352:146,1,162.499992561341,2|2,3:2|0:2,0:0:0:0:
512,138,173710,2,0,L|512:56,1,81.2499962806703,2|0,0:0|0:0,0:0:0:0:
383,308,173941,6,0,L|298:296,1,81.2499962806703,2|0,3:2|0:0,0:0:0:0:
150,211,174172,2,0,L|65:223,1,81.2499962806703,2|0,0:0|0:0,0:0:0:0:
26,40,174403,6,0,B|36:86|36:86|24:118,1,81.2499962806703,8|0,1:0|0:0,0:0:0:0:
79,384,174633,2,0,B|67:351|67:351|77:305,1,81.2499962806703,2|0,0:0|0:0,0:0:0:0:
245,83,174864,6,0,L|265:176,1,81.2499962806703,2|0,3:2|0:0,0:0:0:0:
429,374,175095,2,0,L|449:281,1,81.2499962806703,2|0,3:2|0:0,0:0:0:0:
502,66,175326,6,0,B|457:63|457:63|426:44,1,81.2499962806703,8|0,1:0|0:0,0:0:0:0:
124,32,175556,2,0,B|168:29|168:29|199:10,1,81.2499962806703,2|0,0:0|0:0,0:0:0:0:
359,143,175787,6,0,B|342:197|342:197|361:237|361:237|351:297,1,162.499992561341,2|2,3:2|0:0,0:0:0:0:
155,278,176133,2,0,L|236:272,1,81.2499962806703,2|8,0:0|1:0,0:0:0:0:
262,162,176364,1,2,0:0:0:0:
223,172,176479,2,0,L|141:177,1,81.2499962806703
3,85,176710,6,0,L|0:3,1,81.2499962806703,2|0,3:2|0:0,0:0:0:0:
73,236,176941,2,0,L|69:317,1,81.2499962806703,0|0,3:0|0:0,0:0:0:0:
307,69,177172,2,0,L|226:64,1,81.2499962806703,8|0,1:0|0:0,0:0:0:0:
430,235,177403,2,0,L|512:230,1,81.2499962806703,2|8,0:0|1:0,0:0:0:0:
308,70,177633,6,0,B|320:129|320:129|307:175|307:175|315:228,1,162.499992561341,6|0,3:2|0:0,0:0:0:0:
467,384,177979,2,0,B|483:343|483:343|476:306,1,81.2499962806703,2|8,0:0|1:0,0:0:0:0:
286,354,178210,1,0,0:0:0:0:
310,361,178326,2,0,B|344:333|344:333|356:297,1,81.2499962806703,2|0,0:0|0:0,0:0:0:0:
223,172,178556,6,0,L|26:179,1,162.499992561341,2|0,3:2|0:0,0:0:0:0:
0,331,178903,2,0,L|17:226,1,81.2499962806703,2|8,0:0|1:0,0:0:0:0:
134,253,179133,1,0,0:0:0:0:
114,275,179249,2,0,L|101:355,1,81.2499962806703,2|0,0:0|0:0,0:0:0:0:
286,281,179479,6,0,B|365:252|365:252|439:277,1,162.499992561341,2|0,3:2|0:0,0:0:0:0:
491,117,179826,2,0,L|479:215,1,81.2499962806703,2|8,0:0|1:0,0:0:0:0:
354,180,180056,1,0,0:0:0:0:
383,174,180172,2,0,L|392:93,1,81.2499962806703,2|0,0:0|0:0,0:0:0:0:
282,40,180403,6,0,B|199:18|199:18|126:41,1,162.499992561341,2|0,3:2|0:0,0:0:0:0:
37,169,180749,2,0,B|61:127|61:127|52:88,1,81.2499962806703,2|8,0:0|1:0,0:0:0:0:
144,200,180979,1,0,0:0:0:0:
138,180,181095,2,0,B|179:155|179:155|191:117,1,81.2499962806703,2|0,0:0|0:0,0:0:0:0:
230,248,181326,6,0,P|168:298|89:289,1,162.499992561341,6|2,3:2|0:0,0:0:0:0:
87,307,181672,1,2,0:0:0:0:
86,323,181787,1,8,1:0:0:0:
327,361,182018,2,0,L|329:258,1,81.2499962806703,2|0,0:0|0:0,0:0:0:0:
344,125,182249,6,0,B|449:98|409:179|535:141,1,162.499992561341,2|0,3:2|3:0,0:0:0:0:
505,138,182595,1,2,3:2:0:0:
509,120,182710,1,0,3:0:0:0:
442,246,182941,2,0,L|455:347,1,81.2499962806703,2|0,1:2|1:0,0:0:0:0:
300,191,183172,6,0,P|223:174|159:220,1,162.499992561341,6|0,3:2|0:0,0:0:0:0:
73,335,183518,2,0,P|90:257|44:193,1,162.499992561341,6|0,3:2|0:0,0:0:0:0:
127,50,183864,2,0,L|123:131,1,81.2499962806703,6|0,3:2|0:0,0:0:0:0:
247,263,184095,5,2,0:0:0:0:
247,263,184441,1,2,0:0:0:0:
247,263,184787,1,2,0:0:0:0:
512,251,185018,6,0,P|453:231|395:250,1,125,2|0,3:2|0:0,0:0:0:0:
329,319,185364,2,0,P|347:260|328:202,1,125,2|2,3:2|0:0,0:0:0:0:
452,328,185710,2,0,L|454:377,4,31.25,2|2|2|2|2,3:2|0:0|0:0|0:0|0:0,0:0:0:0:
450,173,186172,5,2,1:2:0:0:
361,94,186403,5,2,0:0:0:0:
262,165,186633,5,2,0:0:0:0:
195,75,186864,6,0,P|135:57|75:69,1,125,2|0,3:2|0:0,0:0:0:0:
0,218,187210,2,0,P|17:158|5:98,1,125,2|2,3:2|0:0,0:0:0:0:
128,181,187556,2,0,L|131:226,4,31.25,2|2|2|2|2,3:2|0:0|0:0|0:0|0:0,0:0:0:0:
85,364,188018,5,2,1:2:0:0:
189,305,188249,5,2,0:0:0:0:
277,376,188479,5,2,0:0:0:0:
277,376,188595,1,2,0:0:0:0:
277,376,188710,6,0,L|296:228,1,125,2|0,3:2|0:0,0:0:0:0:
419,245,189056,2,0,L|400:97,1,125,2|2,3:2|0:0,0:0:0:0:
314,38,189403,2,0,L|312:75,4,31.25,2|2|2|2|2,3:2|0:0|0:0|0:0|0:0,0:0:0:0:
220,234,189864,5,2,1:2:0:0:
134,160,190095,2,0,L|146:91,1,62.5,2|0,1:2|1:0,0:0:0:0:
34,20,190326,2,0,L|44:81,1,62.5,2|0,1:2|1:0,0:0:0:0:
88,224,190556,6,0,P|105:283|79:346,1,125,2|2,3:2|0:0,0:0:0:0:
76,348,190903,1,2,0:0:0:0:
62,342,191018,1,2,0:0:0:0:
0,286,191133,1,2,0:0:0:0:
16,278,191249,5,2,0:0:0:0:
256,192,191364,12,0,194249,0:0:0:0:
