osu file format v14

[General]
AudioFilename: audio.mp3
AudioLeadIn: 0
PreviewTime: 182646
Countdown: 0
SampleSet: Soft
StackLeniency: 0.7
Mode: 3
LetterboxInBreaks: 0
SpecialStyle: 0
WidescreenStoryboard: 1

[Editor]
Bookmarks: 50969
DistanceSpacing: 1.3
BeatDivisor: 4
GridSize: 32
TimelineZoom: 2

[Metadata]
Title:Ano Yume o Nazotte
TitleUnicode:あの夢をなぞって
Artist:YOASOBI
ArtistUnicode:YOASOBI
Creator:deta5859
Version:Paran's Normal
Source:
Tags:RiP46 Touru0711 Paran Tracing that Dream 夏の夜、君と僕の焦燥 Natsu no yo kimi to boku shousou 夢の雫と星の花 Yume shizuku hoshi hana いしき蒼太 ishiki souta Drops of Dreams Flowers Stars jpop japanese pop 幾田りら ikuta lilas ayase
BeatmapID:2575882
BeatmapSetID:1227003

[Difficulty]
HPDrainRate:7
CircleSize:4
OverallDifficulty:7
ApproachRate:5
SliderMultiplier:1.4
SliderTickRate:1

[Events]
//Background and Video events
0,0,"hanabi.jpg",0,0
//Break Periods
//Storyboard Layer 0 (Background)
//Storyboard Layer 1 (Fail)
//Storyboard Layer 2 (Pass)
//Storyboard Layer 3 (Foreground)
//Storyboard Layer 4 (Overlay)
//Storyboard Sound Samples
Sample,56146,0,"tom3.wav",70
Sample,56313,0,"tom3.wav",70
Sample,76813,0,"tom3.wav",70
Sample,76979,0,"tom3.wav",70
Sample,77146,0,"tom3.wav",70
Sample,118979,0,"HHOpen.wav",70
Sample,119646,0,"HHOpen.wav",70
Sample,119979,0,"HHOpen.wav",70
Sample,120313,0,"HHOpen.wav",70
Sample,120979,0,"HHOpen.wav",70
Sample,121313,0,"HHOpen.wav",70
Sample,121646,0,"HHOpen.wav",70
Sample,122313,0,"HHOpen.wav",70
Sample,122646,0,"HHOpen.wav",70
Sample,122979,0,"HHOpen.wav",70
Sample,123646,0,"HHOpen.wav",70
Sample,124979,0,"HHOpen.wav",70
Sample,125646,0,"HHOpen.wav",70
Sample,126313,0,"HHOpen.wav",70
Sample,126646,0,"HHOpen.wav",70
Sample,126979,0,"HHOpen.wav",70
Sample,127646,0,"HHOpen.wav",70
Sample,127979,0,"HHOpen.wav",70
Sample,128313,0,"HHOpen.wav",70
Sample,128979,0,"HHOpen.wav",70
Sample,129646,0,"HHOpen.wav",70
Sample,130979,0,"HHOpen.wav",70
Sample,131646,0,"HHOpen.wav",70
Sample,131979,0,"HHOpen.wav",70
Sample,132313,0,"HHOpen.wav",70
Sample,132979,0,"HHOpen.wav",70
Sample,134313,0,"HHOpen.wav",70
Sample,134979,0,"HHOpen.wav",70
Sample,135646,0,"HHOpen.wav",70
Sample,135979,0,"tom1.wav",70
Sample,153979,0,"HHOpen.wav",70
Sample,156813,0,"tom3.wav",70
Sample,156979,0,"tom3.wav",70
Sample,157146,0,"tom3.wav",70
Sample,162313,0,"tom1.wav",70
Sample,167646,0,"tom1.wav",70
Sample,178146,0,"tom3.wav",70
Sample,178313,0,"tom3.wav",70
Sample,178479,0,"tom3.wav",70
Sample,226813,0,"tom3.wav",70

[TimingPoints]
19980,333.333333333333,4,2,1,100,1,0
78646,-100,4,2,1,100,0,1
118313,-100,4,2,1,100,0,0
182641,-100,4,2,1,70,0,0
182646,-100,4,2,1,70,0,1
227979,-100,4,2,1,100,0,0

[HitObjects]
64,192,19980,1,2,0:0:0:0:
320,192,20146,1,2,0:0:0:0:
192,192,20313,1,0,0:0:0:0:
448,192,20480,1,0,0:0:0:0:
320,192,20813,1,0,0:0:0:0:
192,192,21146,1,2,0:0:0:0:
64,192,21480,1,2,0:0:0:0:
320,192,21646,1,2,0:0:0:0:
64,192,21813,1,0,0:0:0:0:
192,192,21980,1,0,0:0:0:0:
320,192,22146,1,0,0:0:0:0:
448,192,22313,1,0,0:0:0:0:
64,192,22480,1,2,0:0:0:0:
192,192,22480,1,8,0:0:0:0:
448,192,22813,1,8,0:0:0:0:
320,192,22980,1,8,0:0:0:0:
192,192,23146,1,8,0:0:0:0:
64,192,23313,1,8,0:0:0:0:
448,192,23480,1,8,0:0:0:0:
192,192,23646,1,8,0:0:0:0:
320,192,23813,1,2,0:0:0:0:
448,192,23813,1,0,0:0:0:0:
192,192,24146,1,2,0:0:0:0:
320,192,24146,1,0,0:0:0:0:
64,192,24480,1,2,0:0:0:0:
192,192,24480,1,0,0:0:0:0:
320,192,24813,1,0,0:0:0:0:
192,192,24980,1,0,0:0:0:0:
64,192,25146,1,2,0:0:0:0:
448,192,25146,1,4,0:0:0:0:
192,192,25480,1,0,0:0:0:70:HHOpen.wav
320,192,25646,1,8,0:0:0:0:
448,192,25813,1,0,0:0:0:70:HHOpen.wav
64,192,26146,1,0,0:0:0:70:HHOpen.wav
320,192,26313,1,8,0:0:0:0:
192,192,26480,1,0,0:0:0:70:HHOpen.wav
448,192,26646,1,2,0:0:0:0:
320,192,26813,1,0,0:0:0:70:HHOpen.wav
192,192,26980,1,8,0:0:0:0:
64,192,27146,1,0,0:0:0:70:HHOpen.wav
448,192,27480,1,0,0:0:0:70:HHOpen.wav
192,192,27646,1,8,0:0:0:0:
320,192,27813,1,0,0:0:0:70:HHOpen.wav
64,192,27980,1,2,0:0:0:0:
192,192,28146,1,0,0:0:0:70:HHOpen.wav
320,192,28313,1,8,0:0:0:0:
448,192,28480,1,0,0:0:0:70:HHOpen.wav
64,192,28813,1,0,0:0:0:70:HHOpen.wav
320,192,28980,1,8,0:0:0:0:
192,192,29146,1,0,0:0:0:70:HHOpen.wav
320,192,29313,1,2,0:0:0:0:
448,192,29313,128,0,29646:0:0:0:0:
64,192,29646,128,8,29980:0:0:0:0:
192,192,29646,1,0,0:0:0:0:
320,192,29980,128,2,30313:0:0:0:0:
448,192,29980,1,0,0:0:0:0:
64,192,30313,1,8,0:0:0:0:
192,192,30313,128,0,30646:0:0:0:0:
320,192,30646,1,4,0:0:0:0:
448,192,30646,1,2,0:0:0:0:
192,192,30813,1,0,0:0:0:70:HHOpen.wav
64,192,30980,1,8,0:0:0:0:
448,192,31146,1,0,0:0:0:70:HHOpen.wav
64,192,31480,1,0,0:0:0:70:HHOpen.wav
192,192,31646,1,8,0:0:0:0:
320,192,31813,1,0,0:0:0:70:HHOpen.wav
448,192,31980,1,2,0:0:0:0:
192,192,32313,1,8,0:0:0:0:
64,192,32480,1,0,0:0:0:70:HHOpen.wav
448,192,32813,1,0,0:0:0:70:HHOpen.wav
320,192,32980,1,8,0:0:0:0:
192,192,33146,1,0,0:0:0:70:HHOpen.wav
64,192,33313,1,2,0:0:0:0:
320,192,33646,1,8,0:0:0:0:
448,192,33813,1,0,0:0:0:70:HHOpen.wav
64,192,34146,1,0,0:0:0:70:HHOpen.wav
192,192,34313,1,8,0:0:0:0:
320,192,34480,1,0,0:0:0:70:HHOpen.wav
64,192,34646,1,2,0:0:0:0:
448,192,34646,1,4,0:0:0:0:
192,192,35146,1,8,0:0:0:0:
64,192,35230,1,8,0:0:0:0:
320,192,35313,1,8,0:0:0:0:
448,192,35313,128,0,35980:0:0:0:70:tom1.wav
64,192,35980,1,4,0:0:0:0:
192,192,35980,1,2,0:0:0:0:
448,192,36146,1,0,0:0:0:0:
192,192,36313,1,2,0:0:0:0:
448,192,36480,1,0,0:0:0:0:
64,192,36646,1,2,0:0:0:0:
192,192,36813,1,0,0:0:0:0:
320,192,36980,1,2,0:0:0:0:
192,192,37146,1,0,0:0:0:0:
320,192,37313,1,2,0:0:0:0:
448,192,37313,1,0,0:0:0:0:
64,192,37480,1,0,0:0:0:0:
320,192,37646,1,2,0:0:0:0:
64,192,37813,1,0,0:0:0:0:
448,192,37980,1,2,0:0:0:0:
320,192,38146,1,0,0:0:0:0:
192,192,38313,1,2,0:0:0:0:
320,192,38480,1,0,0:0:0:0:
64,192,38646,128,2,38980:0:0:0:0:
448,192,38646,1,0,0:0:0:0:
320,192,38980,1,2,0:0:0:0:
192,192,39146,1,0,0:0:0:0:
64,192,39313,1,2,0:0:0:0:
448,192,39313,128,0,39646:0:0:0:0:
192,192,39646,1,2,0:0:0:0:
320,192,39813,1,0,0:0:0:0:
64,192,39980,128,2,40313:0:0:0:0:
448,192,39980,1,0,0:0:0:0:
320,192,40313,1,2,0:0:0:0:
192,192,40480,1,0,0:0:0:0:
64,192,40646,1,2,0:0:0:0:
192,192,40813,1,0,0:0:0:0:
320,192,40980,1,2,0:0:0:0:
448,192,41146,1,0,0:0:0:0:
64,192,41313,1,2,0:0:0:0:
192,192,41313,1,0,0:0:0:70:HHOpen.wav
448,192,41480,1,0,0:0:0:0:
192,192,41646,1,2,0:0:0:0:
448,192,41813,1,0,0:0:0:0:
64,192,41980,1,2,0:0:0:0:
192,192,42146,1,0,0:0:0:0:
320,192,42313,1,2,0:0:0:0:
192,192,42480,1,0,0:0:0:0:
320,192,42646,1,2,0:0:0:0:
448,192,42646,1,0,0:0:0:0:
64,192,42813,1,0,0:0:0:0:
320,192,42980,1,2,0:0:0:0:
64,192,43146,1,0,0:0:0:0:
448,192,43313,1,2,0:0:0:0:
320,192,43480,1,0,0:0:0:0:
192,192,43646,1,2,0:0:0:0:
64,192,43813,1,0,0:0:0:0:
320,192,43980,1,2,0:0:0:0:
448,192,43980,1,0,0:0:0:0:
192,192,44146,1,0,0:0:0:0:
320,192,44313,1,2,0:0:0:0:
192,192,44480,1,0,0:0:0:0:
64,192,44646,1,2,0:0:0:0:
448,192,44646,128,0,44980:0:0:0:0:
192,192,44980,1,2,0:0:0:0:
320,192,45146,1,0,0:0:0:0:
64,192,45313,128,2,45646:0:0:0:0:
448,192,45313,1,0,0:0:0:0:
320,192,45646,1,2,0:0:0:0:
192,192,45813,1,0,0:0:0:0:
64,192,45980,1,2,0:0:0:0:
448,192,45980,128,0,46313:0:0:0:0:
64,192,46313,1,8,0:0:0:0:
192,192,46313,1,0,0:0:0:70:HHOpen.wav
320,192,46480,1,0,0:0:0:0:
64,192,46646,1,2,0:0:0:0:
448,192,46646,1,4,0:0:0:0:
64,192,46980,1,8,0:0:0:0:
192,192,46980,1,0,0:0:0:0:
320,192,47146,1,0,0:0:0:0:
192,192,47313,1,0,0:0:0:70:HHOpen.wav
320,192,47480,1,2,0:0:0:0:
448,192,47480,1,0,0:0:0:0:
64,192,47646,1,8,0:0:0:0:
192,192,47646,1,0,0:0:0:0:
320,192,47813,1,0,0:0:0:0:
64,192,47980,1,2,0:0:0:0:
448,192,47980,1,0,0:0:0:0:
320,192,48313,1,8,0:0:0:0:
448,192,48313,1,0,0:0:0:0:
192,192,48480,1,0,0:0:0:0:
320,192,48646,1,0,0:0:0:70:HHOpen.wav
64,192,48813,1,2,0:0:0:0:
192,192,48813,1,0,0:0:0:0:
320,192,48979,1,0,0:0:0:0:
448,192,48979,1,0,0:0:0:0:
192,192,49146,1,0,0:0:0:0:
64,192,49313,1,2,0:0:0:0:
448,192,49313,128,0,49646:0:0:0:0:
192,192,49646,128,8,49980:0:0:0:0:
320,192,49646,1,0,0:0:0:0:
64,192,49980,128,0,50313:0:0:0:70:HHOpen.wav
320,192,50146,1,2,0:0:0:0:
192,192,50313,1,8,0:0:0:0:
448,192,50313,128,0,50646:0:0:0:0:
192,192,50646,128,2,50979:0:0:0:0:
320,192,50646,1,0,0:0:0:0:
64,192,50979,1,8,0:0:0:0:
448,192,50979,1,0,0:0:0:0:
320,192,51146,1,0,0:0:0:0:
192,192,51313,1,0,0:0:0:70:HHOpen.wav
320,192,51479,1,2,0:0:0:0:
448,192,51479,1,0,0:0:0:0:
64,192,51646,1,8,0:0:0:0:
192,192,51646,1,0,0:0:0:0:
320,192,51813,1,0,0:0:0:0:
64,192,51979,1,2,0:0:0:0:
448,192,51979,1,0,0:0:0:0:
64,192,52313,1,8,0:0:0:0:
448,192,52313,1,0,0:0:0:0:
192,192,52479,1,0,0:0:0:0:
320,192,52646,1,0,0:0:0:70:HHOpen.wav
64,192,52813,1,2,0:0:0:0:
192,192,52813,1,0,0:0:0:0:
320,192,52979,1,8,0:0:0:0:
448,192,52979,1,0,0:0:0:0:
192,192,53146,1,0,0:0:0:0:
64,192,53313,1,2,0:0:0:0:
448,192,53313,1,0,0:0:0:0:
64,192,53646,1,8,0:0:0:0:
192,192,53646,128,0,53813:0:0:0:0:
448,192,53813,128,0,53979:0:0:0:0:
320,192,53979,1,0,0:0:0:70:HHOpen.wav
64,192,54146,128,2,54313:0:0:0:0:
192,192,54146,1,0,0:0:0:0:
320,192,54313,128,8,54479:0:0:0:0:
448,192,54313,1,0,0:0:0:70:HHOpen.wav
192,192,54479,1,0,0:0:0:0:
64,192,54646,128,2,55646:0:0:0:0:
448,192,54646,1,4,0:0:0:0:
320,192,54813,1,8,0:0:0:0:
448,192,54979,1,0,0:0:0:70:HHOpen.wav
320,192,55146,1,2,0:0:0:0:
192,192,55313,1,8,0:0:0:0:
448,192,55479,1,2,0:0:0:0:
192,192,55646,1,8,0:0:0:0:
320,192,55646,1,0,0:0:0:0:
64,192,55813,1,2,0:0:0:0:
448,192,55813,1,4,0:0:0:0:
64,192,56146,1,8,0:0:0:0:
192,192,56313,1,8,0:0:0:0:
320,192,56479,1,2,0:0:0:0:
64,192,56646,1,8,0:0:0:0:
448,192,56646,1,0,0:0:0:0:
192,192,56813,1,8,0:0:0:0:
320,192,56979,1,0,0:0:0:70:Tom2.wav
448,192,57146,1,0,0:0:0:70:tom3.wav
64,192,57313,1,2,0:0:0:0:
192,192,57313,1,4,0:0:0:0:
320,192,57479,1,0,0:0:0:0:
192,192,57646,1,0,0:0:0:0:
320,192,57813,1,0,0:0:0:0:
448,192,57979,1,8,0:0:0:0:
320,192,58146,1,0,0:0:0:0:
192,192,58313,1,0,0:0:0:0:
64,192,58479,1,0,0:0:0:0:
320,192,58646,1,2,0:0:0:0:
448,192,58646,128,0,58979:0:0:0:0:
64,192,58979,128,2,59313:0:0:0:0:
192,192,58979,1,0,0:0:0:0:
320,192,59313,128,8,59646:0:0:0:0:
448,192,59313,1,0,0:0:0:0:
192,192,59646,128,0,59979:0:0:0:0:
320,192,59979,1,2,0:0:0:0:
448,192,59979,128,0,60313:0:0:0:0:
64,192,60313,128,0,60646:0:0:0:0:
192,192,60646,1,8,0:0:0:0:
320,192,60646,128,0,60979:0:0:0:0:
448,192,60979,128,0,61313:0:0:0:0:
64,192,61313,128,2,61646:0:0:0:0:
192,192,61313,1,0,0:0:0:0:
320,192,61646,1,2,0:0:0:0:
448,192,61646,128,0,61979:0:0:0:0:
64,192,61979,1,8,0:0:0:0:
192,192,61979,128,0,62313:0:0:0:0:
320,192,62313,128,2,62646:0:0:0:0:
448,192,62313,1,0,0:0:0:0:
64,192,62646,128,2,62979:0:0:0:0:
192,192,62646,1,0,0:0:0:0:
448,192,62979,128,0,63313:0:0:0:0:
192,192,63313,128,8,63646:0:0:0:0:
320,192,63313,1,0,0:0:0:0:
64,192,63646,128,0,63979:0:0:0:0:
320,192,63979,1,2,0:0:0:0:
448,192,63979,128,0,64313:0:0:0:0:
192,192,64313,1,2,0:0:0:0:
320,192,64313,128,0,64646:0:0:0:0:
64,192,64646,1,8,0:0:0:0:
192,192,64646,128,0,64979:0:0:0:0:
448,192,64979,128,0,65313:0:0:0:0:
64,192,65313,128,2,65646:0:0:0:0:
192,192,65313,1,0,0:0:0:0:
320,192,65646,128,0,65979:0:0:0:0:
64,192,65979,128,8,66313:0:0:0:0:
192,192,65979,1,0,0:0:0:0:
448,192,66313,128,0,66646:0:0:0:0:
64,192,66646,128,2,66979:0:0:0:0:
192,192,66646,1,0,0:0:0:0:
320,192,66979,1,2,0:0:0:0:
448,192,66979,1,0,0:0:0:0:
192,192,67313,1,8,0:0:0:0:
320,192,67313,128,0,67646:0:0:0:0:
64,192,67646,1,2,0:0:0:0:
448,192,67813,1,8,0:0:0:0:
320,192,67896,1,8,0:0:0:0:
64,192,67979,128,2,68313:0:0:0:0:
192,192,67979,1,4,0:0:0:0:
320,192,68313,1,8,0:0:0:0:
448,192,68313,128,0,68646:0:0:0:0:
320,192,68646,1,0,0:0:0:70:HHOpen.wav
64,192,68813,1,2,0:0:0:0:
192,192,68813,1,0,0:0:0:0:
320,192,68979,128,8,69313:0:0:0:0:
448,192,68979,1,0,0:0:0:0:
64,192,69313,128,2,69646:0:0:0:0:
192,192,69313,1,0,0:0:0:0:
320,192,69646,1,8,0:0:0:0:
448,192,69646,128,0,69979:0:0:0:0:
320,192,69979,1,0,0:0:0:70:HHOpen.wav
64,192,70146,1,2,0:0:0:0:
192,192,70146,1,0,0:0:0:0:
320,192,70313,128,8,70646:0:0:0:0:
448,192,70313,1,0,0:0:0:0:
64,192,70646,128,2,70979:0:0:0:0:
192,192,70646,1,0,0:0:0:0:
320,192,70979,1,8,0:0:0:0:
448,192,70979,128,0,71313:0:0:0:0:
320,192,71313,1,0,0:0:0:70:HHOpen.wav
64,192,71479,1,2,0:0:0:0:
192,192,71479,1,0,0:0:0:0:
320,192,71646,1,8,0:0:0:0:
448,192,71646,128,0,71979:0:0:0:0:
64,192,71979,1,2,0:0:0:0:
192,192,71979,128,0,72313:0:0:0:0:
320,192,72313,1,8,0:0:0:0:
448,192,72313,1,0,0:0:0:0:
64,192,72479,1,0,0:0:0:0:
192,192,72646,1,0,0:0:0:70:HHOpen.wav
320,192,72813,1,2,0:0:0:0:
448,192,72813,1,0,0:0:0:0:
64,192,72979,128,8,73313:0:0:0:0:
192,192,72979,1,0,0:0:0:0:
320,192,73313,128,2,73646:0:0:0:0:
448,192,73313,1,4,0:0:0:0:
64,192,73646,1,8,0:0:0:0:
192,192,73646,1,0,0:0:0:0:
448,192,73813,128,0,73979:0:0:0:0:
64,192,73979,128,8,74146:0:0:0:0:
192,192,74146,128,0,74313:0:0:0:0:
320,192,74479,128,2,74646:0:0:0:0:
192,192,74646,128,8,74813:0:0:0:0:
64,192,74813,128,0,74979:0:0:0:0:
448,192,74979,128,8,75146:0:0:0:0:
320,192,75146,128,0,75313:0:0:0:0:
64,192,75313,128,8,75479:0:0:0:0:
192,192,75479,128,2,75646:0:0:0:0:
320,192,75646,128,8,75813:0:0:0:0:
448,192,75813,128,0,75979:0:0:0:0:
64,192,75979,128,8,77313:0:0:0:0:
192,192,75979,1,0,0:0:0:70:Tom2.wav
448,192,76146,1,2,0:0:0:0:
192,192,76313,1,8,0:0:0:0:
448,192,76479,1,2,0:0:0:0:
448,192,76813,1,8,0:0:0:0:
320,192,76979,1,8,0:0:0:0:
192,192,77146,1,8,0:0:0:0:
320,192,77313,1,2,0:0:0:0:
448,192,77313,1,4,0:0:0:0:
192,192,77646,1,8,0:0:0:0:
320,192,77646,1,2,0:0:0:0:
64,192,77979,1,2,0:0:0:0:
192,192,77979,1,0,0:0:0:0:
448,192,78146,1,10,0:0:0:0:
320,192,78313,1,2,0:0:0:0:
192,192,78479,1,10,0:0:0:0:
64,192,78646,128,2,79646:0:0:0:0:
448,192,78646,1,4,0:0:0:0:
320,192,78979,1,8,0:0:0:0:
448,192,79313,1,0,0:0:0:70:HHOpen.wav
192,192,79479,1,2,0:0:0:0:
320,192,79646,1,8,0:0:0:0:
448,192,79646,128,0,79979:0:0:0:0:
64,192,79979,1,2,0:0:0:0:
192,192,79979,128,0,80313:0:0:0:0:
320,192,80313,128,8,80646:0:0:0:0:
448,192,80313,1,0,0:0:0:0:
64,192,80646,128,0,80979:0:0:0:70:HHOpen.wav
448,192,80813,1,2,0:0:0:0:
192,192,80979,128,8,81313:0:0:0:0:
320,192,80979,1,0,0:0:0:0:
64,192,81313,1,2,0:0:0:0:
448,192,81313,128,0,82313:0:0:0:0:
192,192,81646,1,8,0:0:0:0:
64,192,81979,1,0,0:0:0:70:HHOpen.wav
320,192,82146,1,2,0:0:0:0:
64,192,82313,128,8,82646:0:0:0:0:
192,192,82313,1,0,0:0:0:0:
320,192,82646,128,2,82979:0:0:0:0:
448,192,82646,1,0,0:0:0:0:
64,192,82979,1,8,0:0:0:0:
192,192,82979,128,0,83313:0:0:0:0:
448,192,83313,128,0,83646:0:0:0:70:HHOpen.wav
64,192,83479,1,2,0:0:0:0:
192,192,83646,1,8,0:0:0:0:
320,192,83646,128,0,83979:0:0:0:0:
64,192,83979,128,2,84646:0:0:0:0:
448,192,83979,1,4,0:0:0:0:
320,192,84313,1,8,0:0:0:0:
448,192,84646,1,0,0:0:0:70:HHOpen.wav
192,192,84813,1,2,0:0:0:0:
320,192,84979,1,8,0:0:0:0:
448,192,84979,128,0,85313:0:0:0:0:
64,192,85313,128,2,85646:0:0:0:0:
192,192,85313,1,0,0:0:0:0:
320,192,85646,1,8,0:0:0:0:
448,192,85646,128,0,85979:0:0:0:0:
64,192,85979,1,0,0:0:0:70:HHOpen.wav
320,192,86146,1,2,0:0:0:0:
64,192,86313,128,8,86646:0:0:0:0:
192,192,86313,1,0,0:0:0:0:
320,192,86646,128,2,86979:0:0:0:0:
448,192,86646,1,0,0:0:0:0:
64,192,86979,1,8,0:0:0:0:
192,192,86979,1,0,0:0:0:0:
448,192,87313,128,0,87979:0:0:0:70:HHOpen.wav
64,192,87479,1,2,0:0:0:0:
320,192,87646,1,8,0:0:0:0:
64,192,87979,128,2,88646:0:0:0:0:
192,192,87979,1,0,0:0:0:0:
320,192,88313,1,8,0:0:0:0:
448,192,88646,1,0,0:0:0:70:HHOpen.wav
192,192,88813,1,2,0:0:0:0:
320,192,88979,1,8,0:0:0:0:
448,192,88979,1,0,0:0:0:0:
64,192,89313,128,2,89479:0:0:0:0:
448,192,89313,1,4,0:0:0:0:
192,192,89646,128,8,89813:0:0:0:0:
320,192,89646,1,0,0:0:0:0:
320,192,89979,128,0,90146:0:0:0:70:HHOpen.wav
448,192,90146,1,2,0:0:0:0:
64,192,90313,1,8,0:0:0:0:
192,192,90313,1,0,0:0:0:0:
448,192,90479,128,0,90646:0:0:0:0:
192,192,90646,1,2,0:0:0:0:
64,192,90813,128,0,90979:0:0:0:0:
320,192,90979,1,8,0:0:0:0:
448,192,90979,1,0,0:0:0:0:
192,192,91146,128,0,91313:0:0:0:0:
320,192,91479,128,2,91646:0:0:0:0:
64,192,91646,1,8,0:0:0:0:
448,192,91646,1,0,0:0:0:0:
64,192,91979,1,2,0:0:0:0:
448,192,91979,128,0,92146:0:0:0:0:
192,192,92313,1,8,0:0:0:0:
320,192,92313,128,0,92479:0:0:0:0:
192,192,92646,128,0,92813:0:0:0:70:HHOpen.wav
64,192,92813,1,2,0:0:0:0:
320,192,92979,1,8,0:0:0:0:
448,192,92979,1,0,0:0:0:0:
64,192,93146,128,0,93313:0:0:0:0:
320,192,93313,1,2,0:0:0:0:
192,192,93479,1,0,0:0:0:0:
64,192,93646,1,8,0:0:0:0:
448,192,93646,1,0,0:0:0:0:
320,192,93813,1,0,0:0:0:0:
192,192,93979,1,0,0:0:0:70:HHOpen.wav
64,192,94146,1,2,0:0:0:0:
320,192,94313,1,8,0:0:0:0:
448,192,94313,128,0,94646:0:0:0:0:
64,192,94646,128,2,95313:0:0:0:0:
192,192,94646,1,4,0:0:0:0:
320,192,94979,1,8,0:0:0:0:
192,192,95313,128,0,95979:0:0:0:70:HHOpen.wav
448,192,95479,1,2,0:0:0:0:
320,192,95646,1,8,0:0:0:0:
64,192,95979,1,2,0:0:0:0:
448,192,95979,128,0,96313:0:0:0:0:
192,192,96313,1,8,0:0:0:0:
320,192,96313,1,0,0:0:0:0:
64,192,96646,1,0,0:0:0:70:HHOpen.wav
320,192,96813,1,2,0:0:0:0:
64,192,96979,128,8,97313:0:0:0:0:
192,192,96979,1,0,0:0:0:0:
320,192,97313,1,2,0:0:0:0:
448,192,97313,128,0,98313:0:0:0:0:
192,192,97646,1,8,0:0:0:0:
64,192,97979,1,0,0:0:0:70:HHOpen.wav
320,192,98146,1,2,0:0:0:0:
64,192,98313,128,8,98479:0:0:0:0:
192,192,98313,1,0,0:0:0:0:
320,192,98479,128,0,98646:0:0:0:0:
448,192,98646,128,2,98979:0:0:0:0:
64,192,98979,1,8,0:0:0:0:
192,192,98979,1,0,0:0:0:0:
64,192,99313,128,0,99979:0:0:0:70:Tom2.wav
192,192,99313,1,0,0:0:0:0:
448,192,99479,1,0,0:0:0:70:tom3.wav
320,192,99646,1,8,0:0:0:0:
192,192,99813,1,8,0:0:0:0:
320,192,99979,1,2,0:0:0:0:
448,192,99979,128,4,100979:0:0:0:0:
192,192,100313,1,8,0:0:0:0:
64,192,100646,1,0,0:0:0:70:HHOpen.wav
320,192,100813,1,2,0:0:0:0:
64,192,100979,128,8,101313:0:0:0:0:
192,192,100979,1,0,0:0:0:0:
320,192,101313,128,2,101646:0:0:0:0:
448,192,101313,1,0,0:0:0:0:
64,192,101646,1,8,0:0:0:0:
192,192,101646,128,0,101979:0:0:0:0:
448,192,101979,128,0,102313:0:0:0:70:HHOpen.wav
64,192,102146,1,2,0:0:0:0:
192,192,102313,1,8,0:0:0:0:
320,192,102313,128,0,102646:0:0:0:0:
64,192,102646,128,2,103646:0:0:0:0:
448,192,102646,1,0,0:0:0:0:
320,192,102979,1,8,0:0:0:0:
448,192,103313,1,0,0:0:0:70:HHOpen.wav
192,192,103479,1,2,0:0:0:0:
320,192,103646,1,8,0:0:0:0:
448,192,103646,128,0,103979:0:0:0:0:
64,192,103979,1,2,0:0:0:0:
192,192,103979,128,0,104313:0:0:0:0:
320,192,104313,128,8,104646:0:0:0:0:
448,192,104313,1,0,0:0:0:0:
64,192,104646,128,0,104979:0:0:0:70:HHOpen.wav
448,192,104813,1,2,0:0:0:0:
192,192,104979,128,8,105313:0:0:0:0:
320,192,104979,1,0,0:0:0:0:
64,192,105313,1,2,0:0:0:0:
448,192,105313,128,4,105979:0:0:0:0:
192,192,105646,1,8,0:0:0:0:
64,192,105979,1,0,0:0:0:70:HHOpen.wav
320,192,106146,1,2,0:0:0:0:
64,192,106313,128,8,106646:0:0:0:0:
192,192,106313,1,0,0:0:0:0:
320,192,106646,1,2,0:0:0:0:
448,192,106646,128,0,106979:0:0:0:0:
64,192,106979,128,8,107313:0:0:0:0:
192,192,106979,1,0,0:0:0:0:
448,192,107313,1,0,0:0:0:70:HHOpen.wav
192,192,107479,1,2,0:0:0:0:
320,192,107646,1,8,0:0:0:0:
448,192,107646,128,0,107979:0:0:0:0:
64,192,107979,1,2,0:0:0:0:
192,192,107979,128,0,108313:0:0:0:0:
320,192,108313,1,8,0:0:0:0:
448,192,108313,1,0,0:0:0:0:
64,192,108646,128,0,109313:0:0:0:70:HHOpen.wav
448,192,108813,1,2,0:0:0:0:
192,192,108979,1,8,0:0:0:0:
320,192,109313,1,2,0:0:0:0:
448,192,109313,128,0,109979:0:0:0:0:
192,192,109646,1,8,0:0:0:0:
64,192,109979,1,0,0:0:0:70:HHOpen.wav
320,192,110146,1,2,0:0:0:0:
64,192,110313,1,8,0:0:0:0:
192,192,110313,1,0,0:0:0:0:
64,192,110646,1,2,0:0:0:0:
448,192,110646,128,4,110813:0:0:0:0:
192,192,110979,1,8,0:0:0:0:
320,192,110979,128,0,111146:0:0:0:0:
192,192,111313,128,0,111479:0:0:0:70:HHOpen.wav
64,192,111479,1,2,0:0:0:0:
320,192,111646,1,8,0:0:0:0:
448,192,111646,1,0,0:0:0:0:
64,192,111813,128,0,111979:0:0:0:0:
320,192,111979,1,2,0:0:0:0:
448,192,112146,1,0,0:0:0:0:
64,192,112313,1,8,0:0:0:0:
192,192,112313,1,0,0:0:0:0:
320,192,112479,1,0,0:0:0:0:
448,192,112646,1,0,0:0:0:70:HHOpen.wav
64,192,112813,1,2,0:0:0:0:
192,192,112979,1,8,0:0:0:0:
448,192,112979,1,0,0:0:0:0:
320,192,113146,1,0,0:0:0:0:
64,192,113313,128,2,113479:0:0:0:0:
448,192,113313,1,0,0:0:0:0:
192,192,113646,128,8,113813:0:0:0:0:
320,192,113646,1,0,0:0:0:0:
320,192,113979,128,0,114146:0:0:0:70:HHOpen.wav
448,192,114146,1,2,0:0:0:0:
64,192,114313,1,8,0:0:0:0:
192,192,114313,1,0,0:0:0:0:
448,192,114479,128,0,114646:0:0:0:0:
192,192,114646,1,2,0:0:0:0:
320,192,114813,1,0,0:0:0:0:
64,192,114979,1,8,0:0:0:0:
448,192,114979,1,0,0:0:0:0:
192,192,115146,1,0,0:0:0:0:
320,192,115313,1,0,0:0:0:70:HHOpen.wav
448,192,115479,1,2,0:0:0:0:
64,192,115646,1,8,0:0:0:0:
320,192,115646,1,0,0:0:0:0:
192,192,115813,1,0,0:0:0:0:
64,192,115979,1,2,0:0:0:0:
448,192,115979,128,4,116313:0:0:0:0:
192,192,116313,128,8,116646:0:0:0:0:
320,192,116313,1,0,0:0:0:0:
64,192,116646,128,0,116979:0:0:0:70:HHOpen.wav
320,192,116813,1,2,0:0:0:0:
192,192,116979,1,8,0:0:0:0:
448,192,116979,1,0,0:0:0:0:
320,192,117146,1,0,0:0:0:0:
64,192,117313,1,2,0:0:0:0:
448,192,117313,1,4,0:0:0:0:
192,192,117479,1,8,0:0:0:0:
320,192,117646,1,0,0:0:0:70:tom1.wav
64,192,117813,1,8,0:0:0:0:
448,192,117813,1,0,0:0:0:0:
192,192,117979,1,0,0:0:0:70:Tom2.wav
320,192,118146,1,0,0:0:0:70:tom3.wav
64,192,118313,1,8,0:0:0:0:
448,192,118313,1,0,0:0:0:0:
192,192,118479,1,8,0:0:0:0:
320,192,118563,1,8,0:0:0:0:
64,192,118646,1,2,0:0:0:0:
448,192,118646,128,4,118979:0:0:0:0:
64,192,118979,128,8,119479:0:0:0:0:
320,192,119479,128,2,119646:0:0:0:0:
64,192,119646,128,8,119813:0:0:0:0:
448,192,119813,128,0,119979:0:0:0:0:
192,192,119979,128,2,120146:0:0:0:0:
320,192,120146,128,0,120313:0:0:0:0:
448,192,120313,128,8,120479:0:0:0:0:
64,192,120479,128,0,120646:0:0:0:0:
320,192,120646,128,0,120813:0:0:0:70:HHOpen.wav
192,192,120813,128,2,120979:0:0:0:0:
448,192,120979,128,8,121146:0:0:0:0:
320,192,121146,128,0,121313:0:0:0:0:
64,192,121313,128,2,121646:0:0:0:0:
320,192,121646,128,8,121813:0:0:0:0:
64,192,121813,128,0,121979:0:0:0:0:
448,192,121979,128,0,122146:0:0:0:70:HHOpen.wav
320,192,122146,128,2,122313:0:0:0:0:
192,192,122313,128,8,122479:0:0:0:0:
64,192,122479,128,0,122646:0:0:0:0:
448,192,122646,128,2,122813:0:0:0:0:
320,192,122813,128,0,122979:0:0:0:0:
64,192,122979,128,8,123146:0:0:0:0:
192,192,123146,128,0,123313:0:0:0:0:
448,192,123313,128,0,123479:0:0:0:70:HHOpen.wav
320,192,123479,128,2,123646:0:0:0:0:
192,192,123646,128,8,123813:0:0:0:0:
64,192,123813,128,0,123979:0:0:0:0:
320,192,123979,1,2,0:0:0:0:
448,192,123979,128,4,124313:0:0:0:0:
64,192,124646,128,0,124813:0:0:0:70:HHOpen.wav
320,192,124813,128,2,124979:0:0:0:0:
64,192,124979,128,8,125146:0:0:0:0:
448,192,125146,128,0,125479:0:0:0:0:
64,192,125479,128,0,125646:0:0:0:0:
192,192,125646,128,8,125813:0:0:0:0:
448,192,125813,128,0,125979:0:0:0:0:
320,192,125979,128,0,126146:0:0:0:70:HHOpen.wav
64,192,126146,128,2,126313:0:0:0:0:
448,192,126313,128,8,126479:0:0:0:0:
192,192,126479,128,0,126646:0:0:0:0:
64,192,126646,128,2,126813:0:0:0:0:
448,192,126813,128,0,126979:0:0:0:0:
192,192,126979,128,8,127146:0:0:0:0:
320,192,127146,128,0,127313:0:0:0:0:
64,192,127313,128,0,127479:0:0:0:70:HHOpen.wav
192,192,127479,128,2,127646:0:0:0:0:
448,192,127646,128,8,127813:0:0:0:0:
320,192,127813,128,0,127979:0:0:0:0:
64,192,127979,128,2,128146:0:0:0:0:
192,192,128146,128,0,128313:0:0:0:0:
320,192,128313,128,8,128479:0:0:0:0:
64,192,128479,128,0,128813:0:0:0:0:
448,192,128813,128,2,128979:0:0:0:0:
192,192,128979,128,8,129313:0:0:0:0:
64,192,129313,1,2,0:0:0:0:
448,192,129313,128,4,129479:0:0:0:0:
320,192,129479,128,0,129646:0:0:0:0:
192,192,129646,128,8,129813:0:0:0:0:
64,192,129813,128,0,129979:0:0:0:0:
448,192,129979,128,0,130146:0:0:0:70:HHOpen.wav
320,192,130146,128,2,130313:0:0:0:0:
64,192,130479,128,0,130813:0:0:0:0:
320,192,130813,128,0,130979:0:0:0:0:
64,192,130979,128,8,131146:0:0:0:0:
448,192,131146,128,0,131313:0:0:0:0:
192,192,131313,128,0,131479:0:0:0:70:HHOpen.wav
320,192,131479,128,2,131646:0:0:0:0:
448,192,131646,128,8,131979:0:0:0:0:
64,192,131979,128,2,132146:0:0:0:0:
192,192,132146,128,0,132313:0:0:0:0:
448,192,132313,128,8,132479:0:0:0:0:
320,192,132479,128,0,132646:0:0:0:0:
64,192,132646,128,0,132813:0:0:0:70:HHOpen.wav
192,192,132813,128,2,132979:0:0:0:0:
448,192,132979,128,8,133146:0:0:0:0:
64,192,133146,128,0,133313:0:0:0:0:
192,192,133479,128,0,133646:0:0:0:0:
320,192,133813,128,0,134146:0:0:0:0:
448,192,134146,128,2,134313:0:0:0:0:
64,192,134313,128,8,134479:0:0:0:0:
192,192,134479,128,0,134646:0:0:0:0:
320,192,134646,1,2,0:0:0:0:
448,192,134646,128,4,134979:0:0:0:0:
64,192,134979,128,8,135146:0:0:0:0:
320,192,135313,128,0,135479:0:0:0:70:HHOpen.wav
448,192,135479,128,2,135646:0:0:0:0:
64,192,135646,128,8,135813:0:0:0:0:
192,192,135813,128,0,135979:0:0:0:0:
320,192,135979,128,2,136313:0:0:0:0:
448,192,136313,128,8,136646:0:0:0:0:
64,192,136646,128,8,136979:0:0:0:0:
192,192,136979,128,2,137313:0:0:0:0:
320,192,137313,1,2,0:0:0:0:
448,192,137313,128,4,137646:0:0:0:0:
64,192,137646,1,0,0:0:0:0:
192,192,137813,1,0,0:0:0:0:
320,192,137979,1,8,0:0:0:0:
448,192,138146,1,0,0:0:0:0:
64,192,138313,1,0,0:0:0:0:
192,192,138479,1,0,0:0:0:0:
320,192,138646,1,2,0:0:0:0:
448,192,138646,128,0,138979:0:0:0:0:
64,192,138979,128,2,139313:0:0:0:0:
192,192,138979,1,0,0:0:0:0:
320,192,139313,128,8,139646:0:0:0:0:
448,192,139313,1,0,0:0:0:0:
192,192,139646,128,0,139979:0:0:0:0:
320,192,139979,1,2,0:0:0:0:
448,192,139979,128,0,140313:0:0:0:0:
64,192,140313,128,0,140646:0:0:0:0:
192,192,140646,1,8,0:0:0:0:
320,192,140646,128,0,140979:0:0:0:0:
448,192,140979,128,0,141313:0:0:0:0:
64,192,141313,128,2,141646:0:0:0:0:
192,192,141313,1,0,0:0:0:0:
320,192,141646,1,2,0:0:0:0:
448,192,141646,128,0,141979:0:0:0:0:
64,192,141979,1,8,0:0:0:0:
192,192,141979,128,0,142313:0:0:0:0:
320,192,142313,128,2,142646:0:0:0:0:
448,192,142313,1,0,0:0:0:0:
64,192,142646,128,2,142979:0:0:0:0:
192,192,142646,1,0,0:0:0:0:
448,192,142979,128,0,143313:0:0:0:0:
192,192,143313,128,8,143646:0:0:0:0:
320,192,143313,1,0,0:0:0:0:
64,192,143646,128,0,143979:0:0:0:0:
320,192,143979,1,2,0:0:0:0:
448,192,143979,128,0,144313:0:0:0:0:
192,192,144313,1,2,0:0:0:0:
320,192,144313,128,0,144646:0:0:0:0:
64,192,144646,1,8,0:0:0:0:
192,192,144646,128,0,144979:0:0:0:0:
448,192,144979,128,0,145313:0:0:0:0:
64,192,145313,128,2,145646:0:0:0:0:
192,192,145313,1,0,0:0:0:0:
320,192,145646,128,0,145979:0:0:0:0:
64,192,145979,128,8,146313:0:0:0:0:
192,192,145979,1,0,0:0:0:0:
448,192,146313,128,0,146646:0:0:0:0:
64,192,146646,128,2,146979:0:0:0:0:
192,192,146646,1,0,0:0:0:0:
320,192,146979,1,2,0:0:0:0:
448,192,146979,1,0,0:0:0:0:
192,192,147313,1,8,0:0:0:0:
320,192,147313,128,0,147646:0:0:0:0:
64,192,147646,1,2,0:0:0:0:
448,192,147813,1,8,0:0:0:0:
320,192,147896,1,8,0:0:0:0:
64,192,147979,1,2,0:0:0:0:
192,192,147979,1,4,0:0:0:0:
320,192,148146,1,0,0:0:0:0:
64,192,148313,1,8,0:0:0:0:
448,192,148313,1,0,0:0:0:0:
192,192,148479,1,0,0:0:0:0:
448,192,148646,1,0,0:0:0:70:HHOpen.wav
64,192,148813,1,2,0:0:0:0:
192,192,148813,1,0,0:0:0:0:
320,192,148979,1,8,0:0:0:0:
448,192,148979,1,0,0:0:0:0:
64,192,149146,1,0,0:0:0:0:
320,192,149313,1,2,0:0:0:0:
448,192,149313,1,0,0:0:0:0:
192,192,149479,1,0,0:0:0:0:
64,192,149646,1,8,0:0:0:0:
448,192,149646,1,0,0:0:0:0:
320,192,149813,1,0,0:0:0:0:
64,192,149979,1,0,0:0:0:70:HHOpen.wav
320,192,150146,1,2,0:0:0:0:
448,192,150146,1,0,0:0:0:0:
64,192,150313,1,8,0:0:0:0:
192,192,150313,1,0,0:0:0:0:
320,192,150479,1,0,0:0:0:0:
64,192,150646,1,2,0:0:0:0:
448,192,150646,1,0,0:0:0:0:
192,192,150813,1,0,0:0:0:0:
320,192,150979,1,8,0:0:0:0:
448,192,150979,1,0,0:0:0:0:
192,192,151146,1,0,0:0:0:0:
64,192,151313,1,0,0:0:0:70:HHOpen.wav
320,192,151479,1,2,0:0:0:0:
448,192,151479,1,0,0:0:0:0:
64,192,151646,1,8,0:0:0:0:
192,192,151646,1,0,0:0:0:0:
320,192,151813,1,0,0:0:0:0:
64,192,151979,1,2,0:0:0:0:
448,192,151979,1,0,0:0:0:0:
192,192,152146,1,0,0:0:0:0:
64,192,152313,1,8,0:0:0:0:
320,192,152313,1,0,0:0:0:0:
448,192,152479,1,0,0:0:0:0:
320,192,152646,1,0,0:0:0:70:HHOpen.wav
64,192,152813,1,2,0:0:0:0:
192,192,152813,1,0,0:0:0:0:
320,192,152979,1,8,0:0:0:0:
448,192,152979,1,0,0:0:0:0:
192,192,153146,1,0,0:0:0:0:
64,192,153313,1,2,0:0:0:0:
448,192,153313,128,4,153646:0:0:0:0:
64,192,153646,1,8,0:0:0:0:
192,192,153646,128,0,153813:0:0:0:70:HHOpen.wav
320,192,153813,128,0,153979:0:0:0:0:
448,192,153979,1,8,0:0:0:0:
64,192,154146,128,0,154313:0:0:0:0:
320,192,154313,128,8,154479:0:0:0:0:
448,192,154313,1,0,0:0:0:70:HHOpen.wav
192,192,154479,128,2,154646:0:0:0:0:
64,192,154646,1,8,0:0:0:0:
320,192,154646,128,0,154979:0:0:0:70:HHOpen.wav
64,192,154979,128,8,155313:0:0:0:0:
448,192,154979,1,0,0:0:0:70:HHOpen.wav
320,192,155313,1,8,0:0:0:0:
448,192,155313,128,0,155646:0:0:0:70:HHOpen.wav
64,192,155479,1,2,0:0:0:0:
192,192,155646,128,8,155979:0:0:0:0:
320,192,155646,1,0,0:0:0:70:HHOpen.wav
64,192,155979,1,8,0:0:0:0:
448,192,155979,128,0,156979:0:0:0:70:tom1.wav
320,192,156146,1,2,0:0:0:0:
64,192,156313,1,8,0:0:0:0:
320,192,156479,1,2,0:0:0:0:
64,192,156813,1,8,0:0:0:0:
192,192,156979,1,8,0:0:0:0:
320,192,157146,1,8,0:0:0:0:
64,192,157313,1,2,0:0:0:0:
448,192,157313,1,4,0:0:0:0:
192,192,157646,128,0,157979:0:0:0:0:
320,192,157979,128,0,158313:0:0:0:0:
448,192,158313,128,0,158646:0:0:0:0:
64,192,158646,1,2,0:0:0:0:
320,192,158646,1,0,0:0:0:0:
192,192,158813,1,0,0:0:0:70:HHOpen.wav
320,192,158979,1,0,0:0:0:0:
64,192,159146,1,2,0:0:0:0:
192,192,159313,1,8,0:0:0:0:
448,192,159313,1,0,0:0:0:0:
320,192,159479,1,0,0:0:0:0:
192,192,159646,1,2,0:0:0:0:
64,192,159813,1,0,0:0:0:70:HHOpen.wav
448,192,159979,1,0,0:0:0:0:
320,192,160146,1,0,0:0:0:70:HHOpen.wav
192,192,160313,1,2,0:0:0:0:
64,192,160479,1,0,0:0:0:0:
320,192,160646,1,8,0:0:0:0:
448,192,160646,1,0,0:0:0:0:
64,192,160813,1,2,0:0:0:0:
192,192,160979,1,0,0:0:0:70:tom1.wav
320,192,161146,1,0,0:0:0:70:Tom2.wav
448,192,161313,1,2,0:0:0:0:
320,192,161646,1,0,0:0:0:70:HHOpen.wav
192,192,161813,1,2,0:0:0:0:
64,192,161979,1,8,0:0:0:0:
448,192,161979,1,0,0:0:0:0:
320,192,162313,1,2,0:0:0:0:
192,192,162479,1,0,0:0:0:70:HHOpen.wav
448,192,162646,1,0,0:0:0:0:
64,192,162813,1,0,0:0:0:70:HHOpen.wav
320,192,162979,1,2,0:0:0:0:
64,192,163313,1,8,0:0:0:0:
192,192,163313,1,0,0:0:0:0:
320,192,163479,1,2,0:0:0:0:
64,192,163646,1,0,0:0:0:70:tom1.wav
192,192,163813,1,0,0:0:0:70:Tom2.wav
320,192,163979,1,2,0:0:0:0:
64,192,164146,1,0,0:0:0:70:HHOpen.wav
448,192,164479,1,2,0:0:0:0:
64,192,164646,1,8,0:0:0:0:
192,192,164646,1,0,0:0:0:0:
320,192,164979,1,2,0:0:0:0:
64,192,165146,1,0,0:0:0:70:HHOpen.wav
192,192,165313,1,0,0:0:0:0:
448,192,165313,128,0,165646:0:0:0:0:
64,192,165646,128,2,165979:0:0:0:0:
320,192,165646,1,0,0:0:0:0:
192,192,165979,1,8,0:0:0:0:
448,192,165979,128,0,166313:0:0:0:0:
64,192,166313,128,0,166646:0:0:0:70:tom1.wav
320,192,166313,1,0,0:0:0:0:
192,192,166646,1,2,0:0:0:0:
448,192,166646,128,0,167313:0:0:0:0:
64,192,167146,1,2,0:0:0:0:
192,192,167313,1,8,0:0:0:0:
320,192,167313,128,0,167979:0:0:0:0:
448,192,167646,1,2,0:0:0:0:
64,192,167979,1,0,0:0:0:0:
192,192,167979,128,0,168646:0:0:0:0:
320,192,168313,1,2,0:0:0:0:
448,192,168646,1,0,0:0:0:0:
320,192,168813,1,0,0:0:0:0:
192,192,168979,1,0,0:0:0:0:
64,192,169146,1,0,0:0:0:0:
320,192,169313,1,2,0:0:0:0:
448,192,169313,128,4,169479:0:0:0:0:
320,192,169646,128,0,169813:0:0:0:0:
192,192,169979,128,8,170146:0:0:0:0:
448,192,169979,1,0,0:0:0:0:
64,192,170313,1,0,0:0:0:0:
320,192,170479,1,0,0:0:0:0:
448,192,170646,1,2,0:0:0:0:
64,192,170813,1,0,0:0:0:0:
192,192,170979,1,2,0:0:0:0:
320,192,171146,1,0,0:0:0:0:
448,192,171313,1,8,0:0:0:0:
320,192,171479,1,0,0:0:0:0:
192,192,171646,1,0,0:0:0:0:
64,192,171813,1,0,0:0:0:0:
320,192,171979,1,2,0:0:0:0:
448,192,171979,128,0,172146:0:0:0:0:
320,192,172313,128,0,172479:0:0:0:0:
192,192,172646,128,8,172813:0:0:0:0:
448,192,172646,1,0,0:0:0:0:
64,192,172979,1,0,0:0:0:0:
320,192,173146,1,0,0:0:0:0:
448,192,173313,1,2,0:0:0:0:
64,192,173479,1,0,0:0:0:0:
192,192,173646,1,2,0:0:0:0:
320,192,173813,1,0,0:0:0:0:
448,192,173979,1,8,0:0:0:0:
320,192,174146,1,0,0:0:0:0:
192,192,174313,1,2,0:0:0:0:
64,192,174479,1,0,0:0:0:0:
320,192,174646,1,2,0:0:0:0:
448,192,174646,128,4,174979:0:0:0:0:
64,192,174979,1,8,0:0:0:0:
192,192,174979,128,0,175313:0:0:0:0:
320,192,175313,128,8,175646:0:0:0:0:
448,192,175313,1,0,0:0:0:0:
64,192,175646,128,8,175979:0:0:0:0:
192,192,175646,1,0,0:0:0:0:
448,192,175813,1,2,0:0:0:0:
192,192,175979,1,8,0:0:0:0:
320,192,175979,128,0,176313:0:0:0:0:
64,192,176313,128,8,176646:0:0:0:0:
448,192,176313,1,0,0:0:0:0:
192,192,176646,1,8,0:0:0:0:
448,192,176646,128,0,176979:0:0:0:0:
320,192,176813,1,2,0:0:0:0:
64,192,176979,1,8,0:0:0:0:
192,192,177146,1,2,0:0:0:0:
320,192,177313,128,8,177813:0:0:0:0:
448,192,177313,1,0,0:0:0:70:tom1.wav
64,192,177479,1,2,0:0:0:0:
192,192,177646,1,8,0:0:0:0:
448,192,177813,1,2,0:0:0:0:
64,192,178146,1,8,0:0:0:0:
192,192,178313,1,8,0:0:0:0:
320,192,178479,1,8,0:0:0:0:
64,192,178646,1,2,0:0:0:0:
448,192,178646,1,4,0:0:0:0:
64,192,178979,128,2,179313:0:0:0:0:
192,192,178979,1,8,0:0:0:0:
320,192,179313,128,2,179646:0:0:0:0:
448,192,179313,1,8,0:0:0:0:
64,192,179646,1,2,0:0:0:0:
192,192,179646,128,8,179979:0:0:0:0:
320,192,179979,1,2,0:0:0:0:
64,192,180146,1,4,0:0:0:0:
448,192,180146,1,8,0:0:0:0:
192,192,180313,1,0,0:0:0:0:
320,192,180479,1,2,0:0:0:0:
64,192,180646,1,8,0:0:0:0:
448,192,180646,1,4,0:0:0:0:
192,192,180979,1,2,0:0:0:0:
64,192,181146,1,8,0:0:0:0:
448,192,181146,1,4,0:0:0:0:
320,192,181313,1,0,0:0:0:0:
192,192,181479,1,2,0:0:0:0:
64,192,181646,1,8,0:0:0:0:
448,192,181646,1,4,0:0:0:0:
192,192,181813,1,8,0:0:0:0:
320,192,181813,1,4,0:0:0:0:
64,192,181979,1,2,0:0:0:0:
448,192,181979,1,0,0:0:0:0:
64,192,182313,1,2,0:0:0:0:
192,192,182313,1,8,0:0:0:0:
320,192,182479,1,8,0:0:0:0:
64,192,182646,128,2,183646:0:0:0:0:
448,192,182646,1,4,0:0:0:0:
448,192,183313,1,0,0:0:0:70:HHOpen.wav
320,192,183646,128,0,183979:0:0:0:0:
64,192,183979,128,2,184313:0:0:0:0:
192,192,183979,1,4,0:0:0:0:
320,192,184313,1,2,0:0:0:0:
448,192,184313,128,8,184646:0:0:0:0:
64,192,184646,128,8,184979:0:0:0:0:
192,192,184646,1,2,0:0:0:0:
320,192,184979,128,0,185313:0:0:0:0:
64,192,185313,1,2,0:0:0:0:
448,192,185313,128,4,186313:0:0:0:0:
192,192,185646,1,8,0:0:0:0:
64,192,185979,1,0,0:0:0:70:HHOpen.wav
320,192,186146,1,2,0:0:0:0:
64,192,186313,128,8,186646:0:0:0:0:
192,192,186313,1,0,0:0:0:0:
320,192,186646,128,2,186979:0:0:0:0:
448,192,186646,1,0,0:0:0:0:
64,192,186979,1,8,0:0:0:0:
192,192,186979,128,0,187313:0:0:0:0:
448,192,187313,128,0,187646:0:0:0:70:HHOpen.wav
64,192,187479,1,2,0:0:0:0:
192,192,187646,1,8,0:0:0:0:
320,192,187646,128,0,187979:0:0:0:0:
64,192,187979,128,2,188646:0:0:0:0:
448,192,187979,1,4,0:0:0:0:
320,192,188313,1,8,0:0:0:0:
448,192,188646,1,0,0:0:0:70:HHOpen.wav
192,192,188813,1,2,0:0:0:0:
320,192,188979,1,8,0:0:0:0:
448,192,188979,128,0,189313:0:0:0:0:
64,192,189313,128,2,189646:0:0:0:0:
192,192,189313,1,0,0:0:0:0:
320,192,189646,1,8,0:0:0:0:
448,192,189646,128,0,189979:0:0:0:0:
64,192,189979,1,0,0:0:0:70:HHOpen.wav
320,192,190146,1,2,0:0:0:0:
64,192,190313,128,8,190646:0:0:0:0:
192,192,190313,1,0,0:0:0:0:
320,192,190646,128,2,191313:0:0:0:0:
448,192,190646,1,0,0:0:0:0:
64,192,190979,1,8,0:0:0:0:
192,192,191313,128,0,191979:0:0:0:70:HHOpen.wav
448,192,191479,1,2,0:0:0:0:
320,192,191646,1,8,0:0:0:0:
64,192,191979,128,2,192646:0:0:0:0:
448,192,191979,1,0,0:0:0:0:
320,192,192313,1,8,0:0:0:0:
448,192,192646,1,0,0:0:0:70:HHOpen.wav
192,192,192813,1,2,0:0:0:0:
320,192,192979,1,8,0:0:0:0:
448,192,192979,1,0,0:0:0:0:
64,192,193313,128,2,193479:0:0:0:0:
448,192,193313,1,4,0:0:0:0:
192,192,193646,128,8,193813:0:0:0:0:
320,192,193646,1,0,0:0:0:0:
320,192,193979,128,0,194146:0:0:0:70:HHOpen.wav
448,192,194146,1,2,0:0:0:0:
64,192,194313,1,8,0:0:0:0:
192,192,194313,1,0,0:0:0:0:
448,192,194479,128,0,194646:0:0:0:0:
192,192,194646,1,2,0:0:0:0:
64,192,194813,128,0,194979:0:0:0:0:
320,192,194979,1,8,0:0:0:0:
448,192,194979,1,0,0:0:0:0:
192,192,195146,128,0,195313:0:0:0:0:
320,192,195479,128,2,195646:0:0:0:0:
64,192,195646,1,8,0:0:0:0:
448,192,195646,1,0,0:0:0:0:
64,192,195979,1,2,0:0:0:0:
448,192,195979,128,0,196146:0:0:0:0:
192,192,196313,1,8,0:0:0:0:
320,192,196313,128,0,196479:0:0:0:0:
192,192,196646,128,0,196813:0:0:0:70:HHOpen.wav
64,192,196813,1,2,0:0:0:0:
320,192,196979,1,8,0:0:0:0:
448,192,196979,1,0,0:0:0:0:
64,192,197146,128,0,197313:0:0:0:0:
320,192,197313,1,2,0:0:0:0:
192,192,197479,1,0,0:0:0:0:
64,192,197646,1,8,0:0:0:0:
448,192,197646,1,0,0:0:0:0:
320,192,197813,1,0,0:0:0:0:
192,192,197979,1,0,0:0:0:70:HHOpen.wav
64,192,198146,1,2,0:0:0:0:
320,192,198313,1,8,0:0:0:0:
448,192,198313,128,0,198646:0:0:0:0:
64,192,198646,128,2,199313:0:0:0:0:
192,192,198646,1,4,0:0:0:0:
320,192,198979,1,8,0:0:0:0:
192,192,199313,128,0,199979:0:0:0:70:HHOpen.wav
448,192,199479,1,2,0:0:0:0:
320,192,199646,1,8,0:0:0:0:
64,192,199979,1,2,0:0:0:0:
448,192,199979,128,0,200646:0:0:0:0:
320,192,200313,1,8,0:0:0:0:
64,192,200646,128,0,201313:0:0:0:70:HHOpen.wav
320,192,200813,1,2,0:0:0:0:
192,192,200979,1,8,0:0:0:0:
320,192,201313,1,2,0:0:0:0:
448,192,201313,128,0,202313:0:0:0:0:
192,192,201646,1,8,0:0:0:0:
64,192,201979,1,0,0:0:0:70:HHOpen.wav
320,192,202146,1,2,0:0:0:0:
64,192,202313,128,8,202479:0:0:0:0:
192,192,202313,1,0,0:0:0:0:
320,192,202479,128,0,202646:0:0:0:0:
448,192,202646,128,2,203313:0:0:0:0:
64,192,202979,1,8,0:0:0:0:
64,192,203313,128,0,203979:0:0:0:70:Tom2.wav
192,192,203313,1,0,0:0:0:0:
448,192,203479,1,0,0:0:0:70:tom3.wav
320,192,203646,1,8,0:0:0:0:
192,192,203813,1,8,0:0:0:0:
320,192,203979,1,2,0:0:0:0:
448,192,203979,128,4,204979:0:0:0:0:
192,192,204313,1,12,0:0:0:0:
64,192,204646,1,0,0:0:0:70:HHOpen.wav
320,192,204813,1,2,0:0:0:0:
64,192,204979,128,8,205313:0:0:0:0:
192,192,204979,1,0,0:0:0:0:
320,192,205313,128,2,205646:0:0:0:0:
448,192,205313,1,0,0:0:0:0:
64,192,205646,1,8,0:0:0:0:
192,192,205646,128,0,205979:0:0:0:0:
448,192,205979,128,0,206313:0:0:0:70:HHOpen.wav
64,192,206146,1,2,0:0:0:0:
192,192,206313,1,8,0:0:0:0:
320,192,206313,128,0,206646:0:0:0:0:
64,192,206646,128,2,207646:0:0:0:0:
448,192,206646,1,0,0:0:0:0:
320,192,206979,1,8,0:0:0:0:
448,192,207313,1,0,0:0:0:70:HHOpen.wav
192,192,207479,1,2,0:0:0:0:
320,192,207646,1,8,0:0:0:0:
448,192,207646,128,0,207979:0:0:0:0:
64,192,207979,1,2,0:0:0:0:
192,192,207979,128,0,208313:0:0:0:0:
320,192,208313,128,8,208646:0:0:0:0:
448,192,208313,1,0,0:0:0:0:
64,192,208646,128,0,208979:0:0:0:70:HHOpen.wav
448,192,208813,1,2,0:0:0:0:
192,192,208979,128,8,209313:0:0:0:0:
320,192,208979,1,0,0:0:0:0:
64,192,209313,1,2,0:0:0:0:
448,192,209313,128,4,209979:0:0:0:0:
192,192,209646,1,8,0:0:0:0:
64,192,209979,1,0,0:0:0:70:HHOpen.wav
320,192,210146,1,2,0:0:0:0:
64,192,210313,128,8,210646:0:0:0:0:
192,192,210313,1,0,0:0:0:0:
320,192,210646,1,2,0:0:0:0:
448,192,210646,128,0,210979:0:0:0:0:
64,192,210979,128,8,211313:0:0:0:0:
192,192,210979,1,0,0:0:0:0:
448,192,211313,1,0,0:0:0:70:HHOpen.wav
192,192,211479,1,2,0:0:0:0:
320,192,211646,1,8,0:0:0:0:
448,192,211646,128,0,211979:0:0:0:0:
64,192,211979,1,2,0:0:0:0:
192,192,211979,128,0,212646:0:0:0:0:
448,192,212313,1,8,0:0:0:0:
320,192,212646,128,0,213313:0:0:0:70:HHOpen.wav
64,192,212813,1,2,0:0:0:0:
192,192,212979,1,8,0:0:0:0:
64,192,213313,1,2,0:0:0:0:
448,192,213313,128,0,213979:0:0:0:0:
192,192,213646,1,8,0:0:0:0:
64,192,213979,1,0,0:0:0:70:HHOpen.wav
320,192,214146,1,2,0:0:0:0:
64,192,214313,1,8,0:0:0:0:
192,192,214313,1,0,0:0:0:0:
64,192,214646,1,2,0:0:0:0:
448,192,214646,128,4,214813:0:0:0:0:
192,192,214979,1,8,0:0:0:0:
320,192,214979,128,4,215146:0:0:0:0:
192,192,215313,128,0,215479:0:0:0:70:HHOpen.wav
64,192,215479,1,2,0:0:0:0:
320,192,215646,1,8,0:0:0:0:
448,192,215646,1,0,0:0:0:0:
64,192,215813,128,0,215979:0:0:0:0:
320,192,215979,1,2,0:0:0:0:
448,192,216146,1,0,0:0:0:0:
64,192,216313,1,8,0:0:0:0:
192,192,216313,1,0,0:0:0:0:
320,192,216479,1,0,0:0:0:0:
448,192,216646,1,0,0:0:0:70:HHOpen.wav
64,192,216813,1,2,0:0:0:0:
192,192,216979,1,8,0:0:0:0:
448,192,216979,1,0,0:0:0:0:
320,192,217146,1,0,0:0:0:0:
64,192,217313,128,2,217479:0:0:0:0:
448,192,217313,1,0,0:0:0:0:
192,192,217646,128,8,217813:0:0:0:0:
320,192,217646,1,0,0:0:0:0:
320,192,217979,128,0,218146:0:0:0:70:HHOpen.wav
448,192,218146,1,2,0:0:0:0:
64,192,218313,1,8,0:0:0:0:
192,192,218313,1,0,0:0:0:0:
448,192,218479,128,0,218646:0:0:0:0:
192,192,218646,1,2,0:0:0:0:
320,192,218813,1,0,0:0:0:0:
64,192,218979,1,8,0:0:0:0:
448,192,218979,1,0,0:0:0:0:
192,192,219146,1,0,0:0:0:0:
320,192,219313,1,0,0:0:0:70:HHOpen.wav
448,192,219479,1,2,0:0:0:0:
192,192,219646,1,8,0:0:0:0:
320,192,219646,1,0,0:0:0:0:
64,192,219813,1,0,0:0:0:0:
320,192,219979,1,2,0:0:0:0:
448,192,219979,128,4,220646:0:0:0:0:
192,192,220313,1,8,0:0:0:0:
64,192,220646,1,0,0:0:0:70:HHOpen.wav
320,192,220813,1,2,0:0:0:0:
64,192,220979,1,8,0:0:0:0:
192,192,220979,1,0,0:0:0:0:
320,192,221146,1,0,0:0:0:0:
64,192,221313,1,2,0:0:0:0:
448,192,221313,1,0,0:0:0:0:
192,192,221479,1,0,0:0:0:0:
320,192,221646,1,8,0:0:0:0:
448,192,221813,1,0,0:0:0:0:
64,192,221979,1,0,0:0:0:70:HHOpen.wav
192,192,222146,1,2,0:0:0:0:
320,192,222313,1,8,0:0:0:0:
448,192,222313,1,0,0:0:0:0:
192,192,222479,1,0,0:0:0:0:
64,192,222646,1,2,0:0:0:0:
448,192,222646,1,0,0:0:0:0:
320,192,222813,1,0,0:0:0:0:
64,192,222979,1,8,0:0:0:0:
192,192,222979,1,0,0:0:0:0:
320,192,223146,1,0,0:0:0:0:
448,192,223313,1,0,0:0:0:70:HHOpen.wav
64,192,223479,1,2,0:0:0:0:
192,192,223646,1,8,0:0:0:0:
320,192,223646,128,0,223979:0:0:0:0:
64,192,223979,128,2,224313:0:0:0:0:
448,192,223979,1,0,0:0:0:0:
192,192,224313,1,8,0:0:0:0:
448,192,224313,128,4,224646:0:0:0:0:
320,192,224646,1,2,0:0:0:0:
64,192,224813,1,8,0:0:0:0:
192,192,224813,1,0,0:0:0:0:
320,192,224979,1,0,0:0:0:70:Tom2.wav
192,192,225146,1,0,0:0:0:70:tom3.wav
64,192,225313,1,2,0:0:0:0:
448,192,225313,1,4,0:0:0:0:
192,192,225646,1,2,0:0:0:0:
448,192,225646,1,0,0:0:0:70:tom1.wav
64,192,225979,1,2,0:0:0:0:
320,192,225979,1,0,0:0:0:70:Tom2.wav
64,192,226313,1,2,0:0:0:0:
448,192,226313,1,0,0:0:0:70:tom3.wav
192,192,226479,1,0,0:0:0:70:tom3.wav
320,192,226646,1,2,0:0:0:0:
448,192,226646,1,0,0:0:0:70:tom3.wav
192,192,226813,1,2,0:0:0:0:
64,192,226979,1,8,0:0:0:0:
448,192,226979,1,0,0:0:0:70:HHOpen.wav
320,192,227313,128,8,227479:0:0:0:0:
64,192,227479,128,8,227646:0:0:0:0:
448,192,227646,128,8,227813:0:0:0:0:
192,192,227813,128,8,227979:0:0:0:0:
64,192,227979,1,2,0:0:0:0:
448,192,227979,1,4,0:0:0:0:
320,192,228146,1,0,0:0:0:70:HHOpen.wav
64,192,228313,1,10,0:0:0:0:
448,192,228479,1,0,0:0:0:70:HHOpen.wav
64,192,228813,1,0,0:0:0:70:HHOpen.wav
192,192,228979,1,10,0:0:0:0:
320,192,229146,1,0,0:0:0:70:HHOpen.wav
448,192,229313,1,2,0:0:0:0:
192,192,229479,1,0,0:0:0:70:HHOpen.wav
64,192,229646,1,10,0:0:0:0:
320,192,229813,1,0,0:0:0:70:HHOpen.wav
64,192,230146,1,0,0:0:0:70:HHOpen.wav
192,192,230313,1,10,0:0:0:0:
320,192,230479,1,0,0:0:0:70:HHOpen.wav
448,192,230646,1,2,0:0:0:0:
64,192,230813,1,0,0:0:0:70:HHOpen.wav
192,192,230979,1,10,0:0:0:0:
320,192,231146,1,0,0:0:0:70:HHOpen.wav
448,192,231479,1,0,0:0:0:70:HHOpen.wav
320,192,231646,1,10,0:0:0:0:
192,192,231813,1,0,0:0:0:70:HHOpen.wav
64,192,231979,1,2,0:0:0:0:
320,192,231979,128,0,232146:0:0:0:0:
192,192,232313,128,8,232479:0:0:0:0:
448,192,232313,1,2,0:0:0:0:
64,192,232646,1,2,0:0:0:0:
320,192,232646,128,0,232813:0:0:0:0:
192,192,232979,128,8,233146:0:0:0:0:
448,192,232979,1,2,0:0:0:0:
64,192,233313,1,4,0:0:0:0:
320,192,233313,1,2,0:0:0:0:
448,192,233479,1,0,0:0:0:70:HHOpen.wav
64,192,233646,1,10,0:0:0:0:
192,192,233813,1,0,0:0:0:70:HHOpen.wav
448,192,234146,1,0,0:0:0:70:HHOpen.wav
320,192,234313,1,10,0:0:0:0:
192,192,234479,1,0,0:0:0:70:HHOpen.wav
64,192,234646,1,2,0:0:0:0:
448,192,234813,1,0,0:0:0:70:HHOpen.wav
192,192,234979,1,10,0:0:0:0:
320,192,235146,1,0,0:0:0:70:HHOpen.wav
448,192,235479,1,0,0:0:0:70:HHOpen.wav
320,192,235646,1,10,0:0:0:0:
192,192,235813,1,0,0:0:0:70:HHOpen.wav
64,192,235979,1,2,0:0:0:0:
448,192,235979,1,4,0:0:0:0:
320,192,236146,1,8,0:0:0:0:
192,192,236313,1,0,0:0:0:70:HHOpen.wav
64,192,236479,1,2,0:0:0:0:
448,192,236479,128,0,236813:0:0:0:0:
192,192,236813,1,0,0:0:0:70:Tom2.wav
320,192,236979,1,0,0:0:0:70:tom3.wav
64,192,237146,128,2,238646:0:0:0:0:
448,192,237146,1,4,0:0:0:0:
