osu file format v14

[General]
AudioFilename: audio.mp3
AudioLeadIn: 0
PreviewTime: 182572
Countdown: 0
SampleSet: Soft
StackLeniency: 0.7
Mode: 2
LetterboxInBreaks: 0
WidescreenStoryboard: 0

[Editor]
Bookmarks: 19989,46656,57322,67989,78656,125322
DistanceSpacing: 0.9
BeatDivisor: 4
GridSize: 32
TimelineZoom: 1.9

[Metadata]
Title:Ano Yume o Nazotte
TitleUnicode:あの夢をなぞって
Artist:YOASOBI
ArtistUnicode:YOASOBI
Creator:Spectator
Version:Sukidayo
Source:
Tags:greaper jemzuu ajamez 夢の雫と星の花 no Shizuku to Hoshi no Hana いしき蒼太 Ishiki Sota Monogatary Tracing that Dream Rockwell japanese pop jpop 幾田りら ikura lilas ayase
BeatmapID:2617831
BeatmapSetID:1259298

[Difficulty]
HPDrainRate:6
CircleSize:4.2
OverallDifficulty:9.2
ApproachRate:9.2
SliderMultiplier:2.2
SliderTickRate:1

[Events]
//Background and Video events
0,0,"yoasobi.jpg",0,0
//Break Periods
2,158656,164752
//Storyboard Layer 0 (Background)
//Storyboard Layer 1 (Fail)
//Storyboard Layer 2 (Pass)
//Storyboard Layer 3 (Foreground)
//Storyboard Layer 4 (Overlay)
//Storyboard Sound Samples

[TimingPoints]
1323,333.333333333333,4,2,1,70,1,0
19989,-90.9090909090909,4,2,2,50,0,0
22489,-83.3333333333333,4,2,1,50,0,0
24989,-83.3333333333333,4,2,2,50,0,0
25156,-83.3333333333333,4,2,1,50,0,0
35156,-83.3333333333333,4,2,2,50,0,0
35239,-83.3333333333333,4,2,1,50,0,0
35989,-83.3333333333333,4,2,1,50,0,0
36322,-83.3333333333333,4,2,1,40,0,0
46656,-83.3333333333333,4,2,1,50,0,0
77322,-83.3333333333333,4,2,1,55,0,0
78656,-71.4285714285714,4,2,1,70,0,1
99906,-71.4285714285714,4,2,1,70,0,0
99989,-71.4285714285714,4,2,1,70,0,1
118656,-71.4285714285714,4,2,1,70,0,0
121322,-58.8235294117647,4,2,1,70,0,0
121656,-71.4285714285714,4,2,1,70,0,0
123989,-58.8235294117647,4,2,1,70,0,0
124156,-71.4285714285714,4,2,1,70,0,0
129322,-58.8235294117647,4,2,1,70,0,0
129989,-71.4285714285714,4,2,1,70,0,0
131989,-62.5,4,2,1,70,0,0
132656,-71.4285714285714,4,2,1,70,0,0
133156,-62.5,4,2,1,70,0,0
133822,-58.8235294117647,4,2,1,70,0,0
134322,-71.4285714285714,4,2,1,70,0,0
135989,-71.4285714285714,4,2,1,75,0,0
137322,-74.0740740740741,4,2,1,70,0,0
137822,-83.3333333333333,4,2,1,70,0,0
147989,-76.9230769230769,4,2,1,70,0,0
165322,-76.9230769230769,4,2,1,45,0,0
165989,-76.9230769230769,4,2,1,50,0,0
166656,-76.9230769230769,4,2,1,55,0,0
167656,-76.9230769230769,4,2,1,60,0,0
182656,-66.6666666666667,4,2,1,70,0,0
185322,-66.6666666666667,4,2,1,70,0,1
193322,-55.5555555555556,4,2,1,70,0,1
194489,-66.6666666666667,4,2,1,70,0,1
199989,-58.8235294117647,4,2,1,70,0,1
200656,-66.6666666666667,4,2,1,70,0,1
201322,-55.5555555555556,4,2,1,70,0,1
201656,-66.6666666666667,4,2,1,70,0,1
203906,-66.6666666666667,4,2,1,70,0,0
203989,-66.6666666666667,4,2,1,70,0,1
219989,-71.4285714285714,4,2,1,70,0,1
220656,-66.6666666666667,4,2,1,70,0,1
227322,-66.6666666666667,4,2,1,55,0,1
227989,-76.9230769230769,4,2,1,70,0,0

[Colours]
Combo1 : 231,180,109
Combo2 : 235,126,154
Combo3 : 219,142,230
Combo4 : 210,207,211

[HitObjects]
334,72,19989,6,0,L|179:71,1,121.000003692627,2|0,3:2|0:0,0:0:0:0:
213,182,20322,1,0,0:0:0:0:
366,238,20489,2,0,P|443:195|351:105,1,242.000007385254,2|0,3:2|0:0,0:0:0:0:
146,238,21156,6,0,P|69:195|161:105,1,242.000007385254,2|0,3:2|3:0,0:0:0:0:
181,100,21545,1,0,3:0:0:0:
216,99,21600,1,0,3:0:0:0:
252,100,21656,1,0,3:0:0:0:
251,235,21822,1,0,0:0:0:0:
112,331,21989,1,2,0:0:0:0:
112,331,22156,1,0,0:0:0:0:
285,331,22322,1,2,0:0:0:0:
29,245,22489,6,0,P|40:165|218:79,1,263.99999194336,4|0,0:0|3:0,0:0:0:0:
363,93,22989,1,0,1:0:0:0:
363,93,23156,1,0,3:0:0:0:
185,96,23322,1,0,1:0:0:0:
185,96,23489,1,0,3:0:0:0:
459,188,23656,1,0,1:0:0:0:
31,196,23822,5,4,1:0:0:0:
256,194,24156,1,4,1:0:0:0:
481,196,24489,1,4,1:0:0:0:
256,194,24823,1,0,2:0:0:0:
256,194,24989,1,2,2:0:0:0:
483,295,25156,6,0,P|466:220|271:128,1,263.99999194336,4|2,1:2|0:0,0:0:0:0:
318,30,25656,1,8,0:0:0:0:
159,209,25822,2,0,P|281:167|317:41,1,263.99999194336,2|2,0:0|3:2,0:0:0:0:
159,209,26322,1,8,0:0:0:0:
427,237,26489,1,2,0:0:0:0:
159,341,26656,6,0,L|159:180,1,131.99999597168,0|2,1:0|0:0,0:0:0:0:
336,207,26989,1,8,0:0:0:0:
162,209,27156,2,0,P|284:188|332:35,1,263.99999194336,2|2,0:0|3:0,0:0:0:0:
160,69,27656,1,8,0:0:0:0:
160,180,27822,1,2,0:0:0:0:
431,323,27989,6,0,L|430:179,1,131.99999597168,0|2,1:0|0:0,0:0:0:0:
275,193,28322,1,8,0:0:0:0:
446,191,28489,2,0,P|431:100|259:31,1,263.99999194336,2|2,0:0|3:0,0:0:0:0:
443,41,28989,1,8,0:0:0:0:
444,131,29156,1,2,0:0:0:0:
31,196,29322,5,0,1:0:0:0:
258,193,29656,1,8,0:0:0:0:
481,189,29989,1,0,3:0:0:0:
481,189,30072,1,0,3:0:0:0:
481,189,30156,1,0,3:0:0:0:
305,191,30322,1,8,0:0:0:0:
481,189,30489,1,0,3:0:0:0:
481,189,30572,1,0,3:0:0:0:
190,211,30656,6,0,L|191:69,1,131.99999597168,4|2,1:2|0:0,0:0:0:0:
347,82,30989,1,8,0:0:0:0:
60,288,31156,2,0,P|75:201|262:129,1,263.99999194336,2|2,0:0|3:0,0:0:0:0:
382,124,31656,1,8,0:0:0:0:
218,119,31822,1,2,3:0:0:0:
482,289,31989,6,0,P|467:202|280:130,1,263.99999194336,0|8,1:0|0:0,0:0:0:0:
166,260,32489,2,0,P|275:241|327:73,1,263.99999194336,2|2,0:0|3:0,0:0:0:0:
163,115,32989,1,8,0:0:0:0:
163,115,33156,1,2,2:2:0:0:
400,228,33322,6,0,P|475:192|372:78,1,263.99999194336,0|8,1:0|0:0,0:0:0:0:
245,68,33822,2,0,L|245:213,1,131.99999597168,2|0,0:0|0:0,0:0:0:0:
408,198,34156,1,2,3:0:0:0:
92,201,34322,1,8,0:0:0:0:
93,314,34489,1,2,0:0:0:0:
432,348,34656,6,0,P|412:250|228:169,1,263.99999194336,4|8,0:0|0:0,0:0:0:0:
114,177,35156,2,0,L|202:178,1,65.9999979858399,2|0,0:0|0:0,0:0:0:0:
401,174,35322,1,0,3:0:0:0:
401,73,35489,1,2,3:0:0:0:
243,290,35656,1,8,0:0:0:0:
243,189,35823,1,2,3:0:0:0:
85,254,35989,6,0,P|174:228|246:77,2,263.99999194336,4|0|8,0:0|3:0|2:0,0:0:0:0:
85,254,36822,1,0,3:0:0:0:
256,258,36989,1,0,3:0:0:0:
427,254,37322,6,0,P|338:228|266:77,2,263.99999194336,0|0|8,3:0|3:0|0:0,0:0:0:0:
427,254,38155,1,0,3:0:0:0:
256,258,38322,1,0,3:0:0:0:
41,315,38656,6,0,P|57:224|306:64,1,395.999987915039,0|0,3:0|3:0,0:0:0:0:
138,33,39322,2,0,P|227:96|114:164,1,263.99999194336,8|0,0:0|3:0,0:0:0:0:
289,194,39822,1,0,3:0:0:0:
141,342,39989,6,0,P|171:244|443:98,1,395.999987915039,0|0,3:0|3:0,0:0:0:0:
257,101,40656,1,8,0:0:0:0:
257,101,40822,1,0,3:0:0:0:
112,104,40989,1,0,3:0:0:0:
112,104,41156,1,0,3:0:0:0:
414,343,41322,6,0,P|388:244|213:165,3,263.99999194336,2|0|8|0,3:0|3:0|0:0|3:0,0:0:0:0:
465,163,42656,5,0,3:0:0:0:
53,264,42989,2,0,P|63:193|256:103,1,263.99999194336,0|8,3:0|0:0,0:0:0:0:
33,93,43656,1,0,3:0:0:0:
33,93,43822,1,0,3:0:0:0:
317,94,43989,6,0,P|431:152|474:273,3,263.99999194336,0|0|8|0,3:0|3:0|2:0|3:0,0:0:0:0:
140,345,45322,6,0,P|308:286|388:73,1,395.999987915039,0|0,3:0|3:0,0:0:0:0:
239,97,45989,1,8,0:0:0:0:
390,97,46156,1,0,3:0:0:0:
84,98,46322,2,0,L|84:251,1,131.99999597168,0|0,3:0|3:0,3:0:0:0:
466,331,46656,6,0,P|436:240|262:143,2,263.99999194336,4|8|0,1:2|0:0|0:0,0:0:0:0:
306,326,47489,1,0,3:0:0:0:
34,330,47656,1,8,0:0:0:0:
140,249,47989,6,0,P|170:158|344:61,2,263.99999194336,0|8|0,3:0|0:0|0:0,0:0:0:0:
137,331,48822,1,0,3:0:0:0:
410,327,48989,1,8,0:0:0:0:
117,286,49322,6,0,L|407:286,1,263.99999194336,0|8,3:0|0:0,0:0:0:0:
384,172,49822,1,0,0:0:0:0:
89,94,49989,1,0,0:0:0:0:
234,93,50156,1,0,3:0:0:0:
492,95,50322,1,8,0:0:0:0:
41,310,50656,6,0,P|63:233|236:159,1,263.99999194336,0|8,3:0|0:0,0:0:0:0:
219,246,51156,1,0,0:0:0:0:
400,246,51322,1,0,0:0:0:0:
398,337,51489,1,0,3:0:0:0:
218,342,51656,1,8,0:0:0:0:
349,341,51822,1,0,3:0:0:0:
40,293,51989,6,0,P|60:187|237:118,1,263.99999194336,4|8,0:0|0:0,0:0:0:0:
346,194,52489,2,0,P|267:156|366:54,1,263.99999194336,0|0,0:0|3:0,0:0:0:0:
186,41,52989,1,8,0:0:0:0:
186,141,53156,1,0,0:0:0:0:
468,228,53322,6,0,L|167:231,1,263.99999194336,0|8,3:0|0:0,0:0:0:0:
362,228,53822,2,0,P|353:153|182:60,1,263.99999194336,0|0,0:0|3:0,0:0:0:0:
471,57,54322,1,8,0:0:0:0:
473,176,54489,1,0,0:0:0:0:
193,143,54656,5,4,0:0:0:0:
25,141,54822,1,0,0:0:0:0:
193,143,54989,1,8,0:0:0:0:
25,141,55156,1,0,3:0:0:0:
346,151,55322,1,8,0:0:0:0:
346,151,55489,1,0,3:0:0:0:
25,220,55656,1,8,0:0:0:0:
381,305,55822,6,0,P|474:266|363:215,1,263.99999194336,4|0,0:0|3:0,0:0:0:0:
55,166,56322,1,8,0:0:0:0:
200,161,56489,1,0,3:0:0:0:
477,154,56656,1,2,0:0:0:0:
477,254,56822,1,0,3:0:0:0:
199,263,56989,1,8,3:2:0:0:
54,271,57156,1,0,3:0:0:0:
350,352,57322,6,0,P|459:294|346:99,1,395.999987915039,4|0,0:0|0:0,0:0:0:0:
208,102,57989,1,8,0:0:0:0:
209,216,58156,1,0,3:0:0:0:
370,217,58322,1,2,0:0:0:0:
209,216,58489,1,0,3:0:0:0:
463,319,58656,6,0,P|446:221|300:144,1,263.99999194336,0|0,3:0|3:0,3:0:0:0:
49,319,59322,2,0,P|66:221|212:144,1,263.99999194336,8|2,0:0|0:0,0:0:0:0:
199,52,59822,1,0,3:0:0:0:
440,291,59989,6,0,P|435:222|259:112,1,263.99999194336,4|0,0:0|3:0,0:0:0:0:
291,213,60489,1,0,0:0:0:0:
144,287,60656,2,0,P|251:263|311:118,1,263.99999194336,8|0,0:0|3:0,0:0:0:0:
170,131,61156,1,0,0:0:0:0:
319,100,61322,5,0,3:0:0:0:
318,189,61489,1,0,3:0:0:0:
178,236,61656,2,0,P|285:212|345:67,1,263.99999194336,0|8,3:0|0:0,0:0:0:0:
71,79,62322,2,0,L|71:220,1,131.99999597168,0|0,3:0|3:0,0:0:0:0:
406,320,62656,6,0,P|325:316|248:147,1,263.99999194336,4|0,0:0|0:0,0:0:0:0:
483,171,63322,1,8,0:0:0:0:
242,172,63656,1,0,3:0:0:0:
242,172,63822,1,0,3:0:0:0:
103,181,63989,6,0,P|120:98|273:26,1,263.99999194336,0|0,3:0|3:0,0:0:0:0:
268,123,64489,1,0,3:0:0:0:
92,276,64656,2,0,L|93:0,1,263.99999194336,8|0,0:0|3:0,0:0:0:0:
264,101,65156,1,0,3:0:0:0:
25,316,65322,6,0,P|53:210|290:62,1,395.999987915039,4|0,0:0|3:0,0:0:0:0:
144,62,65989,1,8,0:0:0:0:
145,149,66156,1,0,3:0:0:0:
466,192,66322,1,2,3:2:0:0:
322,195,66489,1,0,3:0:0:0:
159,302,66656,6,0,P|249:285|325:126,1,263.99999194336,2|0,3:0|3:0,0:0:0:0:
326,54,67156,1,0,3:0:0:0:
43,160,67322,2,0,L|222:160,1,131.99999597168,8|0,0:0|3:0,0:0:0:0:
456,215,67656,2,0,L|470:138,3,65.9999979858399,8|0|0|0,0:0|3:0|3:0|3:0,0:0:0:0:
216,283,67989,6,0,P|97:265|49:122,1,263.99999194336,4|8,1:2|0:0,0:0:0:0:
45,43,68489,1,2,0:0:0:0:
270,141,68656,1,0,3:0:0:0:
415,138,68822,1,2,3:0:0:0:
53,182,68989,1,8,0:0:0:0:
54,282,69156,1,2,0:0:0:0:
296,283,69322,6,0,P|415:265|463:122,1,263.99999194336,0|8,3:0|0:0,0:0:0:0:
467,43,69822,1,2,0:0:0:0:
242,141,69989,1,0,3:0:0:0:
97,138,70155,1,2,3:0:0:0:
459,182,70322,1,8,0:0:0:0:
458,282,70489,1,2,0:0:0:0:
174,312,70656,6,0,P|182:231|345:152,1,263.99999194336,0|8,1:0|0:0,0:0:0:0:
330,57,71156,1,2,0:0:0:0:
179,62,71322,1,0,3:0:0:0:
180,146,71489,1,2,3:0:0:0:
465,175,71656,1,8,0:0:0:0:
317,179,71822,1,2,0:0:0:0:
31,244,71989,6,0,L|306:240,2,263.99999194336,0|8|0,3:0|0:0|3:0,0:0:0:0:
178,242,72822,1,2,3:0:0:0:
468,239,72989,1,8,0:0:0:0:
470,335,73156,1,2,0:0:0:0:
177,314,73322,6,0,P|81:290|23:134,1,263.99999194336,4|8,1:2|0:0,0:0:0:0:
179,149,73822,1,2,0:0:0:0:
471,147,73989,1,0,3:0:0:0:
331,145,74156,1,2,3:0:0:0:
471,147,74322,1,8,2:2:0:0:
181,256,74489,1,2,3:0:0:0:
37,253,74656,5,8,0:0:0:0:
335,253,74823,1,2,3:0:0:0:
181,256,74989,1,8,0:0:0:0:
335,253,75156,1,2,3:0:0:0:
32,144,75322,1,8,0:0:0:0:
178,142,75489,1,2,3:0:0:0:
480,144,75656,1,8,0:0:0:0:
178,142,75823,1,2,3:0:0:0:
482,237,75989,5,8,0:0:0:0:
256,232,76156,1,2,3:0:0:0:
30,237,76322,1,8,3:2:0:0:
256,232,76489,1,2,3:0:0:0:
469,237,76822,1,2,3:0:0:0:
151,238,76989,1,8,3:2:0:0:
149,112,77156,1,2,3:0:0:0:
469,237,77322,6,0,P|460:161|261:67,1,263.99999194336,4|8,1:2|0:0,0:0:0:0:
317,164,77822,1,2,3:0:0:0:
148,163,77989,1,0,3:0:0:0:
148,259,78156,1,2,3:0:0:0:
477,212,78322,2,0,L|492:284,3,65.9999979858399,8|0|0|0,0:0|3:0|3:0|3:0,0:0:0:0:
314,273,78656,6,0,P|224:260|115:70,1,307.999990600586,4|8,1:2|0:0,0:0:0:0:
120,197,79156,1,0,0:0:0:0:
426,198,79322,1,2,3:0:0:0:
296,194,79489,1,0,3:0:0:0:
30,197,79656,1,10,0:0:0:0:
221,272,79989,6,0,P|311:259|420:69,1,307.999990600586,0|8,3:0|0:0,0:0:0:0:
415,196,80489,1,0,0:0:0:0:
78,199,80655,1,2,3:0:0:0:
208,195,80822,1,0,3:0:0:0:
474,198,80989,1,10,0:0:0:0:
463,335,81322,6,0,P|406:192|234:134,1,307.999990600586,0|8,3:0|0:0,0:0:0:0:
127,136,81822,1,0,0:0:0:0:
479,264,81989,1,2,3:0:0:0:
334,261,82156,1,0,3:0:0:0:
108,256,82322,1,10,0:0:0:0:
49,335,82656,6,0,P|106:192|278:134,1,307.999990600586,0|8,3:0|0:0,0:0:0:0:
385,136,83156,1,0,0:0:0:0:
33,264,83322,1,2,3:0:0:0:
178,261,83489,1,0,3:0:0:0:
404,256,83656,1,10,0:0:0:0:
136,285,83989,6,0,P|223:277|329:79,1,307.999990600586,4|8,0:0|0:0,0:0:0:0:
187,104,84489,1,0,0:0:0:0:
472,239,84656,1,2,3:0:0:0:
332,244,84822,1,0,3:0:0:0:
62,245,84989,1,10,0:0:0:0:
376,285,85322,6,0,P|289:277|183:79,1,307.999990600586,0|8,3:0|0:0,0:0:0:0:
325,104,85822,1,0,0:0:0:0:
40,239,85989,1,2,3:0:0:0:
180,244,86155,1,0,3:0:0:0:
450,245,86322,1,10,0:0:0:0:
147,334,86656,6,0,L|472:338,1,307.999990600586,4|8,0:0|0:0,0:0:0:0:
457,231,87156,1,0,0:0:0:0:
279,262,87322,2,0,P|406:211|471:40,1,307.999990600586,0|8,3:0|0:0,0:0:0:0:
328,62,87822,1,0,0:0:0:0:
39,61,87989,6,0,P|95:201|233:262,1,307.999990600586,0|8,3:0|0:0,0:0:0:0:
78,261,88489,1,0,0:0:0:0:
325,125,88656,2,0,L|155:126,1,153.999995300293,2|0,3:0|3:0,3:0:0:0:
460,212,88989,2,0,L|462:369,1,153.999995300293,10|0,0:0|0:0,0:0:0:0:
195,344,89322,6,0,B|277:269|277:269|359:315|359:315|439:233,3,307.999990600586,4|8|0|8,0:0|0:0|3:0|0:0,0:0:0:0:
159,272,90489,6,0,P|64:220|182:105,1,307.999990600586
327,98,90989,1,8,0:0:0:0:
158,209,91156,2,0,P|178:118|377:30,1,307.999990600586,0|0,2:0|3:0,0:0:0:0:
485,112,91656,1,8,0:0:0:0:
487,216,91822,1,0,3:0:0:0:
262,346,91989,6,0,B|180:271|180:271|98:317|98:317|18:235,3,307.999990600586,4|8|0|8,0:0|0:0|3:0|0:0,0:0:0:0:
183,265,93156,6,0,P|278:213|160:98,1,307.999990600586,0|0,2:0|2:0,0:0:0:0:
40,194,93656,2,0,L|39:34,1,153.999995300293,8|0,0:0|0:0,0:0:0:0:
232,87,93989,2,0,L|69:86,1,153.999995300293,2|0,3:0|3:0,0:0:0:0:
424,124,94322,1,10,0:0:0:0:
128,323,94656,6,0,P|145:240|352:134,1,307.999990600586,4|8,0:0|0:0,0:0:0:0:
327,238,95156,1,0,0:0:0:0:
176,286,95322,1,2,3:0:0:0:
43,286,95489,1,0,3:0:0:0:
329,290,95656,1,10,0:0:0:0:
119,324,95989,6,0,P|136:241|343:135,1,307.999990600586,0|8,0:0|0:0,0:0:0:0:
318,239,96489,1,0,0:0:0:0:
154,319,96656,2,0,L|486:319,1,307.999990600586,2|10,3:0|0:0,0:0:0:0:
465,218,97156,1,0,0:0:0:0:
154,226,97322,6,0,P|51:189|172:104,3,307.999990600586,4|8|2|10,0:0|0:0|3:0|0:0,0:0:0:0:
315,95,98489,1,0,0:0:0:0:
59,292,98656,6,0,L|396:288,1,307.999990600586,0|8,3:0|0:0,0:0:0:0:
369,164,99156,1,0,0:0:0:0:
37,91,99322,1,2,3:0:0:0:
200,86,99489,1,0,3:0:0:0:
470,80,99656,2,0,L|489:164,3,76.9999976501466,10|0|0|0,0:0|0:0|0:0|0:0,0:0:0:0:
216,322,99989,6,0,P|119:298|31:98,1,307.999990600586,4|8,1:2|0:0,0:0:0:0:
29,16,100489,1,0,0:0:0:0:
403,147,100656,1,2,3:0:0:0:
260,148,100822,1,0,3:0:0:0:
29,16,100989,1,10,0:0:0:0:
296,322,101322,6,0,P|393:298|481:98,1,307.999990600586,0|8,3:0|0:0,0:0:0:0:
483,16,101822,1,0,0:0:0:0:
109,147,101989,1,2,3:0:0:0:
252,148,102155,1,0,3:0:0:0:
483,16,102322,1,10,0:0:0:0:
255,303,102656,6,0,P|168:246|274:106,1,307.999990600586,0|8,3:0|0:0,0:0:0:0:
408,103,103156,1,0,0:0:0:0:
132,166,103322,1,2,3:0:0:0:
128,275,103489,1,0,3:0:0:0:
409,187,103656,1,10,0:0:0:0:
283,312,103989,6,0,P|370:255|264:115,1,307.999990600586,0|8,3:0|0:0,0:0:0:0:
130,112,104489,1,0,0:0:0:0:
406,175,104655,1,2,3:0:0:0:
270,176,104822,1,0,3:0:0:0:
35,174,104989,1,10,0:0:0:0:
283,330,105322,6,0,P|298:244|498:146,1,307.999990600586,4|8,0:0|0:0,0:0:0:0:
475,45,105822,1,0,0:0:0:0:
288,68,105989,1,2,3:0:0:0:
289,167,106156,1,0,3:0:0:0:
34,56,106322,1,10,0:0:0:0:
229,330,106656,6,0,P|214:244|14:146,1,307.999990600586,0|8,3:0|0:0,0:0:0:0:
37,45,107156,1,0,0:0:0:0:
225,41,107323,1,2,3:0:0:0:
225,165,107490,1,0,3:0:0:0:
489,56,107656,1,10,0:0:0:0:
70,289,107989,6,0,L|407:286,1,307.999990600586,4|8,0:0|0:0,0:0:0:0:
381,167,108489,1,0,0:0:0:0:
129,215,108656,2,0,P|162:106|370:40,1,307.999990600586,2|10,3:0|0:0,0:0:0:0:
486,34,109156,1,0,0:0:0:0:
227,273,109322,6,0,P|116:246|55:42,2,307.999990600586,0|8|2,3:0|0:0|3:0,0:0:0:0:
369,270,110156,1,0,3:0:0:0:
63,328,110322,2,0,L|63:144,1,153.999995300293,10|0,0:0|0:0,0:0:0:0:
452,315,110656,6,0,B|386:333|386:333|309:194|309:194|209:237,2,307.999990600586,4|8|2,0:0|0:0|3:0,0:0:0:0:
300,312,111489,1,0,3:0:0:0:
452,309,111656,1,10,0:0:0:0:
109,252,111822,6,0,P|122:166|320:57,1,307.999990600586
442,103,112322,1,8,0:0:0:0:
443,217,112489,1,0,0:0:0:0:
300,286,112656,1,2,3:0:0:0:
446,295,112822,1,0,3:0:0:0:
300,353,112989,1,10,0:0:0:0:
154,362,113155,1,0,0:0:0:0:
443,232,113322,6,0,B|377:250|377:250|300:111|300:111|200:154,2,307.999990600586,4|8|2,0:0|0:0|3:0,0:0:0:0:
291,235,114156,1,0,3:0:0:0:
443,232,114323,1,10,0:0:0:0:
119,267,114489,6,0,P|145:163|340:81,1,307.999990600586
313,120,114989,1,8,0:0:0:0:
449,118,115156,1,0,0:0:0:0:
177,169,115322,2,0,L|179:325,1,153.999995300293,2|0,3:0|3:0,3:0:0:0:
354,314,115655,2,0,L|178:318,1,153.999995300293,10|0,0:0|0:0,0:0:0:0:
465,321,115989,6,0,P|455:233|262:114,1,307.999990600586,4|8,0:0|0:0,0:0:0:0:
287,235,116489,1,0,0:0:0:0:
133,324,116656,2,0,L|292:325,1,153.999995300293,2|0,3:0|3:0,3:0:0:0:
33,142,116989,1,10,0:0:0:0:
176,138,117156,1,0,0:0:0:0:
463,263,117322,6,0,L|296:263,1,153.999995300293,4|0,0:0|0:0,0:0:0:0:
309,161,117656,1,8,0:0:0:0:
484,163,117822,1,0,3:0:0:0:
108,255,117989,2,0,L|109:66,1,153.999995300293,2|0,3:0|3:0,3:0:0:0:
413,218,118322,1,10,0:0:0:0:
45,342,118489,2,0,L|45:255,1,76.9999976501466
262,271,118656,6,0,B|332:260|332:260|332:186|375:126|375:126|413:124|476:91,2,307.999990600586,4|8|0,0:0|0:0|0:0,0:0:0:0:
422,171,119489,1,0,3:0:0:0:
362,168,119572,1,0,3:0:0:0:
301,166,119656,1,8,3:2:0:0:
135,164,119822,1,2,3:0:0:0:
450,203,119989,6,0,L|449:363,1,153.999995300293,0|0,1:0|0:0,0:0:0:0:
311,354,120322,1,8,0:0:0:0:
53,105,120489,2,0,L|55:278,1,153.999995300293,0|0,3:0|0:0,0:0:0:0:
212,254,120822,1,0,3:0:0:0:
477,64,120989,2,0,L|299:68,1,153.999995300293,8|0,0:0|3:0,0:0:0:0:
51,330,121322,6,0,B|257:328|257:328|258:127,1,374.000007133484,4|8,0:0|0:0,0:0:0:0:
179,160,121739,1,0,3:0:0:0:
102,161,121822,1,2,3:0:0:0:
416,254,121989,2,0,P|398:187|315:148,2,153.999995300293,0|0|8,0:0|3:0|0:0,0:0:0:0:
242,252,122489,1,0,3:0:0:0:
476,188,122656,6,0,L|312:189,1,153.999995300293,0|0,3:0|0:0,0:0:0:0:
36,188,122989,2,0,L|200:189,1,153.999995300293,8|0,0:0|0:0,0:0:0:0:
475,187,123322,2,0,P|453:115|388:78,1,153.999995300293,0|0,3:0|3:0,3:0:0:0:
220,79,123656,1,8,0:0:0:0:
387,77,123822,1,0,3:0:0:0:
28,314,123989,6,0,B|104:273|104:273|167:331|218:325|218:325|333:271|333:271|338:216,1,374.000007133484,4|8,0:0|0:0,0:0:0:0:
338,193,124489,1,0,0:0:0:0:
161,152,124656,2,0,B|238:151|238:151|142:152,1,153.999995300293,0|0,3:0|3:0,0:0:0:0:
330,118,124989,1,8,0:0:0:0:
164,65,125156,1,0,3:0:0:0:
483,189,125322,6,0,P|463:120|352:85,1,153.999995300293,0|0,0:0|3:0,0:0:0:0:
235,344,125656,2,0,P|255:275|366:240,1,153.999995300293,8|0,0:0|0:0,0:0:0:0:
34,204,125989,1,0,3:0:0:0:
178,206,126156,1,0,3:0:0:0:
34,204,126322,2,0,B|111:204|111:204|10:203,1,153.999995300293,8|0,0:0|0:0,0:0:0:0:
319,67,126656,6,0,P|385:82|408:181,1,153.999995300293,0|0,3:0|0:0,0:0:0:0:
240,170,126989,1,8,0:0:0:0:
419,172,127156,2,0,B|375:234|375:234|431:152,1,153.999995300293,0|0,2:0|3:0,3:0:0:0:
244,330,127489,2,0,L|415:330,1,153.999995300293,0|8,3:0|0:0,0:0:0:0:
52,295,127822,6,0,P|174:278|242:68,1,307.999990600586,0|0,0:0|3:0,0:0:0:0:
106,128,128322,1,8,0:0:0:0:
413,130,128489,2,0,L|90:127,1,307.999990600586,0|0,0:0|3:0,0:0:0:0:
417,289,128989,1,8,0:0:0:0:
417,175,129156,1,0,0:0:0:0:
47,321,129322,6,0,B|46:100|46:100|220:126,2,374.000007133484,4|8|0,0:0|0:0|3:0,0:0:0:0:
217,320,130156,2,0,L|218:147,1,153.999995300293,0|8,3:0|0:0,0:0:0:0:
45,330,130489,6,0,P|148:311|238:121,1,307.999990600586,2|0,3:0|3:0,0:0:0:0:
87,146,130989,1,8,0:0:0:0:
243,145,131156,1,0,0:0:0:0:
412,145,131322,1,0,3:0:0:0:
243,145,131489,1,0,3:0:0:0:
64,217,131656,2,0,L|236:215,1,153.999995300293,8|0,0:0|0:0,0:0:0:0:
465,321,131989,6,0,B|462:136|462:136|301:194,2,352,4|8|0,0:0|0:0|3:0,0:0:0:0:
295,320,132823,2,0,L|294:147,1,153.999995300293,0|8,3:0|0:0,0:0:0:0:
467,330,133156,6,0,B|363:310|363:310|381:192|381:192|248:168,1,352,2|0,0:0|0:0,0:0:0:0:
424,143,133656,1,8,0:0:0:0:
40,327,133822,2,0,B|218:343|218:343|202:230|202:230|267:159,1,374.000007133484,2|0,0:0|3:0,0:0:0:0:
88,143,134322,1,8,0:0:0:0:
88,143,134489,1,0,3:0:0:0:
378,295,134656,6,0,B|224:291|224:291|440:282,1,307.999990600586,4|8,0:0|0:0,0:0:0:0:
380,91,135156,1,0,3:0:0:0:
99,239,135322,1,0,3:0:0:0:
168,239,135406,1,0,3:0:0:0:
237,239,135489,1,0,3:0:0:0:
400,243,135656,1,8,0:0:0:0:
240,144,135822,1,0,3:0:0:0:
475,84,135989,5,0,3:0:0:0:
405,84,136072,1,0,3:0:0:0:
335,84,136156,1,0,3:0:0:0:
48,87,136322,1,8,0:0:0:0:
185,84,136489,1,0,0:0:0:0:
473,182,136655,1,8,0:0:0:0:
334,182,136822,1,0,3:0:0:0:
51,221,136989,2,0,L|138:221,1,76.9999976501466,8|0,0:0|3:0,0:0:0:0:
340,281,137156,2,0,L|427:281,1,76.9999976501466,0|0,3:0|3:0,3:0:0:0:
51,330,137322,6,0,P|71:216|378:45,1,445.500001699448,4|0,0:0|0:0,0:0:0:0:
167,273,137989,1,8,0:0:0:0:
249,240,138156,1,0,0:0:0:0:
283,152,138322,1,0,3:0:0:0:
250,62,138489,1,0,3:0:0:0:
162,20,138656,1,0,3:0:0:0:
419,22,138989,1,0,3:0:0:0:
194,141,139322,2,0,L|472:141,1,263.99999194336,8|0,0:0|0:0,0:0:0:0:
41,330,139989,6,0,P|61:216|324:66,1,395.999987915039,4|0,0:0|0:0,0:0:0:0:
402,194,140656,2,0,P|386:118|222:39,1,263.99999194336,8|0,0:0|3:0,0:0:0:0:
496,79,141322,2,0,L|190:79,1,263.99999194336,0|0,3:0|3:0,3:0:0:0:
483,295,141989,2,0,P|454:222|350:211,1,131.99999597168,8|0,0:0|0:0,0:0:0:0:
243,207,142322,2,0,P|272:134|376:123,1,131.99999597168,0|0,3:0|3:0,0:0:0:0:
48,307,142656,6,0,P|60:199|293:50,1,395.999987915039,0|0,3:0|0:0,0:0:0:0:
139,202,143322,2,0,P|68:148|160:21,1,263.99999194336,8|0,0:0|0:0,0:0:0:0:
402,23,143989,1,0,0:0:0:0:
137,20,144322,1,0,3:0:0:0:
402,23,144656,1,8,0:0:0:0:
66,23,144989,1,0,0:0:0:0:
465,345,145322,6,0,P|459:261|213:85,1,395.999987915039,0|0,3:0|0:0,0:0:0:0:
349,180,145989,2,0,L|62:178,1,263.99999194336,8|0,0:0|0:0,0:0:0:0:
356,311,146656,2,0,P|444:260|342:169,1,263.99999194336,0|0,3:0|3:0,0:0:0:0:
360,61,147156,1,0,0:0:0:0:
52,265,147322,2,0,P|72:181|232:101,1,263.99999194336,8|0,0:0|3:0,0:0:0:0:
368,183,147822,2,0,L|302:181,1,65.9999979858399,0|0,3:0|3:0,3:0:0:0:
48,334,147989,6,0,P|135:291|37:184,1,285.99998690796,4|8,0:0|0:0,0:0:0:0:
40,83,148489,1,0,0:0:0:0:
322,154,148656,1,0,3:0:0:0:
194,153,148822,1,0,3:0:0:0:
322,154,148989,1,8,0:0:0:0:
42,159,149156,1,0,0:0:0:0:
379,344,149322,6,0,P|292:301|390:194,1,285.99998690796,0|8,3:0|0:0,0:0:0:0:
387,93,149822,1,0,0:0:0:0:
105,164,149989,1,0,3:0:0:0:
386,258,150155,1,0,3:0:0:0:
251,259,150322,1,8,0:0:0:0:
102,257,150489,1,0,0:0:0:0:
388,357,150656,6,0,P|365:276|180:187,1,285.99998690796,0|8,3:0|0:0,0:0:0:0:
196,69,151156,1,0,0:0:0:0:
351,68,151322,1,0,3:0:0:0:
196,69,151489,1,0,3:0:0:0:
351,68,151656,1,8,0:0:0:0:
73,72,151822,1,0,0:0:0:0:
316,289,151989,6,0,P|420:263|482:88,1,285.99998690796,0|8,3:0|0:0,0:0:0:0:
337,104,152489,1,0,0:0:0:0:
339,209,152656,1,0,3:0:0:0:
159,103,152822,1,0,3:0:0:0:
161,208,152989,1,8,0:0:0:0:
432,210,153156,1,0,3:0:0:0:
166,333,153322,6,0,B|23:335|23:335|24:142,1,285.99998690796,4|8,0:0|0:0,0:0:0:0:
170,232,153822,2,0,B|170:89|170:89|27:91,1,285.99998690796,0|0,0:0|3:0,0:0:0:0:
325,91,154322,1,8,0:0:0:0:
166,91,154489,1,0,0:0:0:0:
464,298,154656,6,0,B|464:155|464:155|321:157,1,285.99998690796,4|8,0:0|0:0,0:0:0:0:
320,53,155156,1,0,3:0:0:0:
48,298,155322,2,0,B|47:155|47:155|190:157,1,285.99998690796,0|8,3:0|0:0,0:0:0:0:
192,53,155822,1,0,3:0:0:0:
471,183,155989,6,0,L|326:185,1,142.99999345398,4|0,0:0|3:0,0:0:0:0:
54,185,156322,1,8,3:2:0:0:
329,186,156489,1,0,3:0:0:0:
465,188,156822,1,0,3:0:0:0:
197,96,156989,1,8,3:2:0:0:
282,97,157100,1,0,3:0:0:0:
367,99,157211,1,0,3:0:0:0:
104,95,157322,5,4,3:3:0:0:
256,192,165322,12,2,168656,0:0:0:0:
43,344,169322,6,0,B|248:347|257:199|257:199|266:51|506:31,1,571.999973815919,0|8,1:0|0:0,0:0:0:0:
256,39,170322,1,0,3:0:0:0:
256,135,170489,1,0,3:0:0:0:
471,237,170822,1,0,0:0:0:0:
322,242,170989,1,0,3:0:0:0:
322,242,171156,1,0,0:0:0:0:
173,243,171322,1,8,0:0:0:0:
173,243,171489,1,0,2:0:0:0:
25,244,171656,1,0,3:0:0:0:
25,244,171822,1,0,3:0:0:0:
469,344,171989,6,0,B|264:347|255:199|255:199|246:51|6:31,1,571.999973815919,0|8,1:0|0:0,0:0:0:0:
304,74,172989,1,0,0:0:0:0:
452,72,173156,2,0,L|451:374,1,285.99998690796,0|0,3:0|3:0,0:0:0:0:
300,354,173656,1,0,3:0:0:0:
300,241,173822,1,0,0:0:0:0:
451,357,173989,1,8,0:0:0:0:
451,244,174155,1,0,2:0:0:0:
300,241,174322,1,0,3:0:0:0:
451,244,174489,1,0,3:0:0:0:
73,319,174656,6,0,P|197:277|257:108,2,285.99998690796,4|8|0,0:0|0:0|3:0,0:0:0:0:
330,204,175489,1,0,3:0:0:0:
185,201,175656,1,8,0:0:0:0:
41,200,175822,1,0,0:0:0:0:
439,319,175989,6,0,P|315:277|255:108,2,285.99998690796,4|8|0,0:0|0:0|3:0,0:0:0:0:
182,204,176822,1,0,3:0:0:0:
182,88,176989,1,8,0:0:0:0:
471,200,177155,1,0,0:0:0:0:
57,257,177322,5,4,0:0:0:0:
188,260,177489,1,0,0:0:0:0:
472,262,177656,1,8,0:0:0:0:
188,260,177822,1,0,0:0:0:0:
472,262,178156,1,0,3:0:0:0:
188,260,178322,1,8,2:0:0:0:
48,258,178489,1,0,3:0:0:0:
472,262,178656,1,4,3:2:0:0:
191,128,178989,6,0,L|103:127,2,71.4999967269899,8|0|0,0:0|0:0|0:0,0:0:0:0:
468,125,179322,1,8,0:0:0:0:
309,125,179489,1,0,3:0:0:0:
44,266,179656,2,0,L|44:183,1,71.4999967269899,8|0,0:0|3:0,0:0:0:0:
203,125,179822,2,0,L|203:42,1,71.4999967269899,0|0,3:0|3:0,3:0:0:0:
353,199,180156,5,4,0:0:0:0:
91,251,180322,1,8,0:0:0:0:
90,120,180489,1,0,0:0:0:0:
455,196,180656,1,12,0:0:0:0:
185,145,180822,1,0,3:0:0:0:
33,146,180989,1,8,0:0:0:0:
493,277,181156,5,4,0:0:0:0:
223,226,181322,1,8,3:2:0:0:
71,227,181489,1,0,0:0:0:0:
436,64,181656,1,12,0:0:0:0:
435,172,181822,1,0,3:0:0:0:
42,299,181989,1,8,0:0:0:0:
194,300,182156,1,0,3:0:0:0:
480,296,182322,2,0,L|403:295,1,71.4999967269899,8|0,0:0|3:0,0:0:0:0:
200,204,182489,2,0,L|127:203,1,71.4999967269899,0|0,3:0|3:0,0:0:0:0:
482,356,182656,6,0,B|257:359|256:188|256:188|256:16|256:16|256:203|256:203|257:359|-14:359,1,990.000037765504,4|0,3:2|3:0,0:0:0:0:
480,235,183989,1,4,1:2:0:0:
28,229,184322,1,4,1:2:0:0:
480,235,184656,1,4,1:2:0:0:
161,231,184989,1,0,3:0:0:0:
161,231,185156,1,0,3:0:0:0:
473,316,185322,6,0,P|294:238|261:79,2,330.000012588501,4|8|2,0:0|0:0|3:0,0:0:0:0:
313,119,186156,1,0,3:0:0:0:
473,120,186322,1,10,0:0:0:0:
39,316,186656,6,0,P|218:238|251:79,2,330.000012588501,0|8|2,3:0|0:0|3:0,0:0:0:0:
199,119,187490,1,0,3:0:0:0:
39,120,187656,1,10,0:0:0:0:
461,343,187989,6,0,P|441:241|242:124,1,330.000012588501,4|8,2:0|0:0,0:0:0:0:
260,27,188489,1,0,0:0:0:0:
87,32,188656,1,2,3:0:0:0:
88,135,188822,1,0,3:0:0:0:
466,126,188989,1,10,0:0:0:0:
51,343,189322,6,0,P|71:241|270:124,1,330.000012588501,0|8,3:0|0:0,0:0:0:0:
252,27,189822,1,0,0:0:0:0:
425,32,189989,1,2,3:0:0:0:
424,135,190155,1,0,3:0:0:0:
46,126,190322,1,10,0:0:0:0:
465,278,190656,6,0,L|106:275,1,330.000012588501,4|8,0:0|0:0,0:0:0:0:
138,147,191156,1,0,0:0:0:0:
474,224,191322,2,0,P|449:115|238:10,1,330.000012588501,2|10,3:0|0:0,0:0:0:0:
273,109,191822,1,0,0:0:0:0:
38,224,191989,6,0,P|63:115|274:10,1,330.000012588501,0|8,3:0|0:0,0:0:0:0:
239,109,192489,1,0,0:0:0:0:
421,122,192656,2,0,L|421:302,1,165.000006294251,2|0,3:0|3:0,3:0:0:0:
41,289,192989,1,10,0:0:0:0:
455,369,193322,6,0,B|245:363|245:363|245:147,3,395.999987915039,4|8|0|8,0:0|0:0|0:0|0:0,0:0:0:0:
474,77,194489,6,0,P|416:225|263:271,1,330.000012588501
263,139,194989,1,8,0:0:0:0:
418,146,195156,1,0,0:0:0:0:
263,139,195322,1,0,3:0:0:0:
446,317,195489,2,0,P|437:233|223:100,1,330.000012588501,0|0,3:0|0:0,0:0:0:0:
23,360,195989,6,0,P|151:333|228:135,3,330.000012588501,4|8|0|8,0:0|0:0|3:0|0:0,0:0:0:0:
397,173,197156,6,0,P|382:88|180:-39,1,330.000012588501
46,47,197656,1,8,0:0:0:0:
46,47,197822,1,0,0:0:0:0:
277,157,197989,1,2,3:0:0:0:
413,156,198156,1,0,3:0:0:0:
48,158,198322,1,10,0:0:0:0:
218,354,198656,6,0,P|233:269|435:142,2,330.000012588501,4|8|2,0:0|0:0|3:0,0:0:0:0:
222,237,199489,1,0,3:0:0:0:
409,239,199656,1,10,0:0:0:0:
126,347,199989,6,0,B|127:178|127:178|350:177,2,374.000007133484,0|8|2,0:0|0:0|3:0,0:0:0:0:
130,230,200822,1,0,3:0:0:0:
449,231,200989,1,10,0:0:0:0:
38,346,201322,6,0,B|256:335|256:335|257:128,1,395.999987915039,4|8,0:0|0:0,0:0:0:0:
256,45,201822,1,0,0:0:0:0:
85,46,201989,1,2,3:0:0:0:
256,45,202156,1,0,3:0:0:0:
30,154,202322,1,10,0:0:0:0:
30,297,202489,1,0,0:0:0:0:
377,226,202656,6,0,L|-7:229,1,330.000012588501,0|8,0:0|0:0,0:0:0:0:
47,116,203156,1,0,0:0:0:0:
331,120,203322,1,2,3:0:0:0:
485,121,203489,1,0,3:0:0:0:
58,227,203656,2,0,L|43:138,3,82.5000031471254,10|0|0|0,0:0|0:0|0:0|0:0,0:0:0:0:
321,304,203989,6,0,B|486:304|486:304|486:88,2,330.000012588501,4|8|2,0:0|0:0|3:0,0:0:0:0:
163,302,204822,1,0,3:0:0:0:
483,296,204989,1,10,0:0:0:0:
191,304,205322,6,0,B|26:304|26:304|26:88,2,330.000012588501,0|8|2,3:0|0:0|3:0,0:0:0:0:
349,302,206155,1,0,3:0:0:0:
29,296,206322,1,10,0:0:0:0:
316,301,206656,6,0,B|269:100|269:100|151:135,1,330.000012588501,4|8,2:0|0:0,0:0:0:0:
149,257,207156,1,0,0:0:0:0:
439,357,207322,1,2,3:0:0:0:
286,357,207489,1,0,3:0:0:0:
45,312,207656,1,10,0:0:0:0:
351,322,207989,6,0,B|304:121|304:121|186:156,1,330.000012588501,0|8,3:0|0:0,0:0:0:0:
184,253,208489,1,0,0:0:0:0:
477,349,208655,1,2,3:0:0:0:
333,356,208822,1,0,3:0:0:0:
51,305,208989,1,10,0:0:0:0:
479,263,209322,6,0,P|449:167|245:49,2,330.000012588501,4|8|2,0:0|0:0|3:0,0:0:0:0:
315,259,210156,1,0,3:0:0:0:
479,259,210322,1,10,0:0:0:0:
33,263,210656,6,0,P|63:167|267:49,2,330.000012588501,0|8|2,0:0|0:0|3:0,0:0:0:0:
197,259,211490,1,0,3:0:0:0:
196,141,211656,1,10,0:0:0:0:
367,141,211822,1,0,0:0:0:0:
36,342,211989,6,0,L|429:340,1,330.000012588501,4|8,0:0|0:0,0:0:0:0:
365,340,212489,1,0,0:0:0:0:
38,266,212656,2,0,P|60:174|270:61,1,330.000012588501,2|10,3:0|0:0,0:0:0:0:
252,158,213156,1,0,0:0:0:0:
475,346,213322,6,0,P|342:317|252:139,1,330.000012588501,0|8,3:0|0:0,0:0:0:0:
398,157,213822,1,0,0:0:0:0:
240,157,213989,1,2,3:0:0:0:
84,158,214156,1,0,3:0:0:0:
454,163,214322,1,10,0:0:0:0:
49,294,214656,6,0,B|109:188|109:188|201:148|201:148|325:221,2,330.000012588501,4|8|2,0:0|0:0|3:0,0:0:0:0:
338,295,215489,1,0,3:0:0:0:
179,292,215656,1,10,0:0:0:0:
462,288,215822,6,0,P|447:195|251:78,1,330.000012588501,0|0,3:0|0:0,0:0:0:0:
420,82,216322,1,8,0:0:0:0:
420,82,216489,1,0,0:0:0:0:
256,81,216656,1,2,3:0:0:0:
256,81,216823,1,0,3:0:0:0:
92,82,216989,1,10,0:0:0:0:
92,82,217156,1,0,0:0:0:0:
463,295,217322,6,0,B|374:269|374:269|277:144|277:144|187:222,2,330.000012588501,4|8|2,0:0|0:0|3:0,0:0:0:0:
150,288,218156,1,0,3:0:0:0:
150,204,218322,1,10,0:0:0:0:
409,211,218489,6,0,P|400:121|203:1,1,330.000012588501,0|0,3:0|0:0,0:0:0:0:
45,86,218989,1,8,0:0:0:0:
213,89,219155,1,0,0:0:0:0:
45,165,219322,1,2,3:0:0:0:
44,265,219489,1,0,3:0:0:0:
213,89,219656,1,10,0:0:0:0:
45,86,219822,1,0,0:0:0:0:
270,191,219989,6,0,L|453:191,1,153.999995300293,4|0,0:0|0:0,0:0:0:0:
242,191,220322,2,0,L|59:191,1,153.999995300293,8|0,0:0|0:0,0:0:0:0:
482,102,220656,2,0,L|300:104,1,165.000006294251,2|0,3:0|3:0,0:0:0:0:
41,155,220989,1,10,0:0:0:0:
423,304,221156,6,0,L|59:304,1,330.000012588501
93,209,221656,1,8,0:0:0:0:
269,211,221822,1,0,0:0:0:0:
32,201,221989,2,0,L|31:28,1,165.000006294251,2|0,3:0|3:0,3:0:0:0:
351,213,222322,2,0,L|353:43,1,165.000006294251,10|0,0:0|0:0,0:0:0:0:
45,315,222656,6,0,P|184:297|249:96,1,330.000012588501,4|8,0:0|0:0,0:0:0:0:
257,34,223156,1,0,0:0:0:0:
415,34,223322,1,2,3:0:0:0:
257,34,223489,1,0,3:0:0:0:
415,34,223656,1,10,0:0:0:0:
415,34,223823,1,0,3:0:0:0:
49,134,223989,5,0,0:0:0:0:
50,262,224156,1,0,0:0:0:0:
463,134,224322,1,12,0:0:0:0:
462,262,224489,1,0,3:0:0:0:
52,319,224656,1,2,3:0:0:0:
200,317,224822,1,0,3:0:0:0:
460,319,224989,1,10,0:0:0:0:
312,317,225155,1,0,0:0:0:0:
52,319,225322,5,4,0:0:0:0:
51,180,225489,1,0,3:0:0:0:
314,166,225656,1,8,0:0:0:0:
178,165,225822,1,0,3:0:0:0:
460,319,225989,1,10,0:0:0:0:
461,180,226156,1,0,3:0:0:0:
53,164,226322,1,10,0:0:0:0:
291,167,226489,1,0,3:0:0:0:
20,248,226656,5,8,0:0:0:0:
256,250,226822,1,8,0:0:0:0:
487,253,226989,1,8,0:0:0:0:
247,71,227322,2,0,L|226:158,7,82.5000031471254,0|0|0|0|0|0|0|0,3:0|3:0|3:0|3:0|3:0|3:0|3:0|3:0,3:0:0:0:
457,232,227989,6,0,L|275:233,1,142.99999345398,4|2,0:0|0:0,0:0:0:0:
312,128,228322,1,8,0:0:0:0:
141,200,228489,2,0,P|162:100|337:26,1,285.99998690796,2|2,0:0|3:0,0:0:0:0:
483,100,228989,1,8,0:0:0:0:
485,213,229155,1,2,0:0:0:0:
175,284,229322,6,0,L|329:282,1,142.99999345398,0|2,3:0|0:0,0:0:0:0:
320,165,229656,1,8,0:0:0:0:
167,169,229822,2,0,P|270:153|326:-20,1,285.99998690796,2|2,0:0|3:0,0:0:0:0:
167,62,230322,2,0,L|14:63,1,142.99999345398,8|2,0:0|0:0,0:0:0:0:
306,335,230656,6,0,L|305:170,1,142.99999345398,0|2,3:0|0:0,0:0:0:0:
149,189,230989,1,8,0:0:0:0:
310,182,231156,2,0,P|191:169|137:24,1,285.99998690796,2|2,0:0|3:0,0:0:0:0:
308,72,231656,1,8,0:0:0:0:
310,160,231822,1,2,0:0:0:0:
32,177,231989,5,0,0:0:0:0:
258,177,232322,1,8,0:0:0:0:
479,176,232656,1,8,0:0:0:0:
479,176,232739,1,0,3:0:0:0:
479,176,232822,1,0,3:0:0:0:
319,178,232989,1,8,0:0:0:0:
479,176,233156,1,0,3:0:0:0:
479,176,233239,1,0,3:0:0:0:
250,268,233322,6,0,L|97:268,1,142.99999345398,4|2,0:0|3:0,0:0:0:0:
254,193,233656,1,8,0:0:0:0:
86,195,233822,2,0,P|102:114|285:31,1,285.99998690796,2|2,0:0|3:0,0:0:0:0:
442,122,234322,2,0,L|284:124,1,142.99999345398,8|2,0:0|0:0,0:0:0:0:
445,213,234656,5,0,0:0:0:0:
139,281,234822,1,2,3:0:0:0:
298,284,234989,1,8,0:0:0:0:
19,215,235156,2,0,P|34:129|220:42,1,285.99998690796,2|2,0:0|3:0,0:0:0:0:
32,41,235656,1,8,0:0:0:0:
32,41,235822,1,2,0:0:0:0:
353,180,235989,5,4,3:2:0:0:
85,177,236156,1,2,0:0:0:0:
86,274,236322,1,8,0:0:0:0:
357,309,236489,2,0,P|436:270|333:141,1,285.99998690796,6|2,0:0|3:2,0:0:0:0:
189,131,236989,1,8,3:2:0:0:
465,119,237156,6,0,B|350:337|225:399|-8:406|4:266|-127:-85|321:-85|491:149,1,1143.99994763184,4|0,0:0|3:0,0:0:0:0:
