osu file format v14

[General]
AudioFilename: audio.mp3
AudioLeadIn: 0
PreviewTime: 182572
Countdown: 0
SampleSet: Soft
StackLeniency: 0.7
Mode: 2
LetterboxInBreaks: 0
WidescreenStoryboard: 1

[Editor]
Bookmarks: 19989,46656,57322,67989,78656,125322
DistanceSpacing: 0.9
BeatDivisor: 4
GridSize: 32
TimelineZoom: 1.9

[Metadata]
Title:Ano Yume o Nazotte
TitleUnicode:あの夢をなぞって
Artist:YOASOBI
ArtistUnicode:YOASOBI
Creator:Spectator
Version:Platter
Source:
Tags:greaper jemzuu ajamez 夢の雫と星の花 no Shizuku to Hoshi no Hana いしき蒼太 Ishiki Sota Monogatary Tracing that Dream Rockwell japanese pop jpop 幾田りら ikura lilas ayase
BeatmapID:2619392
BeatmapSetID:1259298

[Difficulty]
HPDrainRate:5
CircleSize:3.8
OverallDifficulty:8
ApproachRate:8
SliderMultiplier:1.7
SliderTickRate:1

[Events]
//Background and Video events
0,0,"yoasobi.jpg",0,0
//Break Periods
2,158656,164572
//Storyboard Layer 0 (Background)
//Storyboard Layer 1 (Fail)
//Storyboard Layer 2 (Pass)
//Storyboard Layer 3 (Foreground)
//Storyboard Layer 4 (Overlay)
//Storyboard Sound Samples

[TimingPoints]
1323,333.333333333333,4,2,1,70,1,0
19989,-100,4,2,2,50,0,0
22489,-100,4,2,1,50,0,0
24989,-100,4,2,2,50,0,0
25156,-100,4,2,1,50,0,0
35156,-100,4,2,2,50,0,0
35239,-100,4,2,1,50,0,0
35989,-100,4,2,1,50,0,0
36322,-100,4,2,1,40,0,0
46656,-100,4,2,1,50,0,0
77322,-100,4,2,1,55,0,0
78656,-100,4,2,1,70,0,1
99906,-100,4,2,1,70,0,0
99989,-100,4,2,1,70,0,1
118656,-100,4,2,1,70,0,0
135989,-100,4,2,1,75,0,0
137322,-100,4,2,1,70,0,0
147989,-100,4,2,1,70,0,0
165322,-100,4,2,1,45,0,0
165989,-100,4,2,1,50,0,0
166656,-100,4,2,1,55,0,0
167656,-100,4,2,1,60,0,0
182656,-100,4,2,1,70,0,0
185322,-100,4,2,1,70,0,1
203906,-100,4,2,1,70,0,0
203989,-100,4,2,1,70,0,1
227322,-100,4,2,1,55,0,1
227989,-100,4,2,1,70,0,0

[Colours]
Combo1 : 231,180,109
Combo2 : 235,126,154
Combo3 : 219,142,230
Combo4 : 210,207,211

[HitObjects]
174,53,19989,6,0,L|164:148,1,85,2|0,3:2|0:0,0:0:0:0:
258,134,20322,1,0,0:0:0:0:
351,135,20489,2,0,L|169:158,1,170,2|0,3:2|0:0,0:0:0:0:
486,166,21156,2,0,P|467:100|375:59,1,170,2|0,3:2|3:0,0:0:0:0:
292,90,21656,2,0,L|294:193,1,85,0|0,3:0|0:0,0:0:0:0:
382,174,21989,2,0,L|472:175,2,85,2|0|2,0:0|0:0|0:0,0:0:0:0:
152,180,22489,6,0,P|101:157|138:52,1,170,4|0,0:0|3:0,0:0:0:0:
206,88,22989,2,0,L|300:90,1,85,0|0,1:0|3:0,0:0:0:0:
384,91,23322,2,0,L|289:90,2,85,0|0|0,1:0|3:0|1:0,0:0:0:0:
154,84,23822,5,4,1:0:0:0:
321,87,24156,1,4,1:0:0:0:
154,83,24489,1,4,1:0:0:0:
321,87,24822,2,0,L|412:86,1,85,0|2,2:0|2:0,0:0:0:0:
176,82,25156,6,0,P|136:99|150:209,1,170,4|2,1:2|0:0,0:0:0:0:
245,188,25656,1,8,0:0:0:0:
346,166,25822,2,0,L|359:359,1,170,2|2,0:0|3:2,0:0:0:0:
264,325,26322,2,0,L|154:319,1,85,8|2,0:0|0:0,0:0:0:0:
352,320,26656,6,0,L|359:226,1,85,0|2,1:0|0:0,0:0:0:0:
264,232,26989,1,8,0:0:0:0:
170,228,27156,2,0,P|175:172|294:126,1,170,2|2,0:0|3:0,0:0:0:0:
359,113,27656,2,0,L|262:111,1,85,8|2,0:0|0:0,0:0:0:0:
103,109,27989,6,0,L|89:206,1,85,0|2,1:0|0:0,0:0:0:0:
184,194,28322,1,8,0:0:0:0:
277,192,28489,2,0,P|332:260|263:296,1,170,2|2,0:0|3:0,0:0:0:0:
188,303,28989,2,0,L|88:289,1,85,8|2,0:0|0:0,0:0:0:0:
282,284,29322,6,0,L|454:263,2,170,0|8|0,1:0|0:0|3:0,0:0:0:0:
453,113,30322,2,0,L|460:208,1,85,8|0,0:0|3:0,0:0:0:0:
200,197,30656,6,0,P|154:154|215:69,1,170,4|8,1:2|0:0,0:0:0:0:
291,75,31156,2,0,L|109:63,1,170,2|2,0:0|3:0,0:0:0:0:
30,86,31656,2,0,L|149:94,1,85,8|2,0:0|3:0,0:0:0:0:
259,90,31989,6,0,P|316:104|366:199,1,170,0|8,1:0|0:0,0:0:0:0:
272,202,32489,2,0,L|449:221,1,170,2|2,0:0|3:0,0:0:0:0:
347,230,32989,2,0,L|354:335,1,85,8|2,0:0|2:2,0:0:0:0:
207,317,33322,6,0,P|149:301|103:205,1,170,0|8,1:0|0:0,0:0:0:0:
181,175,33822,1,2,0:0:0:0:
210,95,33989,1,0,0:0:0:0:
176,16,34156,1,2,3:0:0:0:
91,10,34322,1,8,0:0:0:0:
396,39,34656,6,0,P|458:67|500:170,1,170,4|8,0:0|0:0,0:0:0:0:
401,158,35156,1,2,0:0:0:0:
450,158,35239,1,0,0:0:0:0:
500,155,35322,2,0,L|514:262,1,85,0|2,3:0|3:0,0:0:0:0:
426,272,35656,2,0,L|305:272,1,85,8|2,0:0|3:0,0:0:0:0:
111,264,35989,6,0,P|53:227|120:184,1,170,4|0,0:0|3:0,0:0:0:0:
197,176,36489,1,0,0:0:0:0:
281,158,36656,2,0,L|96:182,1,170,8|0,2:0|3:0,0:0:0:0:
354,70,37322,6,0,P|422:90|458:188,1,170,0|0,3:0|3:0,0:0:0:0:
374,182,37822,1,0,0:0:0:0:
289,189,37989,2,0,L|462:220,1,170,8|0,0:0|3:0,0:0:0:0:
161,225,38656,6,0,P|106:188|217:78,1,255,0|0,3:0|3:0,0:0:0:0:
284,71,39322,2,0,L|112:49,1,170,8|0,0:0|3:0,0:0:0:0:
29,75,39822,1,0,3:0:0:0:
172,160,39989,6,0,P|242:142|278:48,1,170,0|0,3:0|0:0,0:0:0:0:
192,53,40489,1,0,3:0:0:0:
107,46,40656,1,8,0:0:0:0:
261,27,40989,1,0,3:0:0:0:
93,60,41322,6,0,L|86:239,1,170,2|0,3:0|3:0,0:0:0:0:
243,230,41989,1,8,0:0:0:0:
75,254,42322,1,0,3:0:0:0:
355,208,42656,6,0,P|421:219|460:317,1,170,0|0,3:0|3:0,0:0:0:0:
292,310,43322,1,8,0:0:0:0:
444,304,43656,1,0,3:0:0:0:
357,305,43822,1,0,3:0:0:0:
180,303,43989,6,0,P|129:267|192:196,1,170,0|0,3:0|3:0,0:0:0:0:
379,160,44656,2,0,L|201:146,1,170,8|0,2:0|3:0,0:0:0:0:
44,131,45322,6,0,P|63:211|215:285,1,255,0|0,3:0|3:0,0:0:0:0:
291,253,45989,2,0,L|471:252,1,170,8|0,3:0|3:0,3:0:0:0:
18,320,46656,6,0,L|224:303,1,170,4|8,1:2|0:0,0:0:0:0:
186,212,47156,1,0,0:0:0:0:
96,185,47322,2,0,L|4:175,1,85,0|0,0:0|3:0,0:0:0:0:
10,81,47656,1,8,0:0:0:0:
315,84,47989,6,0,P|385:103|427:198,1,170,0|8,3:0|0:0,0:0:0:0:
333,187,48489,1,0,0:0:0:0:
239,189,48656,2,0,L|362:194,1,85,0|0,0:0|3:0,0:0:0:0:
416,181,48989,1,8,0:0:0:0:
110,176,49322,6,0,L|102:349,1,170,0|8,3:0|0:0,0:0:0:0:
193,326,49822,1,0,0:0:0:0:
284,306,49989,2,0,P|264:225|180:195,1,170,0|8,0:0|0:0,0:0:0:0:
188,100,50489,1,0,0:0:0:0:
341,104,50656,6,0,P|384:132|328:226,1,170,0|8,3:0|0:0,0:0:0:0:
252,223,51156,2,0,L|244:320,1,85
338,301,51489,2,0,L|431:301,2,85,0|8|0,3:0|0:0|3:0,0:0:0:0:
99,308,51989,6,0,P|114:242|225:204,1,170,4|8,0:0|0:0,0:0:0:0:
293,194,52489,2,0,P|341:121|294:110,1,170,0|0,0:0|3:0,0:0:0:0:
202,112,52989,2,0,L|192:16,1,85,8|0,0:0|0:0,0:0:0:0:
346,30,53322,6,0,P|413:39|453:137,1,170,0|8,3:0|0:0,0:0:0:0:
361,125,53822,2,0,L|354:220,1,85
448,214,54156,2,0,L|441:331,1,85,0|8,3:0|0:0,0:0:0:0:
136,291,54656,6,0,P|64:270|28:178,1,170,4|8,0:0|0:0,0:0:0:0:
119,171,55156,1,0,3:0:0:0:
26,158,55322,1,8,0:0:0:0:
118,169,55489,1,0,3:0:0:0:
210,181,55656,1,8,0:0:0:0:
362,181,55822,6,0,P|348:119|233:78,1,170,4|0,0:0|3:0,0:0:0:0:
165,71,56322,2,0,L|166:164,1,85,8|0,0:0|3:0,0:0:0:0:
443,323,56656,2,0,L|443:144,1,170,2|8,0:0|3:2,0:0:0:0:
349,153,57156,1,0,3:0:0:0:
105,308,57322,6,0,P|40:272|122:140,1,255,4|0,0:0|0:0,0:0:0:0:
196,136,57989,1,8,0:0:0:0:
262,201,58156,1,0,3:0:0:0:
282,292,58322,1,2,0:0:0:0:
262,201,58489,1,0,3:0:0:0:
196,136,58656,1,0,3:0:0:0:
50,136,58989,1,0,3:0:0:0:
221,180,59322,2,0,L|49:205,1,170,8|2,0:0|0:0,0:0:0:0:
359,257,59989,6,0,P|423:238|417:121,1,170,4|0,0:0|3:0,0:0:0:0:
347,121,60489,1,0,0:0:0:0:
254,105,60656,2,0,P|272:37|363:4,1,170,8|0,0:0|3:0,0:0:0:0:
444,41,61156,1,0,0:0:0:0:
444,137,61322,2,0,L|341:128,1,85,0|0,3:0|3:0,0:0:0:0:
271,224,61656,2,0,L|465:212,2,170,0|8|0,3:0|0:0|3:0,0:0:0:0:
270,140,62489,1,0,3:0:0:0:
116,174,62656,6,0,P|68:143|123:63,1,170,4|0,0:0|0:0,0:0:0:0:
207,80,63156,1,0,0:0:0:0:
298,97,63322,1,8,0:0:0:0:
116,142,63656,1,0,3:0:0:0:
199,184,63822,2,0,P|270:196|312:284,1,170,0|0,3:0|0:0,0:0:0:0:
219,268,64322,1,0,3:0:0:0:
311,279,64489,2,0,P|365:261|412:161,1,170,0|0,3:0|0:0,0:0:0:0:
318,156,64989,2,0,L|315:60,1,85,0|0,3:0|3:0,0:0:0:0:
162,71,65322,6,0,P|106:98|188:239,1,255,4|0,0:0|3:0,0:0:0:0:
251,210,65989,2,0,L|68:231,1,170,8|2,0:0|3:2,0:0:0:0:
388,232,66656,2,0,P|454:212|495:116,1,170,2|0,3:0|3:0,0:0:0:0:
48,113,67322,2,0,L|49:318,1,170,8|8,0:0|0:0,0:0:0:0:
134,283,67822,1,0,3:0:0:0:
373,286,67989,6,0,P|417:261|357:175,1,170,4|8,1:2|0:0,0:0:0:0:
282,175,68489,2,0,L|281:267,1,85,2|0,0:0|3:0,0:0:0:0:
377,200,68822,2,0,L|478:199,1,85,2|8,3:0|0:0,0:0:0:0:
465,112,69156,1,2,0:0:0:0:
212,89,69322,6,0,L|26:79,2,170,0|8|0,3:0|0:0|3:0,0:0:0:0:
304,73,70156,1,2,3:0:0:0:
212,89,70322,2,0,L|202:205,1,85,8|2,0:0|0:0,0:0:0:0:
439,215,70656,6,0,P|416:153|315:111,1,170,0|8,1:0|0:0,0:0:0:0:
236,85,71156,1,2,0:0:0:0:
328,76,71322,2,0,L|419:87,1,85,0|2,3:0|3:0,0:0:0:0:
251,164,71656,2,0,L|244:265,1,85,8|2,0:0|0:0,0:0:0:0:
486,306,71989,6,0,P|440:223|344:204,1,170,0|8,3:0|0:0,0:0:0:0:
374,118,72489,1,0,0:0:0:0:
280,114,72656,2,0,L|281:215,1,85,0|2,3:0|3:0,0:0:0:0:
374,192,72989,2,0,L|478:191,1,85,8|2,0:0|0:0,0:0:0:0:
192,308,73322,6,0,P|118:279|137:181,1,170,4|8,1:2|0:0,0:0:0:0:
120,110,73822,1,2,0:0:0:0:
206,111,73989,1,0,3:0:0:0:
120,110,74156,2,0,P|64:148|142:197,1,170,2|2,3:0|3:0,0:0:0:0:
377,104,74656,5,8,0:0:0:0:
452,158,74822,1,2,3:0:0:0:
471,249,74989,1,8,0:0:0:0:
433,334,75156,1,2,3:0:0:0:
344,362,75322,2,0,L|245:352,1,85,8|2,0:0|3:0,0:0:0:0:
362,339,75656,2,0,L|364:241,1,85,8|2,0:0|3:0,0:0:0:0:
125,138,75989,5,8,0:0:0:0:
31,127,76156,1,2,3:0:0:0:
125,138,76322,1,8,3:2:0:0:
373,162,76489,2,0,P|435:152|481:51,1,170,2|2,3:0|3:0,0:0:0:0:
389,73,76989,1,8,3:2:0:0:
385,166,77156,1,2,3:0:0:0:
133,250,77322,6,0,P|69:224|86:125,1,170,4|8,1:2|0:0,0:0:0:0:
166,115,77822,1,2,3:0:0:0:
257,93,77989,2,0,L|151:83,1,85,0|2,3:0|3:0,0:0:0:0:
81,107,78322,2,0,L|23:117,2,42.5,8|0|0,0:0|3:0|3:0,0:0:0:0:
343,108,78656,6,0,P|413:118|454:227,1,170,4|8,1:2|0:0,0:0:0:0:
365,211,79156,1,0,0:0:0:0:
204,216,79322,2,0,L|205:320,1,85,2|0,3:0|3:0,0:0:0:0:
365,295,79656,1,10,0:0:0:0:
33,51,79989,6,0,L|27:230,1,170,0|8,3:0|0:0,0:0:0:0:
116,216,80489,1,0,0:0:0:0:
277,221,80655,2,0,L|276:325,1,85,2|0,3:0|3:0,0:0:0:0:
116,300,80989,1,10,0:0:0:0:
447,290,81322,6,0,P|433:233|315:191,1,170,0|8,3:0|0:0,0:0:0:0:
257,172,81822,1,0,0:0:0:0:
95,113,81989,2,0,L|203:113,1,85,2|0,3:0|3:0,0:0:0:0:
342,112,82322,1,10,0:0:0:0:
36,313,82656,6,0,P|50:256|168:214,1,170,0|8,3:0|0:0,0:0:0:0:
226,195,83156,1,0,0:0:0:0:
388,136,83323,2,0,L|280:136,1,85,2|0,3:0|3:0,0:0:0:0:
141,135,83656,2,0,L|140:41,1,85,10|0,0:0|0:0,0:0:0:0:
411,314,83989,6,0,P|453:286|393:195,1,170,4|8,0:0|0:0,0:0:0:0:
332,187,84489,1,0,0:0:0:0:
159,196,84656,2,0,L|264:197,1,85,2|0,3:0|3:0,0:0:0:0:
412,188,84989,1,10,0:0:0:0:
89,311,85322,6,0,P|47:283|107:192,1,170,0|8,3:0|0:0,0:0:0:0:
168,184,85822,1,0,0:0:0:0:
341,193,85989,2,0,L|236:194,1,85,2|0,3:0|3:0,0:0:0:0:
88,185,86322,2,0,L|88:89,1,85,10|0,0:0|0:0,0:0:0:0:
394,88,86656,6,0,P|452:130|386:275,1,255,4|0,0:0|0:0,0:0:0:0:
228,274,87322,2,0,L|229:164,1,85,0|0,3:0|0:0,0:0:0:0:
397,187,87656,1,8,0:0:0:0:
69,84,87989,6,0,L|268:83,2,170,0|8|2,3:0|0:0|3:0,0:0:0:0:
227,164,88822,1,0,3:0:0:0:
322,163,88989,2,0,L|322:263,1,85,10|0,0:0|0:0,0:0:0:0:
59,348,89322,6,0,P|78:271|180:238,3,170,4|8|0|8,0:0|0:0|3:0|0:0,0:0:0:0:
320,170,90489,6,0,L|131:171,1,170
148,90,90989,1,8,0:0:0:0:
313,87,91156,2,0,P|404:112|425:187,1,170,0|0,2:0|3:0,0:0:0:0:
428,258,91656,1,8,0:0:0:0:
106,346,91989,6,0,P|125:269|227:236,3,170,4|8|0|8,0:0|0:0|0:0|0:0,0:0:0:0:
369,229,93156,6,0,L|367:36,1,170,0|0,2:0|2:0,0:0:0:0:
196,63,93656,1,8,0:0:0:0:
366,155,93989,2,0,P|424:143|475:43,1,170,2|10,3:0|0:0,0:0:0:0:
23,222,94656,6,0,L|193:237,1,170,4|8,0:0|0:0,0:0:0:0:
192,319,95156,1,0,0:0:0:0:
355,279,95322,2,0,L|253:285,1,85,2|0,3:0|3:0,0:0:0:0:
99,252,95656,1,10,0:0:0:0:
421,166,95989,6,0,L|251:181,1,170,0|8,0:0|0:0,0:0:0:0:
252,263,96489,1,0,0:0:0:0:
89,223,96655,2,0,L|191:229,1,85,2|0,3:0|0:0,0:0:0:0:
345,196,96989,1,10,0:0:0:0:
40,165,97322,6,0,P|48:108|168:65,1,170,4|8,0:0|0:0,0:0:0:0:
231,75,97822,1,0,0:0:0:0:
397,44,97989,2,0,L|397:136,1,85,2|0,3:0|0:0,0:0:0:0:
234,165,98322,2,0,L|138:163,1,85,10|0,0:0|0:0,0:0:0:0:
453,283,98656,6,0,P|445:221|323:171,1,170,0|8,3:0|0:0,0:0:0:0:
267,152,99156,1,0,0:0:0:0:
445,106,99322,2,0,L|445:200,1,85,2|0,3:0|3:0,0:0:0:0:
345,237,99656,1,10,0:0:0:0:
391,237,99739,1,0,0:0:0:0:
437,237,99822,1,0,0:0:0:0:
194,285,99989,6,0,P|119:260|89:148,1,170,4|8,1:2|0:0,0:0:0:0:
82,104,100489,1,0,0:0:0:0:
245,75,100656,2,0,L|245:169,1,85,2|0,3:0|3:0,0:0:0:0:
82,104,100989,1,10,0:0:0:0:
396,303,101322,6,0,P|471:278|501:166,1,170,0|8,3:0|0:0,0:0:0:0:
508,122,101822,1,0,0:0:0:0:
345,93,101989,2,0,L|345:187,1,85,2|0,3:0|3:0,0:0:0:0:
508,122,102322,1,10,0:0:0:0:
185,148,102656,6,0,L|368:136,1,170,0|8,3:0|0:0,0:0:0:0:
357,221,103156,1,0,0:0:0:0:
188,232,103322,2,0,L|185:128,1,85,2|0,3:0|3:0,0:0:0:0:
361,138,103656,1,10,0:0:0:0:
45,155,103989,6,0,P|63:80|172:45,1,170,0|8,3:0|0:0,0:0:0:0:
141,126,104489,1,0,0:0:0:0:
305,127,104656,2,0,L|208:126,1,85,2|0,3:0|3:0,0:0:0:0:
50,128,104989,2,0,L|50:238,1,85,10|0,0:0|0:0,0:0:0:0:
326,262,105322,6,0,P|390:255|432:150,1,170,4|8,0:0|0:0,0:0:0:0:
435,86,105822,1,0,0:0:0:0:
281,146,105989,2,0,L|190:146,1,85,2|0,3:0|3:0,0:0:0:0:
360,144,106322,1,10,0:0:0:0:
57,344,106656,6,0,P|87:268|167:250,1,170,0|8,3:0|0:0,0:0:0:0:
169,170,107156,1,0,0:0:0:0:
16,183,107323,2,0,L|107:183,1,85,2|0,3:0|3:0,0:0:0:0:
262,182,107656,2,0,L|362:181,1,85,10|0,0:0|0:0,0:0:0:0:
30,303,107989,6,0,P|43:238|216:155,1,255,4|0,0:0|0:0,0:0:0:0:
364,152,108656,2,0,L|365:275,1,85,2|0,3:0|0:0,0:0:0:0:
194,235,108989,1,10,0:0:0:0:
493,235,109322,6,0,P|484:180|357:125,1,170,0|8,3:0|0:0,0:0:0:0:
395,39,109822,1,0,0:0:0:0:
233,123,109989,2,0,L|236:215,1,85,2|0,3:0|3:0,0:0:0:0:
323,205,110322,2,0,L|434:202,1,85,10|0,0:0|0:0,0:0:0:0:
140,267,110656,6,0,P|69:251|26:149,3,170,4|8|2|8,0:0|0:0|3:0|0:0,0:0:0:0:
193,180,111822,6,0,P|239:155|173:77,1,170
89,219,112322,2,0,L|179:221,1,85,8|0,0:0|0:0,0:0:0:0:
287,236,112656,2,0,L|185:235,1,85,2|0,3:0|3:0,0:0:0:0:
201,321,112989,2,0,L|303:320,1,85,10|0,0:0|0:0,0:0:0:0:
448,312,113322,6,0,P|429:260|306:204,2,170,4|8|2,0:0|0:0|3:0,0:0:0:0:
362,313,114156,1,0,3:0:0:0:
449,312,114322,1,10,0:0:0:0:
281,313,114489,6,0,P|210:289|174:193,1,170
262,145,114989,2,0,L|169:144,1,85,8|0,0:0|0:0,0:0:0:0:
94,69,115322,2,0,L|188:70,1,85,2|0,3:0|3:0,0:0:0:0:
281,70,115656,2,0,L|282:183,1,85,10|0,0:0|0:0,0:0:0:0:
36,239,115989,6,0,P|57:173|166:134,1,170,4|8,0:0|0:0,0:0:0:0:
330,159,116656,2,0,P|309:93|200:54,1,170,2|10,3:0|0:0,0:0:0:0:
224,136,117156,1,0,0:0:0:0:
469,239,117322,6,0,L|469:51,1,170,4|8,0:0|0:0,0:0:0:0:
383,72,117822,1,0,3:0:0:0:
221,75,117989,2,0,L|223:170,1,85,2|0,3:0|3:0,0:0:0:0:
314,157,118322,1,10,0:0:0:0:
403,152,118489,1,0,0:0:0:0:
177,170,118656,5,4,0:0:0:0:
52,284,118989,2,0,P|63:216|224:125,1,255,8|0,0:0|3:0,0:0:0:0:
376,133,119656,2,0,L|376:223,1,85,8|2,3:2|3:0,0:0:0:0:
212,217,119989,6,0,P|161:189|230:121,1,170,0|8,1:0|0:0,0:0:0:0:
297,103,120489,2,0,L|122:105,1,170,0|0,3:0|3:0,0:0:0:0:
126,24,120989,1,8,0:0:0:0:
432,48,121322,6,0,L|435:234,1,170,4|8,0:0|0:0,0:0:0:0:
264,311,121989,1,0,0:0:0:0:
186,276,122156,1,0,3:0:0:0:
153,197,122322,1,8,0:0:0:0:
186,118,122489,1,0,3:0:0:0:
265,86,122656,6,0,L|437:75,1,170,0|8,3:0|0:0,0:0:0:0:
436,160,123156,1,0,0:0:0:0:
351,156,123322,2,0,L|353:334,1,170,0|8,3:0|0:0,0:0:0:0:
437,319,123822,1,0,3:0:0:0:
275,323,123989,6,0,P|206:302|176:198,1,170,4|8,0:0|0:0,0:0:0:0:
346,222,124656,1,0,3:0:0:0:
427,199,124822,1,0,3:0:0:0:
452,117,124989,1,8,0:0:0:0:
420,37,125156,1,0,3:0:0:0:
254,33,125322,6,0,L|256:214,1,170,0|8,0:0|0:0,0:0:0:0:
443,245,125989,2,0,L|347:239,1,85,0|0,3:0|3:0,0:0:0:0:
267,313,126322,2,0,L|388:323,1,85,8|0,0:0|0:0,0:0:0:0:
187,334,126656,6,0,L|185:163,1,170,0|8,3:0|0:0,0:0:0:0:
273,163,127156,2,0,P|327:144|364:27,1,170,0|0,2:0|3:0,0:0:0:0:
286,49,127656,1,8,0:0:0:0:
286,132,127822,1,0,0:0:0:0:
123,204,127989,6,0,L|325:224,1,170,0|8,0:0|0:0,0:0:0:0:
298,304,128489,1,0,0:0:0:0:
133,308,128656,2,0,P|141:248|257:212,1,170,0|8,0:0|0:0,0:0:0:0:
317,205,129156,1,0,0:0:0:0:
55,243,129322,6,0,L|52:63,1,170,4|8,0:0|0:0,0:0:0:0:
137,73,129822,1,0,0:0:0:0:
222,73,129989,2,0,P|206:147|99:178,1,170,0|8,3:0|0:0,0:0:0:0:
211,184,130489,6,0,L|401:203,1,170,2|0,3:0|3:0,0:0:0:0:
295,212,130989,2,0,L|122:228,2,170,8|0|8,0:0|3:0|0:0,0:0:0:0:
295,126,131822,1,0,0:0:0:0:
129,124,131989,6,0,P|75:158|142:217,1,170,4|8,0:0|0:0,0:0:0:0:
216,220,132489,1,0,0:0:0:0:
301,219,132656,2,0,L|312:32,1,170,0|8,3:0|0:0,0:0:0:0:
145,99,133156,6,0,L|345:94,2,170,2|0|2,0:0|0:0|0:0,0:0:0:0:
458,170,134156,2,0,L|458:266,1,85,0|8,3:0|0:0,0:0:0:0:
377,254,134489,1,0,3:0:0:0:
143,254,134656,6,0,P|83:225|154:91,1,255,4|0,0:0|3:0,0:0:0:0:
226,263,135322,2,0,L|226:83,1,170,0|8,3:0|0:0,0:0:0:0:
140,92,135822,1,0,3:0:0:0:
375,221,135989,6,0,P|439:206|484:109,1,170,0|8,3:0|0:0,0:0:0:0:
483,40,136489,1,0,0:0:0:0:
393,41,136656,1,8,0:0:0:0:
392,118,136822,1,0,3:0:0:0:
484,118,136989,1,8,0:0:0:0:
34,261,137322,6,0,P|62:180|273:61,2,340,4|8|0,0:0|0:0|3:0,0:0:0:0:
254,247,139322,1,8,0:0:0:0:
478,261,139989,6,0,P|450:180|239:61,2,340,4|8|0,0:0|0:0|3:0,0:0:0:0:
254,247,141989,1,8,0:0:0:0:
255,156,142322,1,0,3:0:0:0:
86,159,142656,6,0,P|103:93|214:52,1,170,0|0,3:0|0:0,0:0:0:0:
373,158,143322,2,0,P|356:92|245:51,1,170,8|0,0:0|0:0,0:0:0:0:
96,149,143989,2,0,L|96:329,1,170,0|0,0:0|3:0,0:0:0:0:
266,312,144656,1,8,0:0:0:0:
96,319,144989,1,0,0:0:0:0:
425,307,145322,6,0,L|425:44,1,255,0|0,3:0|0:0,0:0:0:0:
329,80,145989,2,0,P|262:120|339:251,1,255,8|0,0:0|0:0,0:0:0:0:
423,252,146656,1,0,3:0:0:0:
253,252,146989,1,0,3:0:0:0:
422,251,147322,2,0,P|465:209|413:119,1,170,8|0,0:0|3:0,0:0:0:0:
95,121,147989,6,0,L|304:136,2,170,4|8|0,0:0|0:0|3:0,0:0:0:0:
98,203,148822,1,0,3:0:0:0:
260,215,148989,1,8,0:0:0:0:
433,207,149322,6,0,L|224:222,2,170,0|8|0,3:0|0:0|3:0,0:0:0:0:
430,289,150155,1,0,3:0:0:0:
268,301,150322,1,8,0:0:0:0:
98,250,150656,6,0,P|115:193|213:150,2,170,0|8|0,3:0|0:0|3:0,0:0:0:0:
99,327,151489,1,0,3:0:0:0:
262,324,151656,1,8,0:0:0:0:
430,258,151989,6,0,P|413:201|315:158,2,170,0|8|0,3:0|0:0|3:0,0:0:0:0:
429,335,152822,1,0,3:0:0:0:
266,332,152989,1,8,0:0:0:0:
266,245,153156,1,0,3:0:0:0:
32,170,153322,6,0,P|59:97|166:73,1,170,4|8,0:0|0:0,0:0:0:0:
233,100,153822,2,0,L|28:102,1,170,0|0,0:0|3:0,0:0:0:0:
150,176,154322,2,0,L|156:275,1,85,8|0,0:0|0:0,0:0:0:0:
416,199,154656,6,0,P|460:174|404:90,1,170,4|8,0:0|0:0,0:0:0:0:
96,199,155322,2,0,P|52:174|108:90,1,170,0|8,3:0|0:0,0:0:0:0:
436,83,155989,5,4,0:0:0:0:
441,168,156156,1,0,3:0:0:0:
449,251,156322,1,8,3:2:0:0:
288,278,156489,2,0,P|211:228|261:171,1,170,0|0,3:0|3:0,0:0:0:0:
333,189,156989,1,8,3:2:0:0:
305,142,157100,1,0,3:0:0:0:
249,128,157211,1,0,3:0:0:0:
143,120,157322,5,4,3:3:0:0:
256,192,165322,12,2,168656,0:0:0:0:
67,299,169322,6,0,B|97:207|193:197|193:197|289:186|340:69,1,340,0|8,1:0|0:0,0:0:0:0:
137,107,170322,1,0,3:0:0:0:
137,184,170656,1,0,0:0:0:0:
310,177,170989,1,0,3:0:0:0:
137,184,171322,2,0,P|93:234|162:317,1,170,8|0,0:0|3:0,0:0:0:0:
446,316,171989,6,0,B|415:224|319:214|319:214|223:203|172:86,1,340,0|8,1:0|0:0,0:0:0:0:
376,124,172989,1,0,0:0:0:0:
376,201,173323,1,0,0:0:0:0:
203,194,173656,1,0,3:0:0:0:
377,270,173989,2,0,P|427:259|486:153,1,170,8|0,0:0|3:0,0:0:0:0:
37,172,174656,6,0,L|222:174,2,170,4|8|0,0:0|0:0|3:0,0:0:0:0:
35,92,175489,1,0,3:0:0:0:
200,87,175656,1,8,0:0:0:0:
477,172,175989,6,0,L|292:174,2,170,4|8|0,0:0|0:0|3:0,0:0:0:0:
479,92,176822,1,0,3:0:0:0:
314,87,176989,1,8,0:0:0:0:
144,86,177322,6,0,L|143:267,1,170,4|8,0:0|0:0,0:0:0:0:
309,257,177822,2,0,P|363:242|417:141,1,170,0|0,0:0|3:0,0:0:0:0:
330,134,178322,2,0,L|216:121,1,85,8|0,2:0|3:0,0:0:0:0:
487,62,178656,5,4,3:2:0:0:
317,65,178989,1,8,0:0:0:0:
147,66,179322,1,8,0:0:0:0:
317,65,179656,1,8,0:0:0:0:
317,65,179822,1,0,3:0:0:0:
28,195,180156,6,0,P|41:144|161:108,1,170,4|0,0:0|0:0,0:0:0:0:
303,139,180656,2,0,L|125:138,1,170,12|8,0:0|0:0,0:0:0:0:
387,301,181156,6,0,P|374:250|254:214,1,170,4|0,0:0|0:0,0:0:0:0:
39,204,181656,2,0,L|39:93,1,85,12|0,0:0|3:0,0:0:0:0:
122,128,181989,2,0,L|220:126,1,85,8|0,0:0|3:0,0:0:0:0:
368,169,182322,1,8,0:0:0:0:
69,28,182656,6,0,L|472:375,1,510,4|0,3:2|3:0,0:0:0:0:
146,213,183989,5,4,1:2:0:0:
142,323,184322,1,4,1:2:0:0:
454,205,184656,1,4,1:2:0:0:
458,315,184989,1,0,3:0:0:0:
31,285,185322,6,0,P|40:219|143:174,1,170,4|8,0:0|0:0,0:0:0:0:
126,88,185822,1,0,0:0:0:0:
288,88,185989,2,0,L|288:198,1,85,2|0,3:0|3:0,0:0:0:0:
125,168,186322,1,10,0:0:0:0:
465,53,186656,6,0,L|471:232,1,170,0|8,3:0|0:0,0:0:0:0:
382,218,187156,1,0,0:0:0:0:
221,223,187322,2,0,L|222:327,1,85,2|0,3:0|0:0,0:0:0:0:
382,302,187656,1,10,0:0:0:0:
61,291,187989,6,0,P|75:234|193:192,1,170,4|8,2:0|0:0,0:0:0:0:
251,173,188489,1,0,0:0:0:0:
413,114,188656,2,0,L|305:114,1,85,2|0,3:0|3:0,0:0:0:0:
166,113,188989,1,10,0:0:0:0:
472,314,189323,6,0,P|458:257|340:215,1,170,0|8,3:0|0:0,0:0:0:0:
282,196,189823,1,0,0:0:0:0:
120,137,189990,2,0,L|228:137,1,85,2|0,3:0|3:0,0:0:0:0:
367,136,190323,2,0,L|368:42,1,85,10|0,0:0|0:0,0:0:0:0:
97,314,190656,6,0,P|58:283|176:209,1,255,4|0,0:0|0:0,0:0:0:0:
343,181,191322,2,0,L|146:179,1,170,2|10,3:0|0:0,0:0:0:0:
175,98,191822,1,0,0:0:0:0:
345,140,191989,6,0,P|387:112|327:21,1,170,0|8,3:0|0:0,0:0:0:0:
268,20,192489,1,0,0:0:0:0:
104,101,192656,2,0,L|209:102,1,85,2|0,3:0|3:0,0:0:0:0:
353,101,192989,1,10,0:0:0:0:
32,230,193322,6,0,P|47:171|149:120,3,170,4|8|0|8,0:0|0:0|0:0|0:0,0:0:0:0:
309,121,194489,6,0,L|309:314,1,170
215,289,194989,1,8,0:0:0:0:
121,287,195156,2,0,P|75:251|131:169,1,170,0|0,0:0|3:0,0:0:0:0:
216,169,195656,1,0,0:0:0:0:
487,166,195989,6,0,P|468:89|366:56,3,170,4|8|0|8,0:0|0:0|3:0|0:0,0:0:0:0:
237,143,197156,6,0,L|407:142,1,170
407,225,197656,1,8,0:0:0:0:
117,281,197989,2,0,P|56:254|129:236,1,170,2|10,3:0|0:0,0:0:0:0:
206,223,198489,1,0,0:0:0:0:
456,253,198656,6,0,P|446:203|328:154,1,170,4|8,0:0|0:0,0:0:0:0:
346,240,199156,1,0,0:0:0:0:
178,229,199322,2,0,L|179:51,1,170,2|10,3:0|0:0,0:0:0:0:
270,57,199822,1,0,0:0:0:0:
438,229,199989,6,0,L|437:51,1,170,0|8,0:0|0:0,0:0:0:0:
346,57,200489,1,0,0:0:0:0:
175,63,200656,2,0,P|210:184|338:231,1,255,2|0,0:0|0:0,0:0:0:0:
78,296,201322,6,0,L|78:126,1,170,4|8,0:0|0:0,0:0:0:0:
243,123,201989,1,2,3:0:0:0:
79,126,202322,2,0,L|172:126,1,85,10|0,0:0|0:0,0:0:0:0:
414,312,202656,6,0,L|412:139,1,170,0|8,0:0|0:0,0:0:0:0:
337,139,203156,1,0,0:0:0:0:
84,238,203322,2,0,L|84:52,1,170,2|10,3:0|0:0,0:0:0:0:
164,68,203822,1,0,0:0:0:0:
394,270,203989,6,0,P|386:213|266:170,1,170,4|8,0:0|0:0,0:0:0:0:
203,180,204489,1,0,0:0:0:0:
37,149,204656,2,0,L|37:241,1,85,2|0,3:0|3:0,0:0:0:0:
200,270,204989,1,10,0:0:0:0:
490,264,205323,6,0,P|482:202|360:152,1,170,0|8,3:0|0:0,0:0:0:0:
308,133,205823,1,0,0:0:0:0:
478,82,205989,2,0,L|478:176,1,85,2|0,3:0|3:0,0:0:0:0:
309,166,206322,1,10,0:0:0:0:
32,194,206656,6,0,P|47:132|160:79,1,170,4|8,2:0|0:0,0:0:0:0:
217,74,207156,1,0,0:0:0:0:
379,73,207323,2,0,L|379:167,1,85,2|0,3:0|3:0,0:0:0:0:
216,153,207656,1,10,0:0:0:0:
488,284,207989,6,0,L|299:284,1,170,0|8,3:0|0:0,0:0:0:0:
317,195,208489,1,0,0:0:0:0:
149,127,208656,2,0,L|256:127,1,85,2|0,3:0|3:0,0:0:0:0:
402,124,208989,2,0,L|402:35,1,85,10|0,0:0|0:0,0:0:0:0:
146,252,209322,6,0,P|90:215|167:166,1,170,4|8,0:0|0:0,0:0:0:0:
227,147,209822,1,0,0:0:0:0:
66,121,209989,2,0,L|180:124,1,85,2|0,3:0|3:0,0:0:0:0:
313,99,210322,1,10,0:0:0:0:
26,267,210656,6,0,L|214:283,1,170,0|8,0:0|0:0,0:0:0:0:
195,199,211156,1,0,0:0:0:0:
29,121,211322,2,0,L|30:211,1,85,2|0,3:0|0:0,0:0:0:0:
197,287,211656,2,0,L|85:285,1,85,10|0,0:0|0:0,0:0:0:0:
363,277,211989,6,0,P|455:228|347:209,1,255,4|0,0:0|0:0,0:0:0:0:
197,191,212656,2,0,L|194:90,1,85,2|0,3:0|0:0,0:0:0:0:
365,94,212989,1,10,0:0:0:0:
43,345,213323,6,0,P|73:269|153:251,1,170,0|8,3:0|0:0,0:0:0:0:
230,251,213823,1,0,0:0:0:0:
67,247,213990,2,0,L|66:136,1,85,2|0,3:0|3:0,0:0:0:0:
151,84,214323,2,0,L|51:83,1,85,10|0,0:0|0:0,0:0:0:0:
317,171,214656,6,0,P|379:165|421:53,2,170,4|8|2,0:0|0:0|3:0,0:0:0:0:
147,170,215489,2,0,L|146:291,1,85,0|10,3:0|0:0,0:0:0:0:
307,251,215822,6,0,L|308:46,1,170,0|0,3:0|0:0,0:0:0:0:
218,78,216322,2,0,L|116:75,1,85,8|0,0:0|0:0,0:0:0:0:
34,159,216656,2,0,L|118:157,1,85,2|0,3:0|3:0,0:0:0:0:
210,202,216989,2,0,L|211:306,1,85,10|0,0:0|0:0,0:0:0:0:
453,273,217322,6,0,P|431:207|315:180,2,170,4|8|2,0:0|0:0|3:0,0:0:0:0:
134,237,218322,1,10,0:0:0:0:
48,235,218489,6,0,L|236:236,1,170,0|0,3:0|0:0,0:0:0:0:
302,240,218989,2,0,L|304:148,1,85,8|0,0:0|0:0,0:0:0:0:
222,159,219322,2,0,L|138:154,1,85,2|0,3:0|3:0,0:0:0:0:
47,78,219656,2,0,L|145:78,1,85,10|0,0:0|0:0,0:0:0:0:
365,205,219989,6,0,P|441:239|479:313,2,170,4|8|2,0:0|0:0|3:0,0:0:0:0:
191,201,220989,1,10,0:0:0:0:
354,304,221156,6,0,P|425:280|461:184,1,170
381,190,221656,2,0,L|380:91,1,85,8|0,0:0|0:0,0:0:0:0:
289,108,221989,2,0,L|195:109,1,85,2|0,3:0|3:0,0:0:0:0:
299,46,222323,2,0,L|298:159,1,85,10|0,0:0|0:0,0:0:0:0:
40,240,222656,6,0,P|61:174|170:135,1,170,4|8,0:0|0:0,0:0:0:0:
324,160,223323,2,0,P|303:94|194:55,1,170,2|10,3:0|0:0,0:0:0:0:
132,53,223823,1,0,3:0:0:0:
305,321,223989,6,0,L|305:133,1,170,0|12,0:0|0:0,0:0:0:0:
229,148,224489,1,0,3:0:0:0:
62,320,224656,2,0,L|62:132,1,170,2|10,3:0|0:0,0:0:0:0:
138,147,225156,1,0,0:0:0:0:
441,118,225322,6,0,L|439:221,1,85,4|0,0:0|3:0,0:0:0:0:
359,201,225656,2,0,L|251:197,1,85,8|0,0:0|3:0,0:0:0:0:
29,215,225989,6,0,L|31:318,1,85,10|0,0:0|3:0,0:0:0:0:
111,298,226323,2,0,L|219:294,1,85,10|0,0:0|3:0,0:0:0:0:
434,350,226656,5,8,0:0:0:0:
439,272,226822,1,8,0:0:0:0:
195,213,226989,1,8,0:0:0:0:
314,171,227989,6,0,L|423:164,2,85,4|2|8,0:0|0:0|0:0,0:0:0:0:
225,77,228489,2,0,L|407:65,1,170,2|2,0:0|3:0,0:0:0:0:
486,88,228989,2,0,L|367:96,1,85,8|2,0:0|0:0,0:0:0:0:
248,92,229322,6,0,P|191:106|141:201,1,170,0|8,3:0|0:0,0:0:0:0:
234,206,229822,2,0,L|57:225,1,170,2|2,0:0|3:0,0:0:0:0:
154,233,230322,2,0,L|147:338,1,85,8|2,0:0|0:0,0:0:0:0:
309,319,230655,6,0,P|367:303|413:207,1,170,0|8,3:0|0:0,0:0:0:0:
326,194,231156,2,0,L|325:11,1,170,2|2,0:0|3:0,0:0:0:0:
411,19,231655,1,8,0:0:0:0:
120,41,231989,6,0,P|58:69|16:172,1,170,0|8,0:0|0:0,0:0:0:0:
110,156,232489,1,0,0:0:0:0:
283,227,232656,2,0,L|90:228,1,170,8|8,0:0|0:0,0:0:0:0:
115,147,233156,1,0,3:0:0:0:
393,241,233322,6,0,P|448:214|424:112,1,170,4|8,0:0|0:0,0:0:0:0:
341,55,233822,2,0,L|340:231,1,170,2|2,0:0|3:0,0:0:0:0:
426,301,234322,2,0,L|304:301,1,85,8|2,0:0|0:0,0:0:0:0:
174,296,234656,6,0,L|72:302,2,85,0|2|8,0:0|3:0|0:0,0:0:0:0:
265,257,235156,2,0,P|255:206|142:163,1,170,2|2,0:0|3:0,0:0:0:0:
64,144,235656,2,0,L|65:256,1,85,8|2,0:0|0:0,0:0:0:0:
353,320,235989,5,4,3:2:0:0:
422,269,236156,1,2,0:0:0:0:
351,205,236322,1,8,0:0:0:0:
195,223,236489,1,6,0:0:0:0:
114,198,236656,1,0,0:0:0:0:
289,100,236822,2,0,L|380:100,1,85,2|8,3:2|3:2,0:0:0:0:
140,371,237156,6,0,P|46:308|351:111,1,680,4|0,0:0|3:0,0:0:0:0:
