osu file format v14

[General]
AudioFilename: audio.mp3
AudioLeadIn: 0
PreviewTime: 182651
Countdown: 0
SampleSet: Soft
StackLeniency: 0.7
Mode: 0
LetterboxInBreaks: 0
WidescreenStoryboard: 0

[Editor]
Bookmarks: 35984,78651,118651,158651,182651,227984
DistanceSpacing: 1.5
BeatDivisor: 4
GridSize: 32
TimelineZoom: 1.4

[Metadata]
Title:Ano Yume o Nazotte
TitleUnicode:あの夢をなぞって
Artist:YOASOBI
ArtistUnicode:YOASOBI
Creator:Flask
Version:captin lfj's Extra
Source:
Tags:Lilas Ikuta ikura 幾田りら ayase japanese pop jpop j-pop tracing that dream captin1 jonathanlfj Miyohashikoori
BeatmapID:2580333
BeatmapSetID:1120850

[Difficulty]
HPDrainRate:5
CircleSize:4.2
OverallDifficulty:8.5
ApproachRate:9.1
SliderMultiplier:1.8
SliderTickRate:1

[Events]
//Background and Video events
0,0,"wallhaven-96zxlk.jpg",0,0
Video,0,"VD.avi"
//Break Periods
//Storyboard Layer 0 (Background)
//Storyboard Layer 1 (Fail)
//Storyboard Layer 2 (Pass)
//Storyboard Layer 3 (Foreground)
//Storyboard Layer 4 (Overlay)
//Storyboard Sound Samples

[TimingPoints]
-15,333.333333333333,4,2,1,40,1,0
1318,-250,4,2,1,40,0,0
19984,-133.333333333333,4,2,55,50,0,0
22484,-100,4,2,2,60,0,0
22568,-100,4,2,1,60,0,0
23818,-100,4,2,55,60,0,0
23859,-100,4,2,55,5,0,0
24151,-100,4,2,55,60,0,0
24193,-100,4,2,55,5,0,0
24484,-100,4,2,55,60,0,0
24526,-100,4,2,55,5,0,0
24818,-100,4,2,1,60,0,0
25151,-100,4,2,2,60,0,0
25234,-100,4,3,1,60,0,0
29984,-83.3333333333333,4,3,1,60,0,0
30651,-100,4,2,2,60,0,0
30734,-100,4,3,1,60,0,0
34651,-100,4,2,2,60,0,0
34734,-100,4,3,1,60,0,0
35984,-111.111111111111,4,2,2,45,0,0
41318,-111.111111111111,4,2,1,45,0,0
41401,-111.111111111111,4,2,2,45,0,0
46318,-111.111111111111,4,2,55,45,0,0
46651,-100,4,2,2,60,0,0
46734,-100,4,2,55,60,0,0
54651,-100,4,2,2,60,0,0
54734,-100,4,2,55,60,0,0
55818,-100,4,2,2,60,0,0
55901,-100,4,2,55,60,0,0
57318,-125,4,2,2,45,0,0
57359,-125,4,2,55,45,0,0
67984,-100,4,2,2,60,0,0
68068,-100,4,2,55,60,0,0
73318,-100,4,2,2,60,0,0
73401,-100,4,2,55,60,0,0
77318,-100,4,2,2,60,0,0
77401,-100,4,2,55,60,0,0
77984,-83.3333333333333,4,2,55,60,0,0
78651,-83.3333333333333,4,2,2,80,0,1
78734,-83.3333333333333,4,2,55,80,0,1
83984,-83.3333333333333,4,2,2,80,0,1
84068,-83.3333333333333,4,2,55,80,0,1
89234,-83.3333333333333,4,2,55,5,0,1
89318,-83.3333333333333,4,2,2,80,0,1
89401,-83.3333333333333,4,2,55,80,0,1
91984,-100,4,2,55,80,0,1
94651,-100,4,2,2,80,0,1
94734,-100,4,2,55,80,0,1
97318,-90.9090909090909,4,2,55,80,0,1
98651,-83.3333333333333,4,2,55,80,0,1
99984,-83.3333333333333,4,2,2,80,0,1
100068,-83.3333333333333,4,2,55,80,0,1
105318,-83.3333333333333,4,2,2,80,0,1
105401,-83.3333333333333,4,2,55,80,0,1
110568,-83.3333333333333,4,2,55,5,0,1
110651,-83.3333333333333,4,2,2,80,0,1
110734,-83.3333333333333,4,2,55,80,0,1
113318,-100,4,2,55,80,0,1
115984,-100,4,2,2,80,0,1
116068,-100,4,2,55,80,0,1
116984,-83.3333333333333,4,2,55,80,0,1
117318,-83.3333333333333,4,2,2,80,0,1
117401,-83.3333333333333,4,2,55,80,0,1
118651,-90.9090909090909,4,2,2,70,0,0
118734,-90.9090909090909,4,2,55,70,0,0
123984,-90.9090909090909,4,2,2,70,0,0
124068,-90.9090909090909,4,2,55,70,0,0
129318,-90.9090909090909,4,2,2,70,0,0
129401,-90.9090909090909,4,2,55,70,0,0
134651,-90.9090909090909,4,2,2,70,0,0
134734,-90.9090909090909,4,2,55,70,0,0
137318,-125,4,2,2,50,0,0
137401,-125,4,2,55,50,0,0
147984,-100,4,2,2,60,0,0
148068,-100,4,2,55,60,0,0
153318,-100,4,2,2,60,0,0
153401,-100,4,2,55,60,0,0
157318,-125,4,2,55,60,0,0
158651,-166.666666666667,4,2,55,60,0,0
158734,-166.666666666667,4,2,55,60,0,0
168651,-166.666666666667,4,2,55,50,0,0
169318,-133.333333333333,4,2,2,50,0,0
169401,-133.333333333333,4,2,55,50,0,0
174651,-111.111111111111,4,2,2,60,0,0
174734,-111.111111111111,4,2,55,60,0,0
178651,-99.9999999999999,4,2,2,60,0,0
178734,-99.9999999999999,4,2,55,60,0,0
180151,-83.3333333333333,4,2,3,60,0,0
180234,-83.3333333333333,4,2,55,60,0,0
180651,-83.3333333333333,4,2,3,60,0,0
180734,-83.3333333333333,4,2,55,60,0,0
181151,-83.3333333333333,4,2,3,60,0,0
181234,-83.3333333333333,4,2,55,60,0,0
181651,-83.3333333333333,4,2,3,60,0,0
181734,-83.3333333333333,4,2,55,60,0,0
182651,-166.666666666667,4,2,2,60,0,0
182734,-166.666666666667,4,2,55,60,0,0
183984,-100,4,2,2,60,0,0
184067,-100,4,2,55,60,0,0
184318,-83.3333333333333,4,2,55,60,0,0
184651,-71.4285714285714,4,2,55,60,0,0
185318,-83.3333333333333,4,2,2,80,0,1
185401,-83.3333333333333,4,2,55,80,0,1
187984,-83.3333333333333,4,2,2,80,0,1
188067,-83.3333333333333,4,2,55,80,0,1
193234,-83.3333333333333,4,2,55,5,0,1
193318,-83.3333333333333,4,2,2,80,0,1
193401,-83.3333333333333,4,2,55,80,0,1
198651,-83.3333333333333,4,2,2,80,0,1
198734,-83.3333333333333,4,2,55,80,0,1
203984,-80,4,2,2,80,0,1
204068,-80,4,2,55,80,0,1
209318,-80,4,2,2,80,0,1
209401,-80,4,2,55,80,0,1
214568,-80,4,2,55,5,0,1
214651,-80,4,2,2,80,0,1
214734,-80,4,2,55,80,0,1
219984,-80,4,2,2,80,0,1
220067,-80,4,2,55,80,0,1
222651,-86.9565217391304,4,2,55,80,0,1
224318,-86.9565217391304,4,2,3,80,0,1
224401,-86.9565217391304,4,2,55,80,0,1
225318,-86.9565217391304,4,2,2,80,0,1
225359,-86.9565217391304,4,2,55,80,0,1
226651,-80,4,2,55,80,0,1
227984,-100,4,2,2,60,0,0
228068,-100,4,3,1,60,0,0
233318,-100,4,2,2,60,0,0
233401,-100,4,3,1,60,0,0
235984,-100,4,2,2,60,0,0
236067,-100,4,3,1,60,0,0
237151,-100,4,2,2,60,0,0
237234,-100,4,3,1,60,0,0

[Colours]
Combo1 : 255,255,136
Combo2 : 153,51,255
Combo3 : 255,255,79
Combo4 : 128,0,255

[HitObjects]
104,234,1318,6,0,P|84:219|24:203,2,72
88,315,2318,1,2,0:0:0:0:
178,255,2651,1,0,0:0:0:0:
277,370,2984,2,0,P|309:364|350:366,1,72,0|2,0:0|0:0,0:0:0:0:
489,311,3651,1,0,0:0:0:0:
437,364,3984,1,0,0:0:0:0:
219,189,4484,5,0,0:0:0:0:
219,189,4651,2,0,P|232:198|251:207,1,36,2|0,0:0|0:0,0:0:0:0:
325,159,4984,2,0,P|345:151|360:142,1,36
398,61,5318,1,0,0:0:0:0:
498,215,5984,6,0,L|420:203,1,72
429,309,6651,1,0,0:0:0:0:
343,301,6984,1,2,0:0:0:0:
207,335,7318,2,0,P|225:340|282:368,1,72
158,255,7984,1,2,0:0:0:0:
67,304,8318,1,0,0:0:0:0:
117,77,8984,5,0,0:0:0:0:
99,106,9151,1,0,0:0:0:0:
111,135,9318,2,0,B|103:178|126:172|121:206,2,72,2|0|0,0:0|0:0|0:0,0:0:0:0:
234,51,10318,1,0,0:0:0:0:
197,122,10651,2,0,L|309:133,1,108,2|0,0:0|0:0,0:0:0:0:
338,201,11318,1,0,0:0:0:0:
478,33,11984,6,0,P|466:64|457:106,1,72,0|2,0:0|0:0,0:0:0:0:
375,189,12651,2,0,P|387:220|396:262,1,72,0|2,0:0|0:0,0:0:0:0:
485,284,13318,1,0,0:0:0:0:
338,364,13651,1,0,0:0:0:0:
239,285,13984,1,0,0:0:0:0:
321,264,14318,1,0,0:0:0:0:
194,148,14651,6,0,P|164:161|126:167,1,72,2|0,0:0|0:0,0:0:0:0:
34,83,15318,1,0,0:0:0:0:
94,243,15651,1,0,0:0:0:0:
197,59,15984,2,0,L|311:80,1,108,2|0,0:0|0:0,0:0:0:0:
437,13,16651,2,0,P|409:20|370:39,1,72,2|0,0:0|0:0,0:0:0:0:
316,224,17318,6,0,P|326:198|337:148,1,72
404,193,17818,1,0,0:0:0:0:
219,258,18151,1,0,0:0:0:0:
293,338,18318,2,0,P|290:321|285:304,1,36
185,176,18651,2,0,P|150:163|115:156,1,72,2|2,0:0|0:0,0:0:0:0:
0,278,19151,2,0,L|79:266,1,72,2|2,0:0|0:0,0:0:0:0:
149,345,19651,1,2,0:0:0:0:
143,329,19984,6,0,P|104:341|74:367,2,67.5000025749208,2|4|2,0:0|0:3|0:0,0:0:0:0:
343,304,20484,2,0,P|268:316|224:281,1,135.000005149842,2|2,0:0|0:0,0:0:0:0:
357,95,21151,6,0,L|345:161,1,67.5000025749208,6|0,0:3|0:0,0:0:0:0:
413,264,21484,2,0,L|408:240,3,22.5000008583069,0|2|2|4,0:0|0:0|0:0|0:3,0:0:0:0:
488,184,21818,1,0,0:0:0:0:
484,306,21984,1,2,0:0:0:0:
311,242,22151,1,0,0:0:0:0:
324,326,22318,1,2,0:0:0:0:
88,296,22484,6,0,P|124:258|217:257,1,135,4|0,0:0|0:0,0:0:0:0:
214,281,22818,1,4,3:0:0:0:
41,226,22984,1,4,0:3:0:0:
174,141,23151,1,4,0:3:0:0:
155,356,23318,1,4,0:3:0:0:
189,172,23484,1,4,0:3:0:0:
337,325,23651,1,4,0:3:0:0:
139,274,23818,6,0,L|129:203,1,45,6|0,0:3|0:0,0:0:0:0:
383,223,24151,2,0,L|393:152,1,45,6|0,0:3|0:0,0:0:0:0:
80,146,24484,2,0,L|70:75,1,45,6|0,0:3|0:0,0:0:0:0:
211,58,24818,5,0,0:0:0:0:
221,23,24984,1,2,0:0:0:0:
313,154,25151,6,0,B|323:172|334:186|334:186|300:171|231:166,1,135,12|0,0:0|0:0,0:0:0:0:
167,198,25484,1,10,0:2:0:0:
135,50,25651,1,14,0:0:0:0:
392,115,25818,2,0,B|435:144|435:144|401:297,1,180,10|10,0:2|0:2,0:0:0:0:
320,272,26318,1,12,0:3:0:0:
477,351,26484,1,10,3:2:0:0:
237,317,26651,5,6,0:3:0:0:
305,173,26818,1,8,3:2:0:0:
335,368,26984,1,12,0:0:0:0:
190,240,27151,2,0,B|91:212|114:275|12:242,1,180,10|10,3:2|3:2,0:0:0:0:
143,123,27651,1,12,3:0:0:0:
53,92,27818,1,10,3:2:0:0:
147,321,27984,6,0,L|239:302,1,90,6|8,3:0|3:2,0:0:0:0:
368,195,28318,1,12,3:0:0:0:
476,346,28484,2,0,B|462:317|462:317|422:300|350:306,1,135,10|0,3:2|0:0,0:0:0:0:
348,331,28818,1,10,3:2:0:0:
284,170,28984,1,12,3:0:0:0:
420,125,29151,1,8,0:2:0:0:
278,290,29318,6,0,P|226:279|183:260,1,90,6|8,3:0|0:2,0:0:0:0:
6,211,29651,2,0,P|58:200|101:181,1,90,14|8,3:0|0:2,0:0:0:0:
186,25,29984,1,6,3:0:0:0:
186,25,30068,2,0,B|157:40|157:40|172:120,1,107.999996704102,12|0,3:0|0:0,0:0:0:0:
120,269,30318,1,14,3:0:0:0:
62,45,30484,2,0,L|50:108,1,53.9999983520508,6|4,3:0|3:0,0:0:0:0:
280,258,30651,6,0,P|316:243|387:235,1,90,12|8,0:0|0:2,0:0:0:0:
419,154,30984,1,14,3:0:0:0:
251,331,31151,2,0,L|235:190,1,135,10|0,3:2|0:0,0:0:0:0:
205,176,31484,1,10,3:2:0:0:
344,321,31651,1,12,3:0:0:0:
157,268,31818,1,10,3:2:0:0:
384,224,31984,6,0,B|394:187|394:187|383:171|368:120,1,90,6|8,3:0|3:2,0:0:0:0:
127,87,32318,1,12,3:0:0:0:
218,23,32484,2,0,B|229:96|229:96|249:111|249:111|262:204,1,180,10|10,3:2|3:2,0:0:0:0:
134,357,32984,1,14,3:0:0:0:
168,187,33151,1,10,3:2:0:0:
5,293,33318,6,0,B|27:306|27:306|104:286,1,90,6|8,3:0|0:2,0:0:0:0:
310,352,33651,1,12,3:0:0:0:
395,316,33818,2,0,P|369:280|259:274,1,135,10|0,0:2|0:0,0:0:0:0:
252,279,34151,1,10,3:2:0:0:
348,109,34318,1,14,3:0:0:0:
399,262,34484,1,0,0:0:0:0:
188,216,34651,6,0,B|120:204|120:204|83:227,1,90,12|0,0:0|0:2,0:0:0:0:
8,139,34984,1,4,3:0:0:0:
161,28,35151,1,2,0:2:0:0:
144,49,35234,1,2,0:0:0:0:
144,76,35318,1,6,3:0:0:0:
27,253,35484,1,2,3:0:0:0:
155,367,35651,1,6,3:0:0:0:
144,285,35818,1,6,3:0:0:0:
78,337,35984,6,0,L|242:312,1,161.999995056153,4|12,0:0|0:3,0:0:0:0:
398,223,36484,1,0,0:0:0:0:
304,200,36651,2,0,P|318:248|326:292,1,80.9999975280763,12|2,0:3|0:0,0:0:0:0:
449,368,36984,2,0,P|461:313|474:274,1,80.9999975280763,12|2,0:3|0:0,0:0:0:0:
448,126,37318,6,0,B|428:137|428:137|367:129,1,80.9999975280763,10|0,0:0|0:0,0:0:0:0:
141,152,37651,2,0,B|161:141|161:141|222:149,1,80.9999975280763,4|0,0:3|0:0,0:0:0:0:
193,328,37984,1,12,0:3:0:0:
181,232,38151,1,0,0:0:0:0:
278,221,38318,1,12,0:3:0:0:
290,317,38484,1,0,0:0:0:0:
101,290,38651,6,0,P|59:269|65:144,1,161.999995056153,4|4,0:3|0:3,0:0:0:0:
181,232,39151,1,2,0:0:0:0:
274,269,39318,2,0,P|316:248|310:123,1,161.999995056153,12|4,0:3|0:3,0:0:0:0:
149,93,39818,1,2,0:0:0:0:
234,24,39984,6,0,P|239:69|250:117,1,80.9999975280763,4|2,0:3|0:0,0:0:0:0:
117,230,40318,1,4,0:3:0:0:
68,148,40484,1,2,0:0:0:0:
215,232,40651,2,0,L|295:221,1,80.9999975280763,4|2,0:3|0:0,0:0:0:0:
84,320,40984,2,0,L|-6:304,1,80.9999975280763,4|2,0:3|0:0,0:0:0:0:
201,360,41318,6,0,B|256:352|256:352|296:318|296:318|352:312,1,161.999995056153,12|12,0:0|0:3,0:0:0:0:
507,218,41818,1,0,0:0:0:0:
420,186,41984,2,0,B|411:224|411:224|436:281,1,80.9999975280763,12|0,0:3|0:0,0:0:0:0:
489,123,42318,2,0,L|474:37,1,80.9999975280763,12|0,0:3|0:0,0:0:0:0:
336,147,42651,6,0,L|315:232,1,80.9999975280763,4|2,0:3|0:0,0:0:0:0:
143,117,42984,2,0,B|155:84|155:84|213:47|280:72,1,161.999995056153,4|4,0:3|0:3,0:0:0:0:
336,147,43484,1,2,0:0:0:0:
193,202,43651,1,12,0:3:0:0:
249,49,43818,1,0,0:0:0:0:
268,255,43984,6,0,P|189:238|91:233,1,161.999995056153,4|4,0:3|0:3,0:0:0:0:
255,348,44484,1,2,0:0:0:0:
360,276,44651,2,0,P|379:233|392:193,1,80.9999975280763,12|0,0:3|0:0,0:0:0:0:
257,74,44984,2,0,P|274:115|289:165,1,80.9999975280763,4|2,0:3|0:0,0:0:0:0:
169,305,45318,6,0,B|135:271|135:271|160:148,1,161.999995056153,4|4,0:3|0:3,0:0:0:0:
58,34,45818,1,2,0:0:0:0:
0,128,45984,2,0,B|27:132|27:132|104:113,1,80.9999975280763,12|12,0:3|0:3,0:0:0:0:
261,94,46318,2,0,P|176:62|141:83,1,121.499996292114,12|0,0:3|0:0,0:0:0:0:
157,159,46651,6,0,P|170:205|181:258,1,90,12|0,0:0|0:0,0:0:0:0:
337,170,46984,2,0,P|349:120|374:32,1,135,8|0,0:2|0:0,0:0:0:0:
360,11,47318,1,2,0:0:0:0:
261,94,47484,1,4,0:3:0:0:
449,121,47651,2,0,P|402:130|356:144,1,90,10|0,0:0|0:0,0:0:0:0:
201,230,47984,6,0,P|245:236|292:250,1,90,6|0,0:3|0:0,0:0:0:0:
240,112,48318,2,0,P|179:121|99:39,1,180,8|2,0:0|0:0,0:0:0:0:
85,182,48818,1,4,0:3:0:0:
201,27,48984,2,0,P|245:23|295:34,1,90,8|0,0:0|0:0,0:0:0:0:
388,172,49318,5,6,0:3:0:0:
388,172,49484,1,0,0:0:0:0:
291,218,49651,2,0,L|185:210,1,90,10|0,0:0|0:0,0:0:0:0:
304,110,49984,1,0,0:0:0:0:
304,110,50151,1,4,0:3:0:0:
379,277,50318,2,0,B|388:321|388:321|369:366,1,90,10|0,0:0|0:0,0:0:0:0:
132,313,50651,6,0,B|192:283|192:283|267:303,1,135,6|0,0:3|0:0,0:0:0:0:
285,309,50984,1,8,0:0:0:0:
234,170,51151,1,2,0:0:0:0:
399,179,51318,2,0,P|348:199|312:219,1,90,2|4,0:0|0:3,0:0:0:0:
156,107,51651,2,0,P|207:87|243:67,1,90,10|0,0:0|0:0,0:0:0:0:
296,229,51984,6,0,P|317:163|335:72,1,135,6|0,0:3|0:0,0:0:0:0:
329,68,52318,1,8,0:0:0:0:
205,211,52484,2,0,P|192:286|271:353,1,180,0|4,0:0|0:3,0:0:0:0:
418,247,52984,1,10,0:0:0:0:
274,336,53151,1,0,0:0:0:0:
470,356,53318,5,6,0:3:0:0:
470,356,53651,1,8,0:0:0:0:
318,248,53818,1,2,0:0:0:0:
478,165,53984,2,0,P|467:207|461:267,1,90,0|4,0:0|0:3,0:0:0:0:
305,356,54318,2,0,L|289:214,1,135,8|0,0:0|0:0,0:0:0:0:
277,145,54651,5,12,0:0:0:0:
63,179,54818,1,2,0:2:0:0:
211,199,54984,1,0,0:0:0:0:
111,19,55151,1,2,0:0:0:0:
6,243,55318,6,0,L|16:288,1,45,12|0,0:3|0:0,0:0:0:0:
133,228,55484,1,2,0:0:0:0:
26,90,55651,1,8,0:0:0:0:
234,119,55818,2,0,B|282:127|324:108|324:108|369:91|416:106,1,180,12|4,0:0|0:3,0:0:0:0:
409,291,56318,5,4,0:3:0:0:
372,193,56484,1,6,0:3:0:0:
508,259,56651,5,14,0:3:0:0:
355,371,56818,1,0,0:0:0:0:
278,225,56984,5,4,0:3:0:0:
409,291,57151,1,4,0:3:0:0:
239,307,57318,6,0,B|197:278|197:278|181:174,1,144,14|0,0:0|0:0,0:0:0:0:
108,272,57818,2,0,L|95:349,1,72,2|10,0:0|0:0,0:0:0:0:
41,217,58151,1,2,0:0:0:0:
31,131,58318,1,0,0:0:0:0:
73,56,58484,1,2,0:0:0:0:
192,112,58651,6,0,B|198:132|210:153|210:153|172:135|105:128,1,144,2|4,0:0|0:3,0:0:0:0:
114,129,59151,1,0,0:0:0:0:
212,231,59318,1,8,0:0:0:0:
98,305,59484,1,2,0:0:0:0:
128,212,59651,1,0,0:0:0:0:
171,348,59818,1,2,0:0:0:0:
24,344,59984,6,0,L|174:321,1,144,6|0,0:3|0:0,0:0:0:0:
262,193,60484,1,0,0:0:0:0:
398,319,60651,2,0,P|335:298|245:287,1,144,8|0,0:0|0:0,0:0:0:0:
193,122,61151,1,0,0:0:0:0:
94,283,61318,5,2,0:0:0:0:
262,193,61484,2,0,P|299:182|351:170,1,72,0|4,0:0|0:3,0:0:0:0:
163,212,61818,1,0,0:0:0:0:
231,284,61984,2,0,P|240:328|245:358,1,72,8|2,0:0|0:0,0:0:0:0:
355,173,62318,2,0,P|361:137|368:102,1,72,0|2,0:0|0:0,0:0:0:0:
453,292,62651,6,0,P|406:312|329:263,1,144,6|0,0:3|0:0,0:0:0:0:
59,92,63318,2,0,P|106:72|183:121,1,144,8|0,0:0|0:0,0:0:0:0:
138,241,63818,6,0,P|120:215|103:165,1,72,0|2,0:0|0:0,0:0:0:0:
34,331,64151,2,0,P|38:282|49:238,1,72,0|4,0:0|0:3,0:0:0:0:
230,214,64484,2,0,P|222:254|218:299,1,72,2|8,0:0|0:0,0:0:0:0:
391,367,64818,1,0,0:0:0:0:
313,263,64984,1,2,0:0:0:0:
443,188,65151,1,0,0:0:0:0:
318,86,65318,6,0,B|305:72|290:62|290:62|311:114|315:174,1,144,4|0,0:3|0:0,0:0:0:0:
133,205,65818,1,0,0:0:0:0:
217,269,65984,2,0,P|223:222|232:187,1,72,8|0,0:0|0:0,0:0:0:0:
79,23,66318,2,0,P|48:65|67:129,1,108
83,137,66651,6,0,L|161:120,1,72,2|0,0:0|0:0,0:0:0:0:
354,175,66984,1,4,0:3:0:0:
221,285,67318,1,10,0:0:0:0:
192,115,67651,1,8,0:0:0:0:
256,192,67818,5,8,0:0:0:0:
256,192,67901,1,8,0:0:0:0:
256,192,67984,2,0,L|318:263,1,90,12|0,0:0|0:0,0:0:0:0:
86,301,68318,1,8,0:0:0:0:
188,334,68484,2,0,P|181:253|96:193,1,180,2|4,0:0|0:3,0:0:0:0:
301,126,68984,2,0,P|255:147|199:161,1,90,8|2,0:0|0:0,0:0:0:0:
335,239,69318,6,0,P|396:210|478:210,1,135,6|0,0:3|0:0,0:0:0:0:
502,283,69651,2,0,P|483:341|477:379,1,90,8|0,0:0|0:0,0:0:0:0:
443,185,69984,2,0,P|431:143|422:87,1,90,0|4,0:0|0:3,0:0:0:0:
259,202,70318,2,0,P|243:268|247:345,1,135,10|0,0:0|0:0,0:0:0:0:
265,359,70651,5,6,0:3:0:0:
265,359,70818,1,0,0:0:0:0:
150,224,70984,2,0,B|135:216|135:216|52:223,1,90,8|0,0:0|0:0,0:0:0:0:
174,316,71318,1,0,0:0:0:0:
174,316,71484,1,4,0:3:0:0:
345,177,71651,2,0,B|360:169|360:169|443:176,1,90,10|0,0:0|0:0,0:0:0:0:
279,255,71984,6,0,B|242:212|242:212|257:82,1,180,4|8,0:3|0:0,0:0:0:0:
447,50,72484,1,0,0:0:0:0:
364,94,72651,2,0,P|348:52|336:1,1,90,2|4,0:0|0:3,0:0:0:0:
151,144,72984,2,0,P|132:210|151:275,1,135,8|0,0:0|0:0,0:0:0:0:
231,305,73318,6,0,L|326:290,1,90,4|0,0:0|0:0,0:0:0:0:
394,153,73651,1,4,0:3:0:0:
265,210,73818,1,0,0:0:0:0:
459,225,73984,1,6,0:3:0:0:
386,46,74151,2,0,P|372:98|380:144,1,90,0|6,0:0|0:3,0:0:0:0:
167,178,74484,5,0,0:0:0:0:
265,210,74651,2,0,P|268:165|255:122,1,90,6|0,0:3|0:0,0:0:0:0:
88,119,74984,1,6,0:3:0:0:
189,273,75151,1,0,0:0:0:0:
236,98,75318,1,6,0:3:0:0:
90,244,75484,1,0,0:0:0:0:
267,337,75651,2,0,P|319:319|365:312,1,90,6|2,0:3|0:0,0:0:0:0:
370,103,75984,5,6,0:3:0:0:
189,273,76151,1,0,0:3:0:0:
451,333,76318,1,4,0:3:0:0:
229,145,76484,1,6,0:3:0:0:
229,145,76818,5,4,0:3:0:0:
449,208,76984,1,4,0:3:0:0:
284,368,77151,1,4,0:3:0:0:
320,242,77318,5,4,0:0:0:0:
325,220,77401,1,0,0:0:0:0:
330,198,77484,1,0,0:0:0:0:
336,176,77568,1,0,0:0:0:0:
341,154,77651,5,2,0:0:0:0:
321,123,77734,1,0,0:0:0:0:
289,105,77818,1,2,0:0:0:0:
253,100,77901,1,0,0:0:0:0:
218,110,77984,6,0,P|224:137|231:175,1,53.9999983520508,6|4,0:3|0:3,0:0:0:0:
139,283,78151,2,0,P|145:254|158:214,1,53.9999983520508,6|4,0:3|0:3,0:0:0:0:
94,90,78318,2,0,P|113:117|129:150,1,53.9999983520508,6|4,0:3|0:3,0:0:0:0:
290,248,78484,2,0,P|261:261|236:277,1,53.9999983520508,6|4,0:3|0:3,0:0:0:0:
55,207,78651,6,0,L|37:34,1,161.999995056153,12|0,0:0|0:0,0:0:0:0:
185,59,78984,2,0,B|198:11|198:11|157:69,1,107.999996704102,12|0,0:3|0:0,0:0:0:0:
24,286,79318,1,2,0:0:0:0:
94,122,79484,1,4,0:3:0:0:
219,336,79651,2,0,B|186:361|186:361|116:352|98:275,1,161.999995056153,12|0,0:3|0:0,0:0:0:0:
135,222,79984,6,0,L|265:206,1,107.999996704102,6|0,0:3|0:0,0:0:0:0:
480,293,80318,1,12,0:3:0:0:
338,364,80484,1,0,0:0:0:0:
345,321,80568,1,0,0:0:0:0:
352,278,80651,1,2,0:0:0:0:
281,79,80818,1,4,0:3:0:0:
488,184,80984,2,0,B|466:204|466:204|360:188,1,107.999996704102,14|0,0:3|0:0,0:0:0:0:
293,108,81234,1,0,0:0:0:0:
293,108,81318,6,0,P|342:60|439:81,1,161.999995056153,6|0,0:3|0:0,0:0:0:0:
367,182,81651,2,0,B|368:222|379:262|379:262|362:294,1,107.999996704102,12|0,0:3|0:3,0:0:0:0:
211,370,81984,1,2,0:0:0:0:
286,192,82151,1,4,0:3:0:0:
64,253,82318,2,0,P|113:268|175:274,1,107.999996704102,12|0,0:3|0:0,0:0:0:0:
273,85,82651,5,6,0:3:0:0:
299,306,82818,1,0,0:0:0:0:
153,191,82984,1,14,0:3:0:0:
291,106,83151,1,0,0:0:0:0:
291,106,83234,1,0,0:0:0:0:
291,106,83318,2,0,B|338:115|338:115|344:125|344:125|413:138,1,107.999996704102,2|4,0:0|0:3,0:0:0:0:
196,31,83651,2,0,B|109:56|168:96|65:124,1,161.999995056153,14|0,0:3|0:0,0:0:0:0:
16,37,83984,6,0,B|88:16|88:16|64:53,1,107.999996704102,12|0,0:0|0:0,0:0:0:0:
130,298,84318,2,0,P|61:287|25:200,1,161.999995056153,12|0,0:3|0:0,0:0:0:0:
48,194,84651,1,2,0:0:0:0:
233,232,84818,1,4,0:3:0:0:
118,370,84984,2,0,B|93:345|93:345|104:261,1,107.999996704102,12|0,0:3|0:0,0:0:0:0:
215,36,85318,6,0,P|245:88|258:144,1,107.999996704102,6|0,0:3|0:0,0:0:0:0:
400,310,85651,2,0,P|348:355|287:341,1,107.999996704102,14|0,0:3|0:0,0:0:0:0:
265,296,85901,1,0,0:0:0:0:
265,296,85984,2,0,P|282:234|312:180,1,107.999996704102,2|4,0:0|0:3,0:0:0:0:
412,22,86318,1,14,0:3:0:0:
451,247,86484,1,0,0:0:0:0:
224,128,86651,6,0,B|164:148|164:148|147:185|147:185|96:212,1,161.999995056153,6|0,0:3|0:0,0:0:0:0:
29,181,86984,2,0,P|9:143|41:85,1,107.999996704102,12|0,0:3|0:0,0:0:0:0:
217,212,87318,1,2,0:0:0:0:
80,352,87484,1,4,0:3:0:0:
124,221,87651,1,12,0:3:0:0:
265,300,87818,5,0,0:0:0:0:
265,300,87901,1,0,0:0:0:0:
265,300,87984,2,0,B|387:264|357:342|478:291,1,215.999993408203,6|14,0:3|0:3,0:0:0:0:
299,206,88484,2,0,P|253:174|213:130,1,107.999996704102,0|2,0:0|0:0,0:0:0:0:
413,172,88818,1,4,0:3:0:0:
464,47,88984,1,12,0:3:0:0:
464,47,89318,6,0,B|416:21|416:21|342:32,1,107.999996704102,12|0,0:0|0:0,0:0:0:0:
138,115,89651,2,0,B|186:141|186:141|260:130,1,107.999996704102,12|0,0:3|0:0,0:0:0:0:
439,142,89984,1,2,0:0:0:0:
321,100,90151,1,4,0:3:0:0:
321,100,90234,1,0,0:0:0:0:
321,100,90318,1,14,0:3:0:0:
391,223,90484,6,0,P|397:279|407:342,1,107.999996704102,2|4,0:0|0:3,0:0:0:0:
258,181,90818,1,2,0:0:0:0:
207,353,90984,1,12,0:3:0:0:
51,323,91151,2,0,P|99:287|161:275,1,107.999996704102,2|0,0:0|0:0,0:0:0:0:
248,92,91484,1,6,0:3:0:0:
323,194,91651,2,0,B|286:215|286:215|153:189,1,161.999995056153,14|0,0:3|0:0,0:0:0:0:
94,146,91984,6,0,P|75:96|67:53,1,90,6|0,0:3|0:0,0:0:0:0:
227,260,92318,2,0,P|246:210|254:167,1,90,12|0,0:3|0:0,0:0:0:0:
201,34,92651,1,2,0:0:0:0:
182,163,92818,2,0,L|283:149,1,90,4|14,0:3|0:3,0:0:0:0:
483,69,93151,6,0,P|435:60|393:45,1,90,2|6,0:0|0:3,0:0:0:0:
471,164,93484,1,0,0:0:0:0:
412,240,93651,2,0,P|392:295|385:338,1,90,12|2,0:3|0:0,0:0:0:0:
243,359,93984,1,2,0:0:0:0:
274,233,94151,1,6,0:3:0:0:
121,164,94318,1,14,0:3:0:0:
193,279,94484,1,0,0:0:0:0:
72,374,94651,6,0,P|77:322|109:230,1,135,12|0,0:0|0:0,0:0:0:0:
203,181,94984,2,0,P|192:128|173:92,1,90,12|2,0:3|0:0,0:0:0:0:
61,29,95318,1,0,0:0:0:0:
30,195,95484,1,4,0:3:0:0:
169,287,95651,2,0,L|261:264,1,90,14|0,0:3|0:0,0:0:0:0:
394,344,95901,1,0,0:0:0:0:
394,344,95984,6,0,P|345:340|293:320,1,90,4|2,0:3|0:0,0:0:0:0:
279,167,96318,1,12,0:3:0:0:
500,217,96484,2,0,B|445:229|445:229|419:222|419:222|353:233,1,135
337,246,96818,1,6,0:3:0:0:
213,119,96984,2,0,P|254:87|312:99,1,90,14|0,0:3|0:0,0:0:0:0:
477,4,97318,6,0,L|448:165,1,148.50000453186,6|0,0:3|0:0,0:0:0:0:
432,273,97651,2,0,B|442:288|455:323|455:323|449:295|451:269,1,99.0000030212403,14|0,0:3|0:0,0:0:0:0:
380,55,97984,1,2,0:0:0:0:
328,271,98151,1,4,0:3:0:0:
447,172,98318,2,0,P|395:146|345:157,1,99.0000030212403,14|2,0:3|0:0,0:0:0:0:
314,309,98568,1,0,0:0:0:0:
314,309,98651,6,0,L|296:193,1,107.999996704102,6|0,0:3|0:0,0:0:0:0:
119,32,98984,2,0,P|94:85|84:142,1,107.999996704102,12|4,0:3|0:3,0:0:0:0:
207,296,99318,1,14,0:3:0:0:
248,109,99484,1,4,0:3:0:0:
17,196,99651,1,12,0:3:0:0:
25,234,99734,1,12,0:3:0:0:
54,263,99818,1,12,0:3:0:0:
93,272,99901,1,12,0:3:0:0:
130,259,99984,6,0,B|125:166|189:207|165:90,1,161.999995056153,4|0,0:0|0:0,0:0:0:0:
50,45,100318,2,0,B|-8:34|-8:34|40:73,1,107.999996704102,12|0,0:3|0:0,0:0:0:0:
218,245,100651,1,2,0:0:0:0:
185,77,100818,1,4,0:3:0:0:
17,196,100984,2,0,L|31:278,1,53.9999983520508,12|0,0:3|0:0,0:0:0:0:
126,369,101151,1,0,0:0:0:0:
109,329,101234,1,0,0:0:0:0:
115,285,101318,5,6,0:3:0:0:
312,129,101484,1,0,0:0:0:0:
197,315,101651,1,14,0:3:0:0:
116,160,101818,1,0,0:0:0:0:
328,99,101984,2,0,L|340:236,1,107.999996704102,2|4,0:0|0:3,0:0:0:0:
312,325,102318,1,12,0:3:0:0:
410,77,102484,1,0,0:0:0:0:
410,77,102568,1,0,0:0:0:0:
410,77,102651,6,0,P|377:32|276:36,1,161.999995056153,6|0,0:3|0:0,0:0:0:0:
180,111,102984,2,0,B|212:156|212:156|274:162,1,107.999996704102,12|0,0:3|0:0,0:0:0:0:
484,121,103318,1,2,0:0:0:0:
415,341,103484,1,4,0:3:0:0:
322,108,103651,2,0,B|349:145|349:145|332:231,1,107.999996704102,12|0,0:3|0:0,0:0:0:0:
272,249,103901,1,0,0:0:0:0:
236,238,103984,5,6,0:3:0:0:
404,83,104151,1,0,0:0:0:0:
421,360,104318,1,12,0:3:0:0:
233,202,104484,1,0,0:0:0:0:
233,202,104568,1,0,0:0:0:0:
233,202,104651,2,0,L|122:218,1,107.999996704102,2|4,0:0|0:3,0:0:0:0:
29,36,104984,2,0,P|81:24|127:125,1,161.999995056153,14|0,0:3|0:0,0:0:0:0:
79,160,105318,6,0,B|46:196|46:196|60:261,1,107.999996704102,12|0,0:0|0:0,0:0:0:0:
292,281,105651,1,12,0:3:0:0:
141,222,105818,2,0,L|131:303,1,53.9999983520508
331,370,105984,2,0,L|314:253,1,107.999996704102,2|4,0:3|0:3,0:0:0:0:
431,32,106318,2,0,B|398:65|398:65|411:146,1,107.999996704102,12|0,0:3|0:0,0:0:0:0:
425,349,106651,5,6,0:3:0:0:
492,101,106818,1,0,0:0:0:0:
252,70,106984,1,14,0:3:0:0:
460,228,107151,1,0,0:0:0:0:
460,228,107234,1,0,0:0:0:0:
460,228,107318,1,2,0:0:0:0:
337,14,107484,1,4,0:3:0:0:
285,294,107651,2,0,B|196:266|218:322|109:285,1,161.999995056153,14|0,0:3|0:0,0:0:0:0:
0,258,107984,6,0,P|42:217|95:226,1,107.999996704102,6|0,0:3|0:0,0:0:0:0:
333,363,108318,1,12,0:3:0:0:
125,326,108484,2,0,L|136:136,1,161.999995056153
97,78,108818,2,0,L|105:138,1,53.9999983520508,4|0,0:3|0:0,0:0:0:0:
204,272,108984,1,12,0:3:0:0:
301,48,109151,1,0,0:0:0:0:
472,116,109318,6,0,L|362:131,1,107.999996704102,6|0,0:3|0:0,0:0:0:0:
199,51,109651,1,12,0:3:0:0:
444,212,109818,2,0,P|407:284|320:279,1,161.999995056153
302,262,110151,1,4,0:3:0:0:
79,197,110318,2,0,B|119:164|119:164|142:175|177:172,1,107.999996704102,12|0,0:3|0:0,0:0:0:0:
326,361,110651,6,0,P|272:365|206:379,1,107.999996704102,12|0,0:0|0:0,0:0:0:0:
8,240,110984,2,0,P|62:236|128:222,1,107.999996704102,12|0,0:3|0:0,0:0:0:0:
302,262,111318,1,2,0:3:0:0:
149,298,111484,1,4,0:3:0:0:
149,298,111568,1,0,0:0:0:0:
149,298,111651,1,12,0:3:0:0:
55,156,111818,6,0,P|70:103|80:35,1,107.999996704102,2|4,0:0|0:3,0:0:0:0:
283,28,112151,1,2,0:0:0:0:
255,200,112318,1,12,0:3:0:0:
143,84,112484,1,0,0:0:0:0:
354,188,112651,5,2,0:0:0:0:
384,63,112818,1,4,0:3:0:0:
231,269,112984,1,14,0:3:0:0:
201,144,113151,1,2,0:0:0:0:
431,250,113318,6,0,P|443:293|447:338,1,90,4|0,0:3|0:0,0:0:0:0:
269,201,113651,2,0,P|256:244|252:289,1,90,14|0,0:3|0:0,0:0:0:0:
384,63,113984,2,0,P|379:107|366:150,1,90,0|4,0:0|0:3,0:0:0:0:
175,233,114318,1,14,0:3:0:0:
400,231,114484,6,0,L|256:198,1,135,2|0,0:0|0:0,0:0:0:0:
253,228,114818,1,2,0:0:0:0:
99,362,114984,1,12,0:3:0:0:
72,214,115151,1,2,0:0:0:0:
232,304,115318,1,2,0:0:0:0:
285,116,115484,1,4,0:3:0:0:
285,116,115568,1,0,0:0:0:0:
285,116,115651,2,0,L|183:135,1,90,14|2,0:3|0:0,0:0:0:0:
13,83,115984,6,0,P|57:32|134:44,1,135,12|0,0:0|0:0,0:0:0:0:
214,69,116318,2,0,B|206:97|203:114|203:114|183:101|146:96,1,90,14|0,0:3|0:0,0:0:0:0:
84,280,116651,2,0,P|72:236|71:191,1,90,2|4,0:0|0:3,0:0:0:0:
309,50,116984,2,0,P|295:81|288:109,1,53.9999983520508,14|0,0:3|0:0,0:0:0:0:
379,338,117151,1,2,0:0:0:0:
358,144,117318,5,4,0:0:0:0:
237,241,117484,1,0,0:0:0:0:
388,308,117651,1,4,0:3:0:0:
397,74,117818,5,6,0:3:0:0:
290,316,117984,1,6,0:3:0:0:
494,228,118151,1,6,0:3:0:0:
309,50,118318,6,0,P|277:45|237:27,1,53.9999983520508,6|0,0:3|0:0,0:0:0:0:
83,117,118484,1,4,0:3:0:0:
122,98,118568,1,4,0:3:0:0:
157,100,118651,6,0,B|211:118|232:177|232:177|248:167|266:164,1,148.50000453186,12|0,0:0|0:0,0:0:0:0:
357,172,118984,2,0,P|332:228|315:275,1,99.0000030212403,12|2,0:3|0:0,0:0:0:0:
158,348,119318,2,0,P|138:289|116:243,1,99.0000030212403,0|4,0:0|0:3,0:0:0:0:
73,200,119568,1,0,0:0:0:0:
54,192,119651,1,12,0:3:0:0:
48,336,119818,5,2,0:0:0:0:
205,241,119984,1,6,0:3:0:0:
30,185,120151,1,0,0:0:0:0:
228,350,120318,2,0,B|276:334|276:334|312:286,1,99.0000030212403,12|2,0:3|0:0,0:0:0:0:
351,55,120651,1,0,0:0:0:0:
205,241,120818,1,4,0:3:0:0:
449,270,120984,2,0,B|441:224|441:224|396:178,1,99.0000030212403,14|0,0:3|0:0,0:0:0:0:
102,146,121318,6,0,B|165:175|180:125|247:154,1,148.50000453186,6|0,0:3|0:0,0:0:0:0:
286,238,121651,2,0,P|280:178|285:133,1,99.0000030212403,12|0,0:3|0:0,0:0:0:0:
435,60,121984,1,2,0:3:0:0:
385,185,122151,1,4,0:3:0:0:
341,27,122318,1,14,0:3:0:0:
480,187,122484,1,2,0:0:0:0:
286,238,122651,5,6,0:3:0:0:
418,85,122818,1,0,0:0:0:0:
224,14,122984,1,14,0:3:0:0:
385,185,123151,1,0,0:0:0:0:
130,273,123318,1,2,0:0:0:0:
305,99,123484,1,6,0:3:0:0:
54,28,123651,2,0,B|33:71|33:71|47:129,1,99.0000030212403,14|2,0:3|0:0,0:0:0:0:
218,320,123984,6,0,P|225:238|135:175,1,198.000006042481,12|12,0:0|0:3,0:0:0:0:
138,175,124484,1,0,0:0:0:0:
35,302,124651,2,0,P|90:283|154:267,1,99.0000030212403,2|4,0:3|0:3,0:0:0:0:
336,145,124984,2,0,P|268:127|228:110,1,99.0000030212403,12|2,0:3|0:0,0:0:0:0:
184,67,125234,1,0,0:0:0:0:
184,67,125318,6,0,L|81:85,1,99.0000030212403,6|2,0:3|0:0,0:0:0:0:
302,226,125651,2,0,L|412:243,1,99.0000030212403,12|2,0:3|0:0,0:0:0:0:
219,284,125984,1,0,0:0:0:0:
57,323,126151,1,4,0:3:0:0:
187,190,126318,1,14,0:3:0:0:
374,324,126484,1,0,0:0:0:0:
167,355,126651,6,0,B|161:321|161:321|179:293|179:293|187:200,1,148.50000453186,6|0,0:3|0:0,0:0:0:0:
189,169,126984,1,12,0:3:0:0:
280,263,127151,1,2,0:0:0:0:
90,190,127318,1,0,0:0:0:0:
331,146,127484,1,6,0:3:0:0:
95,58,127651,1,12,0:3:0:0:
260,23,127818,5,0,0:0:0:0:
260,23,127901,1,0,0:0:0:0:
260,23,127984,2,0,P|245:84|238:140,1,99.0000030212403,6|0,0:3|0:0,0:0:0:0:
361,254,128318,1,12,0:3:0:0:
153,331,128484,2,0,P|138:264|141:218,1,99.0000030212403,2|0,0:0|0:0,0:0:0:0:
349,92,128818,1,6,0:3:0:0:
97,104,128984,2,0,B|148:122|148:122|197:108|197:108|251:123,1,148.50000453186,12|0,0:3|0:0,0:0:0:0:
308,171,129318,6,0,B|299:186|299:186|309:275,1,99.0000030212403,12|0,0:0|0:0,0:0:0:0:
438,104,129651,2,0,B|407:80|407:80|337:94,1,99.0000030212403,12|0,0:3|0:0,0:0:0:0:
486,193,129984,1,2,0:3:0:0:
463,9,130151,1,4,0:3:0:0:
308,171,130318,1,12,0:3:0:0:
438,104,130484,6,0,B|395:102|395:102|357:75|357:75|304:91|244:84,1,198.000006042481,2|0,0:0|0:0,0:0:0:0:
83,32,130984,1,12,0:3:0:0:
235,169,131151,1,0,0:0:0:0:
68,145,131318,1,2,0:0:0:0:
289,6,131484,1,4,0:3:0:0:
140,94,131651,1,14,0:3:0:0:
309,252,131818,1,0,0:0:0:0:
121,246,131984,6,0,B|164:227|164:227|195:183,1,99.0000030212403,6|0,0:3|0:0,0:0:0:0:
30,207,132318,2,0,B|14:233|14:233|35:318,1,99.0000030212403,12|0,0:3|0:0,0:0:0:0:
165,349,132651,1,2,0:3:0:0:
207,158,132818,1,4,0:3:0:0:
30,207,132984,1,12,0:3:0:0:
252,270,133151,6,0,B|302:289|348:269|348:269|376:273|397:296,1,148.50000453186,2|0,0:0|0:0,0:0:0:0:
437,352,133484,2,0,P|447:297|461:243,1,99.0000030212403,2|12,0:0|0:3,0:0:0:0:
373,26,133818,2,0,P|387:78|396:176,1,148.50000453186,2|0,0:0|0:0,0:0:0:0:
387,205,134151,1,6,0:3:0:0:
252,35,134318,1,14,0:3:0:0:
196,300,134484,1,2,0:3:0:0:
53,126,134651,6,0,B|127:109|116:167|193:153,1,148.50000453186,12|0,0:0|0:0,0:0:0:0:
276,167,134984,2,0,P|226:172|175:188,1,99.0000030212403,12|0,0:3|0:0,0:0:0:0:
93,327,135318,1,2,0:0:0:0:
116,319,135401,1,0,0:0:0:0:
140,317,135484,1,4,0:3:0:0:
164,321,135568,1,0,0:0:0:0:
186,330,135651,5,14,0:3:0:0:
219,338,135734,1,0,0:0:0:0:
253,335,135818,1,0,0:0:0:0:
285,324,135901,1,0,0:0:0:0:
311,302,135984,6,0,L|297:240,1,49.5000015106202,6|0,0:3|0:0,0:0:0:0:
179,186,136151,2,0,L|167:134,1,49.5000015106202
333,133,136318,6,0,P|308:141|274:147,1,49.5000015106202,14|0,0:3|0:0,0:0:0:0:
140,283,136484,2,0,P|169:288|206:299,1,49.5000015106202,6|0,0:3|0:0,0:0:0:0:
74,148,136651,6,0,L|85:85,1,49.5000015106202,6|6,0:3|0:3,0:0:0:0:
167,137,136818,2,0,L|178:74,1,49.5000015106202,4|6,0:3|0:3,0:0:0:0:
260,130,136984,2,0,B|311:120|311:120|348:143|348:143|399:133,1,148.50000453186,14|0,0:3|0:0,0:0:0:0:
478,125,137318,6,0,P|497:163|480:263,1,144,14|0,0:0|0:0,0:0:0:0:
399,285,137818,1,0,0:0:0:0:
315,265,137984,1,10,0:0:0:0:
375,203,138151,1,0,0:0:0:0:
340,344,138318,1,0,0:0:0:0:
233,246,138484,1,0,0:0:0:0:
315,265,138651,6,0,L|175:310,1,144,6|4,0:3|0:3,0:0:0:0:
94,277,139151,1,0,0:0:0:0:
186,169,139318,1,8,0:0:0:0:
177,309,139484,1,0,0:0:0:0:
98,190,139651,1,0,0:0:0:0:
233,246,139818,1,2,0:0:0:0:
332,146,139984,6,0,B|319:36|319:36|291:72,1,144,6|0,0:3|0:0,0:0:0:0:
298,62,140484,1,4,0:3:0:0:
414,96,140651,2,0,P|446:89|491:74,1,72,8|0,0:0|0:0,0:0:0:0:
387,205,140984,2,0,P|336:177|243:183,1,144,0|2,0:0|0:0,0:0:0:0:
144,265,141484,5,0,0:0:0:0:
144,265,141568,1,0,0:0:0:0:
144,265,141651,2,0,P|162:212|161:167,1,72,4|0,0:3|0:0,0:0:0:0:
113,72,141984,1,8,0:0:0:0:
70,206,142151,1,0,0:0:0:0:
167,349,142318,1,4,0:3:0:0:
160,173,142484,1,2,0:0:0:0:
89,320,142651,6,0,B|128:330|128:330|241:295,1,144,6|0,0:3|0:0,0:0:0:0:
365,250,143151,1,0,0:0:0:0:
291,151,143318,2,0,P|283:198|273:234,1,72,8|0,0:0|0:0,0:0:0:0:
440,318,143651,2,0,P|448:271|458:235,1,72
301,321,143984,6,0,B|337:333|337:333|376:372,1,72,2|0,0:0|0:0,0:0:0:0:
473,166,144318,2,0,B|437:154|437:154|398:115,1,72,4|0,0:3|0:0,0:0:0:0:
206,235,144651,2,0,L|289:219,1,72,8|0,0:0|0:0,0:0:0:0:
434,31,144984,2,0,L|351:47,1,72
80,101,145318,6,0,P|126:159|200:136,1,144,6|0,0:3|0:0,0:0:0:0:
256,75,145818,1,4,0:3:0:0:
435,176,145984,2,0,P|386:219|313:190,1,144,8|0,0:0|0:0,0:0:0:0:
256,75,146484,1,0,0:0:0:0:
97,248,146651,2,0,P|149:270|220:220,1,144,2|4,0:0|0:3,0:0:0:0:
176,38,147151,5,0,0:0:0:0:
150,193,147318,1,10,0:0:0:0:
309,90,147484,1,0,0:0:0:0:
71,99,147651,1,4,0:3:0:0:
182,298,147818,1,0,0:0:0:0:
182,298,147901,1,0,0:0:0:0:
182,298,147984,6,0,B|230:311|230:311|367:270,1,180,12|8,0:0|0:0,0:0:0:0:
463,240,148484,1,0,0:0:0:0:
303,189,148651,1,0,0:0:0:0:
404,356,148818,1,4,0:3:0:0:
427,135,148984,1,8,0:0:0:0:
229,268,149151,1,0,0:0:0:0:
378,265,149318,6,0,P|401:196|345:89,1,180,4|8,0:3|0:0,0:0:0:0:
97,42,149818,1,0,0:0:0:0:
303,189,149984,1,0,0:0:0:0:
113,162,150151,1,4,0:3:0:0:
321,16,150318,1,8,0:0:0:0:
214,146,150484,1,0,0:0:0:0:
71,35,150651,6,0,B|173:9|139:88|246:53,1,180,6|8,0:3|0:0,0:0:0:0:
103,112,151151,1,0,0:0:0:0:
257,214,151318,1,0,0:0:0:0:
44,259,151484,1,4,0:3:0:0:
202,137,151651,1,8,0:0:0:0:
239,364,151818,1,0,0:0:0:0:
142,227,151984,6,0,B|205:241|205:241|261:222|261:222|332:240,1,180,6|8,0:3|0:0,0:0:0:0:
437,341,152484,1,0,0:0:0:0:
261,322,152651,1,0,0:0:0:0:
428,198,152818,1,4,0:3:0:0:
291,41,152984,1,8,0:0:0:0:
341,265,153151,1,0,0:0:0:0:
358,97,153318,6,0,P|285:80|226:112,1,135,12|0,0:0|0:0,0:0:0:0:
205,190,153651,2,0,L|224:283,1,90,8|6,0:0|0:3,0:0:0:0:
108,224,153984,1,8,0:0:0:0:
309,172,154151,1,4,0:3:0:0:
117,94,154318,1,12,0:3:0:0:
229,304,154484,1,4,0:3:0:0:
5,244,154651,6,0,L|152:261,1,135,14|0,0:3|0:0,0:0:0:0:
192,180,154984,2,0,B|236:183|236:183|283:169,1,90,14|0,0:3|0:0,0:0:0:0:
310,344,155318,2,0,B|354:341|354:341|401:355,1,90,10|4,0:0|0:3,0:0:0:0:
421,98,155651,2,0,B|465:101|465:101|512:87,1,90,12|0,0:3|0:0,0:0:0:0:
376,203,155984,5,6,0:3:0:0:
243,17,156151,1,0,0:0:0:0:
485,202,156318,1,14,0:3:0:0:
206,320,156484,1,6,0:3:0:0:
206,320,156818,5,6,0:3:0:0:
296,136,156984,2,0,P|306:171|307:212,1,60,10|2,0:0|0:0,0:0:0:0:
286,281,157207,1,2,0:0:0:0:
206,320,157318,6,0,B|136:333|49:295|51:216|96:179|163:183|172:234,1,288,6|0,0:3|0:0,0:0:0:0:
170,226,158651,6,0,P|164:168|154:98,1,107.999996704102,2|0,0:0|0:0,0:0:0:0:
183,91,159151,1,0,0:0:0:0:
99,261,159318,2,0,P|133:298|202:295,1,107.999996704102,8|0,0:0|0:0,0:0:0:0:
469,198,159984,2,0,L|412:192,1,53.9999983520508,2|0,0:0|0:0,0:0:0:0:
351,243,160318,2,0,P|366:281|371:302,1,53.9999983520508
484,375,160651,1,10,0:0:0:0:
484,375,160818,2,0,P|464:335|445:267,1,107.999996704102
479,113,161318,6,0,P|464:65|406:56,1,107.999996704102,2|0,0:0|0:0,0:0:0:0:
395,80,161818,1,0,0:0:0:0:
245,22,161984,2,0,P|298:19|366:8,1,107.999996704102,8|0,0:0|0:0,0:0:0:0:
266,228,162651,2,0,P|268:254|276:291,1,53.9999983520508,2|0,0:0|0:0,0:0:0:0:
161,349,162984,2,0,P|173:318|179:295,1,53.9999983520508
83,274,163318,1,8,0:0:0:0:
83,274,163484,2,0,L|203:291,1,107.999996704102
327,363,163984,6,0,P|359:329|348:257,1,107.999996704102,2|0,0:0|0:0,0:0:0:0:
460,84,164651,2,0,L|474:216,1,107.999996704102,10|0,0:0|0:0,0:0:0:0:
471,191,165151,1,0,0:0:0:0:
372,152,165318,2,0,P|356:122|348:86,1,53.9999983520508,2|0,0:0|0:0,0:0:0:0:
267,16,165651,2,0,P|257:51|246:74,1,53.9999983520508
261,271,165984,1,8,0:0:0:0:
261,271,166151,2,0,B|283:240|283:240|271:145,1,107.999996704102
167,60,166651,6,0,B|59:74|129:111|23:129,1,161.999995056153,2|0,0:0|0:0,0:0:0:0:
106,277,167318,2,0,B|140:287|140:287|175:228|143:155,1,161.999995056153,8|0,0:0|0:0,0:0:0:0:
14,338,167984,2,0,P|63:349|139:376,1,107.999996704102,2|0,0:0|0:0,0:0:0:0:
223,283,168484,1,0,0:0:0:0:
289,342,168651,2,0,P|315:333|352:326,1,53.9999983520508,2|0,0:0|0:0,0:0:0:0:
395,185,168984,2,0,P|421:194|458:201,1,53.9999983520508,0|2,0:0|0:0,0:0:0:0:
505,315,169318,6,0,P|474:348|413:341,1,101.250003862381,12|0,0:0|0:0,0:0:0:0:
410,333,169651,2,0,L|419:258,1,67.5000025749208,2|0,0:0|0:0,0:0:0:0:
512,88,169984,2,0,L|503:163,1,67.5000025749208,8|0,0:0|0:0,0:0:0:0:
496,235,170318,1,2,0:0:0:0:
350,140,170484,2,0,P|317:128|277:118,1,67.5000025749208,2|0,0:0|0:0,0:0:0:0:
230,265,170818,5,0,0:0:0:0:
411,187,170984,1,4,0:3:0:0:
207,120,171151,1,2,0:0:0:0:
282,196,171318,2,0,P|270:234|261:278,1,67.5000025749208,8|0,0:0|0:0,0:0:0:0:
97,281,171651,2,0,P|109:319|118:363,1,67.5000025749208,0|2,0:0|0:0,0:0:0:0:
202,357,171984,6,0,L|181:216,2,135.000005149842,4|2|8,0:3|0:0|0:0,0:0:0:0:
225,364,172984,1,2,0:0:0:0:
78,238,173151,2,0,P|81:204|90:166,1,67.5000025749208,2|0,0:0|0:0,0:0:0:0:
160,16,173484,5,0,0:0:0:0:
185,209,173651,1,4,0:3:0:0:
43,112,173818,1,2,0:0:0:0:
169,122,173984,2,0,P|201:109|236:88,1,67.5000025749208,8|0,0:0|0:0,0:0:0:0:
325,175,174318,2,0,P|357:188|392:209,1,67.5000025749208,2|0,0:0|0:0,0:0:0:0:
496,58,174651,6,0,P|444:46|382:99,1,121.499996292114,12|0,0:0|0:0,0:0:0:0:
413,97,174984,2,0,L|424:178,1,80.9999975280763,8|0,0:0|0:0,0:0:0:0:
309,345,175318,2,0,P|315:293|324:256,1,80.9999975280763,10|4,0:0|0:3,0:0:0:0:
450,248,175651,1,10,0:0:0:0:
231,341,175818,1,4,0:3:0:0:
231,341,175901,1,0,0:0:0:0:
231,341,175984,6,0,L|85:317,1,121.499996292114,10|0,0:0|0:0,0:0:0:0:
67,243,176318,2,0,B|22:261|22:261|63:254,1,80.9999975280763,8|0,0:0|0:0,0:0:0:0:
265,168,176651,2,0,L|359:183,1,80.9999975280763,10|4,0:0|0:3,0:0:0:0:
152,55,176984,1,10,0:0:0:0:
194,275,177151,1,4,0:3:0:0:
194,275,177234,1,0,0:0:0:0:
194,275,177318,6,0,B|235:268|235:268|268:288|310:296|310:296|356:274,1,161.999995056153,14|10,0:3|0:0,0:0:0:0:
463,115,177818,2,0,B|440:69|440:69|383:52|325:115,1,161.999995056153,4|6,0:3|0:3,0:0:0:0:
304,195,178318,1,6,0:3:0:0:
417,357,178484,1,6,0:3:0:0:
452,135,178651,6,0,L|269:107,1,180,14|4,0:0|0:3,0:0:0:0:
197,155,179151,1,0,0:0:0:0:
197,155,179234,1,0,0:0:0:0:
197,155,179318,2,0,P|183:118|179:88,1,45,6|0,0:3|0:0,0:0:0:0:
68,278,179484,2,0,P|61:309|51:335,1,45,4|0,0:3|0:0,0:0:0:0:
253,306,179651,1,8,0:0:0:0:
238,278,179734,1,8,0:0:0:0:
209,264,179818,1,8,0:0:0:0:
177,264,179901,1,8,0:0:0:0:
50,347,180151,5,14,0:0:0:0:
94,161,180318,1,6,0:3:0:0:
247,344,180484,1,4,0:3:0:0:
47,259,180651,6,0,B|86:241|118:238|118:238|140:273|209:273,1,161.999995056153,12|0,0:0|0:0,0:0:0:0:
222,249,180984,1,4,0:3:0:0:
225,41,181151,5,12,0:0:0:0:
94,161,181318,1,2,0:0:0:0:
299,232,181484,1,4,0:3:0:0:
167,349,181651,5,14,0:0:0:0:
273,124,181818,1,2,0:0:0:0:
273,124,181901,1,0,0:0:0:0:
273,124,181984,1,14,0:3:0:0:
428,337,182151,6,0,P|400:331|366:319,1,53.9999983520508,4|0,0:3|0:0,0:0:0:0:
157,254,182318,2,0,P|185:246|218:232,1,53.9999983520508,6|4,0:3|0:3,0:0:0:0:
412,116,182484,2,0,P|398:149|390:180,1,53.9999983520508,4|4,0:3|0:3,0:0:0:0:
257,345,182651,6,0,B|269:279|244:213|244:213|266:245|309:268,1,215.999993408203,14|2,0:0|0:0,0:0:0:0:
305,265,183984,6,0,L|364:272,1,45,12|0,0:0|0:0,0:0:0:0:
177,357,184151,2,0,L|196:316,1,45
287,167,184318,6,0,L|356:177,1,53.9999983520508,6|0,0:3|0:0,0:0:0:0:
102,292,184484,2,0,L|125:243,1,53.9999983520508
273,70,184651,6,0,L|345:81,1,62.9999980773926,6|0,0:3|0:0,0:0:0:0:
28,225,184818,2,0,L|55:166,1,62.9999980773926
281,348,184984,1,0,0:0:0:0:
281,348,185318,6,0,P|246:322|126:335,1,161.999995056153,12|0,0:0|0:0,0:0:0:0:
149,229,185651,2,0,B|180:203|180:203|254:199,1,107.999996704102,12|0,0:3|0:0,0:0:0:0:
452,254,185984,1,2,0:0:0:0:
298,317,186151,1,4,0:3:0:0:
341,117,186318,2,0,P|351:175|370:240,1,107.999996704102,12|0,0:3|0:0,0:0:0:0:
480,341,186651,5,6,0:3:0:0:
288,289,186818,1,0,0:0:0:0:
454,156,186984,1,14,0:3:0:0:
252,64,187151,1,0,0:0:0:0:
252,64,187234,1,0,0:0:0:0:
252,64,187318,2,0,B|238:117|238:117|256:175,1,107.999996704102,2|4,0:0|0:3,0:0:0:0:
358,270,187651,2,0,B|326:252|281:264|281:264|236:277|202:252,1,161.999995056153,12|0,0:3|0:0,0:0:0:0:
111,194,187984,6,0,B|133:131|133:131|150:175,1,107.999996704102,14|0,0:0|0:0,0:0:0:0:
318,350,188318,2,0,P|353:298|314:201,1,161.999995056153,12|0,0:3|0:0,0:0:0:0:
293,192,188651,1,2,0:3:0:0:
212,367,188818,1,4,0:3:0:0:
58,278,188984,2,0,B|196:265,1,107.999996704102,12|0,0:3|0:0,0:0:0:0:
419,100,189318,6,0,L|295:86,1,107.999996704102,6|0,0:3|0:0,0:0:0:0:
107,162,189651,1,12,0:3:0:0:
294,316,189818,1,0,0:0:0:0:
294,316,189901,1,0,0:0:0:0:
294,316,189984,2,0,P|290:258|269:188,1,107.999996704102,2|4,0:3|0:3,0:0:0:0:
121,30,190318,1,12,0:3:0:0:
177,283,190484,1,0,0:0:0:0:
396,143,190651,6,0,B|399:110|399:110|357:56|277:72,1,161.999995056153,6|0,0:3|0:0,0:0:0:0:
201,132,190984,2,0,P|257:167|324:162,1,107.999996704102,12|0,0:3|0:0,0:0:0:0:
474,35,191318,1,2,0:0:0:0:
283,70,191484,1,4,0:3:0:0:
491,202,191651,1,12,0:3:0:0:
266,264,191818,5,0,0:0:0:0:
266,264,191901,1,0,0:0:0:0:
266,264,191984,2,0,B|190:257|190:257|141:217|141:217|61:209,1,215.999993408203,6|12,0:3|0:3,0:0:0:0:
238,158,192484,2,0,P|291:150|348:133,1,107.999996704102,0|2,0:0|0:0,0:0:0:0:
134,113,192818,1,4,0:3:0:0:
266,264,192984,2,0,P|292:308|320:380,1,107.999996704102,12|0,0:3|0:0,0:0:0:0:
153,267,193318,5,12,0:0:0:0:
331,169,193484,1,0,0:0:0:0:
189,41,193651,2,0,P|169:100|137:155,1,107.999996704102,12|0,0:3|0:0,0:0:0:0:
379,291,193984,2,0,L|363:178,1,107.999996704102,2|4,0:0|0:3,0:0:0:0:
349,110,194234,1,0,0:0:0:0:
346,91,194318,1,12,0:3:0:0:
244,313,194484,6,0,P|300:295|359:286,1,107.999996704102,2|4,0:0|0:3,0:0:0:0:
478,161,194818,1,2,0:0:0:0:
269,195,194984,1,12,0:3:0:0:
468,345,195151,2,0,P|449:301|432:237,1,107.999996704102
271,82,195484,1,4,0:3:0:0:
388,32,195651,2,0,B|411:64|411:64|408:128|362:179,1,161.999995056153,12|0,0:3|0:0,0:0:0:0:
269,195,195984,6,0,L|153:166,1,107.999996704102,6|0,0:3|0:0,0:0:0:0:
356,294,196318,2,0,L|242:325,1,107.999996704102,12|0,0:3|0:0,0:0:0:0:
462,211,196651,1,2,0:0:0:0:
314,79,196818,1,4,0:3:0:0:
381,285,196984,1,12,0:3:0:0:
448,88,197151,6,0,P|400:79|328:73,1,107.999996704102,2|4,0:0|0:3,0:0:0:0:
261,242,197484,1,2,0:0:0:0:
89,166,197651,2,0,L|199:149,1,107.999996704102,12|2,0:3|0:0,0:0:0:0:
346,346,197984,1,0,0:0:0:0:
161,253,198151,1,4,0:3:0:0:
335,157,198318,1,12,0:3:0:0:
197,357,198484,1,0,0:0:0:0:
15,221,198651,6,0,B|-4:174|-4:174|32:59,1,161.999995056153,12|0,0:0|0:0,0:0:0:0:
119,16,198984,2,0,P|138:61|148:123,1,107.999996704102,14|2,0:3|0:0,0:0:0:0:
124,285,199318,1,0,0:0:0:0:
122,114,199484,1,4,0:3:0:0:
287,41,199651,2,0,P|343:36|403:37,1,107.999996704102,14|0,0:3|0:0,0:0:0:0:
475,84,199901,1,0,0:0:0:0:
475,84,199984,6,0,P|428:75|368:52,1,107.999996704102,4|2,0:3|0:0,0:0:0:0:
326,232,200318,1,12,0:3:0:0:
169,154,200484,2,0,P|219:138|285:131,1,107.999996704102,0|2,0:0|0:0,0:0:0:0:
482,254,200818,1,4,0:3:0:0:
281,360,200984,2,0,L|296:227,1,107.999996704102,12|0,0:3|0:0,0:0:0:0:
304,159,201234,1,0,0:0:0:0:
304,159,201318,6,0,B|252:164|252:164|212:194|212:194|150:199,1,161.999995056153,6|0,0:3|0:0,0:0:0:0:
48,166,201651,2,0,B|14:152|14:152|78:122,1,107.999996704102,12|0,0:3|0:0,0:0:0:0:
268,39,201984,1,2,0:0:0:0:
206,282,202151,1,4,0:3:0:0:
410,178,202318,2,0,L|279:154,1,107.999996704102,12|0,0:3|0:0,0:0:0:0:
224,109,202568,1,0,0:0:0:0:
224,109,202651,6,0,P|219:56|206:-7,1,107.999996704102,6|0,0:3|0:0,0:0:0:0:
307,275,202984,2,0,P|287:332|272:385,1,107.999996704102,12|0,0:3|0:0,0:0:0:0:
188,212,203318,1,12,0:3:0:0:
318,44,203484,1,12,0:3:0:0:
84,30,203651,1,12,0:3:0:0:
102,68,203734,1,12,0:3:0:0:
136,93,203818,1,12,0:3:0:0:
177,105,203901,1,12,0:3:0:0:
219,98,203984,6,0,B|283:68|353:75|353:75|336:90|326:108,1,168.75,12|0,0:0|0:0,0:0:0:0:
354,190,204318,2,0,B|365:212|371:236|371:236|386:207|389:174,1,112.5,12|0,0:3|0:0,0:0:0:0:
259,249,204651,1,2,0:0:0:0:
473,333,204818,1,4,0:3:0:0:
296,357,204984,1,12,0:3:0:0:
478,223,205151,1,0,0:0:0:0:
478,223,205234,1,0,0:0:0:0:
478,223,205318,5,6,0:3:0:0:
252,96,205484,1,0,0:0:0:0:
359,292,205651,1,12,0:3:0:0:
366,32,205818,1,0,0:0:0:0:
176,184,205984,2,0,P|236:193|290:207,1,112.5,2|4,0:0|0:3,0:0:0:0:
481,63,206318,1,12,0:3:0:0:
429,249,206484,1,0,0:0:0:0:
404,211,206568,1,0,0:0:0:0:
402,166,206651,6,0,P|373:108|272:88,1,168.75,6|0,0:3|0:0,0:0:0:0:
202,149,206984,2,0,P|251:177|307:179,1,112.5,14|0,0:3|0:0,0:0:0:0:
201,27,207318,1,2,0:0:0:0:
246,265,207484,1,4,0:3:0:0:
40,192,207651,2,0,B|22:141|22:141|48:80,1,112.5,12|0,0:3|0:0,0:0:0:0:
114,146,207901,1,0,0:0:0:0:
114,146,207984,5,6,0:3:0:0:
26,329,208151,1,0,0:0:0:0:
257,298,208318,1,14,0:3:0:0:
51,224,208484,1,0,0:0:0:0:
51,224,208568,1,0,0:0:0:0:
51,224,208651,2,0,L|181:250,1,112.5,2|4,0:0|0:3,0:0:0:0:
410,228,208984,2,0,B|363:237|329:212|329:212|296:187|250:191,1,168.75,12|0,0:3|0:0,0:0:0:0:
175,99,209318,6,0,P|208:147|229:211,1,112.5,14|0,0:0|0:0,0:0:0:0:
187,367,209651,1,12,0:3:0:0:
397,329,209818,1,0,0:0:0:0:
397,329,209901,1,0,0:0:0:0:
397,329,209984,2,0,L|262:303,1,112.5,2|4,0:0|0:3,0:0:0:0:
84,204,210318,2,0,B|130:227|130:227|256:175,1,168.75,12|0,0:3|0:0,0:0:0:0:
254,147,210651,5,6,0:3:0:0:
38,98,210818,1,0,0:0:0:0:
196,306,210984,1,14,0:3:0:0:
373,110,211151,1,0,0:0:0:0:
353,69,211234,1,0,0:0:0:0:
318,39,211318,1,2,0:0:0:0:
136,197,211484,1,4,0:3:0:0:
381,233,211651,2,0,P|386:175|414:55,1,168.75,12|0,0:3|0:0,0:0:0:0:
300,18,211984,6,0,P|293:67|279:130,1,112.5,6|0,0:3|0:0,0:0:0:0:
150,344,212318,1,12,0:3:0:0:
33,220,212484,2,0,B|93:230|93:230|134:213|134:213|204:224,1,168.75
254,297,212818,2,0,L|262:363,1,56.25,4|0,0:3|0:0,0:0:0:0:
330,245,212984,2,0,L|343:182,1,56.25,12|0,0:3|0:0,0:0:0:0:
407,300,213151,1,0,0:0:0:0:
273,114,213318,6,0,L|248:4,1,112.5,6|0,0:3|0:0,0:0:0:0:
196,222,213651,1,12,0:3:0:0:
428,212,213818,2,0,P|478:165|453:71,1,168.75
353,60,214151,2,0,P|358:98|368:132,1,56.25,4|0,0:3|0:0,0:0:0:0:
396,295,214318,2,0,P|345:272|263:260,1,112.5,14|0,0:3|0:0,0:0:0:0:
133,370,214651,6,0,L|160:254,1,112.5,12|0,0:0|0:0,0:0:0:0:
23,106,214984,2,0,L|49:227,1,112.5,12|0,0:3|0:0,0:0:0:0:
258,351,215318,1,2,0:0:0:0:
151,140,215484,1,4,0:3:0:0:
151,140,215568,1,0,0:0:0:0:
151,140,215651,1,12,0:3:0:0:
364,18,215818,6,0,B|375:73|375:73|350:140,1,112.5,2|6,0:0|0:3,0:0:0:0:
197,235,216151,1,2,0:0:0:0:
275,63,216318,1,12,0:3:0:0:
361,300,216484,1,0,0:0:0:0:
96,279,216651,5,2,0:0:0:0:
355,125,216818,1,4,0:3:0:0:
137,150,216984,1,12,0:3:0:0:
295,233,217151,1,0,0:0:0:0:
215,44,217318,6,0,P|227:104|233:170,1,112.5,6|0,0:3|0:0,0:0:0:0:
379,310,217651,2,0,P|383:265|398:190,1,112.5,12|0,0:3|0:0,0:0:0:0:
327,85,217984,1,2,0:0:0:0:
205,238,218151,1,4,0:3:0:0:
130,33,218318,1,12,0:3:0:0:
6,174,218484,6,0,L|179:144,1,168.75,2|0,0:0|0:0,0:0:0:0:
199,119,218818,1,0,0:0:0:0:
101,350,218984,1,12,0:3:0:0:
306,190,219151,1,0,0:0:0:0:
358,376,219318,1,2,0:0:0:0:
197,246,219484,1,4,0:3:0:0:
197,246,219568,1,0,0:0:0:0:
197,246,219651,1,12,0:3:0:0:
398,259,219818,1,0,0:0:0:0:
305,75,219984,6,0,B|284:57|251:49|251:49|204:87|149:88,1,168.75,12|0,0:0|0:0,0:0:0:0:
53,62,220318,2,0,B|37:80|9:90|9:90|36:101|61:126,1,112.5,12|0,0:3|0:0,0:0:0:0:
304,218,220651,2,0,P|318:257|268:320,1,112.5,2|6,0:0|0:3,0:0:0:0:
166,127,220984,2,0,L|178:59,1,56.25,12|0,0:3|0:0,0:0:0:0:
257,117,221151,1,2,0:0:0:0:
45,229,221318,5,4,0:3:0:0:
220,250,221484,1,2,0:0:0:0:
66,103,221651,1,12,0:3:0:0:
127,295,221818,5,2,0:0:0:0:
269,91,221984,1,2,0:0:0:0:
296,360,222151,1,4,0:3:0:0:
363,192,222318,6,0,B|330:173|330:173|242:194,1,112.5,12|0,0:3|0:0,0:0:0:0:
203,258,222568,1,0,0:0:0:0:
203,258,222651,6,0,L|222:137,1,103.500001974106,6|0,0:3|0:0,0:0:0:0:
414,343,222984,2,0,P|400:281|392:181,1,155.250002961159,12|0,0:3|0:0,0:0:0:0:
399,156,223318,1,2,0:0:0:0:
301,305,223484,1,4,0:3:0:0:
119,248,223651,2,0,P|98:189|95:133,1,103.500001974106,12|0,0:3|0:0,0:0:0:0:
303,7,223984,6,0,B|337:30|337:30|334:93|274:120,1,155.250002961159,6|0,0:3|0:0,0:0:0:0:
219,196,224318,2,0,P|184:141|185:90,1,103.500001974106,12|0,0:0|0:0,0:0:0:0:
214,33,224568,1,0,0:0:0:0:
224,14,224651,5,6,0:3:0:0:
324,132,224818,1,6,0:3:0:0:
258,272,224984,1,12,0:3:0:0:
103,289,225151,1,0,0:0:0:0:
9,164,225318,6,0,B|74:157|74:157|98:169|98:169|165:164,1,155.250002961159,4|0,0:0|0:0,0:0:0:0:
196,147,225651,5,4,0:3:0:0:
295,277,225818,1,0,0:0:0:0:
276,86,225984,5,4,0:3:0:0:
226,338,226151,1,0,0:0:0:0:
123,89,226318,5,4,0:3:0:0:
381,254,226484,1,0,0:0:0:0:
71,313,226651,5,6,0:3:0:0:
274,49,226818,1,6,0:3:0:0:
401,355,226984,1,6,0:3:0:0:
401,355,227318,6,0,P|413:322|428:292,1,56.25,8|8,0:0|0:0,0:0:0:0:
288,245,227484,2,0,P|310:271|329:299,1,56.25,8|8,0:0|0:0,0:0:0:0:
443,203,227651,2,0,P|408:209|374:211,1,56.25,8|8,0:0|0:0,0:0:0:0:
230,331,227818,1,8,0:0:0:0:
230,331,227901,1,8,0:0:0:0:
230,331,227984,5,12,0:0:0:0:
311,157,228151,1,8,0:2:0:0:
76,200,228318,1,12,0:0:0:0:
205,312,228484,2,0,B|191:248|191:248|208:222|208:222|188:125,1,180,10|10,3:2|0:2,0:0:0:0:
353,19,228984,1,14,0:0:0:0:
311,157,229151,1,10,0:2:0:0:
211,0,229318,6,0,P|238:55|245:86,1,90,6|10,0:0|0:2,0:0:0:0:
104,120,229651,1,14,0:0:0:0:
280,264,229818,2,0,B|379:260|341:210|451:202,1,180,10|10,0:2|0:2,0:0:0:0:
504,345,230318,2,0,B|448:335|448:335|499:355,1,90,14|10,0:0|0:2,0:0:0:0:
312,236,230651,6,0,L|300:124,1,90,6|8,0:0|0:2,0:0:0:0:
243,89,230901,1,0,0:0:0:0:
243,89,230984,1,14,0:0:0:0:
413,37,231151,2,0,P|389:92|381:134,1,90,10|4,0:2|0:0,0:0:0:0:
251,338,231484,1,10,0:2:0:0:
207,190,231651,1,14,0:0:0:0:
228,359,231818,1,10,0:2:0:0:
377,275,231984,6,0,P|319:263|275:245,1,90,6|8,0:0|0:2,0:0:0:0:
34,245,232318,2,0,P|80:213|110:184,1,90,14|8,0:0|0:2,0:0:0:0:
179,11,232651,1,6,0:0:0:0:
179,11,232734,2,0,B|162:31|162:31|176:104,1,90,12|0,0:0|0:0,0:0:0:0:
238,205,232984,2,0,L|243:128,1,45,12|0,0:0|0:0,0:0:0:0:
282,52,233151,1,12,0:2:0:0:
307,68,233234,1,4,0:0:0:0:
323,95,233318,5,12,0:0:0:0:
126,233,233484,1,10,0:2:0:0:
91,53,233651,1,14,0:0:0:0:
238,205,233818,2,0,L|39:185,1,180,10|10,0:2|0:2,0:0:0:0:
238,327,234318,2,0,B|214:330|187:318|187:318|207:330|218:348,1,90,14|10,0:0|0:2,0:0:0:0:
189,102,234651,5,6,0:0:0:0:
56,331,234818,1,10,0:2:0:0:
231,247,234984,1,14,0:0:0:0:
35,285,235151,2,0,P|109:299|189:370,1,180,10|10,0:2|0:2,0:0:0:0:
378,289,235651,2,0,B|327:296|327:296|316:314|287:332,1,90,14|10,0:0|0:2,0:0:0:0:
128,175,235984,5,12,0:0:0:0:
249,38,236151,1,0,0:0:0:0:
330,203,236318,1,2,0:0:0:0:
330,203,236401,1,0,0:0:0:0:
330,203,236484,2,0,P|286:177|228:161,1,90,6|0,0:0|0:0,0:0:0:0:
72,291,236818,1,4,0:0:0:0:
128,66,236984,1,6,0:0:0:0:
268,260,237151,1,12,0:0:0:0:
256,192,237234,12,4,238567,0:0:0:0:
