osu file format v14

[General]
AudioFilename: audio.mp3
AudioLeadIn: 0
PreviewTime: 182651
Countdown: 0
SampleSet: Soft
StackLeniency: 0.7
Mode: 0
LetterboxInBreaks: 0
WidescreenStoryboard: 0

[Editor]
Bookmarks: 19990,35989,46656,55406,57323,67990,78656,99990,118656,137323,147989,158656,182656,203989,227989
DistanceSpacing: 1.1
BeatDivisor: 4
GridSize: 32
TimelineZoom: 4.499998

[Metadata]
Title:Ano Yume o Nazotte
TitleUnicode:あの夢をなぞって
Artist:YOASOBI
ArtistUnicode:YOASOBI
Creator:Flask
Version:Summer Night, You, Two Silhouettes Side-by-side
Source:
Tags:Lilas Ikuta ikura 幾田りら ayase japanese pop jpop j-pop tracing that dream captin1 jonathanlfj Miyohashikoori
BeatmapID:2342037
BeatmapSetID:1120850

[Difficulty]
HPDrainRate:5
CircleSize:4.2
OverallDifficulty:8.8
ApproachRate:9.3
SliderMultiplier:1.8
SliderTickRate:1

[Events]
//Background and Video events
0,0,"wallhaven-96zxlk.jpg",0,0
Video,0,"VD.avi"
//Break Periods
2,158851,168097
//Storyboard Layer 0 (Background)
//Storyboard Layer 1 (Fail)
//Storyboard Layer 2 (Pass)
//Storyboard Layer 3 (Foreground)
//Storyboard Layer 4 (Overlay)
//Storyboard Sound Samples

[TimingPoints]
-15,333.333333333333,4,2,1,40,1,0
1318,-200,4,2,1,40,0,0
9318,-133.333333333333,4,2,1,40,0,0
11984,-166.666666666667,4,2,1,40,0,0
16651,-200,4,2,1,40,0,0
19984,-133.333333333333,4,2,55,50,0,0
22484,-76.9230769230769,4,2,2,60,0,0
22568,-76.9230769230769,4,2,1,60,0,0
22984,-100,4,2,1,60,0,0
23318,-76.9230769230769,4,2,1,60,0,0
23484,-66.6666666666667,4,2,1,60,0,0
23651,-58.8235294117647,4,2,1,60,0,0
23818,-100,4,2,55,60,0,0
23859,-100,4,2,55,5,0,0
24151,-66.6666666666667,4,2,55,60,0,0
24193,-66.6666666666667,4,2,55,5,0,0
24484,-50,4,2,55,60,0,0
24526,-50,4,2,55,5,0,0
24818,-50,4,2,1,60,0,0
25151,-83.3333333333333,4,2,2,60,0,0
25234,-83.3333333333333,4,3,1,60,0,0
25818,-71.4285714285714,4,3,1,60,0,0
26484,-83.3333333333333,4,3,1,60,0,0
27151,-100,4,3,1,60,0,0
27651,-71.4285714285714,4,3,1,60,0,0
28484,-76.9230769230769,4,3,1,60,0,0
29318,-100,4,3,1,60,0,0
29651,-83.3333333333333,4,3,1,60,0,0
30068,-66.6666666666667,4,3,1,60,0,0
30651,-100,4,2,2,60,0,0
30734,-100,4,3,1,60,0,0
31151,-76.9230769230769,4,3,1,60,0,0
31984,-125,4,3,1,60,0,0
32484,-76.9230769230769,4,3,1,60,0,0
33818,-83.3333333333333,4,3,1,60,0,0
34318,-71.4285714285714,4,3,1,60,0,0
34651,-125,4,2,2,60,0,0
34734,-125,4,3,1,60,0,0
35984,-125,4,2,2,45,0,0
41318,-125,4,2,1,45,0,0
41401,-125,4,2,2,45,0,0
46318,-66.6666666666667,4,2,55,45,0,0
46651,-100,4,2,2,60,0,0
46734,-100,4,2,55,60,0,0
54318,-66.6666666666667,4,2,55,60,0,0
54651,-66.6666666666667,4,2,2,60,0,0
54734,-66.6666666666667,4,2,55,60,0,0
55818,-66.6666666666667,4,2,2,60,0,0
55901,-66.6666666666667,4,2,55,60,0,0
57318,-125,4,2,2,45,0,0
57359,-125,4,2,55,45,0,0
67318,-100,4,2,55,45,0,0
67984,-100,4,2,2,60,0,0
68068,-100,4,2,55,60,0,0
73318,-83.3333333333333,4,2,2,60,0,0
73401,-83.3333333333333,4,2,55,60,0,0
76484,-66.6666666666667,4,2,55,60,0,0
77151,-58.8235294117647,4,2,55,60,0,0
77318,-58.8235294117647,4,2,2,60,0,0
77401,-58.8235294117647,4,2,55,60,0,0
78651,-83.3333333333333,4,2,2,80,0,1
78734,-83.3333333333333,4,2,55,80,0,1
79151,-125,4,2,55,80,0,1
79651,-83.3333333333333,4,2,55,80,0,1
83984,-83.3333333333333,4,2,2,80,0,1
84068,-83.3333333333333,4,2,55,80,0,1
86651,-66.6666666666667,4,2,55,80,0,1
86984,-100,4,2,55,80,0,1
87651,-83.3333333333333,4,2,55,80,0,1
88984,-66.6666666666667,4,2,55,80,0,1
89234,-66.6666666666667,4,2,55,5,0,1
89318,-83.3333333333333,4,2,2,80,0,1
89401,-83.3333333333333,4,2,55,80,0,1
89568,-83.3333333333333,4,2,55,5,0,1
89651,-83.3333333333333,4,2,55,80,0,1
89901,-83.3333333333333,4,2,55,5,0,1
89984,-83.3333333333333,4,2,55,80,0,1
90234,-83.3333333333333,4,2,55,5,0,1
90318,-83.3333333333333,4,2,55,80,0,1
91901,-83.3333333333333,4,2,55,5,0,1
91984,-83.3333333333333,4,2,55,80,0,1
92234,-83.3333333333333,4,2,55,5,0,1
92318,-83.3333333333333,4,2,55,80,0,1
92568,-83.3333333333333,4,2,55,5,0,1
92651,-83.3333333333333,4,2,55,80,0,1
92901,-83.3333333333333,4,2,55,5,0,1
92984,-83.3333333333333,4,2,55,80,0,1
94318,-71.4285714285714,4,2,55,80,0,1
94651,-83.3333333333333,4,2,2,80,0,1
94734,-83.3333333333333,4,2,55,80,0,1
95651,-76.9230769230769,4,2,55,80,0,1
96151,-71.4285714285714,4,2,55,80,0,1
97318,-66.6666666666667,4,2,55,80,0,1
99984,-83.3333333333333,4,2,2,80,0,1
100068,-83.3333333333333,4,2,55,80,0,1
105318,-83.3333333333333,4,2,2,80,0,1
105401,-83.3333333333333,4,2,55,80,0,1
107984,-66.6666666666667,4,2,55,80,0,1
108318,-100,4,2,55,80,0,1
108984,-83.3333333333333,4,2,55,80,0,1
110318,-66.6666666666667,4,2,55,80,0,1
110568,-66.6666666666667,4,2,55,5,0,1
110651,-83.3333333333333,4,2,2,80,0,1
110734,-83.3333333333333,4,2,55,80,0,1
110901,-83.3333333333333,4,2,55,5,0,1
110984,-83.3333333333333,4,2,55,80,0,1
111234,-83.3333333333333,4,2,55,5,0,1
111318,-83.3333333333333,4,2,55,80,0,1
111568,-83.3333333333333,4,2,55,5,0,1
111651,-83.3333333333333,4,2,55,80,0,1
113568,-83.3333333333333,4,2,55,5,0,1
113651,-83.3333333333333,4,2,55,80,0,1
113901,-83.3333333333333,4,2,55,5,0,1
113984,-83.3333333333333,4,2,55,80,0,1
114234,-83.3333333333333,4,2,55,5,0,1
114318,-83.3333333333333,4,2,55,80,0,1
115984,-83.3333333333333,4,2,2,80,0,1
116068,-83.3333333333333,4,2,55,80,0,1
117318,-71.4285714285714,4,2,2,80,0,1
117401,-71.4285714285714,4,2,55,80,0,1
118651,-83.3333333333333,4,2,2,70,0,0
118734,-83.3333333333333,4,2,55,70,0,0
119151,-66.6666666666667,4,2,55,70,0,0
119651,-83.3333333333333,4,2,55,70,0,0
119818,-71.4285714285714,4,2,55,70,0,0
121318,-52.6315789473684,4,2,55,70,0,0
121651,-83.3333333333333,4,2,55,70,0,0
122318,-71.4285714285714,4,2,55,70,0,0
123984,-83.3333333333333,4,2,2,70,0,0
124068,-83.3333333333333,4,2,55,70,0,0
126651,-71.4285714285714,4,2,55,70,0,0
128818,-71.4285714285714,4,2,55,70,0,0
128984,-55.5555555555556,4,2,55,70,0,0
129318,-83.3333333333333,4,2,2,70,0,0
129401,-83.3333333333333,4,2,55,70,0,0
130484,-71.4285714285714,4,2,55,70,0,0
131318,-83.3333333333333,4,2,55,70,0,0
131651,-62.5,4,2,55,70,0,0
131984,-83.3333333333333,4,2,55,70,0,0
133151,-66.6666666666667,4,2,55,70,0,0
133818,-62.5,4,2,55,70,0,0
134318,-66.6666666666667,4,2,55,70,0,0
134484,-71.4285714285714,4,2,55,70,0,0
134651,-83.3333333333333,4,2,2,70,0,0
134734,-83.3333333333333,4,2,55,70,0,0
137318,-125,4,2,2,50,0,0
137401,-125,4,2,55,50,0,0
147984,-100,4,2,2,60,0,0
148068,-100,4,2,55,60,0,0
153318,-83.3333333333333,4,2,2,60,0,0
153401,-83.3333333333333,4,2,55,60,0,0
155984,-71.4285714285714,4,2,55,60,0,0
157318,-133.333333333333,4,2,55,60,0,0
168651,-333.333333333333,4,2,55,50,0,0
169318,-333.333333333333,4,2,2,50,0,0
169401,-333.333333333333,4,2,55,50,0,0
174651,-100,4,2,2,60,0,0
174734,-100,4,2,55,60,0,0
177318,-83.3333333333333,4,2,55,60,0,0
178151,-100,4,2,55,60,0,0
178318,-83.3333333333333,4,2,55,60,0,0
178484,-71.4285714285714,4,2,55,60,0,0
178651,-62.5,4,2,2,60,0,0
178734,-62.5,4,2,55,60,0,0
180151,-76.9230769230769,4,2,3,60,0,0
180234,-76.9230769230769,4,2,55,60,0,0
180651,-76.9230769230769,4,2,3,60,0,0
180734,-76.9230769230769,4,2,55,60,0,0
181151,-76.9230769230769,4,2,3,60,0,0
181234,-76.9230769230769,4,2,55,60,0,0
181651,-76.9230769230769,4,2,3,60,0,0
181734,-76.9230769230769,4,2,55,60,0,0
181984,-66.6666666666667,4,2,3,60,0,0
182026,-66.6666666666667,4,2,55,60,0,0
182651,-133.333333333333,4,2,2,60,0,0
182734,-76.9230769230769,4,2,55,60,0,0
183984,-76.9230769230769,4,2,2,60,0,0
184067,-76.9230769230769,4,2,55,60,0,0
185318,-83.3333333333333,4,2,2,80,0,1
185401,-83.3333333333333,4,2,55,80,0,1
187984,-83.3333333333333,4,2,2,80,0,1
188067,-83.3333333333333,4,2,55,80,0,1
190651,-66.6666666666667,4,2,55,80,0,1
191651,-83.3333333333333,4,2,55,80,0,1
192984,-66.6666666666667,4,2,55,80,0,1
193234,-66.6666666666667,4,2,55,5,0,1
193318,-83.3333333333333,4,2,2,80,0,1
193401,-83.3333333333333,4,2,55,80,0,1
193568,-83.3333333333333,4,2,55,5,0,1
193651,-83.3333333333333,4,2,55,80,0,1
193901,-83.3333333333333,4,2,55,5,0,1
193984,-83.3333333333333,4,2,55,80,0,1
194234,-83.3333333333333,4,2,55,5,0,1
194318,-83.3333333333333,4,2,55,80,0,1
196234,-83.3333333333333,4,2,55,5,0,1
196318,-83.3333333333333,4,2,55,80,0,1
196568,-83.3333333333333,4,2,55,5,0,1
196651,-83.3333333333333,4,2,55,80,0,1
196901,-83.3333333333333,4,2,55,5,0,1
196984,-83.3333333333333,4,2,55,80,0,1
198651,-83.3333333333333,4,2,2,80,0,1
198734,-83.3333333333333,4,2,55,80,0,1
199651,-76.9230769230769,4,2,55,80,0,1
200151,-71.4285714285714,4,2,55,80,0,1
201318,-66.6666666666667,4,2,55,80,0,1
203318,-83.3333333333333,4,2,55,80,0,1
203984,-83.3333333333333,4,2,2,80,0,1
204068,-83.3333333333333,4,2,55,80,0,1
209318,-83.3333333333333,4,2,2,80,0,1
209401,-83.3333333333333,4,2,55,80,0,1
211984,-66.6666666666667,4,2,55,80,0,1
212651,-83.3333333333333,4,2,55,80,0,1
214318,-66.6666666666667,4,2,55,80,0,1
214568,-66.6666666666667,4,2,55,5,0,1
214651,-83.3333333333333,4,2,2,80,0,1
214734,-83.3333333333333,4,2,55,80,0,1
214901,-83.3333333333333,4,2,55,5,0,1
214984,-83.3333333333333,4,2,55,80,0,1
215234,-83.3333333333333,4,2,55,5,0,1
215318,-83.3333333333333,4,2,55,80,0,1
215568,-83.3333333333333,4,2,55,5,0,1
215651,-83.3333333333333,4,2,55,80,0,1
217568,-83.3333333333333,4,2,55,5,0,1
217651,-83.3333333333333,4,2,55,80,0,1
217901,-83.3333333333333,4,2,55,5,0,1
217984,-83.3333333333333,4,2,55,80,0,1
218234,-83.3333333333333,4,2,55,5,0,1
218318,-83.3333333333333,4,2,55,80,0,1
219984,-83.3333333333333,4,2,2,80,0,1
220067,-83.3333333333333,4,2,55,80,0,1
224318,-66.6666666666667,4,2,3,80,0,1
224401,-66.6666666666667,4,2,55,80,0,1
224651,-83.3333333333333,4,2,55,80,0,1
225318,-83.3333333333333,4,2,2,80,0,1
225359,-83.3333333333333,4,2,55,80,0,1
227984,-83.3333333333333,4,2,2,60,0,0
228068,-83.3333333333333,4,3,1,60,0,0
228484,-71.4285714285714,4,3,1,60,0,0
228984,-83.3333333333333,4,3,1,60,0,0
231151,-71.4285714285714,4,3,1,60,0,0
231651,-83.3333333333333,4,3,1,60,0,0
232318,-71.4285714285714,4,3,1,60,0,0
232734,-62.5,4,3,1,60,0,0
233318,-83.3333333333333,4,2,2,60,0,0
233401,-83.3333333333333,4,3,1,60,0,0
233818,-71.4285714285714,4,3,1,60,0,0
234318,-83.3333333333333,4,3,1,60,0,0
235151,-71.4285714285714,4,3,1,60,0,0
235651,-83.3333333333333,4,3,1,60,0,0
235984,-83.3333333333333,4,2,2,60,0,0
236067,-83.3333333333333,4,3,1,60,0,0
237151,-83.3333333333333,4,2,2,60,0,0
237234,-83.3333333333333,4,3,1,60,0,0

[Colours]
Combo1 : 255,255,136
Combo2 : 153,51,255
Combo3 : 255,255,79
Combo4 : 128,0,255

[HitObjects]
87,85,1318,5,0,0:0:0:0:
162,123,1651,1,0,0:0:0:0:
90,95,1984,1,0,0:0:0:0:
249,67,2318,5,2,0:0:0:0:
235,239,2651,2,0,B|219:214|218:183|218:183|209:203|192:214,1,90
70,344,3318,1,2,0:0:0:0:
170,359,3651,1,0,0:0:0:0:
316,286,3984,5,0,0:0:0:0:
330,288,4484,1,0,0:0:0:0:
376,347,4651,2,0,P|379:304|390:255,1,90,2|0,0:0|0:0,0:0:0:0:
372,186,5151,1,0,0:0:0:0:
502,297,5318,1,0,0:0:0:0:
502,297,5984,5,0,0:0:0:0:
466,226,6318,1,0,0:0:0:0:
486,312,6651,1,0,0:0:0:0:
469,140,6984,5,2,0:0:0:0:
376,217,7318,1,0,0:0:0:0:
218,85,7651,1,0,0:0:0:0:
171,192,7984,6,0,P|169:160|165:192,1,90,2|0,0:0|0:0,0:0:0:0:
174,198,8984,1,0,0:0:0:0:
206,264,9151,1,0,0:0:0:0:
278,271,9318,6,0,B|194:266|244:315|134:298,1,135.000005149842,2|0,0:0|0:0,0:0:0:0:
20,366,9984,2,0,B|52:351|75:303|53:274|53:274|51:289|37:302,1,135.000005149842
42,296,10651,6,0,B|24:189|24:189|37:202|66:203,1,135.000005149842,2|0,0:0|0:0,0:0:0:0:
114,165,11151,1,0,0:0:0:0:
41,111,11318,1,0,0:0:0:0:
259,197,11984,6,0,P|261:146|219:102,1,107.999996704102,0|2,0:0|0:0,0:0:0:0:
159,62,12651,1,0,0:0:0:0:
372,20,12984,1,2,0:0:0:0:
446,115,13318,5,0,0:0:0:0:
290,72,13651,1,0,0:0:0:0:
334,147,13984,1,0,0:0:0:0:
259,256,14318,1,0,0:0:0:0:
395,355,14651,6,0,B|411:316|411:316|392:246,1,107.999996704102,2|0,0:0|0:0,0:0:0:0:
434,194,15318,1,0,0:0:0:0:
314,324,15651,1,0,0:0:0:0:
150,328,15984,2,0,P|126:272|126:152,1,161.999995056153,2|0,0:0|0:0,0:0:0:0:
121,172,16651,5,2,0:0:0:0:
212,220,16984,1,0,0:0:0:0:
246,300,17318,1,0,0:0:0:0:
312,113,17651,5,0,0:0:0:0:
312,113,17818,1,0,0:0:0:0:
475,368,18151,5,0,0:0:0:0:
417,327,18318,1,0,0:0:0:0:
453,266,18484,1,0,0:0:0:0:
512,306,18651,1,2,0:0:0:0:
359,222,18984,5,2,0:0:0:0:
359,222,19151,1,2,0:0:0:0:
291,371,19484,5,2,0:0:0:0:
223,354,19651,1,2,0:0:0:0:
43,57,19984,5,2,0:0:0:0:
99,147,20151,2,0,P|114:136|126:115,2,33.7500012874604,4|0|2,0:3|0:0|0:0,0:0:0:0:
34,263,20484,5,2,0:0:0:0:
61,268,20568,1,0,0:0:0:0:
92,257,20651,1,0,0:0:0:0:
120,273,20734,1,0,0:0:0:0:
146,264,20818,2,0,B|183:270|183:270|223:244,1,67.5000025749208,2|0,0:0|0:0,0:0:0:0:
434,338,21151,6,0,B|395:333|369:304|369:304|364:338|328:371,1,135.000005149842,6|0,0:3|0:0,0:0:0:0:
330,368,21540,2,0,L|301:362,2,22.5000008583069,2|2|4,0:0|0:0|0:3,0:0:0:0:
440,258,21818,1,0,0:0:0:0:
213,100,21984,5,2,0:0:0:0:
261,187,22151,1,0,0:0:0:0:
63,301,22318,2,0,L|115:316,1,33.7500012874604,2|0,0:0|0:0,0:0:0:0:
147,363,22484,6,0,B|141:284|177:312|187:242|160:219|160:219|151:234|132:241,1,175.499991966248,4|0,0:0|0:0,0:0:0:0:
127,234,22818,1,4,3:0:0:0:
223,346,22984,6,0,P|247:357|286:356,1,45,4|0,0:3|0:0,0:0:0:0:
405,336,23151,2,0,P|398:314|384:296,1,45,4|0,0:3|0:0,0:0:0:0:
274,200,23318,6,0,B|272:237|272:237|288:270,1,58.4999973220826,4|0,0:3|0:0,0:0:0:0:
473,188,23484,2,0,P|436:187|412:170,1,67.5000025749208,4|0,0:3|0:0,0:0:0:0:
313,41,23651,2,0,P|270:38|245:58,1,76.5000014591217,4|0,0:3|0:0,0:0:0:0:
141,214,23818,6,0,L|107:209,1,22.5,6|0,0:3|0:0,0:0:0:0:
118,210,24151,6,0,B|142:214|142:214|178:200,1,33.7500012874604,6|0,0:3|0:0,0:0:0:0:
150,210,24484,6,0,B|125:208|125:208|98:193,1,45,6|0,0:3|0:0,0:0:0:0:
107,198,24818,5,0,0:0:0:0:
62,125,24984,1,2,0:0:0:0:
230,27,25151,6,0,B|208:133|208:133|228:162|272:152,1,161.999995056153,12|0,0:0|0:0,0:0:0:0:
275,152,25484,1,10,0:2:0:0:
144,57,25651,1,14,0:0:0:0:
204,259,25818,6,0,B|151:275|116:220|116:220|98:270|54:280,1,188.999994232178,10|0,0:2|0:0,0:0:0:0:
28,303,26151,1,10,0:2:0:0:
109,136,26318,1,12,0:3:0:0:
325,361,26484,2,0,P|303:362|268:357,1,53.9999983520508,10|0,3:2|0:0,0:0:0:0:
218,302,26651,5,6,0:3:0:0:
146,354,26818,1,8,3:2:0:0:
157,142,26984,1,12,0:0:0:0:
365,251,27151,2,0,B|458:240|411:298|517:276,1,135,10|0,3:2|0:0,0:0:0:0:
489,300,27484,6,0,P|477:269|474:247,1,45,10|0,3:2|0:0,0:0:0:0:
465,32,27651,6,0,P|435:37|397:69,1,62.9999980773926,12|0,3:0|0:0,0:0:0:0:
439,130,27818,2,0,P|469:125|507:93,1,62.9999980773926,10|0,3:2|0:0,0:0:0:0:
354,113,27984,5,6,3:0:0:0:
273,78,28151,1,8,3:2:0:0:
375,253,28318,1,12,3:0:0:0:
102,254,28484,2,0,B|152:239|198:209|198:209|229:237|225:274,1,175.499991966248,10|0,3:2|0:0,0:0:0:0:
216,295,28818,5,10,3:2:0:0:
134,73,28984,1,12,3:0:0:0:
90,149,29151,1,8,0:2:0:0:
344,186,29318,6,0,P|312:154|299:106,1,90,6|8,3:0|0:2,0:0:0:0:
297,338,29651,6,0,P|347:322|406:349,1,107.999996704102,14|8,3:0|0:2,0:0:0:0:
15,317,29984,5,6,3:0:0:0:
79,357,30068,2,0,B|90:305|90:305|66:264|66:264|78:217,1,135.000005149842,12|0,3:0|0:0,0:0:0:0:
22,171,30318,2,0,B|54:188|54:188|103:185,1,67.5000025749208,14|0,3:0|0:0,0:0:0:0:
295,242,30484,1,6,3:0:0:0:
327,235,30568,1,4,3:0:0:0:
374,254,30651,5,12,0:0:0:0:
463,223,30818,1,8,0:2:0:0:
290,115,30984,2,0,P|318:107|334:91,1,45,14|0,3:0|0:0,0:0:0:0:
462,22,31151,6,0,B|430:50|387:43|387:43|356:97|397:141,1,175.499991966248,10|0,3:2|0:0,0:0:0:0:
405,149,31484,1,10,3:2:0:0:
101,164,31651,1,12,3:0:0:0:
192,67,31818,1,10,3:2:0:0:
28,110,31984,5,6,3:0:0:0:
161,265,32151,2,0,P|170:243|187:222,2,36,8|0|12,3:2|0:0|3:0,0:0:0:0:
52,369,32484,2,0,B|29:306|65:244|65:244|41:265|13:263,1,175.499991966248,10|0,3:2|0:0,0:0:0:0:
2,259,32818,1,10,3:2:0:0:
171,359,32984,6,0,P|209:355|235:337,1,58.4999973220826,14|0,3:0|0:0,0:0:0:0:
287,231,33151,2,0,P|324:248|340:269,1,58.4999973220826,10|0,3:2|0:0,0:0:0:0:
357,343,33318,5,6,3:0:0:0:
190,240,33484,1,8,0:2:0:0:
303,102,33651,1,12,3:0:0:0:
250,36,33818,6,0,B|285:88|263:146|263:146|239:140|212:159,1,161.999995056153,10|0,0:2|0:0,0:0:0:0:
200,164,34151,1,10,3:2:0:0:
485,235,34318,2,0,B|386:226|386:226|378:235|378:235|296:227,1,188.999994232178,14|0,3:0|0:0,0:0:0:0:
213,250,34651,6,0,P|233:262|253:283,1,36,12|0,0:0|0:0,0:0:0:0:
264,377,34818,2,0,P|273:361|279:344,1,36,0|0,0:2|2:0,0:0:0:0:
198,266,34984,1,4,3:0:0:0:
451,360,35151,1,2,0:2:0:0:
476,342,35234,1,2,0:0:0:0:
481,289,35318,5,6,3:0:0:0:
462,72,35484,1,2,3:0:0:0:
469,66,35651,1,6,3:0:0:0:
458,61,35818,1,6,3:0:0:0:
483,169,35984,6,0,P|446:160|411:135,1,72,4|0,0:0|0:0,0:0:0:0:
352,206,36318,2,0,P|378:178|417:160,1,72,12|0,0:3|0:0,0:0:0:0:
385,74,36651,2,0,P|395:110|391:153,1,72,12|2,0:3|0:0,0:0:0:0:
424,326,36984,1,12,0:3:0:0:
493,309,37151,1,2,0:0:0:0:
415,336,37318,6,0,B|369:347|342:290|342:290|323:315|281:308,1,144,10|4,0:0|0:3,0:0:0:0:
118,357,37818,1,0,0:0:0:0:
118,357,37984,2,0,P|83:347|48:340,1,72,12|0,0:3|0:0,0:0:0:0:
166,235,38318,2,0,P|175:270|186:304,1,72,12|0,0:3|0:0,0:0:0:0:
32,271,38651,5,4,0:3:0:0:
79,209,38818,1,2,0:0:0:0:
47,142,38984,1,4,0:3:0:0:
91,208,39151,1,2,0:0:0:0:
243,215,39318,6,0,L|159:203,1,72,12|0,0:3|0:0,0:0:0:0:
171,204,39651,1,4,0:3:0:0:
294,138,39818,1,2,0:0:0:0:
119,18,39984,5,4,0:3:0:0:
104,86,40151,1,2,0:0:0:0:
170,110,40318,1,4,0:3:0:0:
189,41,40484,1,2,0:0:0:0:
328,66,40651,5,4,0:3:0:0:
404,95,40818,1,2,0:0:0:0:
438,166,40984,5,4,0:3:0:0:
512,40,41151,1,2,0:0:0:0:
496,215,41318,6,0,P|457:206|436:178,1,72,12|0,0:0|0:0,0:0:0:0:
269,98,41651,2,0,P|293:72|328:66,1,72,12|0,0:3|0:0,0:0:0:0:
404,95,41984,1,12,0:3:0:0:
362,162,42151,1,0,0:0:0:0:
385,237,42318,2,0,B|346:236|317:262|317:262|277:249|265:210,1,144,12|4,0:3|0:3,0:0:0:0:
155,348,42818,5,2,0:0:0:0:
82,366,42984,1,4,0:3:0:0:
103,295,43151,1,2,0:0:0:0:
263,351,43318,5,4,0:3:0:0:
212,278,43484,1,2,0:0:0:0:
348,235,43651,5,12,0:3:0:0:
213,187,43818,1,0,0:0:0:0:
368,125,43984,6,0,P|393:92|407:57,1,72,4|0,0:3|0:0,0:0:0:0:
125,140,44318,2,0,P|86:129|52:106,1,72,4|2,0:3|0:0,0:0:0:0:
261,325,44651,2,0,B|280:242|225:271|253:168,1,144,12|4,0:3|0:3,0:0:0:0:
247,109,45151,1,2,0:0:0:0:
435,282,45318,6,0,P|479:289|508:310,1,72,4|0,0:3|0:0,0:0:0:0:
478,375,45651,2,0,P|434:368|405:347,1,72,4|2,0:3|0:0,0:0:0:0:
431,191,45984,5,12,0:3:0:0:
340,315,46151,1,12,0:3:0:0:
256,93,46318,6,0,B|241:65|267:52|262:25|262:25|292:38|319:37|355:97|309:141,1,202.500007724762,12|0,0:3|0:0,0:0:0:0:
352,187,46651,6,0,P|307:194|262:159,1,90,12|0,0:0|0:0,0:0:0:0:
54,300,46984,2,0,P|108:276|131:194,1,135,8|0,0:2|0:0,0:0:0:0:
133,188,47318,5,2,0:0:0:0:
34,59,47484,1,4,0:3:0:0:
180,2,47651,5,10,0:0:0:0:
177,94,47818,1,0,0:0:0:0:
317,182,47984,6,0,B|286:142|286:142|281:95,1,90,6|0,0:3|0:0,0:0:0:0:
296,208,48318,1,8,0:0:0:0:
445,120,48484,1,2,0:0:0:0:
497,343,48651,5,2,0:0:0:0:
415,269,48818,1,4,0:3:0:0:
315,311,48984,1,8,0:0:0:0:
395,381,49151,1,0,0:0:0:0:
498,220,49318,6,0,B|511:184|511:184|492:129,1,90,6|0,0:3|0:0,0:0:0:0:
252,72,49651,2,0,B|325:78|325:78|346:59|346:59|430:66,1,180,10|0,0:0|0:0,0:0:0:0:
191,191,50151,1,4,0:3:0:0:
376,247,50318,2,0,L|287:263,1,90,10|0,0:0|0:0,0:0:0:0:
45,363,50651,5,6,0:3:0:0:
3,286,50818,1,0,0:0:0:0:
130,207,50984,1,8,0:0:0:0:
176,283,51151,1,2,0:0:0:0:
89,285,51318,5,2,0:0:0:0:
175,136,51484,1,4,0:3:0:0:
45,204,51651,1,10,0:0:0:0:
216,210,51818,1,0,0:0:0:0:
87,120,51984,6,0,B|65:63|112:27|112:27|159:43,1,135,6|0,0:3|0:0,0:0:0:0:
152,43,52318,1,8,0:0:0:0:
347,95,52484,1,0,0:0:0:0:
263,134,52651,2,0,P|317:135|350:97,1,90,2|4,0:0|0:3,0:0:0:0:
186,70,52984,5,10,0:0:0:0:
413,36,53151,1,0,0:0:0:0:
490,218,53318,6,0,B|466:200|443:157|443:157|414:181|383:178,1,135,6|0,0:3|0:0,0:0:0:0:
372,175,53651,1,8,0:0:0:0:
328,349,53818,6,0,B|254:362|254:362|221:336|230:301,1,135,2|0,0:0|0:0,0:0:0:0:
236,276,54151,1,4,0:3:0:0:
32,107,54318,6,0,B|69:56|125:82|125:82|113:102|114:115,1,135.000005149842,8|0,0:0|0:0,0:0:0:0:
144,175,54568,1,0,0:0:0:0:
156,179,54651,5,12,0:0:0:0:
241,144,54818,1,2,0:2:0:0:
274,54,54984,5,0,0:0:0:0:
498,149,55151,1,2,0:0:0:0:
371,331,55318,5,12,0:3:0:0:
336,264,55484,1,2,0:0:0:0:
360,347,55651,1,8,0:0:0:0:
367,33,55818,6,0,B|383:165|383:165|371:136|326:115,1,202.500007724762,12|0,0:0|0:0,0:0:0:0:
311,118,56151,1,4,0:3:0:0:
82,40,56318,1,4,0:3:0:0:
44,126,56484,1,6,0:3:0:0:
243,333,56651,5,14,0:3:0:0:
130,254,56818,1,0,0:0:0:0:
226,237,56984,1,4,0:3:0:0:
147,350,57151,1,4,0:3:0:0:
348,355,57318,6,0,P|386:366|424:368,2,72,14|0|0,0:0|0:0|0:0,0:0:0:0:
492,331,57818,1,2,0:0:0:0:
414,273,57984,1,10,0:0:0:0:
486,155,58151,1,2,0:0:0:0:
396,43,58318,2,0,P|401:83|408:122,1,72,0|2,0:0|0:0,0:0:0:0:
235,168,58651,6,0,B|324:151|286:210|397:187,1,144,2|4,0:0|0:3,0:0:0:0:
445,229,59151,1,0,0:0:0:0:
205,300,59318,5,8,0:0:0:0:
122,286,59484,1,2,0:0:0:0:
54,340,59651,1,0,0:0:0:0:
121,273,59818,1,2,0:0:0:0:
73,57,59984,6,0,B|43:31|43:31|65:142,1,144,6|0,0:3|0:0,0:0:0:0:
215,146,60484,1,0,0:0:0:0:
134,187,60651,2,0,B|195:178|195:178|230:195|230:195|285:189,1,144,8|0,0:0|0:0,0:0:0:0:
447,72,61151,1,0,0:0:0:0:
384,17,61318,1,2,0:0:0:0:
365,94,61484,1,0,0:0:0:0:
502,205,61651,5,4,0:3:0:0:
200,314,61818,5,0,0:0:0:0:
275,287,61984,1,8,0:0:0:0:
341,336,62151,1,2,0:0:0:0:
414,360,62318,1,0,0:0:0:0:
502,205,62484,1,2,0:0:0:0:
452,155,62651,6,0,P|466:206|467:309,2,144,6|0|8,0:3|0:0|0:0,0:0:0:0:
170,77,63651,1,0,0:0:0:0:
228,129,63818,1,0,0:0:0:0:
246,59,63984,6,0,B|257:103|226:133|226:133|217:174|260:204,1,144,2|4,0:0|0:3,0:0:0:0:
311,245,64484,2,0,P|328:207|327:171,1,72,2|8,0:0|0:0,0:0:0:0:
322,158,64818,1,0,0:0:0:0:
228,265,64984,1,2,0:0:0:0:
379,340,65151,1,0,0:0:0:0:
206,347,65318,6,0,B|160:343|140:291|140:291|105:297|98:332,1,144,4|0,0:3|0:0,0:0:0:0:
36,268,65818,1,0,0:0:0:0:
211,237,65984,2,0,B|181:207|144:202|144:202|176:206|223:189,1,144,8|0,0:0|0:0,0:0:0:0:
395,117,66484,6,0,P|416:104|432:86,2,36,0|0|2,0:0|0:0|0:0,0:0:0:0:
354,37,66818,1,0,0:0:0:0:
483,172,66984,1,4,0:3:0:0:
483,172,67318,6,0,B|445:183|417:226|452:279|494:242,1,135,10|0,0:0|0:0,0:0:0:0:
492,329,67651,1,8,0:0:0:0:
451,335,67734,1,8,0:0:0:0:
428,368,67818,1,8,0:0:0:0:
388,356,67901,1,8,0:0:0:0:
346,364,67984,5,12,0:0:0:0:
166,335,68151,1,0,0:0:0:0:
352,253,68318,1,8,0:0:0:0:
175,159,68484,2,0,P|156:116|153:67,1,90,2|0,0:0|0:0,0:0:0:0:
183,173,68818,1,4,0:3:0:0:
83,137,68984,5,8,0:0:0:0:
231,22,69151,1,2,0:0:0:0:
445,137,69318,2,0,B|383:132|320:102|320:102|310:129|315:152,1,180,6|8,0:3|0:0,0:0:0:0:
501,217,69818,1,0,0:0:0:0:
394,348,69984,2,0,B|399:304|399:304|439:269,1,90,0|4,0:0|0:3,0:0:0:0:
179,284,70318,2,0,L|269:298,1,90,10|0,0:0|0:0,0:0:0:0:
267,297,70568,1,0,0:0:0:0:
267,297,70651,6,0,B|308:244|272:191|272:191|303:203|340:184,1,180,6|8,0:3|0:0,0:0:0:0:
385,115,71151,1,0,0:0:0:0:
141,30,71318,2,0,P|140:78|161:122,1,90,0|4,0:0|0:3,0:0:0:0:
238,102,71651,2,0,P|239:54|218:10,1,90,10|0,0:0|0:0,0:0:0:0:
50,146,71984,1,4,0:3:0:0:
203,206,72151,1,2,0:0:0:0:
87,361,72318,6,0,B|56:259|56:259|77:268|104:264,1,135,8|0,0:0|0:0,0:0:0:0:
83,265,72651,1,2,0:0:0:0:
291,295,72818,1,4,0:3:0:0:
220,357,72984,1,8,0:0:0:0:
396,314,73151,1,0,0:0:0:0:
340,29,73318,6,0,B|371:78|371:78|347:137|347:137|373:184,1,161.999995056153,4|0,0:0|0:0,0:0:0:0:
378,187,73651,1,4,0:3:0:0:
114,92,73818,1,0,0:0:0:0:
214,125,73984,1,6,0:3:0:0:
55,162,74151,1,0,0:0:0:0:
263,59,74318,2,0,P|254:89|256:119,1,53.9999983520508,6|0,0:3|0:0,0:0:0:0:
191,301,74484,1,0,0:0:0:0:
191,301,74568,1,0,0:0:0:0:
191,301,74651,5,6,0:3:0:0:
337,257,74818,1,0,0:0:0:0:
381,179,74984,1,6,0:3:0:0:
185,105,75151,1,0,0:0:0:0:
367,23,75318,5,6,0:3:0:0:
479,242,75484,1,0,0:0:0:0:
258,189,75651,1,6,0:3:0:0:
495,55,75818,1,2,0:0:0:0:
445,340,75984,6,0,P|415:333|390:313,1,53.9999983520508,6|0,0:3|0:0,0:0:0:0:
326,130,76151,1,0,0:3:0:0:
512,232,76318,6,0,P|474:245|450:243,1,53.9999983520508,4|0,0:3|0:0,0:0:0:0:
149,91,76484,2,0,B|185:77|185:77|223:92|223:92|247:125|247:125|288:139|288:139|328:128,1,202.500007724762,6|0,0:3|0:0,0:0:0:0:
386,86,76818,6,0,B|371:126|371:157,1,67.5000025749208,4|0,0:3|0:0,0:0:0:0:
139,191,76984,2,0,P|164:226|174:257,1,67.5000025749208,4|0,0:3|0:0,0:0:0:0:
293,367,77151,6,0,L|303:289,1,76.5000014591217,4|0,0:3|0:0,0:0:0:0:
277,53,77318,5,4,0:0:0:0:
240,43,77401,1,0,0:0:0:0:
202,49,77484,1,0,0:0:0:0:
173,75,77568,1,0,0:0:0:0:
158,110,77651,1,2,0:0:0:0:
132,137,77734,1,0,0:0:0:0:
94,143,77818,1,2,0:0:0:0:
57,130,77901,1,0,0:0:0:0:
34,90,77984,5,6,0:3:0:0:
87,93,78068,1,4,0:3:0:0:
116,137,78151,1,6,0:3:0:0:
107,189,78234,1,4,0:3:0:0:
128,238,78318,1,6,0:3:0:0:
178,255,78401,1,4,0:3:0:0:
228,238,78484,1,6,0:3:0:0:
252,189,78568,1,4,0:3:0:0:
182,183,78651,6,0,B|275:142|240:223|351:174,1,161.999995056153,12|0,0:0|0:0,0:0:0:0:
396,140,78984,2,0,P|399:100|337:49,1,107.999996704102,12|0,0:3|0:0,0:0:0:0:
169,86,79318,1,2,0:0:0:0:
225,276,79484,1,4,0:3:0:0:
467,226,79651,2,0,B|464:188|487:164|487:164|477:121|477:121|497:102|498:66,1,161.999995056153,12|0,0:3|0:0,0:0:0:0:
494,47,79984,5,6,0:3:0:0:
396,140,80151,1,0,0:0:0:0:
372,305,80318,2,0,P|319:302|265:278,1,107.999996704102,12|0,0:3|0:0,0:0:0:0:
54,323,80651,5,2,0:0:0:0:
132,350,80818,1,4,0:3:0:0:
26,245,80984,5,14,0:3:0:0:
180,123,81151,1,0,0:0:0:0:
87,19,81318,6,0,P|84:62|102:125,1,107.999996704102,6|0,0:3|0:0,0:0:0:0:
132,190,81651,1,12,0:3:0:0:
12,103,81818,1,0,0:3:0:0:
341,235,81984,2,0,B|275:216|275:216|231:257|180:235,1,161.999995056153,2|0,0:0|0:0,0:0:0:0:
132,190,82318,2,0,P|142:139|151:78,1,107.999996704102,12|0,0:3|0:0,0:0:0:0:
122,22,82568,1,0,0:0:0:0:
122,22,82651,5,6,0:3:0:0:
266,133,82818,1,0,0:0:0:0:
32,179,82984,1,14,0:3:0:0:
144,142,83151,1,0,0:0:0:0:
336,356,83318,5,2,0:0:0:0:
278,212,83484,1,4,0:3:0:0:
406,247,83651,1,14,0:3:0:0:
230,333,83818,1,0,0:0:0:0:
230,333,83901,1,0,0:0:0:0:
230,333,83984,6,0,P|244:262|220:166,1,161.999995056153,12|0,0:0|0:0,0:0:0:0:
194,104,84318,2,0,P|183:96|172:125,1,53.9999983520508,12|0,0:3|0:0,0:0:0:0:
302,137,84484,1,0,0:0:0:0:
104,260,84651,2,0,P|65:244|34:179,1,107.999996704102,2|0,0:0|0:0,0:0:0:0:
317,338,84984,2,0,B|422:313|373:386|486:357,1,161.999995056153,12|0,0:3|0:0,0:0:0:0:
492,351,85318,5,6,0:3:0:0:
374,198,85484,1,0,0:0:0:0:
459,237,85651,1,14,0:3:0:0:
510,78,85818,1,0,0:0:0:0:
427,14,85984,5,2,0:0:0:0:
257,80,86151,1,4,0:3:0:0:
337,326,86318,2,0,B|366:288|370:224|370:224|341:218|314:202,1,161.999995056153,14|0,0:3|0:0,0:0:0:0:
251,205,86651,6,0,B|362:198|299:120|381:119|439:140|439:140|411:137|385:163,1,270.000010299683,6|12,0:3|0:3,0:0:0:0:
310,29,87151,1,0,0:0:0:0:
92,139,87318,1,2,0:0:0:0:
161,195,87484,1,4,0:3:0:0:
55,346,87651,2,0,B|35:339|13:347|13:347|30:301|70:288|109:303,1,161.999995056153,12|0,0:3|0:0,0:0:0:0:
108,302,87984,5,6,0:3:0:0:
238,170,88151,1,0,0:0:0:0:
161,195,88318,1,14,0:3:0:0:
341,283,88484,1,0,0:0:0:0:
364,308,88568,1,0,0:0:0:0:
353,356,88651,1,2,0:0:0:0:
487,186,88818,1,4,0:3:0:0:
277,0,88984,6,0,B|257:61|257:61|261:76|261:76|245:137|245:137|266:171|313:167,1,202.500007724762,12|0,0:3|0:0,0:0:0:0:
489,268,89318,6,0,B|423:261|404:197|404:197|396:229|365:238,1,161.999995056153,12|0,0:0|0:0,0:0:0:0:
295,310,89651,2,0,B|334:256|398:271|398:271|375:248|382:217,1,161.999995056153,12|0,0:3|0:0,0:0:0:0:
356,119,89984,2,0,B|382:179|337:228|337:228|368:219|392:241,1,161.999995056153,2|0,0:0|0:0,0:0:0:0:
379,231,90318,1,14,0:3:0:0:
192,168,90484,2,0,P|202:142|208:117,2,53.9999983520508,2|0|4,0:0|0:0|0:3,0:0:0:0:
66,23,90818,5,2,0:0:0:0:
23,84,90984,1,12,0:3:0:0:
56,15,91151,1,2,0:0:0:0:
121,189,91318,5,0,0:0:0:0:
282,147,91484,1,6,0:3:0:0:
354,349,91651,2,0,B|303:329|245:359|245:359|231:331|261:311,1,161.999995056153,14|0,0:3|0:0,0:0:0:0:
435,167,91984,6,0,B|449:210|491:235|491:235|455:259|450:303,1,161.999995056153,6|0,0:3|0:0,0:0:0:0:
334,244,92318,2,0,B|364:210|364:161|364:161|403:180|444:163,1,161.999995056153,12|0,0:3|0:0,0:0:0:0:
451,292,92651,2,0,B|406:282|364:306|364:306|361:263|325:236,1,161.999995056153,2|0,0:0|0:0,0:0:0:0:
333,243,92984,1,14,0:3:0:0:
415,73,93151,2,0,P|368:67|326:26,1,107.999996704102,2|6,0:0|0:3,0:0:0:0:
60,161,93484,6,0,P|31:161|5:148,2,53.9999983520508,0|0|12,0:0|0:0|0:3,0:0:0:0:
246,114,93818,1,2,0:0:0:0:
174,51,93984,1,2,0:0:0:0:
213,244,94151,1,6,0:3:0:0:
25,372,94318,6,0,B|26:331|-3:301|-3:301|29:244|95:260,1,188.999994232178,14|0,0:3|0:0,0:0:0:0:
151,294,94651,6,0,P|100:262|112:165,1,161.999995056153,12|0,0:0|0:0,0:0:0:0:
107,169,94984,1,12,0:3:0:0:
298,230,95151,2,0,P|352:221|412:204,1,107.999996704102,2|0,0:0|0:0,0:0:0:0:
215,164,95484,1,4,0:3:0:0:
435,363,95651,6,0,B|387:362|376:306|376:306|348:348|294:336,1,175.499991966248,14|0,0:3|0:0,0:0:0:0:
279,328,95984,1,4,0:3:0:0:
450,134,96151,6,0,P|465:197|495:252,1,125.999996154785,2|12,0:0|0:3,0:0:0:0:
248,142,96484,1,0,0:0:0:0:
284,134,96568,1,0,0:0:0:0:
308,96,96651,1,0,0:0:0:0:
135,91,96818,1,6,0:3:0:0:
275,260,96984,6,0,B|223:209|152:248|152:248|137:285|103:287,1,188.999994232178,14|0,0:3|0:0,0:0:0:0:
68,346,97318,6,0,B|101:295|70:235|54:256|25:215|61:140,1,202.500007724762,6|0,0:3|0:0,0:0:0:0:
36,86,97651,1,14,0:3:0:0:
139,154,97818,1,0,0:0:0:0:
268,13,97984,1,2,0:0:0:0:
193,16,98151,1,4,0:3:0:0:
316,260,98318,5,14,0:3:0:0:
462,78,98484,1,2,0:0:0:0:
456,357,98651,5,6,0:3:0:0:
252,168,98818,1,0,0:0:0:0:
481,235,98984,1,12,0:3:0:0:
273,342,99151,5,4,0:3:0:0:
302,351,99234,1,4,0:3:0:0:
353,340,99318,1,14,0:3:0:0:
157,210,99484,1,4,0:3:0:0:
443,105,99651,5,12,0:3:0:0:
406,69,99734,1,12,0:3:0:0:
366,80,99818,1,12,0:3:0:0:
336,63,99901,1,12,0:3:0:0:
268,93,99984,6,0,B|148:115|148:115|124:102|121:75,1,161.999995056153,4|0,0:0|0:0,0:0:0:0:
123,60,100318,1,12,0:3:0:0:
232,204,100484,1,0,0:0:0:0:
9,210,100651,2,0,P|37:172|97:164,1,107.999996704102,2|0,0:0|0:0,0:0:0:0:
117,372,100984,2,0,P|69:377|14:330,1,107.999996704102,12|0,0:3|0:0,0:0:0:0:
17,315,101234,1,0,0:0:0:0:
54,275,101318,5,6,0:3:0:0:
140,245,101484,1,0,0:0:0:0:
197,320,101651,1,14,0:3:0:0:
161,161,101818,1,0,0:0:0:0:
357,231,101984,5,2,0:0:0:0:
506,64,102151,1,4,0:3:0:0:
452,3,102318,2,0,P|409:14|385:75,1,107.999996704102,12|0,0:3|0:0,0:0:0:0:
448,116,102568,1,0,0:0:0:0:
448,116,102651,5,6,0:3:0:0:
479,308,102818,1,0,0:0:0:0:
221,272,102984,2,0,B|319:218|286:302|384:247,1,161.999995056153,12|0,0:3|0:0,0:0:0:0:
392,238,103318,1,2,0:0:0:0:
171,186,103484,1,4,0:3:0:0:
71,368,103651,2,0,P|58:326|19:273,1,107.999996704102,12|0,0:3|0:0,0:0:0:0:
21,203,103901,1,0,0:0:0:0:
21,203,103984,5,6,0:3:0:0:
161,33,104151,1,0,0:0:0:0:
82,10,104318,1,12,0:3:0:0:
236,139,104484,1,0,0:0:0:0:
84,339,104651,5,2,0:0:0:0:
165,235,104818,1,4,0:3:0:0:
26,116,104984,2,0,P|75:113|128:80,1,107.999996704102,14|0,0:3|0:0,0:0:0:0:
254,37,105234,1,0,0:0:0:0:
269,44,105318,6,0,B|297:49|318:40|318:40|388:81|388:81|407:73|425:78,1,161.999995056153,12|0,0:0|0:0,0:0:0:0:
450,80,105651,1,12,0:3:0:0:
284,128,105818,1,0,0:0:0:0:
410,261,105984,2,0,B|429:210|429:210|402:156,1,107.999996704102,6|0,0:3|0:0,0:0:0:0:
259,348,106318,2,0,B|122:338|122:338|150:366,1,161.999995056153,12|0,0:3|0:0,0:0:0:0:
163,371,106651,6,0,P|179:289|159:202,1,161.999995056153,6|0,0:3|0:0,0:0:0:0:
152,196,106984,1,14,0:3:0:0:
65,225,107151,1,0,0:0:0:0:
19,62,107318,5,2,0:0:0:0:
157,175,107484,1,4,0:3:0:0:
300,35,107651,2,0,B|259:39|228:3|228:3|262:36|254:84,1,161.999995056153,14|0,0:3|0:0,0:0:0:0:
188,94,107984,6,0,B|253:108|265:160|265:160|240:218|296:261|296:261|289:231|304:200,1,270.000010299683,6|12,0:3|0:3,0:0:0:0:
177,178,108484,1,0,0:0:0:0:
428,264,108651,1,2,0:0:0:0:
335,373,108818,1,4,0:3:0:0:
184,338,108984,2,0,P|120:330|78:291,1,107.999996704102,12|0,0:3|0:0,0:0:0:0:
57,241,109234,1,0,0:0:0:0:
64,225,109318,5,6,0:3:0:0:
151,200,109484,1,0,0:0:0:0:
199,108,109651,5,12,0:3:0:0:
351,149,109818,1,0,0:0:0:0:
351,149,109901,1,0,0:0:0:0:
351,149,109984,1,2,0:0:0:0:
268,10,110151,1,4,0:3:0:0:
271,360,110318,6,0,B|328:308|325:226|270:209|228:237|248:271,1,202.500007724762,12|0,0:3|0:0,0:0:0:0:
143,338,110651,6,0,B|26:313|26:313|49:303|68:282,1,161.999995056153,12|0,0:0|0:0,0:0:0:0:
145,243,110984,2,0,B|181:356|181:356|161:341|134:335,1,161.999995056153,12|0,0:3|0:0,0:0:0:0:
62,289,111318,2,0,B|142:200|142:200|139:225|147:252,1,161.999995056153,6|0,0:3|0:0,0:0:0:0:
38,165,111651,2,0,P|53:132|58:99,1,53.9999983520508,12|0,0:3|0:0,0:0:0:0:
103,32,111818,1,2,0:0:0:0:
38,165,111984,1,4,0:3:0:0:
404,167,112151,5,2,0:0:0:0:
324,147,112318,1,12,0:3:0:0:
451,2,112484,1,0,0:0:0:0:
263,80,112651,5,2,0:0:0:0:
395,251,112818,1,4,0:3:0:0:
237,316,112984,1,14,0:3:0:0:
339,370,113151,1,2,0:0:0:0:
104,285,113318,6,0,B|189:231|116:223|204:164,1,161.999995056153,4|0,0:3|0:0,0:0:0:0:
359,191,113651,2,0,B|269:144|299:211|204:164,1,161.999995056153,14|0,0:3|0:0,0:0:0:0:
150,16,113984,2,0,B|154:116|197:57|204:163,1,161.999995056153,4|0,0:3|0:0,0:0:0:0:
214,333,114318,2,0,P|229:299|236:266,1,53.9999983520508,14|0,0:3|0:0,0:0:0:0:
273,96,114484,1,2,0:0:0:0:
321,271,114651,1,4,0:3:0:0:
94,296,114818,5,2,0:0:0:0:
23,283,114984,1,12,0:3:0:0:
92,302,115151,1,2,0:0:0:0:
135,228,115318,5,2,0:0:0:0:
245,197,115484,1,4,0:3:0:0:
291,115,115651,5,14,0:3:0:0:
476,182,115818,2,0,P|463:155|455:126,1,53.9999983520508,2|0,0:0|0:0,0:0:0:0:
454,48,115984,6,0,B|448:144|411:87|394:200,1,161.999995056153,12|0,0:0|0:0,0:0:0:0:
396,217,116318,1,14,0:3:0:0:
448,305,116484,1,0,0:0:0:0:
249,359,116651,5,2,0:0:0:0:
272,215,116818,1,4,0:3:0:0:
508,149,116984,1,14,0:3:0:0:
185,83,117151,2,0,P|218:77|242:64,1,53.9999983520508,2|0,0:0|0:0,0:0:0:0:
294,24,117318,6,0,B|265:28|239:15|239:15|281:145,1,188.999994232178,4|0,0:0|0:0,0:0:0:0:
310,207,117651,5,4,0:3:0:0:
256,299,117818,5,6,0:3:0:0:
98,327,117984,5,6,0:3:0:0:
8,149,118151,5,6,0:3:0:0:
152,8,118318,6,0,P|189:11|222:28,1,62.9999980773926,6|0,0:3|0:0,0:0:0:0:
327,194,118484,1,4,0:3:0:0:
397,185,118568,1,4,0:3:0:0:
469,174,118651,6,0,B|433:140|372:133|372:133|409:126|429:97,1,161.999995056153,12|0,0:0|0:0,0:0:0:0:
419,33,118984,2,0,P|395:24|381:49,1,53.9999983520508,12|0,0:3|0:0,0:0:0:0:
356,365,119151,6,0,B|415:358|441:288|417:262|417:262|374:260|358:293,1,202.500007724762,2|0,0:0|0:0,0:0:0:0:
142,335,119484,1,0,0:0:0:0:
165,343,119568,1,0,0:0:0:0:
151,372,119651,6,0,P|128:349|105:336,1,53.9999983520508,12|0,0:3|0:0,0:0:0:0:
239,230,119818,2,0,P|263:196|290:177,1,62.9999980773926,2|0,0:0|0:0,0:0:0:0:
34,51,119984,5,6,0:3:0:0:
81,147,120151,1,0,0:0:0:0:
306,82,120318,1,12,0:3:0:0:
359,346,120484,5,2,0:0:0:0:
254,242,120651,1,0,0:0:0:0:
440,129,120818,1,4,0:3:0:0:
178,23,120984,2,0,B|236:35|254:83|254:83|252:133|293:155,1,188.999994232178,14|0,0:3|0:0,0:0:0:0:
361,190,121318,6,0,B|279:200|279:200|231:189|231:189|198:214|198:214|236:235|236:235|281:201,1,256.499993150711,6|0,0:3|0:0,0:0:0:0:
351,371,121651,1,12,0:3:0:0:
333,298,121734,2,0,B|323:286|312:278|312:278|317:290|316:311,1,53.9999983520508,2|0,0:0|0:0,0:0:0:0:
191,354,121984,6,0,P|223:351|254:337,1,53.9999983520508,6|0,0:3|0:0,0:0:0:0:
421,310,122151,1,0,0:0:0:0:
191,354,122318,6,0,P|162:337|124:328,1,62.9999980773926,14|0,0:3|0:0,0:0:0:0:
65,172,122484,2,0,P|28:182|-2:205,1,62.9999980773926,2|0,0:0|0:0,0:0:0:0:
1,316,122651,5,6,0:3:0:0:
179,202,122818,1,0,0:0:0:0:
247,116,122984,5,14,0:3:0:0:
90,32,123151,1,0,0:0:0:0:
324,26,123318,5,2,0:0:0:0:
154,117,123484,1,6,0:3:0:0:
422,274,123651,1,14,0:3:0:0:
123,361,123818,1,2,0:0:0:0:
123,361,123901,1,0,0:0:0:0:
123,361,123984,6,0,B|152:328|152:328|203:322|203:322|237:353|237:353|283:348|283:348|319:313,1,215.999993408203,12|12,0:0|0:3,0:0:0:0:
469,91,124568,1,2,0:0:0:0:
469,91,124651,6,0,P|434:75|407:8,1,107.999996704102,6|0,0:3|0:0,0:0:0:0:
505,186,124984,1,12,0:3:0:0:
316,240,125151,2,0,P|290:244|268:259,2,53.9999983520508,2|0|6,0:0|0:0|0:3,0:0:0:0:
401,295,125484,1,2,0:0:0:0:
345,24,125651,5,12,0:3:0:0:
311,94,125818,1,2,0:0:0:0:
375,171,125984,5,0,0:0:0:0:
177,143,126151,1,4,0:3:0:0:
121,335,126318,1,14,0:3:0:0:
27,272,126484,2,0,P|61:267|90:255,1,53.9999983520508
206,362,126651,6,0,P|201:295|92:252,1,188.999994232178,6|0,0:3|0:0,0:0:0:0:
99,249,126984,1,12,0:3:0:0:
23,127,127151,5,2,0:0:0:0:
60,48,127318,1,0,0:0:0:0:
172,11,127484,5,6,0:3:0:0:
250,206,127651,1,12,0:3:0:0:
494,109,127818,1,0,0:0:0:0:
503,76,127901,1,0,0:0:0:0:
478,30,127984,5,6,0:3:0:0:
232,122,128151,1,0,0:0:0:0:
463,260,128318,1,12,0:3:0:0:
306,366,128484,2,0,B|293:289|345:320|360:210|259:204|263:273,1,188.999994232178,2|0,0:0|0:0,0:0:0:0:
166,348,128818,6,0,P|197:340|226:322,1,62.9999980773926,6|0,0:3|0:0,0:0:0:0:
360,176,128984,2,0,B|305:140|250:160|250:160|178:124|190:58,1,242.999992584229,12|0,0:3|0:0,0:0:0:0:
199,24,129318,5,12,0:0:0:0:
282,61,129484,1,0,0:0:0:0:
45,110,129651,1,12,0:3:0:0:
106,36,129818,1,0,0:0:0:0:
194,204,129984,1,6,0:3:0:0:
194,204,130234,1,0,0:0:0:0:
194,204,130318,2,0,P|164:202|135:186,1,53.9999983520508,12|0,0:3|0:0,0:0:0:0:
17,369,130484,6,0,B|47:335|31:270|31:270|72:300|129:275,1,188.999994232178,2|0,0:0|0:0,0:0:0:0:
133,282,130818,1,0,0:0:0:0:
219,345,130984,1,12,0:3:0:0:
383,210,131151,1,0,0:0:0:0:
223,243,131318,6,0,P|256:244|284:251,1,53.9999983520508,2|0,0:0|0:0,0:0:0:0:
408,362,131484,2,0,P|379:357|346:338,1,53.9999983520508,4|0,0:3|0:0,0:0:0:0:
459,102,131651,6,0,B|515:140|497:241|497:241|482:206|448:193,1,216,14|0,0:3|0:0,0:0:0:0:
431,193,131984,5,6,0:3:0:0:
317,170,132151,1,0,0:0:0:0:
266,88,132318,5,12,0:3:0:0:
428,25,132484,1,0,0:0:0:0:
359,260,132651,1,6,0:3:0:0:
30,196,132901,1,0,0:0:0:0:
30,196,132984,2,0,P|59:214|75:236,1,53.9999983520508,12|0,0:3|0:0,0:0:0:0:
216,348,133151,6,0,B|130:317|159:377|57:347,1,135.000005149842,2|4,0:0|0:3,0:0:0:0:
182,185,133401,1,0,0:0:0:0:
205,172,133484,2,0,P|252:193|250:287,1,135.000005149842,2|12,0:0|0:3,0:0:0:0:
32,266,133734,1,0,0:0:0:0:
32,266,133818,6,0,B|45:203|45:203|17:132|17:132|72:127|90:82,1,216,2|0,0:0|0:0,0:0:0:0:
0,39,134151,6,0,P|24:49|0:45,1,72,6|0,0:3|0:0,0:0:0:0:
171,118,134318,6,0,P|175:94|174:119,1,67.5000025749208,14|0,0:3|0:0,0:0:0:0:
336,43,134484,6,0,P|334:22|340:40,1,62.9999980773926,2|0,0:3|0:0,0:0:0:0:
469,186,134651,6,0,B|491:274|491:274|465:309|412:286,1,161.999995056153,12|0,0:0|0:0,0:0:0:0:
367,325,134984,2,0,P|421:320|461:362,1,107.999996704102,12|0,0:3|0:0,0:0:0:0:
103,361,135318,5,2,0:0:0:0:
93,341,135401,1,0,0:0:0:0:
95,314,135484,1,0,0:0:0:0:
106,295,135568,1,0,0:0:0:0:
88,261,135651,5,14,0:3:0:0:
103,226,135734,1,0,0:0:0:0:
90,190,135818,1,0,0:0:0:0:
54,176,135901,1,0,0:0:0:0:
18,216,135984,5,6,0:3:0:0:
63,234,136068,1,0,0:0:0:0:
109,220,136151,1,0,0:0:0:0:
136,180,136234,1,0,0:0:0:0:
127,120,136318,5,14,0:3:0:0:
136,61,136401,1,0,0:0:0:0:
191,39,136484,1,6,0:3:0:0:
243,67,136568,1,0,0:0:0:0:
300,53,136651,5,6,0:3:0:0:
350,84,136734,1,6,0:3:0:0:
355,143,136818,1,4,0:3:0:0:
310,181,136901,1,6,0:3:0:0:
251,175,136984,6,0,P|268:203|277:234,1,53.9999983520508,14|0,0:3|0:0,0:0:0:0:
450,311,137151,2,0,P|457:285|473:263,1,53.9999983520508,6|0,0:3|0:0,0:0:0:0:
330,363,137318,6,0,B|355:305|355:305|353:283|353:283|380:222,1,144,14|0,0:0|0:0,0:0:0:0:
449,192,137818,1,0,0:0:0:0:
279,142,137984,1,10,0:0:0:0:
349,126,138151,1,0,0:0:0:0:
301,73,138318,1,0,0:0:0:0:
279,142,138484,1,0,0:0:0:0:
94,182,138651,5,2,0:0:0:0:
156,248,138818,2,0,P|167:269|174:291,2,36,0|0|4,0:0|0:0|0:3,0:0:0:0:
96,167,139151,1,0,0:0:0:0:
36,310,139318,5,8,0:0:0:0:
43,288,139484,1,0,0:0:0:0:
167,353,139651,5,0,0:0:0:0:
139,240,139818,1,2,0:0:0:0:
307,134,139984,6,0,B|357:169|357:169|339:264,1,144,6|0,0:3|0:0,0:0:0:0:
384,333,140484,1,0,0:0:0:0:
299,356,140651,2,0,P|339:354|371:341,1,72,8|0,0:0|0:0,0:0:0:0:
477,157,140984,2,0,L|468:130,6,18
463,188,141318,6,0,P|431:179|381:162,1,72,2|0,0:0|0:0,0:0:0:0:
272,263,141651,2,0,P|239:271|195:277,1,72,4|0,0:3|0:0,0:0:0:0:
52,178,141984,5,8,0:0:0:0:
10,94,142151,1,0,0:0:0:0:
128,44,142318,5,0,0:0:0:0:
72,183,142484,1,2,0:0:0:0:
227,239,142651,6,0,B|305:221|297:282|375:250,2,144,6|0|8,0:3|0:0|0:0,0:0:0:0:
335,182,143484,1,0,0:0:0:0:
277,382,143651,2,0,P|273:351|252:315,1,72
451,334,143984,6,0,P|420:328|379:337,1,72,2|0,0:0|0:0,0:0:0:0:
459,153,144318,2,0,P|444:180|439:221,1,72,4|0,0:3|0:0,0:0:0:0:
168,226,144651,6,0,P|199:210|223:183,1,72,8|0,0:0|0:0,0:0:0:0:
281,86,144984,2,0,P|306:111|339:125,1,72
81,16,145318,6,0,B|46:81|46:81|57:164,1,144,6|0,0:3|0:0,0:0:0:0:
197,214,145818,1,0,0:0:0:0:
56,179,145984,2,0,B|94:169|130:194|108:211|153:233|186:217,1,144,8|0,0:0|0:0,0:0:0:0:
270,189,146484,1,0,0:0:0:0:
264,371,146651,2,0,L|245:293,1,72,2|0,0:0|0:0,0:0:0:0:
244,284,146901,1,0,0:0:0:0:
250,267,146984,1,4,0:3:0:0:
425,119,147151,5,0,0:0:0:0:
453,207,147318,1,10,0:0:0:0:
368,191,147484,1,0,0:0:0:0:
512,137,147651,1,4,0:3:0:0:
352,37,147818,1,0,0:0:0:0:
382,43,147901,1,0,0:0:0:0:
427,24,147984,5,12,0:0:0:0:
194,143,148151,2,0,P|190:93|176:55,1,90,0|8,0:0|0:0,0:0:0:0:
310,179,148484,1,0,0:0:0:0:
92,351,148651,5,0,0:0:0:0:
186,328,148818,1,4,0:3:0:0:
237,231,148984,5,8,0:0:0:0:
77,101,149151,1,0,0:0:0:0:
176,55,149318,5,4,0:3:0:0:
48,263,149484,2,0,P|29:223|-3:182,1,90,0|8,0:0|0:0,0:0:0:0:
68,18,149818,1,0,0:0:0:0:
305,98,149984,5,0,0:0:0:0:
140,219,150151,1,4,0:3:0:0:
300,371,150318,5,8,0:0:0:0:
254,262,150484,1,0,0:0:0:0:
490,237,150651,5,6,0:3:0:0:
404,275,150818,2,0,P|449:278|490:243,1,90,0|8,0:0|0:0,0:0:0:0:
312,161,151151,1,0,0:0:0:0:
501,25,151318,5,0,0:0:0:0:
421,172,151484,1,4,0:3:0:0:
378,267,151651,5,8,0:0:0:0:
222,49,151818,1,0,0:0:0:0:
21,211,151984,1,6,0:3:0:0:
96,249,152151,5,0,0:0:0:0:
31,180,152318,1,8,0:0:0:0:
71,348,152484,5,0,0:0:0:0:
172,302,152651,1,0,0:0:0:0:
327,364,152818,1,4,0:3:0:0:
356,54,152984,5,8,0:0:0:0:
183,152,153151,1,0,0:0:0:0:
486,300,153318,6,0,B|449:188|417:260|385:152,1,161.999995056153,12|0,0:0|0:0,0:0:0:0:
389,144,153651,1,8,0:0:0:0:
150,168,153818,2,0,P|147:219|177:270,1,107.999996704102,2|4,0:0|0:3,0:0:0:0:
358,366,154151,5,0,0:0:0:0:
297,267,154318,1,12,0:3:0:0:
48,331,154484,1,4,0:3:0:0:
107,95,154651,5,14,0:3:0:0:
182,276,154818,1,0,0:0:0:0:
281,59,154984,5,14,0:3:0:0:
208,293,155151,1,0,0:0:0:0:
449,229,155318,5,10,0:0:0:0:
214,156,155484,1,4,0:3:0:0:
346,358,155651,5,12,0:3:0:0:
321,58,155818,1,0,0:0:0:0:
6,218,155984,6,0,B|69:236|122:186|122:186|153:215|139:267,1,188.999994232178,6|0,0:3|0:0,0:0:0:0:
75,359,156318,2,0,B|67:330|67:330|74:296,1,62.9999980773926,14|0,0:3|0:0,0:0:0:0:
127,66,156484,1,6,0:3:0:0:
127,66,156818,2,0,P|164:81|200:77,1,62.9999980773926,6|0,0:3|0:0,0:0:0:0:
467,193,156984,5,10,0:0:0:0:
443,129,157096,1,2,0:0:0:0:
377,113,157207,1,2,0:0:0:0:
317,142,157318,6,0,B|307:182|374:213|440:170|422:48|341:11|224:73|293:168|235:184|164:183|138:135,1,405.000015449525,6|0,0:3|0:0,0:0:0:0:
143,143,158651,5,2,0:0:0:0:
389,283,168651,6,0,P|389:240|415:206,1,80.9999975280763,2|0,0:0|0:0,0:0:0:0:
483,177,169318,5,12,0:0:0:0:
391,69,169651,1,2,0:0:0:0:
299,162,169984,1,8,0:0:0:0:
288,166,170318,5,2,0:0:0:0:
123,84,170484,1,2,0:0:0:0:
123,84,170818,5,0,0:0:0:0:
95,18,170984,1,4,0:3:0:0:
25,40,171151,1,2,0:0:0:0:
92,23,171318,5,8,0:0:0:0:
57,120,171484,1,0,0:0:0:0:
138,196,171651,1,0,0:0:0:0:
135,171,171818,1,2,0:0:0:0:
19,268,171984,5,4,0:3:0:0:
206,301,172318,1,2,0:0:0:0:
99,352,172651,1,8,0:0:0:0:
107,355,172984,5,2,0:0:0:0:
164,217,173151,1,2,0:0:0:0:
152,205,173484,5,0,0:0:0:0:
224,156,173651,1,4,0:3:0:0:
229,7,173818,1,2,0:0:0:0:
363,77,173984,1,8,0:0:0:0:
271,83,174151,5,0,0:0:0:0:
368,204,174318,1,2,0:0:0:0:
511,125,174484,1,0,0:0:0:0:
459,64,174651,6,0,L|486:254,1,180,12|8,0:0|0:0,0:0:0:0:
322,269,175151,1,0,0:0:0:0:
398,370,175318,5,10,0:0:0:0:
423,300,175484,1,0,0:0:0:0:
241,201,175651,5,10,0:0:0:0:
256,346,175818,1,0,0:0:0:0:
1,305,175984,6,0,B|101:261|85:334|177:284,1,180,10|8,0:0|0:0,0:0:0:0:
67,82,176484,1,0,0:0:0:0:
140,144,176651,5,10,0:0:0:0:
69,99,176818,1,0,0:0:0:0:
221,61,176984,5,10,0:0:0:0:
195,215,177151,1,0,0:0:0:0:
457,191,177318,6,0,B|424:173|414:113|414:113|390:138|344:124,1,161.999995056153,14|0,0:3|0:0,0:0:0:0:
323,104,177651,2,0,P|331:142|326:168,1,53.9999983520508,10|0,0:0|0:0,0:0:0:0:
185,360,177818,2,0,B|127:361|111:301|111:301|138:336|163:334,1,161.999995056153,4|0,0:3|0:0,0:0:0:0:
317,365,178151,6,0,P|312:340|299:318,1,45,6|0,0:3|0:0,0:0:0:0:
200,219,178318,6,0,P|205:188|223:162,1,53.9999983520508,6|0,0:3|0:0,0:0:0:0:
464,235,178484,6,0,P|431:233|402:215,1,62.9999980773926,6|0,0:3|0:0,0:0:0:0:
360,30,178651,6,0,B|313:15|313:15|231:58|231:58|156:34,1,216,14|0,0:0|0:0,0:0:0:0:
45,12,178984,1,4,0:3:0:0:
59,37,179068,1,0,0:0:0:0:
62,65,179151,1,0,0:0:0:0:
50,91,179234,1,0,0:0:0:0:
27,109,179318,5,6,0:3:0:0:
17,165,179401,1,0,0:0:0:0:
49,211,179484,1,4,0:3:0:0:
106,218,179568,1,0,0:0:0:0:
150,181,179651,5,8,0:0:0:0:
204,198,179734,1,8,0:0:0:0:
260,184,179818,1,8,0:0:0:0:
311,209,179901,1,8,0:0:0:0:
337,194,180151,6,0,P|332:159|321:124,1,58.4999973220826,14|0,0:0|0:0,0:0:0:0:
380,39,180318,1,2,0:0:0:0:
436,269,180484,1,4,0:3:0:0:
208,178,180651,6,0,P|245:174|271:163,1,58.4999973220826,12|0,0:0|0:0,0:0:0:0:
404,121,180818,1,2,0:0:0:0:
139,81,180984,1,4,0:3:0:0:
396,292,181151,6,0,P|371:278|343:270,1,58.4999973220826,12|0,0:0|0:0,0:0:0:0:
179,334,181318,1,2,0:0:0:0:
342,105,181484,1,0,0:0:0:0:
474,364,181651,6,0,P|476:333|481:298,1,58.4999973220826,14|0,0:0|0:0,0:0:0:0:
249,62,181818,2,0,P|247:93|242:128,1,58.4999973220826,2|0,0:0|0:0,0:0:0:0:
24,352,181984,6,0,P|59:243|137:237,1,202.500007724762,14|0,0:0|0:0,0:0:0:0:
231,315,182318,5,6,0:3:0:0:
265,310,182401,1,4,0:3:0:0:
315,333,182484,5,4,0:3:0:0:
342,328,182568,1,4,0:3:0:0:
392,350,182651,6,0,B|345:257|422:286|360:222|402:211|406:176|406:176|423:205|472:209|431:282|496:237|490:346|490:346|481:326|459:320,1,405.000015449525,14|0,0:0|0:0,0:0:0:0:
113,47,183984,5,12,0:0:0:0:
75,86,184068,1,0,0:0:0:0:
80,140,184151,1,0,0:0:0:0:
123,174,184234,1,0,0:0:0:0:
177,166,184318,1,6,0:3:0:0:
230,179,184401,1,0,0:0:0:0:
264,222,184484,1,0,0:0:0:0:
269,277,184568,1,0,0:0:0:0:
239,322,184651,1,6,0:3:0:0:
186,331,184734,1,0,0:0:0:0:
138,306,184818,1,0,0:0:0:0:
126,254,184901,1,0,0:0:0:0:
126,254,185318,6,0,B|5:269|5:269|23:253|34:228,1,161.999995056153,12|0,0:0|0:0,0:0:0:0:
65,172,185651,2,0,B|75:114|75:114|46:64,1,107.999996704102,12|0,0:3|0:0,0:0:0:0:
286,28,185984,2,0,L|259:146,1,107.999996704102,2|4,0:0|0:3,0:0:0:0:
449,47,186318,1,12,0:3:0:0:
325,227,186484,1,0,0:0:0:0:
325,227,186568,1,0,0:0:0:0:
325,227,186651,5,6,0:3:0:0:
146,175,186818,1,0,0:0:0:0:
322,238,186984,1,14,0:3:0:0:
190,358,187151,1,0,0:0:0:0:
395,63,187318,5,2,0:0:0:0:
318,250,187484,1,4,0:3:0:0:
492,361,187651,1,12,0:3:0:0:
359,161,187818,1,0,0:0:0:0:
343,153,187901,1,0,0:0:0:0:
314,171,187984,6,0,P|230:160|216:76,1,161.999995056153,14|0,0:0|0:0,0:0:0:0:
284,4,188318,2,0,P|301:66|274:116,1,107.999996704102,12|0,0:3|0:0,0:0:0:0:
37,235,188651,2,0,P|26:195|48:135,1,107.999996704102,6|0,0:3|0:0,0:0:0:0:
274,361,188984,1,12,0:3:0:0:
169,153,189151,1,0,0:0:0:0:
46,361,189318,6,0,B|98:342|110:282|110:282|138:312|177:310,1,161.999995056153,6|0,0:3|0:0,0:0:0:0:
179,311,189651,1,12,0:3:0:0:
68,198,189818,1,0,0:0:0:0:
247,90,189984,5,2,0:3:0:0:
195,301,190151,1,4,0:3:0:0:
387,356,190318,5,12,0:3:0:0:
172,195,190484,1,0,0:0:0:0:
398,69,190651,6,0,B|430:55|448:11|448:11|514:48|507:135|507:135|495:106|459:90,1,270.000010299683,6|12,0:3|0:3,0:0:0:0:
281,96,191151,1,0,0:0:0:0:
353,357,191318,1,2,0:0:0:0:
444,228,191484,1,4,0:3:0:0:
175,175,191651,2,0,P|174:244|205:344,1,161.999995056153,12|0,0:3|0:0,0:0:0:0:
265,371,191984,5,6,0:3:0:0:
35,330,192151,1,0,0:0:0:0:
193,247,192318,1,12,0:3:0:0:
20,142,192484,1,0,0:0:0:0:
13,161,192568,1,0,0:0:0:0:
31,203,192651,1,2,0:0:0:0:
181,49,192818,1,4,0:3:0:0:
446,226,192984,6,0,B|359:170|353:265|247:184,1,202.500007724762,12|0,0:3|0:0,0:0:0:0:
181,49,193318,6,0,B|211:42|232:14|232:14|199:119,1,161.999995056153,12|0,0:0|0:0,0:0:0:0:
126,167,193651,2,0,B|104:144|70:140|70:140|177:116,1,161.999995056153,12|0,0:3|0:0,0:0:0:0:
271,155,193984,2,0,B|262:184|275:216|275:216|201:135,1,161.999995056153,2|0,0:0|0:0,0:0:0:0:
98,55,194318,1,12,0:3:0:0:
50,273,194484,2,0,P|17:266|-4:256,2,53.9999983520508,2|0|4,0:0|0:0|0:3,0:0:0:0:
370,265,194818,5,2,0:0:0:0:
247,296,194984,1,12,0:3:0:0:
444,369,195151,1,0,0:0:0:0:
274,142,195318,5,0,0:0:0:0:
328,360,195484,1,4,0:3:0:0:
494,226,195651,1,12,0:3:0:0:
348,72,195818,1,0,0:0:0:0:
84,297,195984,6,0,B|132:260|194:264|194:264|201:235|165:211,1,161.999995056153,6|0,0:3|0:0,0:0:0:0:
131,71,196318,2,0,B|139:131|104:182|104:182|126:203|164:184,1,161.999995056153,12|0,0:3|0:0,0:0:0:0:
303,224,196651,2,0,B|246:200|219:145|219:145|190:153|188:196,1,161.999995056153,2|0,0:0|0:0,0:0:0:0:
194,361,196984,1,12,0:3:0:0:
371,300,197151,2,0,P|398:312|423:318,2,53.9999983520508,2|0|4,0:0|0:0|0:3,0:0:0:0:
74,281,197484,5,2,0:0:0:0:
160,248,197651,1,12,0:3:0:0:
202,51,197818,1,2,0:0:0:0:
395,184,197984,5,0,0:0:0:0:
257,140,198151,1,4,0:3:0:0:
345,371,198318,1,12,0:3:0:0:
501,139,198484,2,0,P|475:137|447:124,1,53.9999983520508
212,50,198651,6,0,L|232:226,1,161.999995056153,12|0,0:0|0:0,0:0:0:0:
239,281,198984,1,14,0:3:0:0:
51,342,199151,2,0,B|19:303|19:303|32:233,1,107.999996704102,2|0,0:0|0:0,0:0:0:0:
310,320,199484,1,4,0:3:0:0:
9,154,199651,6,0,B|84:171|84:171|102:200|102:200|173:216,1,175.499991966248,14|0,0:3|0:0,0:0:0:0:
233,230,199984,1,4,0:3:0:0:
462,72,200151,6,0,B|402:61|402:61|345:105,1,125.999996154785,2|12,0:0|0:3,0:0:0:0:
466,310,200484,1,0,0:0:0:0:
493,284,200568,1,0,0:0:0:0:
491,241,200651,1,2,0:0:0:0:
252,119,200818,1,4,0:3:0:0:
297,369,200984,6,0,B|357:331|342:245|342:245|332:268|300:283,1,188.999994232178,12|0,0:3|0:0,0:0:0:0:
241,270,201318,6,0,B|375:278|302:353|431:352,1,202.500007724762,6|0,0:3|0:0,0:0:0:0:
484,333,201651,1,12,0:3:0:0:
264,356,201818,1,0,0:0:0:0:
430,257,201984,1,2,0:0:0:0:
333,216,202151,1,4,0:3:0:0:
492,181,202318,5,12,0:3:0:0:
297,10,202484,1,0,0:0:0:0:
39,248,202651,5,6,0:3:0:0:
199,173,202818,1,0,0:0:0:0:
59,66,202984,1,12,0:3:0:0:
147,261,203151,1,0,0:0:0:0:
158,289,203234,1,0,0:0:0:0:
141,331,203318,6,0,P|112:331|77:319,1,53.9999983520508,12|0,0:3|0:0,0:0:0:0:
22,159,203484,2,0,P|58:150|84:133,1,53.9999983520508,12|0,0:3|0:0,0:0:0:0:
314,98,203651,1,12,0:3:0:0:
362,75,203734,1,12,0:3:0:0:
400,101,203818,1,12,0:3:0:0:
445,118,203901,1,12,0:3:0:0:
509,79,203984,6,0,B|409:79|467:133|363:145,1,161.999995056153,12|0,0:0|0:0,0:0:0:0:
301,175,204318,2,0,P|252:148|227:97,1,107.999996704102,12|0,0:3|0:0,0:0:0:0:
209,361,204651,1,2,0:0:0:0:
322,289,204818,1,4,0:3:0:0:
92,184,204984,2,0,P|105:234|99:297,1,107.999996704102,12|0,0:3|0:0,0:0:0:0:
43,333,205234,1,0,0:0:0:0:
43,333,205318,5,6,0:3:0:0:
231,229,205484,1,0,0:0:0:0:
309,286,205651,1,12,0:3:0:0:
221,52,205818,1,0,0:0:0:0:
327,39,205984,5,2,0:0:0:0:
140,227,206151,1,4,0:3:0:0:
410,362,206318,2,0,B|445:345|495:360|495:360|520:318|505:276,1,161.999995056153,12|0,0:3|0:0,0:0:0:0:
420,101,206651,6,0,P|372:122|364:225,1,161.999995056153,6|0,0:3|0:0,0:0:0:0:
426,250,206984,2,0,B|374:228|374:228|318:242,1,107.999996704102,14|0,0:3|0:0,0:0:0:0:
140,31,207318,1,2,0:0:0:0:
262,106,207484,1,4,0:3:0:0:
45,270,207651,2,0,L|31:158,1,107.999996704102,12|0,0:3|0:0,0:0:0:0:
21,92,207901,1,0,0:0:0:0:
19,75,207984,5,6,0:3:0:0:
146,261,208151,1,0,0:0:0:0:
101,344,208318,1,14,0:3:0:0:
275,215,208484,1,0,0:0:0:0:
433,359,208651,5,2,0:0:0:0:
146,261,208818,1,4,0:3:0:0:
342,33,208984,2,0,P|402:31|437:75,1,107.999996704102,12|0,0:3|0:0,0:0:0:0:
491,109,209234,1,0,0:0:0:0:
501,117,209318,6,0,B|443:95|404:146|404:146|382:128|345:131,1,161.999995056153,14|0,0:0|0:0,0:0:0:0:
303,188,209651,2,0,L|329:310,1,107.999996704102,12|0,0:3|0:0,0:0:0:0:
261,359,209984,1,2,0:0:0:0:
408,243,210151,1,4,0:3:0:0:
234,117,210318,2,0,P|177:117|119:34,1,161.999995056153,12|0,0:3|0:0,0:0:0:0:
46,39,210651,6,0,B|86:50|113:80|113:80|90:122|94:177,1,161.999995056153,6|0,0:3|0:0,0:0:0:0:
76,232,210984,1,14,0:3:0:0:
15,124,211151,1,0,0:0:0:0:
79,245,211318,1,2,0:0:0:0:
246,187,211484,1,4,0:3:0:0:
71,358,211651,2,0,B|86:302|86:302|72:260|72:260|92:194,1,161.999995056153,12|0,0:3|0:0,0:0:0:0:
286,52,211984,6,0,B|319:74|319:74|262:90|262:90|229:55|229:55|180:75|180:75|111:57,1,270.000010299683,6|12,0:3|0:3,0:0:0:0:
337,202,212484,1,0,0:0:0:0:
168,320,212651,2,0,B|142:279|142:279|156:218,1,107.999996704102,2|4,0:0|0:3,0:0:0:0:
457,346,212984,2,0,L|351:370,1,107.999996704102,12|0,0:3|0:0,0:0:0:0:
280,358,213234,1,0,0:0:0:0:
280,358,213318,5,6,0:3:0:0:
324,217,213484,1,0,0:0:0:0:
462,265,213651,1,12,0:3:0:0:
223,181,213818,1,0,0:0:0:0:
211,152,213901,1,0,0:0:0:0:
231,104,213984,1,2,0:0:0:0:
370,322,214151,1,4,0:3:0:0:
509,63,214318,6,0,B|451:3|382:51|382:51|404:80|412:115,1,202.500007724762,14|0,0:3|0:0,0:0:0:0:
353,195,214651,6,0,B|318:235|318:235|257:250|215:192,1,161.999995056153,12|0,0:0|0:0,0:0:0:0:
146,73,214984,2,0,B|198:83|198:83|241:128|212:194,1,161.999995056153,12|0,0:3|0:0,0:0:0:0:
143,313,215318,2,0,B|125:262|125:262|143:202|214:194,1,161.999995056153,2|0,0:0|0:0,0:0:0:0:
308,130,215651,2,0,P|336:139|371:141,1,53.9999983520508,12|0,0:3|0:0,0:0:0:0:
483,264,215818,1,2,0:0:0:0:
308,130,215984,1,6,0:3:0:0:
365,334,216151,5,2,0:0:0:0:
454,153,216318,1,12,0:3:0:0:
457,358,216484,1,0,0:0:0:0:
185,218,216651,5,2,0:0:0:0:
300,169,216818,1,4,0:3:0:0:
234,366,216984,5,12,0:3:0:0:
55,301,217151,1,0,0:0:0:0:
85,85,217318,6,0,B|132:18|132:18|224:52,1,161.999995056153,6|0,0:3|0:0,0:0:0:0:
178,186,217651,2,0,B|96:178|96:178|79:82,1,161.999995056153,12|0,0:3|0:0,0:0:0:0:
218,54,217984,2,0,B|252:128|252:128|177:190,1,161.999995056153,2|0,0:0|0:0,0:0:0:0:
74,262,218318,2,0,L|132:258,1,53.9999983520508,12|0,0:3|0:0,0:0:0:0:
255,353,218484,1,2,0:0:0:0:
97,280,218651,1,6,0:3:0:0:
243,117,218818,5,0,0:0:0:0:
323,147,218984,1,12,0:3:0:0:
478,2,219151,1,0,0:0:0:0:
509,297,219318,5,2,0:0:0:0:
364,241,219484,1,4,0:3:0:0:
309,333,219651,5,12,0:3:0:0:
101,358,219818,1,0,0:0:0:0:
221,76,219984,6,0,B|254:181|254:181|248:214|211:236,1,161.999995056153,12|0,0:0|0:0,0:0:0:0:
206,242,220318,1,12,0:3:0:0:
321,131,220484,1,0,0:0:0:0:
378,221,220651,1,2,0:0:0:0:
193,44,220818,1,6,0:3:0:0:
282,312,220984,5,12,0:3:0:0:
4,226,221151,2,0,B|96:167|73:247|173:175,1,161.999995056153,2|0,0:0|0:0,0:0:0:0:
220,149,221484,1,2,0:0:0:0:
102,330,221651,1,12,0:3:0:0:
30,128,221818,1,2,0:0:0:0:
263,352,221984,5,2,0:0:0:0:
343,239,222151,1,4,0:3:0:0:
456,367,222318,2,0,P|397:361|363:312,1,107.999996704102,12|0,0:3|0:0,0:0:0:0:
450,93,222651,6,0,P|450:144|466:258,1,161.999995056153,6|0,0:3|0:0,0:0:0:0:
479,264,222984,2,0,P|455:217|397:190,1,107.999996704102,12|0,0:3|0:0,0:0:0:0:
344,86,223318,5,2,0:0:0:0:
268,184,223484,1,4,0:3:0:0:
128,31,223651,1,12,0:3:0:0:
243,191,223818,1,0,0:0:0:0:
43,297,223984,2,0,P|73:247|28:153,1,161.999995056153,6|0,0:3|0:0,0:0:0:0:
3,168,224318,6,0,B|46:192|83:199|83:199|103:247|103:247|141:251|170:277,1,202.500007724762,12|0,0:0|0:0,0:0:0:0:
177,352,224651,2,0,P|166:324|161:295,1,53.9999983520508,6|0,0:3|0:0,0:0:0:0:
365,223,224818,2,0,P|376:251|381:280,1,53.9999983520508,6|0,0:3|0:0,0:0:0:0:
297,367,224984,2,0,B|285:310|285:310|258:287|258:287|245:219,1,161.999995056153,12|0,0:3|0:0,0:0:0:0:
229,147,225318,5,4,0:0:0:0:
457,225,225484,1,0,0:0:0:0:
285,50,225651,5,4,0:3:0:0:
305,310,225818,1,0,0:0:0:0:
402,78,225984,5,4,0:3:0:0:
181,236,226151,1,0,0:0:0:0:
428,371,226318,5,4,0:3:0:0:
224,111,226484,1,0,0:0:0:0:
67,337,226651,5,6,0:3:0:0:
346,223,226818,1,6,0:3:0:0:
125,22,226984,1,6,0:3:0:0:
125,22,227318,5,8,0:0:0:0:
71,48,227401,1,8,0:0:0:0:
46,102,227484,1,8,0:0:0:0:
60,160,227568,1,8,0:0:0:0:
107,197,227651,1,8,0:0:0:0:
166,196,227734,1,8,0:0:0:0:
213,159,227818,1,8,0:0:0:0:
225,100,227901,1,8,0:0:0:0:
199,47,227984,6,0,P|230:46|272:37,1,53.9999983520508,12|0,0:0|0:0,0:0:0:0:
417,172,228151,1,8,0:2:0:0:
135,113,228318,1,12,0:0:0:0:
409,0,228484,2,0,B|430:49|430:49|395:138|395:138|420:177,1,188.999994232178,10|0,3:2|0:0,0:0:0:0:
429,190,228818,1,10,0:2:0:0:
477,322,228984,2,0,P|452:303|423:289,1,53.9999983520508,14|0,0:0|0:0,0:0:0:0:
297,165,229151,2,0,P|269:176|232:177,1,53.9999983520508,10|0,0:2|0:0,0:0:0:0:
70,356,229318,5,6,0:0:0:0:
206,267,229484,1,10,0:2:0:0:
0,106,229651,2,0,P|16:134|24:161,1,53.9999983520508,14|0,0:0|0:0,0:0:0:0:
92,248,229818,2,0,B|139:160|90:172|139:95,1,161.999995056153,10|0,0:2|0:0,0:0:0:0:
152,74,230151,1,10,0:2:0:0:
293,37,230318,2,0,P|265:36|227:24,1,53.9999983520508,14|0,0:0|0:0,0:0:0:0:
14,23,230484,2,0,P|42:24|80:36,1,53.9999983520508,10|0,0:2|0:0,0:0:0:0:
198,222,230651,5,6,0:0:0:0:
302,155,230818,1,8,0:2:0:0:
481,329,230984,1,14,0:0:0:0:
352,378,231151,2,0,B|378:259|378:259|398:232|398:232|390:193,1,188.999994232178,10|0,0:2|0:0,0:0:0:0:
393,165,231484,1,10,0:2:0:0:
502,62,231651,2,0,P|474:69|446:71,1,53.9999983520508,14|0,0:0|0:0,0:0:0:0:
302,202,231818,2,0,P|275:191|244:190,1,53.9999983520508,10|0,0:2|0:0,0:0:0:0:
67,343,231984,6,0,P|115:326|149:276,1,107.999996704102,6|8,0:0|0:2,0:0:0:0:
21,56,232318,6,0,P|58:103|127:121,1,125.999996154785,14|8,0:0|0:2,0:0:0:0:
425,82,232651,5,6,0:0:0:0:
388,16,232734,2,0,P|357:45|373:141,1,144,12|0,0:0|0:0,0:0:0:0:
488,130,232984,2,0,P|503:94|495:53,1,72,12|0,0:0|0:0,0:0:0:0:
237,127,233151,1,12,0:2:0:0:
248,185,233234,1,4,0:0:0:0:
259,239,233318,6,0,P|231:228|188:221,1,53.9999983520508,12|0,0:0|0:0,0:0:0:0:
38,286,233484,1,10,0:2:0:0:
237,127,233651,1,14,0:0:0:0:
164,359,233818,2,0,B|155:304|155:304|169:277|169:277|148:162,1,188.999994232178,10|0,0:2|0:0,0:0:0:0:
143,145,234151,1,10,0:2:0:0:
21,73,234318,2,0,P|53:77|80:87,1,53.9999983520508,14|0,0:0|0:0,0:0:0:0:
244,214,234484,2,0,P|274:213|303:200,1,53.9999983520508,10|0,0:2|0:0,0:0:0:0:
477,146,234651,5,6,0:0:0:0:
221,70,234818,1,10,0:2:0:0:
421,7,234984,1,14,0:0:0:0:
486,322,235151,2,0,B|442:297|424:231|424:231|395:270|358:266,1,188.999994232178,10|0,0:2|0:0,0:0:0:0:
329,263,235484,1,10,0:2:0:0:
69,359,235651,2,0,P|85:333|87:302,1,53.9999983520508,14|0,0:0|0:0,0:0:0:0:
197,273,235818,2,0,P|189:235|172:214,1,53.9999983520508,10|0,0:2|0:0,0:0:0:0:
46,5,235984,5,12,0:0:0:0:
174,196,236151,1,0,0:0:0:0:
81,231,236318,1,2,0:0:0:0:
263,33,236484,2,0,P|311:36|367:90,1,107.999996704102,6|0,0:0|0:0,0:0:0:0:
498,338,236818,1,4,0:0:0:0:
344,174,236984,1,6,0:0:0:0:
148,357,237151,5,12,0:0:0:0:
256,192,237234,12,4,238567,0:0:0:0:
