osu file format v14

[General]
AudioFilename: audio.mp3
AudioLeadIn: 0
PreviewTime: 182651
Countdown: 0
SampleSet: Soft
StackLeniency: 0.4
Mode: 0
LetterboxInBreaks: 0
WidescreenStoryboard: 0

[Editor]
DistanceSpacing: 0.8
BeatDivisor: 4
GridSize: 32
TimelineZoom: 2.6

[Metadata]
Title:Ano Yume o Nazotte
TitleUnicode:あの夢をなぞって
Artist:YOASOBI
ArtistUnicode:YOASOBI
Creator:Flask
Version:Koori's Insane
Source:
Tags:Lilas Ikuta ikura 幾田りら ayase japanese pop jpop j-pop tracing that dream captin1 jonathanlfj Miyohashikoori
BeatmapID:2649062
BeatmapSetID:1120850

[Difficulty]
HPDrainRate:6
CircleSize:3.8
OverallDifficulty:8
ApproachRate:9
SliderMultiplier:1.8
SliderTickRate:1

[Events]
//Background and Video events
0,0,"wallhaven-96zxlk.jpg",0,0
Video,0,"VD.avi"
//Break Periods
2,158851,168718
//Storyboard Layer 0 (Background)
//Storyboard Layer 1 (Fail)
//Storyboard Layer 2 (Pass)
//Storyboard Layer 3 (Foreground)
//Storyboard Layer 4 (Overlay)
//Storyboard Sound Samples

[TimingPoints]
-15,333.333333333333,4,2,1,40,1,0
1318,-200,4,2,1,40,0,0
19984,-133.333333333333,4,2,55,50,0,0
22484,-100,4,2,2,60,0,0
22568,-100,4,2,1,60,0,0
23818,-80,4,2,55,60,0,0
24068,-80,4,2,55,5,0,0
24151,-80,4,2,55,60,0,0
24401,-80,4,2,55,5,0,0
24484,-133.333333333333,4,2,55,60,0,0
24818,-133.333333333333,4,2,1,60,0,0
25151,-100,4,2,2,60,0,0
25234,-100,4,3,1,60,0,0
30651,-100,4,2,2,60,0,0
30734,-100,4,3,1,60,0,0
34651,-133.333333333333,4,2,2,60,0,0
34734,-133.333333333333,4,3,1,60,0,0
35984,-133.333333333333,4,2,2,45,0,0
41318,-133.333333333333,4,2,1,45,0,0
41401,-133.333333333333,4,2,2,45,0,0
46318,-133.333333333333,4,2,55,45,0,0
46651,-133.333333333333,4,2,2,60,0,0
46734,-133.333333333333,4,2,55,60,0,0
54651,-133.333333333333,4,2,2,60,0,0
54734,-133.333333333333,4,2,55,60,0,0
55818,-133.333333333333,4,2,2,60,0,0
55901,-133.333333333333,4,2,55,60,0,0
56568,-133.333333333333,4,2,55,5,0,0
56651,-133.333333333333,4,2,55,60,0,0
56901,-133.333333333333,4,2,55,5,0,0
56984,-133.333333333333,4,2,55,60,0,0
57234,-133.333333333333,4,2,55,5,0,0
57318,-200,4,2,2,45,0,0
57359,-200,4,2,55,45,0,0
61568,-200,4,2,55,5,0,0
61651,-200,4,2,55,45,0,0
61901,-200,4,2,55,5,0,0
61984,-200,4,2,55,45,0,0
67984,-100,4,2,2,60,0,0
68068,-100,4,2,55,60,0,0
73318,-100,4,2,2,60,0,0
73401,-100,4,2,55,60,0,0
77318,-100,4,2,2,60,0,0
77401,-100,4,2,55,60,0,0
78651,-90.9090909090909,4,2,2,80,0,1
78734,-90.9090909090909,4,2,55,80,0,1
83984,-90.9090909090909,4,2,2,80,0,1
84068,-90.9090909090909,4,2,55,80,0,1
89234,-90.9090909090909,4,2,55,5,0,1
89318,-90.9090909090909,4,2,2,80,0,1
89401,-90.9090909090909,4,2,55,80,0,1
89568,-90.9090909090909,4,2,55,5,0,1
89651,-90.9090909090909,4,2,55,80,0,1
89901,-90.9090909090909,4,2,55,5,0,1
89984,-90.9090909090909,4,2,55,80,0,1
90234,-90.9090909090909,4,2,55,5,0,1
90318,-90.9090909090909,4,2,55,80,0,1
91901,-90.9090909090909,4,2,55,5,0,1
91984,-90.9090909090909,4,2,55,80,0,1
92234,-90.9090909090909,4,2,55,5,0,1
92318,-90.9090909090909,4,2,55,80,0,1
92568,-90.9090909090909,4,2,55,5,0,1
92651,-90.9090909090909,4,2,55,80,0,1
92901,-90.9090909090909,4,2,55,5,0,1
92984,-90.9090909090909,4,2,55,80,0,1
94651,-90.9090909090909,4,2,2,80,0,1
94734,-90.9090909090909,4,2,55,80,0,1
99984,-90.9090909090909,4,2,2,80,0,1
100068,-90.9090909090909,4,2,55,80,0,1
105318,-90.9090909090909,4,2,2,80,0,1
105401,-90.9090909090909,4,2,55,80,0,1
110568,-90.9090909090909,4,2,55,5,0,1
110651,-90.9090909090909,4,2,2,80,0,1
110734,-90.9090909090909,4,2,55,80,0,1
110901,-90.9090909090909,4,2,55,5,0,1
110984,-90.9090909090909,4,2,55,80,0,1
111234,-90.9090909090909,4,2,55,5,0,1
111318,-90.9090909090909,4,2,55,80,0,1
111568,-90.9090909090909,4,2,55,5,0,1
111651,-90.9090909090909,4,2,55,80,0,1
113568,-90.9090909090909,4,2,55,5,0,1
113651,-90.9090909090909,4,2,55,80,0,1
113901,-90.9090909090909,4,2,55,5,0,1
113984,-90.9090909090909,4,2,55,80,0,1
114234,-90.9090909090909,4,2,55,5,0,1
114318,-90.9090909090909,4,2,55,80,0,1
115984,-90.9090909090909,4,2,2,80,0,1
116068,-90.9090909090909,4,2,55,80,0,1
117318,-90.9090909090909,4,2,2,80,0,1
117401,-90.9090909090909,4,2,55,80,0,1
118318,-100,4,2,55,80,0,0
118651,-100,4,2,2,70,0,0
118734,-100,4,2,55,70,0,0
123984,-100,4,2,2,70,0,0
124068,-100,4,2,55,70,0,0
129318,-100,4,2,2,70,0,0
129401,-100,4,2,55,70,0,0
134651,-100,4,2,2,70,0,0
134734,-100,4,2,55,70,0,0
137318,-200,4,2,2,50,0,0
137401,-200,4,2,55,50,0,0
147984,-100,4,2,2,60,0,0
148068,-100,4,2,55,60,0,0
153318,-100,4,2,2,60,0,0
153401,-100,4,2,55,60,0,0
168651,-100,4,2,55,50,0,0
169318,-100,4,2,2,50,0,0
169401,-100,4,2,55,50,0,0
174651,-100,4,2,2,60,0,0
174734,-100,4,2,55,60,0,0
178651,-100,4,2,2,60,0,0
178734,-100,4,2,55,60,0,0
180151,-100,4,2,3,60,0,0
180234,-100,4,2,55,60,0,0
180651,-100,4,2,3,60,0,0
180734,-100,4,2,55,60,0,0
181151,-100,4,2,3,60,0,0
181234,-100,4,2,55,60,0,0
181651,-100,4,2,3,60,0,0
181734,-100,4,2,55,60,0,0
181984,-100,4,2,3,60,0,0
182026,-100,4,2,55,60,0,0
182651,-200,4,2,2,60,0,0
182734,-200,4,2,55,60,0,0
183984,-100,4,2,2,60,0,0
184067,-100,4,2,55,60,0,0
184234,-100,4,2,55,5,0,0
184318,-100,4,2,55,60,0,0
184568,-100,4,2,55,5,0,0
184651,-100,4,2,55,60,0,0
184984,-200,4,2,55,60,0,0
185234,-200,4,2,55,5,0,0
185318,-90.9090909090909,4,2,2,80,0,1
185401,-90.9090909090909,4,2,55,80,0,1
187984,-90.9090909090909,4,2,2,80,0,1
188067,-90.9090909090909,4,2,55,80,0,1
193234,-90.9090909090909,4,2,55,5,0,1
193318,-90.9090909090909,4,2,2,80,0,1
193401,-90.9090909090909,4,2,55,80,0,1
193568,-90.9090909090909,4,2,55,5,0,1
193651,-90.9090909090909,4,2,55,80,0,1
193901,-90.9090909090909,4,2,55,5,0,1
193984,-90.9090909090909,4,2,55,80,0,1
194234,-90.9090909090909,4,2,55,5,0,1
194318,-90.9090909090909,4,2,55,80,0,1
196234,-90.9090909090909,4,2,55,5,0,1
196318,-90.9090909090909,4,2,55,80,0,1
196568,-90.9090909090909,4,2,55,5,0,1
196651,-90.9090909090909,4,2,55,80,0,1
196901,-90.9090909090909,4,2,55,5,0,1
196984,-90.9090909090909,4,2,55,80,0,1
198651,-90.9090909090909,4,2,2,80,0,1
198734,-90.9090909090909,4,2,55,80,0,1
203984,-90.9090909090909,4,2,2,80,0,1
204068,-90.9090909090909,4,2,55,80,0,1
206651,-90.9090909090909,4,2,55,80,0,1
206734,-90.9090909090909,4,2,55,80,0,1
209318,-90.9090909090909,4,2,2,80,0,1
209401,-90.9090909090909,4,2,55,80,0,1
214568,-90.9090909090909,4,2,55,5,0,1
214651,-90.9090909090909,4,2,2,80,0,1
214734,-90.9090909090909,4,2,55,80,0,1
214901,-90.9090909090909,4,2,55,5,0,1
214984,-90.9090909090909,4,2,55,80,0,1
215234,-90.9090909090909,4,2,55,5,0,1
215318,-90.9090909090909,4,2,55,80,0,1
215568,-90.9090909090909,4,2,55,5,0,1
215651,-90.9090909090909,4,2,55,80,0,1
217568,-90.9090909090909,4,2,55,5,0,1
217651,-90.9090909090909,4,2,55,80,0,1
217901,-90.9090909090909,4,2,55,5,0,1
217984,-90.9090909090909,4,2,55,80,0,1
218234,-90.9090909090909,4,2,55,5,0,1
218318,-90.9090909090909,4,2,55,80,0,1
219984,-90.9090909090909,4,2,2,80,0,1
220067,-90.9090909090909,4,2,55,80,0,1
222318,-100,4,2,55,80,0,0
224318,-100,4,2,3,80,0,0
224401,-100,4,2,55,80,0,0
225318,-133.333333333333,4,2,2,80,0,0
225359,-133.333333333333,4,2,55,80,0,0
227984,-100,4,2,2,60,0,0
228068,-100,4,3,1,60,0,0
233318,-100,4,2,2,60,0,0
233401,-100,4,3,1,60,0,0
235984,-100,4,2,2,60,0,0
236067,-100,4,3,1,60,0,0
237151,-133.333333333333,4,2,2,60,0,0
237234,-100,4,3,1,60,0,0

[Colours]
Combo1 : 255,255,136
Combo2 : 153,51,255
Combo3 : 255,255,79
Combo4 : 128,0,255

[HitObjects]
326,310,1318,6,0,P|377:289|410:278,2,90
256,267,2318,1,2,0:0:0:0:
230,190,2651,1,0,0:0:0:0:
267,118,2984,1,0,0:0:0:0:
231,44,3318,2,0,B|180:29|180:29|139:42,2,90,2|0|0,0:0|0:0|0:0,0:0:0:0:
231,44,4484,5,0,0:0:0:0:
231,44,4651,2,0,L|227:100,1,45,2|0,0:0|0:0,0:0:0:0:
316,76,4984,2,0,L|314:125,1,45
399,104,5318,1,0,0:0:0:0:
399,104,5984,2,0,L|408:212,2,90
323,133,6984,5,2,0:0:0:0:
301,211,7318,1,0,0:0:0:0:
280,289,7651,1,0,0:0:0:0:
215,239,7984,1,2,0:0:0:0:
153,186,8318,2,0,L|58:181,1,90
63,181,8984,1,0,0:0:0:0:
63,181,9151,1,0,0:0:0:0:
102,106,9318,6,0,L|94:52,1,45,2|0,0:0|0:0,0:0:0:0:
184,104,9651,2,0,L|179:153,1,45
271,99,9984,2,0,L|263:45,1,45
352,101,10317,2,0,L|347:150,1,45
418,48,10651,6,0,P|376:18|325:25,1,90,2|0,0:0|0:0,0:0:0:0:
271,99,11151,1,0,0:0:0:0:
271,99,11318,1,0,0:0:0:0:
271,99,11984,6,0,B|266:137|266:137|269:146|269:146|262:201,2,90,0|2|0,0:0|0:0|0:0,0:0:0:0:
192,76,12984,1,2,0:0:0:0:
113,56,13318,1,0,0:0:0:0:
35,33,13651,2,0,P|19:88|39:133,2,90
128,124,14651,6,0,P|144:69|124:24,2,90,2|0|0,0:0|0:0|0:0,0:0:0:0:
74,184,15651,1,0,0:0:0:0:
117,252,15984,6,0,B|157:269|189:247|189:247|219:229|264:250,1,135,2|0,0:0|0:0,0:0:0:0:
297,303,16651,2,0,L|289:358,1,45,2|0,0:0|0:0,0:0:0:0:
375,270,16984,2,0,L|367:215,1,45
397,120,17318,6,0,P|344:115|308:87,1,90
242,189,17818,1,0,0:0:0:0:
242,189,18151,6,0,L|187:173,2,45
350,148,18651,6,0,P|354:101|364:52,1,90,2|2,0:0|0:0,0:0:0:0:
454,122,19151,2,0,P|458:169|468:218,1,90,2|2,0:0|0:0,0:0:0:0:
362,246,19651,1,2,0:0:0:0:
362,246,19984,5,2,0:0:0:0:
245,180,20151,1,4,0:3:0:0:
272,275,20318,1,2,0:0:0:0:
292,103,20484,2,0,B|255:89|255:89|234:86|227:101|198:98|198:98|157:86,2,135.000005149842,2|2|6,0:0|0:0|0:3,0:0:0:0:
292,103,21484,2,0,L|286:64,3,22.5000008583069,0|2|2|4,0:0|0:0|0:0|0:3,0:0:0:0:
218,207,21818,1,0,0:0:0:0:
123,204,21984,1,2,0:0:0:0:
61,131,22151,1,0,0:0:0:0:
79,38,22318,1,2,0:0:0:0:
292,103,22484,6,0,B|343:104|371:64|371:64|407:97|464:74,1,180,4|4,0:0|3:0,0:0:0:0:
385,181,22984,1,4,0:3:0:0:
453,77,23151,1,4,0:3:0:0:
295,18,23318,1,4,0:3:0:0:
292,103,23484,1,4,0:3:0:0:
251,216,23651,1,4,0:3:0:0:
244,323,23818,6,0,P|175:316|220:293,1,168.75,6|0,0:3|0:0,0:0:0:0:
325,269,24151,6,0,P|390:259|340:238,1,168.75,6|0,0:3|0:0,0:0:0:0:
251,216,24484,6,0,B|232:124|232:124|247:147|268:154,1,135.000005149842,6|0,0:3|0:0,0:0:0:0:
308,79,24984,1,2,0:0:0:0:
150,183,25151,6,0,B|105:200|65:172|65:172|111:148|154:170,1,180,12|10,0:0|0:2,0:0:0:0:
156,281,25651,1,14,0:0:0:0:
309,230,25818,2,0,B|262:253|229:220|231:191|190:157|138:188,1,180,10|10,0:2|0:2,0:0:0:0:
298,135,26318,1,12,0:3:0:0:
216,193,26484,1,10,3:2:0:0:
214,26,26651,5,6,0:3:0:0:
377,81,26818,1,8,3:2:0:0:
390,168,26984,1,12,0:0:0:0:
293,54,27151,2,0,B|257:45|243:7|243:7|209:21|184:20|184:20|164:40|106:47,1,180,10|10,3:2|3:2,0:0:0:0:
96,129,27651,1,12,3:0:0:0:
216,193,27818,1,10,3:2:0:0:
50,246,27984,5,6,3:0:0:0:
174,124,28151,1,8,3:2:0:0:
25,169,28318,1,12,3:0:0:0:
129,289,28484,2,0,B|113:241|139:195|139:195|92:173|95:100,1,180,10|10,3:2|3:2,0:0:0:0:
212,247,28984,1,12,3:0:0:0:
281,135,29151,1,8,0:2:0:0:
413,238,29318,6,0,L|319:231,1,90,6|8,3:0|0:2,0:0:0:0:
192,142,29651,2,0,L|286:135,1,90,14|8,3:0|0:2,0:0:0:0:
408,48,29984,1,6,3:0:0:0:
408,48,30068,2,0,L|297:33,1,90,12|0,3:0|0:0,0:0:0:0:
306,49,30318,1,14,3:0:0:0:
443,160,30484,1,6,3:0:0:0:
449,143,30568,1,4,3:0:0:0:
454,126,30651,5,12,0:0:0:0:
345,224,30818,1,8,0:2:0:0:
311,138,30984,1,14,3:0:0:0:
440,247,31151,2,0,B|418:352,1,90,10|0,3:2|0:0,0:0:0:0:
345,224,31484,1,10,3:2:0:0:
443,160,31651,1,12,3:0:0:0:
339,238,31818,1,10,3:2:0:0:
297,113,31984,6,0,L|204:91,1,90,6|8,3:0|3:2,0:0:0:0:
333,252,32318,1,12,3:0:0:0:
380,57,32484,2,0,L|295:18,1,90,10|0,3:2|0:0,0:0:0:0:
443,160,32818,1,10,3:2:0:0:
462,31,32984,1,14,3:0:0:0:
373,139,33151,1,10,3:2:0:0:
512,178,33318,5,6,3:0:0:0:
380,57,33484,1,8,0:2:0:0:
365,217,33651,1,12,3:0:0:0:
258,98,33818,2,0,L|163:84,1,90,10|0,0:2|0:0,0:0:0:0:
225,205,34151,1,10,3:2:0:0:
284,84,34318,2,0,L|163:67,1,90,14|0,3:0|0:0,0:0:0:0:
100,176,34651,6,0,B|135:218|178:211|172:192|210:192|240:213,1,135.000005149842,12|4,0:0|3:0,0:0:0:0:
270,335,35151,1,2,0:2:0:0:
270,335,35234,1,2,0:0:0:0:
270,335,35318,2,0,P|212:337|200:266,1,135.000005149842,6|6,3:0|3:0,0:0:0:0:
300,244,35818,1,6,3:0:0:0:
220,162,35984,6,0,P|229:116|239:81,1,67.5000025749208,4|0,0:0|0:0,0:0:0:0:
329,46,36318,2,0,P|338:92|348:127,1,67.5000025749208,12|0,0:3|0:0,0:0:0:0:
419,180,36651,2,0,P|452:175|485:168,1,67.5000025749208,12|2,0:3|0:0,0:0:0:0:
492,76,36984,2,0,P|458:69|425:64,1,67.5000025749208,12|2,0:3|0:0,0:0:0:0:
282,142,37318,6,0,B|248:210|302:186|254:300,1,135.000005149842,10|4,0:0|0:3,0:0:0:0:
191,228,37818,1,0,0:0:0:0:
191,228,37984,2,0,B|133:224|115:177|115:177|98:193|59:188,1,135.000005149842,12|12,0:3|0:3,0:0:0:0:
1,229,38484,1,0,0:0:0:0:
23,134,38651,6,0,P|17:103|10:67,2,67.5000025749208,4|2|4,0:3|0:0|0:3,0:0:0:0:
115,175,39151,1,2,0:0:0:0:
110,74,39318,1,12,0:3:0:0:
110,74,39484,1,0,0:0:0:0:
208,117,39651,1,4,0:3:0:0:
208,117,39818,1,2,0:0:0:0:
292,21,39984,6,0,P|298:51|307:107,2,67.5000025749208,4|2|4,0:3|0:0|0:3,0:0:0:0:
441,95,40484,1,2,0:0:0:0:
441,95,40651,2,0,P|439:110|431:176,1,67.5000025749208,4|2,0:3|0:0,0:0:0:0:
331,190,40984,2,0,P|329:175|321:109,1,67.5000025749208,4|2,0:3|0:0,0:0:0:0:
383,282,41318,6,0,P|309:287|243:241,2,135.000005149842,12|12|12,0:0|0:3|0:3,0:0:0:0:
480,332,42151,1,0,0:0:0:0:
480,332,42318,2,0,P|477:281|479:227,1,101.250003862381,12|0,0:3|0:0,0:0:0:0:
496,223,42651,6,0,P|484:154|406:148,1,135.000005149842,4|4,0:3|0:3,0:0:0:0:
375,210,43151,1,2,0:0:0:0:
348,122,43318,2,0,P|302:106|305:19,1,135.000005149842,4|12,0:3|0:3,0:0:0:0:
381,38,43818,1,0,0:0:0:0:
218,128,43984,6,0,B|174:124|174:124|137:114,1,67.5000025749208,4|0,0:3|0:0,0:0:0:0:
132,31,44318,2,0,B|176:35|176:35|213:45,1,67.5000025749208,4|2,0:3|0:0,0:0:0:0:
226,193,44651,2,0,P|215:161|217:127,1,67.5000025749208,12|0,0:3|0:0,0:0:0:0:
381,38,44984,2,0,P|391:69|389:103,1,67.5000025749208,4|2,0:3|0:0,0:0:0:0:
288,228,45318,6,0,P|230:196|146:207,1,135.000005149842,4|4,0:3|0:3,0:0:0:0:
100,297,45818,1,2,0:0:0:0:
173,330,45984,1,12,0:3:0:0:
248,299,46151,1,12,0:3:0:0:
288,228,46318,1,12,0:3:0:0:
365,205,46484,1,0,0:0:0:0:
441,231,46651,6,0,B|457:200|446:167|426:167|413:136|444:79,1,135.000005149842,12|8,0:0|0:2,0:0:0:0:
390,22,47151,1,0,0:0:0:0:
390,22,47318,2,0,P|346:18|303:12,1,67.5000025749208,2|4,0:0|0:3,0:0:0:0:
250,76,47651,2,0,P|206:80|163:86,1,67.5000025749208,10|0,0:0|0:0,0:0:0:0:
57,18,47984,6,0,P|92:51|65:145,1,135.000005149842,6|8,0:3|0:0,0:0:0:0:
138,212,48484,1,2,0:0:0:0:
25,237,48651,1,2,0:0:0:0:
25,237,48818,1,4,0:3:0:0:
112,294,48984,2,0,L|119:220,1,67.5000025749208,8|0,0:0|0:0,0:0:0:0:
189,331,49318,6,0,P|151:372|75:371,2,135.000005149842,6|10|0,0:3|0:0|0:0,0:0:0:0:
288,370,50151,1,4,0:3:0:0:
248,265,50318,2,0,P|213:245|162:247,1,67.5000025749208,10|0,0:0|0:0,0:0:0:0:
138,168,50651,6,0,P|102:209|109:286,1,135.000005149842,6|8,0:3|0:0,0:0:0:0:
186,242,51151,1,2,0:0:0:0:
138,168,51318,1,2,0:0:0:0:
108,285,51484,1,4,0:3:0:0:
248,296,51651,2,0,P|266:264|262:220,1,67.5000025749208,10|0,0:0|0:0,0:0:0:0:
182,131,51984,6,0,B|194:146|195:169|195:169|244:122|308:151,1,135.000005149842,6|8,0:3|0:0,0:0:0:0:
332,246,52484,2,0,P|297:238|238:231,1,67.5000025749208,0|2,0:0|0:0,0:0:0:0:
187,290,52818,1,4,0:3:0:0:
295,349,52984,2,0,P|330:341|389:334,1,67.5000025749208,10|0,0:0|0:0,0:0:0:0:
413,258,53318,6,0,P|405:200|334:164,1,135.000005149842,6|8,0:3|0:0,0:0:0:0:
237,205,53818,1,2,0:0:0:0:
286,102,53984,1,0,0:0:0:0:
335,244,54151,1,4,0:3:0:0:
406,100,54318,1,8,0:0:0:0:
286,102,54484,1,0,0:0:0:0:
465,37,54651,6,0,P|490:114|447:176,1,135.000005149842,12|0,0:0|0:0,0:0:0:0:
343,163,55151,1,2,0:0:0:0:
416,247,55318,2,0,L|421:197,1,33.7500012874604,12|0,0:3|0:0,0:0:0:0:
335,244,55484,1,2,0:0:0:0:
430,334,55651,1,8,0:0:0:0:
260,356,55818,6,0,B|272:321|257:294|257:294|262:282|262:282|245:255|259:213,1,135.000005149842,12|4,0:0|0:3,0:0:0:0:
343,163,56318,2,0,P|323:115|266:101,1,101.250003862381,4|0,0:3|0:0,0:0:0:0:
279,99,56651,2,0,P|233:101|198:54,1,101.250003862381,14|0,0:3|0:0,0:0:0:0:
199,61,56984,2,0,L|90:49,1,101.250003862381,4|0,0:3|0:0,0:0:0:0:
73,66,57318,6,0,B|59:85|62:104|62:104|79:123|72:155,1,90,14|0,0:0|0:0,0:0:0:0:
38,236,57818,1,2,0:0:0:0:
134,270,57984,2,0,P|135:246|121:223,1,45,10|2,0:0|0:0,0:0:0:0:
227,152,58318,2,0,P|206:180|205:209,1,45,0|2,0:0|0:0,0:0:0:0:
265,254,58651,6,0,B|302:262|327:252|327:252|304:238|289:240,1,90,2|4,0:0|0:3,0:0:0:0:
409,302,59318,2,0,P|411:276|416:251,1,45,8|2,0:0|0:0,0:0:0:0:
501,205,59651,1,0,0:0:0:0:
430,134,59818,1,2,0:0:0:0:
293,181,59984,6,0,P|244:170|197:164,1,90,6|0,0:3|0:0,0:0:0:0:
115,214,60484,1,0,0:0:0:0:
213,247,60651,2,0,P|223:214|200:160,1,90,8|0,0:0|0:0,0:0:0:0:
134,74,61151,1,0,0:0:0:0:
251,20,61318,6,0,B|240:47|240:47|252:96,1,67.5,2|0,0:0|0:0,0:0:0:0:
275,124,61651,2,0,B|285:96|285:96|273:47,1,67.5,4|0,0:3|0:0,0:0:0:0:
308,39,61984,2,0,L|363:49,1,45,8|2,0:0|0:0,0:0:0:0:
442,119,62318,2,0,L|386:128,1,45,0|2,0:0|0:0,0:0:0:0:
313,206,62651,6,0,P|313:217|319:308,2,90,6|0|8,0:3|0:0|0:0,0:0:0:0:
208,260,63651,2,0,P|207:249|196:197,1,45
238,123,63984,6,0,B|302:109|276:134|344:114,1,90,2|4,0:0|0:3,0:0:0:0:
405,47,64484,1,2,0:0:0:0:
405,47,64651,2,0,B|409:103|409:103|392:66,1,90,8|2,0:0|0:0,0:0:0:0:
303,46,65151,1,0,0:0:0:0:
303,46,65318,6,0,B|280:34|258:48|258:48|226:44|207:26|207:26|226:12|249:14,1,135,4|0,0:3|0:0,0:0:0:0:
147,85,65984,2,0,P|134:112|177:100,1,90,8|0,0:0|0:0,0:0:0:0:
252,144,66484,1,0,0:0:0:0:
252,144,66651,5,2,0:0:0:0:
157,317,66984,1,4,0:3:0:0:
355,308,67318,1,10,0:0:0:0:
167,221,67651,2,0,P|162:205|162:183,1,22.5,8|8,0:0|0:0,0:0:0:0:
252,144,67818,1,8,0:0:0:0:
248,159,67901,1,8,0:0:0:0:
242,175,67984,6,0,B|247:118|247:118|239:101|239:101|247:35,1,135,12|0,0:0|0:0,0:0:0:0:
234,33,68318,6,0,L|330:42,1,90,8|2,0:0|0:0,0:0:0:0:
406,125,68651,1,0,0:0:0:0:
446,13,68818,1,4,0:3:0:0:
452,187,68984,2,0,P|388:201|337:161,1,135,8|0,0:0|0:0,0:0:0:0:
324,133,69318,6,0,B|299:144|279:136|279:126|255:118|228:128,1,90,6|0,0:3|0:0,0:0:0:0:
126,218,69651,2,0,B|151:207|171:215|171:225|195:233|222:223,1,90,8|0,0:0|0:0,0:0:0:0:
160,46,69984,2,0,B|171:71|163:91|153:91|145:115|155:142,1,90,0|4,0:0|0:3,0:0:0:0:
283,302,70318,2,0,B|272:277|280:257|290:257|298:233|288:206,1,90,10|0,0:0|0:0,0:0:0:0:
361,60,70651,6,0,B|345:42|345:42|274:31,1,90,6|0,0:3|0:0,0:0:0:0:
202,149,70984,2,0,B|224:130|224:130|292:116,1,90,8|0,0:0|0:0,0:0:0:0:
370,246,71318,2,0,B|353:227|353:227|290:215,1,90,0|4,0:0|0:3,0:0:0:0:
176,322,71651,2,0,B|203:308|203:308|269:298,1,90,10|0,0:0|0:0,0:0:0:0:
420,361,71984,6,0,P|358:343|377:241,1,180,4|8,0:3|0:0,0:0:0:0:
464,268,72484,1,0,0:0:0:0:
409,161,72651,2,0,P|365:154|309:143,1,90,2|4,0:0|0:3,0:0:0:0:
385,53,72984,2,0,P|429:44|473:37,1,90,8|0,0:0|0:0,0:0:0:0:
320,145,73318,6,0,B|290:139|260:150|260:150|205:118|205:118|245:117|263:79,1,180,4|4,0:0|0:3,0:0:0:0:
131,133,73818,1,0,0:0:0:0:
199,44,73984,2,0,L|101:35,1,90,6|0,0:3|0:0,0:0:0:0:
55,145,74318,1,6,0:3:0:0:
205,119,74484,1,0,0:0:0:0:
109,35,74651,5,6,0:3:0:0:
131,133,74818,1,0,0:0:0:0:
21,213,74984,2,0,L|6:308,2,90,6|0|6,0:3|0:0|0:3,0:0:0:0:
110,267,75484,1,0,0:0:0:0:
205,119,75651,1,6,0:3:0:0:
55,145,75818,1,2,0:0:0:0:
214,211,75984,6,0,P|259:199|287:162,1,90,6|0,0:3|0:3,0:0:0:0:
377,227,76318,1,4,0:3:0:0:
313,87,76484,1,6,0:3:0:0:
430,115,76651,5,0,0:0:0:0:
285,166,76818,1,4,0:3:0:0:
377,227,76984,1,4,0:3:0:0:
381,49,77151,1,4,0:3:0:0:
236,101,77318,6,0,L|160:95,3,45,4|0|0|0,0:0|0:0|0:0|0:0,0:0:0:0:
214,211,77651,2,0,L|262:203,3,45,2|0|2|0,0:0|0:0|0:0|0:0,0:0:0:0:
206,342,77984,6,0,P|204:311|188:286,1,45,6|4,0:3|0:3,0:0:0:0:
78,258,78151,2,0,P|81:227|90:207,1,45,6|4,0:3|0:3,0:0:0:0:
214,211,78318,2,0,P|212:182|196:138,1,45,6|4,0:3|0:3,0:0:0:0:
102,95,78484,2,0,P|106:60|126:40,1,45,6|4,0:3|0:3,0:0:0:0:
296,95,78651,6,0,B|299:125|325:148|358:150|397:131|397:86|388:63|363:49|332:61|331:84|340:102,2,198.000006042481,12|12|2,0:0|0:3|0:0,0:0:0:0:
442,204,79484,1,4,0:3:0:0:
356,237,79651,2,0,P|277:221|217:169,1,148.50000453186,12|0,0:3|0:0,0:0:0:0:
208,159,79984,6,0,B|192:93|192:93|204:48,1,99.0000030212403,6|0,0:3|0:0,0:0:0:0:
87,11,80318,2,0,B|95:41|95:41|79:107,1,99.0000030212403,12|0,0:3|0:0,0:0:0:0:
12,197,80651,1,2,0:0:0:0:
124,191,80818,1,4,0:3:0:0:
116,290,80984,2,0,L|125:181,1,99.0000030212403,14|0,0:3|0:0,0:0:0:0:
211,74,81318,6,0,B|267:53|307:88|307:88|253:111|263:183,2,198.000006042481,6|12|2,0:3|0:3|0:0,0:0:0:0:
349,160,82151,1,0,0:0:0:0:
249,286,82318,2,0,B|221:304|221:304|144:274|144:274|101:298,1,148.50000453186,12|0,0:3|0:0,0:0:0:0:
84,322,82651,6,0,B|67:297|77:262|77:262|55:247|57:205,1,99.0000030212403,6|0,0:3|0:0,0:0:0:0:
170,93,82984,2,0,B|153:118|163:153|163:153|141:168|143:210,1,99.0000030212403,14|0,0:3|0:0,0:0:0:0:
77,70,83318,1,2,0:0:0:0:
246,129,83484,1,4,0:3:0:0:
59,161,83651,2,0,P|52:119|83:66,1,99.0000030212403,14|0,0:3|0:0,0:0:0:0:
308,80,83984,6,0,P|313:172|205:197,2,198.000006042481,12|12|2,0:0|0:3|0:0,0:0:0:0:
433,145,84818,1,0,0:0:0:0:
364,237,84984,2,0,B|340:209|297:220|297:220|258:231|221:202,1,148.50000453186,12|0,0:3|0:0,0:0:0:0:
196,176,85318,6,0,B|184:108|184:108|212:135,1,99.0000030212403,6|0,0:3|0:0,0:0:0:0:
337,87,85651,2,0,B|349:19|349:19|321:46,1,99.0000030212403,14|0,0:3|0:0,0:0:0:0:
193,24,85984,1,2,0:0:0:0:
281,147,86151,1,4,0:3:0:0:
106,231,86318,2,0,L|116:123,1,99.0000030212403,14|0,0:3|0:0,0:0:0:0:
225,208,86651,5,6,0:3:0:0:
115,132,86818,1,0,0:0:0:0:
78,306,86984,2,0,P|144:304|175:267,1,99.0000030212403,12|0,0:3|0:0,0:0:0:0:
336,299,87318,1,2,0:0:0:0:
281,147,87484,1,4,0:3:0:0:
252,292,87651,1,12,0:3:0:0:
200,114,87818,1,0,0:0:0:0:
358,177,87984,6,0,B|385:201|385:201|420:197|462:201|462:201|455:148|466:163|463:101,1,198.000006042481,6|14,0:3|0:3,0:0:0:0:
382,41,88484,1,0,0:0:0:0:
281,147,88651,1,2,0:0:0:0:
463,116,88818,1,4,0:3:0:0:
264,65,88984,2,0,P|214:94|203:154,1,99.0000030212403,12|0,0:3|0:0,0:0:0:0:
441,252,89318,6,0,B|363:277|363:277|342:273|342:273|299:287,1,148.50000453186,12|0,0:0|0:0,0:0:0:0:
299,287,89651,2,0,B|256:273|256:273|235:277|235:277|189:260,1,99.0000030212403,12|0,0:3|0:0,0:0:0:0:
351,198,89984,1,2,0:0:0:0:
248,354,90151,1,0,0:0:0:0:
225,152,90318,1,14,0:3:0:0:
299,287,90484,1,2,0:0:0:0:
366,117,90651,5,4,0:3:0:0:
260,231,90818,2,0,B|228:215|228:215|215:175|233:125,1,99.0000030212403,2|12,0:0|0:3,0:0:0:0:
331,38,91151,2,0,B|363:54|363:54|376:94|358:144,1,99.0000030212403,2|0,0:0|0:0,0:0:0:0:
244,68,91484,1,6,0:3:0:0:
340,196,91651,2,0,P|394:198|433:169,1,99.0000030212403,14|0,0:3|0:0,0:0:0:0:
295,328,91984,6,0,B|266:231|266:231|282:263|309:269,1,148.50000453186,6|0,0:3|0:0,0:0:0:0:
297,265,92318,2,0,P|243:283|186:250,1,99.0000030212403,12|0,0:3|0:0,0:0:0:0:
93,310,92651,1,2,0:0:0:0:
174,192,92818,1,0,0:0:0:0:
30,108,92984,2,0,B|13:140|13:140|28:213,1,99.0000030212403,14|2,0:3|0:0,0:0:0:0:
179,104,93318,6,0,B|196:72|196:72|181:-1,1,99.0000030212403,6|0,0:3|0:0,0:0:0:0:
103,143,93651,1,12,0:3:0:0:
268,106,93818,1,2,0:0:0:0:
293,206,93984,1,2,0:0:0:0:
179,104,94151,1,6,0:3:0:0:
359,41,94318,2,0,P|350:101|344:149,1,99.0000030212403,14|0,0:3|0:0,0:0:0:0:
211,257,94651,6,0,B|197:197|233:164|233:164|189:202|134:175,1,198.000006042481,12|12,0:0|0:3,0:0:0:0:
54,255,95151,1,2,0:0:0:0:
139,322,95318,1,0,0:0:0:0:
60,168,95484,1,4,0:3:0:0:
211,257,95651,2,0,P|243:255|320:243,1,99.0000030212403,14|0,0:3|0:0,0:0:0:0:
423,153,95984,6,0,B|431:121|409:93|409:93|422:32,1,99.0000030212403,4|2,0:3|0:0,0:0:0:0:
325,151,96318,1,12,0:3:0:0:
423,153,96484,1,0,0:0:0:0:
290,74,96651,1,0,0:0:0:0:
367,228,96818,1,6,0:3:0:0:
464,77,96984,2,0,L|361:62,1,99.0000030212403,14|0,0:3|0:0,0:0:0:0:
252,196,97318,5,6,0:3:0:0:
290,74,97484,1,0,0:0:0:0:
423,153,97651,2,0,P|457:197|457:252,1,99.0000030212403,14|0,0:3|0:0,0:0:0:0:
366,62,97984,1,2,0:0:0:0:
367,228,98151,1,4,0:3:0:0:
423,153,98318,1,14,0:3:0:0:
290,74,98484,1,2,0:0:0:0:
237,225,98651,6,0,B|128:217|128:217|88:178|107:130,1,198.000006042481,6|12,0:3|0:3,0:0:0:0:
32,211,99151,1,4,0:3:0:0:
183,143,99318,1,14,0:3:0:0:
84,285,99484,1,4,0:3:0:0:
29,114,99651,1,12,0:3:0:0:
189,34,99818,1,12,0:3:0:0:
189,34,99901,1,12,0:3:0:0:
189,34,99984,6,0,B|229:1|288:39|288:39|265:102|205:98,2,198.000006042481,4|12|2,0:0|0:3|0:0,0:0:0:0:
109,142,100818,1,0,0:0:0:0:
182,221,100984,2,0,P|154:274|158:371,1,148.50000453186,12|0,0:3|0:0,0:0:0:0:
197,315,101318,6,0,P|199:265|177:214,1,99.0000030212403,6|0,0:3|0:0,0:0:0:0:
109,142,101651,2,0,P|106:92|124:47,1,99.0000030212403,14|0,0:3|0:0,0:0:0:0:
257,163,101984,1,2,0:0:0:0:
194,105,102151,1,4,0:3:0:0:
54,203,102318,2,0,P|97:224|145:215,1,99.0000030212403,12|0,0:3|0:0,0:0:0:0:
233,334,102651,6,0,B|198:331|176:308|176:308|142:328|93:321|93:321|136:327|160:362,2,198.000006042481,6|12|2,0:3|0:3|0:0,0:0:0:0:
249,235,103484,1,4,0:3:0:0:
376,341,103651,2,0,P|372:276|317:304,1,148.50000453186,12|0,0:3|0:0,0:0:0:0:
317,302,103984,6,0,P|276:327|212:319,1,99.0000030212403,6|0,0:3|0:0,0:0:0:0:
188,178,104318,2,0,P|229:153|293:161,1,99.0000030212403,12|0,0:3|0:0,0:0:0:0:
159,278,104651,1,2,0:0:0:0:
117,119,104818,1,4,0:3:0:0:
278,154,104984,2,0,L|392:156,1,99.0000030212403,14|0,0:3|0:0,0:0:0:0:
214,56,105318,5,12,0:0:0:0:
249,235,105484,1,0,0:0:0:0:
386,78,105651,2,0,B|315:75|315:75|304:64|287:60,1,99.0000030212403,12|0,0:3|0:0,0:0:0:0:
188,178,105984,1,6,0:3:0:0:
214,56,106151,1,0,0:0:0:0:
118,131,106318,2,0,P|100:184|126:236,1,99.0000030212403,12|0,0:3|0:0,0:0:0:0:
279,227,106651,6,0,B|295:241|295:241|315:174|282:137|282:137|282:155|266:167,1,148.50000453186,6|0,0:3|0:0,0:0:0:0:
277,153,106984,6,0,P|226:145|176:133,1,99.0000030212403,14|0,0:3|0:0,0:0:0:0:
105,251,107318,2,0,P|153:239|202:232,1,99.0000030212403,2|4,0:0|0:3,0:0:0:0:
268,329,107651,1,14,0:3:0:0:
277,153,107818,1,0,0:0:0:0:
421,258,107984,6,0,P|362:257|312:249,1,99.0000030212403,6|0,0:3|0:0,0:0:0:0:
376,354,108318,2,0,P|435:355|485:363,1,99.0000030212403,12|0,0:3|0:0,0:0:0:0:
421,258,108651,1,2,0:0:0:0:
268,329,108818,1,4,0:3:0:0:
277,153,108984,2,0,B|330:150|330:150|337:153|337:153|385:153,1,99.0000030212403,12|0,0:3|0:0,0:0:0:0:
206,207,109318,6,0,P|187:167|251:73,1,148.50000453186,6|0,0:3|0:0,0:0:0:0:
243,81,109651,1,12,0:3:0:0:
300,231,109818,1,0,0:0:0:0:
331,92,109984,1,2,0:0:0:0:
206,207,110151,1,4,0:3:0:0:
158,44,110318,2,0,P|100:36|55:33,1,99.0000030212403,12|0,0:3|0:0,0:0:0:0:
26,153,110651,6,0,B|25:212|49:188|49:252,1,99.0000030212403,12|0,0:0|0:0,0:0:0:0:
124,355,110984,2,0,B|123:296|147:320|147:256,1,99.0000030212403,12|0,0:3|0:0,0:0:0:0:
144,150,111318,1,6,0:3:0:0:
48,247,111484,1,0,0:0:0:0:
210,343,111651,1,12,0:3:0:0:
146,260,111818,6,0,P|157:215|141:147,1,99.0000030212403,2|4,0:0|0:3,0:0:0:0:
252,60,112151,1,2,0:0:0:0:
144,150,112318,1,12,0:3:0:0:
274,182,112484,1,0,0:0:0:0:
162,66,112651,1,2,0:0:0:0:
343,51,112818,1,4,0:3:0:0:
273,196,112984,1,14,0:3:0:0:
252,60,113151,1,2,0:0:0:0:
153,228,113318,6,0,P|108:223|72:170,1,99.0000030212403,4|0,0:3|0:0,0:0:0:0:
222,275,113651,2,0,P|192:304|116:303,1,99.0000030212403,14|0,0:3|0:0,0:0:0:0:
273,196,113984,1,4,0:3:0:0:
316,322,114151,1,0,0:0:0:0:
275,180,114318,1,14,0:3:0:0:
386,279,114484,2,0,L|496:270,1,99.0000030212403,2|4,0:0|0:3,0:0:0:0:
367,140,114818,5,2,0:0:0:0:
317,322,114984,1,12,0:3:0:0:
404,204,115151,1,2,0:0:0:0:
234,180,115318,1,2,0:0:0:0:
386,279,115484,1,4,0:3:0:0:
290,129,115651,1,14,0:3:0:0:
241,299,115818,1,2,0:0:0:0:
367,140,115984,6,0,P|359:92|310:54,1,99.0000030212403,12|0,0:0|0:0,0:0:0:0:
319,216,116318,2,0,P|378:234|426:208,1,99.0000030212403,14|0,0:3|0:0,0:0:0:0:
290,129,116651,1,2,0:0:0:0:
241,299,116818,1,4,0:3:0:0:
234,180,116984,1,14,0:3:0:0:
323,326,117151,6,0,P|326:281|295:233,1,99.0000030212403,2|4,0:0|0:0,0:0:0:0:
433,158,117484,2,0,P|406:199|408:247,1,99.0000030212403,0|4,0:0|0:3,0:0:0:0:
346,83,117818,1,6,0:3:0:0:
346,83,117901,1,0,0:0:0:0:
346,83,117984,2,0,L|336:15,1,49.5000015106202,6|0,0:3|0:0,0:0:0:0:
244,131,118151,2,0,L|232:184,1,49.5000015106202,6|0,0:3|0:0,0:0:0:0:
149,81,118318,2,0,L|141:27,1,45,6|0,0:3|0:0,0:0:0:0:
51,136,118484,1,4,0:3:0:0:
51,136,118568,1,4,0:3:0:0:
51,136,118651,6,0,P|40:171|26:240,1,90,12|0,0:0|0:0,0:0:0:0:
162,277,118984,2,0,P|141:236|117:198,1,90,12|2,0:3|0:0,0:0:0:0:
15,319,119318,1,0,0:0:0:0:
117,198,119484,1,0,0:0:0:0:
109,357,119651,1,12,0:3:0:0:
28,223,119818,1,2,0:0:0:0:
206,174,119984,6,0,B|199:112|230:52|230:52|212:81|186:94,1,180,6|12,0:3|0:3,0:0:0:0:
300,155,120484,1,2,0:0:0:0:
231,52,120651,1,0,0:0:0:0:
305,169,120818,1,4,0:3:0:0:
386,19,120984,2,0,P|324:12|290:5,1,90,14|0,0:3|0:0,0:0:0:0:
206,174,121318,6,0,B|195:203|195:203|207:274,1,90,6|0,0:3|0:0,0:0:0:0:
142,104,121651,2,0,B|106:95|106:95|90:96|90:96|45:82,1,90,12|0,0:3|0:0,0:0:0:0:
231,52,121984,1,6,0:3:0:0:
110,180,122151,1,0,0:0:0:0:
144,28,122318,1,14,0:3:0:0:
206,174,122484,1,2,0:0:0:0:
319,76,122651,6,0,L|414:85,1,90,6|0,0:3|0:0,0:0:0:0:
293,214,122984,1,14,0:3:0:0:
231,52,123151,1,0,0:0:0:0:
348,154,123318,1,2,0:0:0:0:
206,174,123484,1,6,0:3:0:0:
319,76,123651,2,0,P|325:37|305:-12,1,90,14|2,0:3|0:0,0:0:0:0:
348,154,123984,6,0,P|407:133|468:33,2,180,12|12|6,0:0|0:3|0:3,0:0:0:0:
268,133,124818,1,0,0:0:0:0:
326,247,124984,2,0,P|369:258|411:245,1,90,12|2,0:3|0:0,0:0:0:0:
240,255,125318,6,0,B|218:260|195:280|195:280|142:270|142:270|159:219|159:219|190:199,1,180,6|12,0:3|0:3,0:0:0:0:
251,336,125818,1,2,0:0:0:0:
278,181,125984,1,0,0:0:0:0:
240,255,126151,1,4,0:3:0:0:
352,140,126318,2,0,P|406:128|458:136,1,90,14|0,0:3|0:0,0:0:0:0:
247,55,126651,5,6,0:3:0:0:
350,223,126818,1,0,0:0:0:0:
181,132,126984,2,0,P|153:92|166:36,1,90,12|2,0:3|0:0,0:0:0:0:
331,19,127318,1,0,0:0:0:0:
352,140,127484,1,6,0:3:0:0:
247,55,127651,1,12,0:3:0:0:
172,212,127818,1,0,0:0:0:0:
350,223,127984,5,6,0:3:0:0:
181,132,128151,1,0,0:0:0:0:
246,256,128318,2,0,P|260:219|240:163,1,90,12|2,0:3|0:0,0:0:0:0:
160,289,128651,1,0,0:0:0:0:
350,223,128818,1,6,0:3:0:0:
260,351,128984,2,0,P|193:342|160:289,1,135,12|0,0:3|0:0,0:0:0:0:
169,266,129318,5,12,0:0:0:0:
350,223,129484,1,0,0:0:0:0:
246,256,129651,1,12,0:3:0:0:
426,215,129818,2,0,B|432:189|426:170|426:170|419:151|431:113,1,90,0|6,0:0|0:3,0:0:0:0:
440,110,130068,1,0,0:0:0:0:
440,110,130151,1,0,0:0:0:0:
304,0,130318,2,0,L|310:50,1,45,12|0,0:3|0:0,0:0:0:0:
412,89,130484,6,0,B|376:51|321:71|321:71|283:92|225:54,1,180,2|0,0:0|0:0,0:0:0:0:
201,171,130984,1,12,0:3:0:0:
82,49,131151,1,0,0:0:0:0:
100,214,131318,1,2,0:0:0:0:
244,65,131484,1,4,0:3:0:0:
89,131,131651,2,0,P|40:122|6:85,1,90,14|0,0:3|0:0,0:0:0:0:
170,38,131984,6,0,L|158:94,1,45,6|0,0:3|0:0,0:0:0:0:
201,171,132151,1,0,0:0:0:0:
322,86,132318,2,0,L|299:198,1,90,12|0,0:3|0:0,0:0:0:0:
244,65,132651,1,6,0:3:0:0:
393,131,132818,1,0,0:0:0:0:
314,7,132984,1,12,0:3:0:0:
303,174,133151,1,2,0:0:0:0:
437,32,133318,5,4,0:3:0:0:
289,185,133484,2,0,L|188:168,1,90,2|12,0:0|0:3,0:0:0:0:
244,65,133734,1,0,0:0:0:0:
251,73,133818,2,0,L|352:56,1,90,2|0,0:0|0:0,0:0:0:0:
167,32,134151,1,6,0:3:0:0:
125,190,134318,2,0,P|133:128|174:104,1,90,14|2,0:3|0:3,0:0:0:0:
315,209,134651,6,0,P|329:166|232:72,1,180,12|12,0:0|0:3,0:0:0:0:
208,218,135151,1,0,0:0:0:0:
250,72,135318,2,0,L|241:123,3,45,2|0|0|0,0:0|0:0|0:0|0:0,0:0:0:0:
119,27,135651,2,0,L|122:75,3,45,14|0|0|0,0:3|0:0|0:0|0:0,0:0:0:0:
12,127,135984,5,6,0:3:0:0:
38,151,136068,1,0,0:0:0:0:
53,183,136151,1,0,0:0:0:0:
57,218,136234,1,0,0:0:0:0:
45,252,136318,1,14,0:3:0:0:
77,237,136401,1,0,0:0:0:0:
112,241,136484,1,6,0:3:0:0:
146,252,136568,1,0,0:0:0:0:
168,279,136651,6,0,L|162:328,3,45,6|6|4|6,0:3|0:3|0:3|0:3,0:0:0:0:
305,214,136984,2,0,L|291:155,1,45,14|0,0:3|0:0,0:0:0:0:
208,113,137151,2,0,L|200:157,1,45,6|0,0:3|0:0,0:0:0:0:
206,15,137318,6,0,B|263:7|237:31|298:23,1,90,14|0,0:0|0:0,0:0:0:0:
375,68,137818,1,0,0:0:0:0:
375,68,137984,2,0,B|387:37|382:8|382:8|388:49,1,90,10|0,0:0|0:0,0:0:0:0:
434,133,138484,1,0,0:0:0:0:
299,118,138651,6,0,P|290:97|287:75,1,45,2|0,0:0|0:0,0:0:0:0:
217,151,138901,1,0,0:0:0:0:
217,151,138984,2,0,P|224:167|255:199,1,45,4|0,0:3|0:0,0:0:0:0:
196,282,139318,1,8,0:0:0:0:
196,282,139484,1,0,0:0:0:0:
101,232,139651,1,0,0:0:0:0:
101,232,139818,1,2,0:0:0:0:
126,113,139984,6,0,P|127:92|119:53,1,45,6|0,0:3|0:0,0:0:0:0:
217,151,140234,1,0,0:0:0:0:
217,151,140318,2,0,P|216:184|227:213,1,45
314,182,140651,2,0,P|311:151|299:122,1,45,8|0,0:0|0:0,0:0:0:0:
225,37,140984,2,0,P|224:48|226:74,3,22.5
269,50,141318,6,0,P|260:29|245:9,1,45,2|0,0:0|0:0,0:0:0:0:
144,39,141568,1,0,0:0:0:0:
144,39,141651,2,0,B|94:39|109:18|46:26,1,90,4|8,0:3|0:0,0:0:0:0:
67,107,142151,1,0,0:0:0:0:
67,107,142318,2,0,L|54:170,1,45,0|2,0:0|0:0,0:0:0:0:
157,235,142651,6,0,B|153:179|153:179|136:139,2,90,6|0|8,0:3|0:0|0:0,0:0:0:0:
118,311,143484,1,0,0:0:0:0:
225,294,143651,2,0,L|240:239,1,45
184,145,143984,6,0,P|156:146|123:150,1,45,2|0,0:0|0:0,0:0:0:0:
83,214,144234,1,0,0:0:0:0:
83,214,144318,2,0,P|51:215|26:214,1,45,4|0,0:3|0:0,0:0:0:0:
54,93,144651,2,0,P|57:118|62:139,1,45,8|0,0:0|0:0,0:0:0:0:
158,221,144984,2,0,P|162:242|165:265,1,45
263,142,145318,6,0,P|276:101|283:41,2,90,6|0|8,0:3|0:0|0:0,0:0:0:0:
340,211,146151,1,0,0:0:0:0:
340,211,146318,2,0,L|406:204,1,45
460,157,146651,6,0,P|473:208|458:257,1,90,2|4,0:0|0:3,0:0:0:0:
369,291,147151,1,0,0:0:0:0:
369,291,147318,2,0,P|362:319|360:341,1,45,10|0,0:0|0:0,0:0:0:0:
479,363,147651,2,0,P|478:344|468:309,1,45,4|0,0:3|0:0,0:0:0:0:
512,235,147901,1,0,0:0:0:0:
512,235,147984,6,0,B|438:225|438:225|411:202|411:202|327:192,1,180,12|8,0:0|0:0,0:0:0:0:
483,134,148484,1,0,0:0:0:0:
358,19,148651,1,0,0:0:0:0:
341,193,148818,1,4,0:3:0:0:
421,75,148984,1,8,0:0:0:0:
248,67,149151,1,0,0:0:0:0:
414,241,149318,6,0,B|419:211|441:191|441:191|427:157|438:116|438:116|425:95|416:60,1,180,4|8,0:3|0:0,0:0:0:0:
341,193,149818,1,0,0:0:0:0:
512,148,149984,1,0,0:0:0:0:
358,19,150151,1,4,0:3:0:0:
414,241,150318,1,8,0:0:0:0:
420,74,150484,1,0,0:0:0:0:
250,203,150651,6,0,P|165:192|61:176,1,180,6|8,0:3|0:0,0:0:0:0:
237,104,151151,1,0,0:0:0:0:
148,275,151318,1,0,0:0:0:0:
128,69,151484,1,4,0:3:0:0:
250,203,151651,1,8,0:0:0:0:
71,177,151818,1,0,0:0:0:0:
243,16,151984,6,0,P|325:80|311:153,1,180,6|8,0:3|0:0,0:0:0:0:
250,203,152484,1,0,0:0:0:0:
128,69,152651,1,0,0:0:0:0:
71,177,152818,1,4,0:3:0:0:
243,16,152984,1,8,0:0:0:0:
250,203,153151,1,0,0:0:0:0:
391,63,153318,6,0,B|405:109|390:139|390:139|401:158|401:158|413:151|413:151|432:113|418:71,1,180,12|8,0:0|0:0,0:0:0:0:
311,103,153818,2,0,L|211:87,1,90,2|4,0:0|0:3,0:0:0:0:
105,113,154151,1,0,0:0:0:0:
277,63,154318,1,12,0:3:0:0:
205,194,154484,1,4,0:3:0:0:
157,28,154651,6,0,B|126:11|126:11|59:4,1,90,14|0,0:3|0:0,0:0:0:0:
105,113,154984,2,0,B|70:92|70:92|40:38,1,90,14|0,0:3|0:0,0:0:0:0:
41,239,155318,2,0,P|71:206|131:206,1,90,10|4,0:0|0:3,0:0:0:0:
79,310,155651,2,0,P|122:304|153:272,1,90,12|0,0:3|0:0,0:0:0:0:
277,327,155984,5,6,0:3:0:0:
105,113,156151,1,0,0:0:0:0:
303,130,156318,1,14,0:3:0:0:
79,310,156484,1,6,0:3:0:0:
79,310,156818,5,6,0:3:0:0:
188,191,156984,2,0,L|175:129,2,60,10|2|2,0:0|0:0|0:0,0:0:0:0:
130,248,157318,5,6,0:3:0:0:
315,178,157651,5,0,0:0:0:0:
310,192,157984,1,0,0:0:0:0:
305,206,158318,1,0,0:0:0:0:
456,38,158651,5,2,0:0:0:0:
210,241,169318,6,0,B|163:243|136:203|136:203|84:233|87:286,1,180,12|2,0:0|0:0,0:0:0:0:
307,144,169984,2,0,B|354:142|381:182|381:182|433:152|430:99,1,180,8|2,0:0|0:0,0:0:0:0:
284,220,170484,2,0,P|245:217|189:217,1,90,2|0,0:0|0:0,0:0:0:0:
373,208,170818,1,0,0:0:0:0:
307,144,170984,1,4,0:3:0:0:
458,184,171151,1,2,0:0:0:0:
397,118,171318,5,8,0:0:0:0:
284,220,171484,1,0,0:0:0:0:
328,64,171651,1,0,0:0:0:0:
373,208,171818,1,2,0:0:0:0:
239,120,171984,6,0,L|134:100,1,90,4|0,0:3|0:0,0:0:0:0:
284,220,172318,1,2,0:0:0:0:
284,220,172484,1,0,0:0:0:0:
195,194,172651,2,0,L|90:173,1,90,8|0,0:0|0:0,0:0:0:0:
151,295,172984,1,2,0:0:0:0:
284,220,173151,1,2,0:0:0:0:
357,357,173318,6,0,B|331:338|297:345|293:360|260:370|219:336,1,135
252,328,173651,1,4,0:3:0:0:
392,240,173818,1,2,0:0:0:0:
357,357,173984,1,8,0:0:0:0:
294,252,174151,1,0,0:0:0:0:
436,307,174318,1,2,0:0:0:0:
332,173,174484,1,0,0:0:0:0:
252,328,174651,6,0,B|207:333|181:303|181:303|157:310|157:310|128:273|90:276,1,180,12|8,0:0|0:0,0:0:0:0:
16,313,175151,1,0,0:0:0:0:
128,204,175318,1,10,0:0:0:0:
128,204,175484,1,0,0:0:0:0:
93,357,175651,1,10,0:0:0:0:
93,357,175818,1,0,0:0:0:0:
252,328,175984,6,0,B|275:316|285:294|285:294|293:272|320:266,1,90,10|0,0:0|0:0,0:0:0:0:
453,226,176318,2,0,B|430:214|420:192|420:192|412:170|385:164,1,90,8|0,0:0|0:0,0:0:0:0:
374,62,176651,1,10,0:0:0:0:
374,62,176818,1,0,0:0:0:0:
494,149,176984,1,10,0:0:0:0:
494,149,177151,1,0,0:0:0:0:
293,166,177318,5,14,0:3:0:0:
461,71,177484,1,0,0:0:0:0:
347,237,177651,1,10,0:0:0:0:
288,46,177818,1,4,0:3:0:0:
288,46,178151,5,6,0:3:0:0:
200,273,178318,1,6,0:3:0:0:
199,83,178484,1,6,0:3:0:0:
323,312,178651,6,0,P|372:315|412:284,1,90,14|0,0:0|0:0,0:0:0:0:
260,205,178984,1,4,0:3:0:0:
238,199,179068,1,0,0:0:0:0:
215,195,179151,2,0,L|208:145,1,45
344,102,179318,5,6,0:3:0:0:
375,119,179401,1,0,0:0:0:0:
410,115,179484,1,4,0:3:0:0:
438,92,179568,1,0,0:0:0:0:
451,58,179651,5,8,0:0:0:0:
413,34,179734,1,8,0:0:0:0:
367,39,179818,1,8,0:0:0:0:
337,72,179901,1,8,0:0:0:0:
337,72,180151,5,14,0:0:0:0:
390,258,180318,1,2,0:0:0:0:
263,172,180484,1,4,0:3:0:0:
438,92,180651,6,0,P|431:123|419:201,1,90,12|2,0:0|0:0,0:0:0:0:
262,37,180984,1,4,0:3:0:0:
309,243,181151,5,12,0:0:0:0:
337,72,181318,1,2,0:0:0:0:
225,240,181484,1,0,0:0:0:0:
188,68,181651,5,14,0:0:0:0:
349,161,181818,1,2,0:0:0:0:
128,188,181984,6,0,L|94:145,1,45,14|0,0:0|0:0,0:0:0:0:
121,272,182151,2,0,L|68:252,1,45
183,355,182318,6,0,L|193:309,1,45,6|4,0:3|0:3,0:0:0:0:
309,243,182484,2,0,L|299:197,1,45,4|4,0:3|0:3,0:0:0:0:
229,133,182651,6,0,B|267:88|318:96|315:111|355:119|392:74,1,180,14|0,0:0|0:0,0:0:0:0:
389,76,183651,1,0,0:0:0:0:
309,243,183984,6,0,P|257:271|170:231,1,135,12|0,0:0|0:0,0:0:0:0:
182,174,184318,2,0,P|234:146|321:186,1,135,6|0,0:3|0:0,0:0:0:0:
309,243,184651,1,6,0:3:0:0:
340,259,184734,1,0,0:0:0:0:
376,260,184818,1,0,0:0:0:0:
407,243,184901,1,0,0:0:0:0:
424,214,184984,6,0,L|424:134,1,67.5
403,115,185318,6,0,P|405:88|468:49,1,99.0000030212403,12|0,0:0|0:0,0:0:0:0:
339,180,185651,2,0,P|314:143|329:68,1,99.0000030212403,12|0,0:3|0:0,0:0:0:0:
376,260,185984,2,0,P|333:270|267:222,1,99.0000030212403,2|4,0:0|0:3,0:0:0:0:
142,174,186318,2,0,P|192:140|254:155,1,99.0000030212403,12|0,0:3|0:0,0:0:0:0:
383,18,186651,6,0,B|360:15|340:17|340:17|334:11|334:11|312:17|261:9,1,99.0000030212403,6|0,0:3|0:0,0:0:0:0:
228,141,186984,2,0,B|251:144|271:142|271:142|277:148|277:148|299:142|350:150,1,99.0000030212403,14|0,0:3|0:0,0:0:0:0:
409,255,187318,1,2,0:0:0:0:
324,146,187484,1,4,0:3:0:0:
287,319,187651,2,0,B|326:325|352:303|352:303|365:254|427:253,1,148.50000453186,12|0,0:3|0:0,0:0:0:0:
446,266,187984,6,0,B|447:228|480:208|480:208|464:180|473:141|473:141|459:121|466:75,2,198.000006042481,14|12|6,0:0|0:3|0:3,0:0:0:0:
308,230,188818,1,0,0:0:0:0:
251,114,188984,2,0,P|306:104|321:14,1,148.50000453186,12|0,0:3|0:0,0:0:0:0:
289,24,189318,6,0,B|234:9|253:34|176:12,1,99.0000030212403,6|0,0:3|0:0,0:0:0:0:
53,136,189651,2,0,B|108:121|89:146|166:124,1,99.0000030212403,12|0,0:3|0:0,0:0:0:0:
218,243,189984,1,2,0:3:0:0:
251,114,190151,1,4,0:3:0:0:
56,230,190318,2,0,B|39:177|39:177|55:129,1,99.0000030212403,12|0,0:3|0:0,0:0:0:0:
126,286,190651,5,6,0:3:0:0:
150,128,190818,1,0,0:0:0:0:
218,243,190984,2,0,B|261:253|261:253|325:237,1,99.0000030212403,12|0,0:3|0:0,0:0:0:0:
392,165,191318,1,2,0:0:0:0:
295,334,191484,1,4,0:3:0:0:
260,174,191651,1,12,0:3:0:0:
409,300,191818,1,0,0:0:0:0:
247,160,191984,6,0,B|224:163|211:189|211:189|181:148|176:98|176:98|160:132|168:165,1,198.000006042481,6|12,0:3|0:3,0:0:0:0:
257,77,192484,1,0,0:0:0:0:
298,240,192651,1,2,0:0:0:0:
131,214,192818,1,4,0:3:0:0:
276,61,192984,2,0,L|381:58,1,99.0000030212403,12|0,0:3|0:0,0:0:0:0:
246,158,193318,6,0,B|200:149|185:115|185:115|169:77|122:72,1,148.50000453186,12|0,0:0|0:0,0:0:0:0:
78,84,193651,2,0,P|89:46|150:8,1,99.0000030212403,12|0,0:3|0:0,0:0:0:0:
175,238,193984,1,2,0:0:0:0:
181,108,194151,1,0,0:0:0:0:
87,179,194318,1,12,0:3:0:0:
246,158,194484,1,2,0:0:0:0:
265,288,194651,5,4,0:3:0:0:
85,284,194818,2,0,B|62:328|62:328|42:274,1,99.0000030212403,2|12,0:0|0:3,0:0:0:0:
175,238,195151,2,0,B|198:194|198:194|218:248,1,99.0000030212403
87,179,195484,1,4,0:3:0:0:
181,108,195651,2,0,B|227:96|227:96|237:85|237:85|286:72,1,99.0000030212403,12|0,0:3|0:0,0:0:0:0:
377,226,195984,6,0,P|349:159|279:174,1,148.50000453186,6|0,0:3|0:0,0:0:0:0:
284,168,196318,2,0,P|247:195|185:189,1,99.0000030212403,12|0,0:3|0:0,0:0:0:0:
272,75,196651,1,2,0:0:0:0:
195,193,196818,1,0,0:0:0:0:
99,45,196984,2,0,L|199:16,1,99.0000030212403,12|2,0:3|0:0,0:0:0:0:
360,96,197318,6,0,P|310:101|267:67,1,99.0000030212403,4|2,0:3|0:0,0:0:0:0:
424,14,197651,1,12,0:3:0:0:
456,145,197818,1,2,0:0:0:0:
332,27,197984,1,0,0:0:0:0:
300,184,198151,1,4,0:3:0:0:
434,4,198318,2,0,P|426:49|419:110,1,99.0000030212403,12|0,0:3|0:0,0:0:0:0:
338,255,198651,6,0,B|313:271|280:276|250:256|235:232|235:232|254:262|251:325,1,198.000006042481,12|14,0:0|0:3,0:0:0:0:
346,351,199151,1,2,0:0:0:0:
380,181,199318,1,0,0:0:0:0:
441,288,199484,1,4,0:3:0:0:
300,184,199651,2,0,L|191:174,1,99.0000030212403,14|0,0:3|0:0,0:0:0:0:
130,245,199984,5,4,0:3:0:0:
93,90,200151,1,2,0:0:0:0:
201,174,200318,2,0,L|324:151,1,99.0000030212403,12|0,0:3|0:0,0:0:0:0:
365,237,200651,1,2,0:0:0:0:
400,53,200818,1,4,0:3:0:0:
298,155,200984,2,0,L|188:138,1,99.0000030212403,12|0,0:3|0:0,0:0:0:0:
264,280,201318,5,6,0:3:0:0:
315,72,201484,1,0,0:0:0:0:
462,251,201651,2,0,L|337:228,1,99.0000030212403,12|0,0:3|0:0,0:0:0:0:
298,155,201984,1,2,0:0:0:0:
472,153,202151,1,4,0:3:0:0:
387,323,202318,1,12,0:3:0:0:
386,154,202484,1,0,0:0:0:0:
264,280,202651,6,0,B|238:270|210:269|210:269|197:247|180:237|180:237|195:209|178:171,1,148.50000453186,6|0,0:3|0:0,0:0:0:0:
180,178,202984,1,12,0:3:0:0:
210,351,203151,1,0,0:0:0:0:
298,162,203318,1,12,0:3:0:0:
99,222,203484,1,12,0:3:0:0:
264,280,203651,1,12,0:3:0:0:
305,295,203734,1,12,0:3:0:0:
348,283,203818,1,12,0:3:0:0:
374,247,203901,1,12,0:3:0:0:
382,203,203984,6,0,B|408:153|380:107|380:107|401:52|401:52|424:103,2,198.000006042481,12|12|2,0:0|0:3|0:0,0:0:0:0:
298,162,204818,1,4,0:3:0:0:
184,96,204984,2,0,B|240:166|177:154|247:242,1,148.50000453186,12|0,0:3|0:0,0:0:0:0:
177,192,205318,6,0,P|171:148|184:95,1,99.0000030212403,6|0,0:3|0:0,0:0:0:0:
298,162,205651,2,0,P|304:118|291:65,1,99.0000030212403,12|0,0:3|0:0,0:0:0:0:
215,0,205984,1,2,0:0:0:0:
385,58,206151,1,4,0:3:0:0:
298,162,206318,2,0,L|313:275,1,99.0000030212403,12|0,0:3|0:0,0:0:0:0:
477,368,206651,6,0,B|470:313|470:313|489:273|489:273|495:281|495:281|512:237|512:237|500:163,2,198.000006042481,6|14|2,0:3|0:3|0:0,0:0:0:0:
359,294,207484,1,4,0:3:0:0:
263,349,207651,2,0,P|208:343|150:330,1,99.0000030212403,12|0,0:3|0:0,0:0:0:0:
130,221,207984,6,0,B|135:158|135:158|153:116,1,99.0000030212403,6|0,0:3|0:0,0:0:0:0:
19,355,208318,2,0,B|14:292|14:292|-4:250,1,99.0000030212403,14|0,0:3|0:0,0:0:0:0:
112,298,208651,1,2,0:0:0:0:
57,161,208818,1,4,0:3:0:0:
212,209,208984,2,0,L|326:211,1,99.0000030212403,12|0,0:3|0:0,0:0:0:0:
358,67,209318,6,0,B|348:117|375:152|387:122|418:168|413:222,1,148.50000453186,14|0,0:0|0:0,0:0:0:0:
418,138,209651,2,0,P|400:95|340:64,1,99.0000030212403,12|0,0:3|0:0,0:0:0:0:
220,117,209984,1,2,0:0:0:0:
310,210,210151,1,4,0:3:0:0:
259,39,210318,2,0,P|209:25|165:46,1,99.0000030212403,12|0,0:3|0:0,0:0:0:0:
158,211,210651,6,0,B|217:221|217:221|240:193|240:193|208:202|174:184,1,148.50000453186,6|0,0:3|0:0,0:0:0:0:
188,190,210984,2,0,B|162:185|141:191|141:191|130:198|130:198|88:198,1,99.0000030212403,14|0,0:3|0:0,0:0:0:0:
88,320,211318,2,0,B|114:325|135:319|135:319|146:312|146:312|188:312,1,99.0000030212403,2|4,0:0|0:3,0:0:0:0:
310,210,211651,1,12,0:3:0:0:
261,348,211818,1,0,0:0:0:0:
188,190,211984,6,0,P|179:138|214:94,1,99.0000030212403,6|0,0:3|0:0,0:0:0:0:
375,153,212318,2,0,P|399:194|389:241,1,99.0000030212403,12|0,0:3|0:0,0:0:0:0:
304,81,212651,1,2,0:0:0:0:
310,210,212818,1,4,0:3:0:0:
400,72,212984,2,0,B|374:78|356:74|356:74|343:81|343:81|322:76|294:83,1,99.0000030212403,12|0,0:3|0:0,0:0:0:0:
188,190,213318,6,0,P|138:188|69:171,1,99.0000030212403,6|0,0:3|0:0,0:0:0:0:
223,43,213651,1,12,0:3:0:0:
310,210,213818,1,0,0:0:0:0:
303,80,213984,1,2,0:0:0:0:
188,190,214151,1,4,0:3:0:0:
140,49,214318,2,0,P|92:39|37:38,1,99.0000030212403,14|0,0:3|0:0,0:0:0:0:
42,225,214651,6,0,B|71:188|71:188|72:173|72:173|99:140,1,99.0000030212403,12|0,0:0|0:0,0:0:0:0:
129,351,214984,2,0,B|136:304|136:304|129:290|129:290|136:248,1,99.0000030212403,12|0,0:3|0:0,0:0:0:0:
238,307,215318,1,2,0:0:0:0:
135,254,215484,1,0,0:0:0:0:
272,192,215651,1,12,0:3:0:0:
146,73,215818,6,0,L|162:187,1,99.0000030212403,2|6,0:0|0:3,0:0:0:0:
272,50,216151,1,2,0:0:0:0:
159,171,216318,1,12,0:3:0:0:
201,7,216484,1,0,0:0:0:0:
272,192,216651,1,2,0:0:0:0:
50,144,216818,1,4,0:3:0:0:
272,50,216984,1,12,0:3:0:0:
95,18,217151,1,0,0:0:0:0:
158,186,217318,6,0,B|148:224|148:224|100:274,1,99.0000030212403,6|0,0:3|0:0,0:0:0:0:
201,322,217651,2,0,B|172:349|172:349|98:360,1,99.0000030212403,12|0,0:3|0:0,0:0:0:0:
258,212,217984,1,2,0:0:0:0:
277,363,218151,1,0,0:0:0:0:
261,192,218318,1,12,0:3:0:0:
411,303,218484,2,0,B|384:319|361:299|370:295|342:277|301:294,1,99.0000030212403,2|6,0:0|0:3,0:0:0:0:
423,205,218818,5,0,0:0:0:0:
317,288,218984,1,12,0:3:0:0:
359,127,219151,1,0,0:0:0:0:
411,303,219318,1,2,0:0:0:0:
264,169,219484,1,4,0:3:0:0:
450,121,219651,1,12,0:3:0:0:
317,288,219818,1,0,0:0:0:0:
264,76,219984,6,0,L|159:47,1,99.0000030212403,12|0,0:0|0:0,0:0:0:0:
264,169,220318,2,0,L|369:140,1,99.0000030212403,12|0,0:3|0:0,0:0:0:0:
244,251,220651,2,0,L|139:222,1,99.0000030212403,2|6,0:0|0:3,0:0:0:0:
234,379,220983,1,12,0:3:0:0:
188,150,221150,1,2,0:0:0:0:
117,343,221318,6,0,B|81:344|81:344|59:353|59:353|-5:352,1,99.0000030212403,0|2,0:0|0:0,0:0:0:0:
148,224,221651,1,12,0:3:0:0:
234,379,221818,1,2,0:0:0:0:
244,251,221984,1,2,0:0:0:0:
117,343,222151,1,4,0:3:0:0:
85,169,222318,6,0,P|27:156|5:73,1,135,12|0,0:3|0:0,0:0:0:0:
14,70,222651,6,0,B|67:77|67:77|99:59|99:59|119:63|119:63|152:47|152:47|202:55,1,180,6|12,0:3|0:3,0:0:0:0:
184,52,223318,2,0,L|165:154,1,90,2|4,0:0|0:3,0:0:0:0:
270,150,223651,2,0,L|221:251,1,90,12|0,0:3|0:0,0:0:0:0:
368,256,223984,6,0,P|354:174|259:153,2,180,6|12|6,0:3|0:0|0:3,0:0:0:0:
284,329,224818,1,6,0:3:0:0:
284,329,224984,2,0,P|237:315|180:313,1,90,12|0,0:3|0:0,0:0:0:0:
52,262,225318,6,0,P|50:227|72:179,1,67.5000025749208,4|0,0:0|0:0,0:0:0:0:
207,218,225651,2,0,P|207:187|178:140,1,67.5000025749208,4|0,0:3|0:0,0:0:0:0:
105,113,225984,2,0,P|125:80|153:64,1,67.5000025749208,4|0,0:3|0:0,0:0:0:0:
280,163,226318,1,4,0:3:0:0:
220,300,226484,6,0,P|183:299|144:264,1,67.5000025749208,0|6,0:0|0:3,0:0:0:0:
329,244,226818,1,6,0:3:0:0:
329,244,226984,1,6,0:3:0:0:
329,244,227318,5,8,0:0:0:0:
347,219,227401,1,8,0:0:0:0:
352,189,227484,1,8,0:0:0:0:
346,158,227568,1,8,0:0:0:0:
324,136,227651,2,0,P|321:112|325:81,1,33.7500012874604,8|8,0:0|0:0,0:0:0:0:
418,63,227818,2,0,P|421:87|417:118,1,33.7500012874604,8|8,0:0|0:0,0:0:0:0:
241,157,227984,6,0,L|147:134,1,90,12|8,0:0|0:2,0:0:0:0:
245,61,228318,1,12,0:0:0:0:
166,246,228484,2,0,B|351:215,1,180,10|10,3:2|0:2,0:0:0:0:
316,300,228984,1,14,0:0:0:0:
241,157,229151,1,10,0:2:0:0:
415,166,229318,5,6,0:0:0:0:
280,228,229484,1,10,0:2:0:0:
339,96,229651,1,14,0:0:0:0:
478,230,229818,2,0,B|515:180|484:111|484:111|450:93|428:76,1,180,10|10,0:2|0:2,0:0:0:0:
361,225,230318,1,14,0:0:0:0:
339,96,230484,1,10,0:2:0:0:
280,228,230651,5,6,0:0:0:0:
253,61,230818,1,8,0:2:0:0:
395,159,230984,1,14,0:0:0:0:
183,126,231151,2,0,B|148:136|120:111|120:111|81:161|-6:160,1,180,10|10,0:2|0:2,0:0:0:0:
144,222,231651,1,14,0:0:0:0:
170,50,231818,1,10,0:2:0:0:
280,228,231984,6,0,P|320:223|366:207,1,90,6|8,0:0|0:2,0:0:0:0:
294,330,232318,2,0,P|254:325|208:309,1,90,14|8,0:0|0:2,0:0:0:0:
183,126,232651,1,6,0:0:0:0:
196,135,232734,2,0,L|295:118,1,90,12|0,0:0|0:0,0:0:0:0:
266,93,232984,1,12,0:0:0:0:
123,33,233151,1,12,0:2:0:0:
118,50,233234,1,4,0:0:0:0:
115,67,233318,5,12,0:0:0:0:
258,9,233484,1,10,0:2:0:0:
111,87,233651,1,14,0:0:0:0:
235,207,233818,2,0,L|216:304,1,90,10|0,0:2|0:0,0:0:0:0:
266,93,234151,1,10,0:2:0:0:
312,262,234318,1,14,0:0:0:0:
196,135,234484,1,10,0:2:0:0:
375,106,234651,5,6,0:0:0:0:
235,207,234818,1,10,0:2:0:0:
419,240,234984,1,14,0:0:0:0:
266,93,235151,2,0,P|278:41|332:12,1,90,10|0,0:2|0:0,0:0:0:0:
333,182,235484,1,10,0:2:0:0:
415,33,235651,1,14,0:0:0:0:
266,93,235818,1,10,0:2:0:0:
446,146,235984,5,12,0:0:0:0:
333,182,236151,1,0,0:0:0:0:
311,297,236318,1,2,0:0:0:0:
220,204,236484,5,6,0:0:0:0:
333,182,236651,1,0,0:0:0:0:
423,256,236818,1,4,0:0:0:0:
446,146,236984,1,6,0:0:0:0:
311,297,237151,6,0,B|275:320|230:317|192:275|192:275|226:233|263:233|285:251|285:251|260:206|296:145|296:145|356:200|331:250|331:250|371:236|409:257,1,540.000020599366,12|0,0:0|0:0,0:0:0:0:
396,251,238568,2,0,P|422:270|432:284,1,45,4|0,0:0|0:0,0:0:0:0:
