osu file format v14

[General]
AudioFilename: audio.mp3
AudioLeadIn: 0
PreviewTime: 182651
Countdown: 0
SampleSet: Soft
StackLeniency: 0.7
Mode: 0
LetterboxInBreaks: 0
WidescreenStoryboard: 0

[Editor]
Bookmarks: 35984,78651,118651,158651,182651,227984
DistanceSpacing: 1.4
BeatDivisor: 4
GridSize: 32
TimelineZoom: 1.4

[Metadata]
Title:Ano Yume o Nazotte
TitleUnicode:あの夢をなぞって
Artist:YOASOBI
ArtistUnicode:YOASOBI
Creator:Flask
Version:Hard
Source:
Tags:Lilas Ikuta ikura 幾田りら ayase japanese pop jpop j-pop tracing that dream captin1 jonathanlfj Miyohashikoori
BeatmapID:2644964
BeatmapSetID:1120850

[Difficulty]
HPDrainRate:4
CircleSize:3.5
OverallDifficulty:7
ApproachRate:8
SliderMultiplier:1.4
SliderTickRate:1

[Events]
//Background and Video events
0,0,"wallhaven-96zxlk.jpg",0,0
Video,0,"VD.avi"
//Break Periods
2,158851,167901
//Storyboard Layer 0 (Background)
//Storyboard Layer 1 (Fail)
//Storyboard Layer 2 (Pass)
//Storyboard Layer 3 (Foreground)
//Storyboard Layer 4 (Overlay)
//Storyboard Sound Samples

[TimingPoints]
-15,333.333333333333,4,2,1,40,1,0
1318,-200,4,2,1,40,0,0
19984,-133.333333333333,4,2,55,50,0,0
22484,-100,4,2,2,60,0,0
22568,-100,4,2,1,60,0,0
23818,-100,4,2,55,60,0,0
23859,-100,4,2,55,5,0,0
24151,-100,4,2,55,60,0,0
24193,-100,4,2,55,5,0,0
24484,-100,4,2,55,60,0,0
24526,-100,4,2,55,5,0,0
24818,-100,4,2,1,60,0,0
25151,-100,4,2,2,60,0,0
25234,-100,4,3,1,60,0,0
30651,-100,4,2,2,60,0,0
30734,-100,4,3,1,60,0,0
34651,-100,4,2,2,60,0,0
34734,-100,4,3,1,60,0,0
35984,-111.111111111111,4,2,2,45,0,0
41318,-111.111111111111,4,2,1,45,0,0
41401,-111.111111111111,4,2,2,45,0,0
46318,-111.111111111111,4,2,55,45,0,0
46651,-100,4,2,2,60,0,0
46734,-100,4,2,55,60,0,0
54651,-100,4,2,2,60,0,0
54734,-100,4,2,55,60,0,0
55818,-100,4,2,2,60,0,0
55901,-100,4,2,55,60,0,0
57318,-125,4,2,2,45,0,0
57359,-125,4,2,55,45,0,0
67984,-100,4,2,2,60,0,0
68068,-100,4,2,55,60,0,0
73318,-100,4,2,2,60,0,0
73401,-100,4,2,55,60,0,0
77318,-100,4,2,2,60,0,0
77401,-100,4,2,55,60,0,0
78651,-100,4,2,2,80,0,1
78734,-100,4,2,55,80,0,1
83984,-100,4,2,2,80,0,1
84068,-100,4,2,55,80,0,1
89234,-100,4,2,55,5,0,1
89318,-100,4,2,2,80,0,1
89401,-100,4,2,55,80,0,1
89568,-100,4,2,55,5,0,1
89651,-100,4,2,55,80,0,1
89901,-100,4,2,55,5,0,1
89984,-100,4,2,55,80,0,1
90234,-100,4,2,55,5,0,1
90318,-100,4,2,55,80,0,1
91901,-100,4,2,55,5,0,1
91984,-100,4,2,55,80,0,1
92234,-100,4,2,55,5,0,1
92318,-100,4,2,55,80,0,1
92568,-100,4,2,55,5,0,1
92651,-100,4,2,55,80,0,1
92901,-100,4,2,55,5,0,1
92984,-100,4,2,55,80,0,1
94651,-100,4,2,2,80,0,1
94734,-100,4,2,55,80,0,1
97318,-100,4,2,55,80,0,1
98651,-100,4,2,55,80,0,1
99984,-100,4,2,2,80,0,1
100068,-100,4,2,55,80,0,1
105318,-100,4,2,2,80,0,1
105401,-100,4,2,55,80,0,1
110568,-100,4,2,55,5,0,1
110651,-100,4,2,2,80,0,1
110734,-100,4,2,55,80,0,1
110901,-100,4,2,55,5,0,1
110984,-100,4,2,55,80,0,1
111234,-100,4,2,55,5,0,1
111318,-100,4,2,55,80,0,1
111568,-100,4,2,55,5,0,1
111651,-100,4,2,55,80,0,1
113318,-100,4,2,55,80,0,1
113568,-100,4,2,55,5,0,1
113651,-100,4,2,55,80,0,1
113901,-100,4,2,55,5,0,1
113984,-100,4,2,55,80,0,1
114234,-100,4,2,55,5,0,1
114318,-100,4,2,55,80,0,1
115984,-100,4,2,2,80,0,1
116068,-100,4,2,55,80,0,1
116984,-100,4,2,55,80,0,1
117318,-100,4,2,2,80,0,1
117401,-100,4,2,55,80,0,1
118651,-100,4,2,2,70,0,0
118734,-100,4,2,55,70,0,0
123984,-100,4,2,2,70,0,0
124068,-100,4,2,55,70,0,0
129318,-100,4,2,2,70,0,0
129401,-100,4,2,55,70,0,0
134651,-100,4,2,2,70,0,0
134734,-100,4,2,55,70,0,0
137318,-125,4,2,2,50,0,0
137401,-125,4,2,55,50,0,0
147984,-100,4,2,2,60,0,0
148068,-100,4,2,55,60,0,0
153318,-100,4,2,2,60,0,0
153401,-100,4,2,55,60,0,0
157318,-125,4,2,55,60,0,0
158651,-166.666666666667,4,2,55,60,0,0
168651,-166.666666666667,4,2,55,50,0,0
169318,-133.333333333333,4,2,2,50,0,0
169401,-133.333333333333,4,2,55,50,0,0
174651,-111.111111111111,4,2,2,60,0,0
174734,-111.111111111111,4,2,55,60,0,0
178651,-99.9999999999999,4,2,2,60,0,0
178734,-99.9999999999999,4,2,55,60,0,0
180151,-100,4,2,3,60,0,0
180234,-100,4,2,55,60,0,0
180651,-100,4,2,3,60,0,0
180734,-100,4,2,55,60,0,0
181151,-100,4,2,3,60,0,0
181234,-100,4,2,55,60,0,0
181651,-100,4,2,3,60,0,0
181734,-100,4,2,55,60,0,0
181984,-100,4,2,3,60,0,0
182026,-100,4,2,55,60,0,0
182651,-166.666666666667,4,2,2,60,0,0
182734,-166.666666666667,4,2,55,60,0,0
183984,-100,4,2,2,60,0,0
184067,-100,4,2,55,60,0,0
185318,-100,4,2,2,80,0,1
185401,-100,4,2,55,80,0,1
187984,-100,4,2,2,80,0,1
188067,-100,4,2,55,80,0,1
193234,-100,4,2,55,5,0,1
193318,-100,4,2,2,80,0,1
193401,-100,4,2,55,80,0,1
193568,-100,4,2,55,5,0,1
193651,-100,4,2,55,80,0,1
193901,-100,4,2,55,5,0,1
193984,-100,4,2,55,80,0,1
194234,-100,4,2,55,5,0,1
194318,-100,4,2,55,80,0,1
196234,-100,4,2,55,5,0,1
196318,-100,4,2,55,80,0,1
196568,-100,4,2,55,5,0,1
196651,-100,4,2,55,80,0,1
196901,-100,4,2,55,5,0,1
196984,-100,4,2,55,80,0,1
198651,-100,4,2,2,80,0,1
198734,-100,4,2,55,80,0,1
203984,-100,4,2,2,80,0,1
204068,-100,4,2,55,80,0,1
206651,-100,4,2,55,80,0,1
206734,-100,4,2,55,80,0,1
209318,-100,4,2,2,80,0,1
209401,-100,4,2,55,80,0,1
214568,-100,4,2,55,5,0,1
214651,-100,4,2,2,80,0,1
214734,-100,4,2,55,80,0,1
214901,-100,4,2,55,5,0,1
214984,-100,4,2,55,80,0,1
215234,-100,4,2,55,5,0,1
215318,-100,4,2,55,80,0,1
215568,-100,4,2,55,5,0,1
215651,-100,4,2,55,80,0,1
217568,-100,4,2,55,5,0,1
217651,-100,4,2,55,80,0,1
217901,-100,4,2,55,5,0,1
217984,-100,4,2,55,80,0,1
218234,-100,4,2,55,5,0,1
218318,-100,4,2,55,80,0,1
219984,-100,4,2,2,80,0,1
220067,-100,4,2,55,80,0,1
222651,-100,4,2,55,80,0,1
224318,-100,4,2,3,80,0,1
224401,-100,4,2,55,80,0,1
225318,-100,4,2,2,80,0,1
225359,-100,4,2,55,80,0,1
226651,-100,4,2,55,80,0,1
227984,-100,4,2,2,60,0,0
228068,-100,4,3,1,60,0,0
233318,-100,4,2,2,60,0,0
233401,-100,4,3,1,60,0,0
235984,-100,4,2,2,60,0,0
236067,-100,4,3,1,60,0,0
237151,-100,4,2,2,60,0,0
237234,-100,4,3,1,60,0,0

[Colours]
Combo1 : 255,255,136
Combo2 : 153,51,255
Combo3 : 255,255,79
Combo4 : 128,0,255

[HitObjects]
82,92,1318,6,0,P|90:134|80:170,2,70
170,49,2318,2,0,L|245:64,1,70,2|0,0:0|0:0,0:0:0:0:
295,142,2984,1,0,0:0:0:0:
388,110,3318,2,0,P|409:84|404:42,2,70,2|0|0,0:0|0:0|0:0,0:0:0:0:
322,241,4484,1,0,0:0:0:0:
322,241,4651,2,0,L|247:228,1,70,2|0,0:0|0:0,0:0:0:0:
253,229,5151,2,0,L|245:189,1,35
138,300,5984,5,0,0:0:0:0:
46,263,6318,1,0,0:0:0:0:
138,300,6651,1,0,0:0:0:0:
173,208,6984,2,0,L|157:129,2,70,2|0|0,0:0|0:0|0:0,0:0:0:0:
249,269,7984,2,0,P|279:282|265:257,1,70,2|0,0:0|0:0,0:0:0:0:
321,76,8984,1,0,0:0:0:0:
321,76,9151,1,0,0:0:0:0:
321,76,9318,6,0,L|402:66,1,70,2|0,0:0|0:0,0:0:0:0:
453,142,9984,1,0,0:0:0:0:
499,55,10318,1,0,0:0:0:0:
453,142,10651,2,0,P|439:186|458:244,1,105,2|0,0:0|0:0,0:0:0:0:
455,240,11318,1,0,0:0:0:0:
255,356,11984,5,0,0:0:0:0:
245,258,12318,1,2,0:0:0:0:
148,276,12651,2,0,L|72:264,2,70,0|2|0,0:0|0:0|0:0,0:0:0:0:
165,179,13651,1,0,0:0:0:0:
262,166,13984,2,0,P|274:128|265:89,1,70
196,33,14651,6,0,L|115:23,1,70,2|0,0:0|0:0,0:0:0:0:
75,108,15318,2,0,L|144:116,1,70
153,214,15984,2,0,B|230:213|189:265|285:258,1,140,2|2,0:0|0:0,0:0:0:0:
318,348,16984,1,0,0:0:0:0:
411,319,17318,2,0,L|425:241,1,70
423,250,17818,1,0,0:0:0:0:
458,158,18151,6,0,L|444:115,2,35
501,179,18651,1,2,0:0:0:0:
474,53,18984,1,2,0:0:0:0:
474,53,19151,1,2,0:0:0:0:
348,75,19484,1,2,0:0:0:0:
348,75,19651,1,2,0:0:0:0:
299,180,19984,6,0,L|308:251,2,52.5000020027161,2|4|2,0:0|0:3|0:0,0:0:0:0:
239,128,20484,2,0,P|206:93|151:90,1,105.000004005432,2|2,0:0|0:0,0:0:0:0:
85,223,21151,2,0,P|118:258|173:261,1,105.000004005432,6|0,0:3|0:0,0:0:0:0:
215,327,21651,2,0,P|239:305|247:273,1,52.5000020027161,4|0,0:3|0:0,0:0:0:0:
312,245,21984,2,0,L|302:188,2,52.5000020027161,2|0|2,0:0|0:0|0:0,0:0:0:0:
387,349,22484,6,0,L|424:206,1,140,4|4,0:0|3:0,0:0:0:0:
494,137,22984,2,0,B|469:107|469:107|429:103,1,70,4|4,0:3|0:3,0:0:0:0:
344,152,23318,1,4,0:3:0:0:
240,137,23484,1,4,0:3:0:0:
306,55,23651,1,4,0:3:0:0:
344,152,23818,5,6,0:3:0:0:
206,310,24151,1,6,0:3:0:0:
42,178,24484,1,6,0:3:0:0:
173,13,24818,2,0,L|237:40,1,70,0|2,0:0|0:0,0:0:0:0:
272,139,25151,6,0,P|317:103|337:20,1,140,12|10,0:0|0:2,0:0:0:0:
435,24,25651,1,14,0:0:0:0:
487,106,25818,2,0,L|476:182,1,70,10|0,0:2|0:0,0:0:0:0:
407,245,26151,2,0,L|419:318,2,70,10|12|10,0:2|0:3|3:2,0:0:0:0:
335,177,26651,5,6,0:3:0:0:
259,239,26818,2,0,P|223:237|195:215,1,70,8|12,3:2|0:0,0:0:0:0:
99,227,27151,2,0,P|157:212|182:135,1,140,10|10,3:2|3:2,0:0:0:0:
135,56,27651,2,0,L|59:68,1,70,12|10,3:0|3:2,0:0:0:0:
9,147,27984,5,6,3:0:0:0:
21,244,28151,1,8,3:2:0:0:
9,147,28318,1,12,3:0:0:0:
102,173,28484,2,0,B|172:160|172:160|195:172|195:172|251:163,1,140,10|10,3:2|3:2,0:0:0:0:
324,210,28984,2,0,B|338:168|338:168|329:134,1,70,12|8,3:0|0:2,0:0:0:0:
261,73,29318,5,6,3:0:0:0:
445,138,29651,1,14,3:0:0:0:
422,332,29984,1,6,3:0:0:0:
422,332,30068,2,0,L|307:346,1,105,12|14,3:0|3:0,0:0:0:0:
237,289,30484,1,6,3:0:0:0:
237,289,30568,1,4,3:0:0:0:
237,289,30651,6,0,P|235:252|254:215,1,70,12|8,0:0|0:2,0:0:0:0:
334,175,30984,1,14,3:0:0:0:
334,175,31151,2,0,P|270:180|228:122,1,140,10|10,3:2|3:2,0:0:0:0:
245,27,31651,2,0,P|283:39|308:82,1,70,12|10,3:0|3:2,0:0:0:0:
397,84,31984,6,0,L|466:73,2,70,6|8|12,3:0|3:2|3:0,0:0:0:0:
355,172,32484,2,0,L|365:323,1,140,10|10,3:2|3:2,0:0:0:0:
281,365,32984,1,14,3:0:0:0:
197,313,33151,1,10,3:2:0:0:
106,350,33318,6,0,P|66:347|37:327,1,70,6|8,3:0|0:2,0:0:0:0:
104,258,33651,1,12,3:0:0:0:
62,168,33818,2,0,P|134:165|190:223,1,140,10|10,0:2|3:2,0:0:0:0:
279,223,34318,2,0,L|299:152,1,70,14|0,3:0|0:0,0:0:0:0:
389,119,34651,6,0,L|372:42,2,70,12|0|4,0:0|0:2|3:0,0:0:0:0:
467,177,35151,1,2,0:2:0:0:
467,177,35234,1,2,0:0:0:0:
467,177,35318,2,0,P|477:219|469:253,1,70,6|2,3:0|3:0,0:0:0:0:
402,314,35651,2,0,L|326:300,1,70,6|6,3:0|3:0,0:0:0:0:
268,362,35984,6,0,P|249:318|268:244,2,125.999996154785,4|12|12,0:0|0:3|0:3,0:0:0:0:
93,336,36984,1,12,0:3:0:0:
18,174,37318,2,0,P|90:178|154:152,1,125.999996154785,10|4,0:0|0:3,0:0:0:0:
260,32,37984,2,0,P|188:28|124:54,1,125.999996154785,12|12,0:3|0:3,0:0:0:0:
290,134,38651,6,0,B|363:129|326:177|411:167,1,125.999996154785,4|4,0:3|0:3,0:0:0:0:
464,233,39151,1,2,0:0:0:0:
464,233,39318,2,0,P|491:183|466:107,1,125.999996154785,12|4,0:3|0:3,0:0:0:0:
410,58,39818,1,2,0:0:0:0:
329,92,39984,2,0,L|190:80,1,125.999996154785,4|4,0:3|0:3,0:0:0:0:
55,177,40651,1,4,0:3:0:0:
103,7,40984,1,4,0:3:0:0:
158,174,41318,6,0,P|172:224|145:294,2,125.999996154785,12|12|12,0:0|0:3|0:3,0:0:0:0:
5,85,42318,1,12,0:3:0:0:
170,23,42651,2,0,P|234:22|274:77,1,125.999996154785,4|4,0:3|0:3,0:0:0:0:
429,146,43318,1,4,0:3:0:0:
317,282,43651,2,0,L|306:355,1,62.9999980773926,12|0,0:3|0:0,0:0:0:0:
226,378,43984,5,4,0:3:0:0:
81,276,44318,1,4,0:3:0:0:
133,106,44651,1,12,0:3:0:0:
310,103,44984,1,4,0:3:0:0:
367,270,45318,6,0,P|419:257|454:184,1,125.999996154785,4|4,0:3|0:3,0:0:0:0:
446,109,45818,1,2,0:0:0:0:
360,88,45984,2,0,P|308:101|273:174,1,125.999996154785,12|12,0:3|0:3,0:0:0:0:
252,355,46651,6,0,L|112:327,1,140,12|8,0:0|0:2,0:0:0:0:
73,238,47151,1,0,0:0:0:0:
73,238,47318,2,0,B|65:200|65:200|81:167,1,70,2|4,0:0|0:3,0:0:0:0:
175,184,47651,2,0,B|183:222|183:222|167:255,1,70,10|0,0:0|0:0,0:0:0:0:
138,107,47984,6,0,B|204:97|204:97|229:115|229:115|285:107,2,140,6|8|2,0:3|0:0|0:0,0:0:0:0:
44,76,48818,1,4,0:3:0:0:
119,14,48984,2,0,L|203:2,1,70,8|0,0:0|0:0,0:0:0:0:
282,33,49318,6,0,P|307:80|286:169,1,140,6|10,0:3|0:0,0:0:0:0:
224,233,49818,1,0,0:0:0:0:
264,321,49984,2,0,P|301:337|338:327,1,70,0|4,0:0|0:3,0:0:0:0:
421,365,50318,2,0,P|453:340|463:303,1,70,10|0,0:0|0:0,0:0:0:0:
507,226,50651,6,0,P|481:173|405:142,2,140,6|8|2,0:3|0:0|0:0,0:0:0:0:
409,237,51484,1,4,0:3:0:0:
346,312,51651,2,0,L|269:303,1,70,10|0,0:0|0:0,0:0:0:0:
199,364,51984,6,0,B|239:326|239:326|225:240,1,140,6|8,0:3|0:0,0:0:0:0:
154,173,52484,2,0,L|79:164,2,70,0|2|4,0:0|0:0|0:3,0:0:0:0:
224,104,52984,2,0,L|296:95,1,70,10|0,0:0|0:0,0:0:0:0:
371,34,53318,6,0,P|408:66|425:157,1,140,6|8,0:3|0:0,0:0:0:0:
494,222,53818,2,0,P|425:200|358:222,1,140,2|4,0:0|0:3,0:0:0:0:
314,304,54318,2,0,L|240:290,1,70,8|0,0:0|0:0,0:0:0:0:
75,349,54651,5,12,0:0:0:0:
75,349,54818,1,2,0:2:0:0:
144,280,54984,2,0,P|146:244|132:205,1,70,0|2,0:0|0:0,0:0:0:0:
42,181,55318,5,12,0:3:0:0:
13,274,55484,1,2,0:0:0:0:
75,349,55651,1,8,0:0:0:0:
235,296,55818,6,0,P|309:289|362:332,1,140,12|4,0:0|0:3,0:0:0:0:
447,369,56318,2,0,P|456:330|451:299,1,70,4|6,0:3|0:3,0:0:0:0:
405,213,56651,1,14,0:3:0:0:
405,213,56818,1,0,0:0:0:0:
471,141,56984,1,4,0:3:0:0:
471,141,57151,1,4,0:3:0:0:
424,54,57318,6,0,P|367:42|312:66,1,112,14|0,0:0|0:0,0:0:0:0:
255,108,57818,2,0,L|195:94,1,56,2|10,0:0|0:0,0:0:0:0:
135,139,58151,2,0,L|139:206,2,56,2|0|2,0:0|0:0|0:0,0:0:0:0:
82,80,58651,2,0,B|54:112|54:112|57:193,1,112,2|4,0:0|0:3,0:0:0:0:
11,245,59151,1,0,0:0:0:0:
11,245,59318,2,0,P|49:259|78:256,1,56,8|2,0:0|0:0,0:0:0:0:
110,321,59651,2,0,P|148:307|177:310,1,56,0|2,0:0|0:0,0:0:0:0:
227,351,59984,6,0,L|351:337,1,112,6|0,0:3|0:0,0:0:0:0:
411,367,60484,1,0,0:0:0:0:
411,367,60651,2,0,P|423:314|414:255,1,112,8|0,0:0|0:0,0:0:0:0:
459,193,61151,1,0,0:0:0:0:
419,125,61318,2,0,L|442:67,2,56,2|0|4,0:0|0:0|0:3,0:0:0:0:
341,135,61818,1,0,0:0:0:0:
285,190,61984,2,0,P|252:180|234:160,1,56,8|2,0:0|0:0,0:0:0:0:
214,89,62318,2,0,P|218:54|234:33,1,56,0|2,0:0|0:0,0:0:0:0:
303,9,62651,5,6,0:3:0:0:
146,21,62984,1,0,0:0:0:0:
129,177,63318,1,8,0:0:0:0:
268,248,63651,1,0,0:0:0:0:
268,248,63818,2,0,L|330:240,1,56,0|2,0:0|0:0,0:0:0:0:
396,212,64151,2,0,L|358:162,1,56,0|4,0:0|0:3,0:0:0:0:
300,119,64484,2,0,L|275:176,1,56,2|8,0:0|0:0,0:0:0:0:
202,192,64818,1,0,0:0:0:0:
130,159,64984,2,0,L|71:169,1,56,2|0,0:0|0:0,0:0:0:0:
35,236,65318,6,0,P|3:198|6:137,2,112,4|0|8,0:3|0:0|0:0,0:0:0:0:
133,358,66318,2,0,L|201:350,1,56
237,290,66651,2,0,B|290:304|290:304|303:321|303:321|354:333,1,112,2|4,0:0|0:3,0:0:0:0:
463,234,67318,1,10,0:0:0:0:
359,116,67651,2,0,L|368:83,3,28,8|8|8|8,0:0|0:0|0:0|0:0,0:0:0:0:
338,129,67984,6,0,P|277:109|259:38,1,140,12|8,0:0|0:0,0:0:0:0:
162,20,68484,1,2,0:0:0:0:
96,92,68651,2,0,L|108:177,1,70,0|4,0:0|0:3,0:0:0:0:
189,212,68984,2,0,L|180:284,1,70,8|2,0:0|0:0,0:0:0:0:
249,352,69318,6,0,P|185:326|117:354,1,140,6|8,0:3|0:0,0:0:0:0:
23,357,69818,1,0,0:0:0:0:
6,260,69984,2,0,P|0:218|15:182,1,70,0|4,0:0|0:3,0:0:0:0:
89,136,70318,2,0,L|168:153,1,70,10|0,0:0|0:0,0:0:0:0:
228,218,70651,6,0,P|253:162|232:88,1,140,6|8,0:3|0:0,0:0:0:0:
300,18,71151,1,0,0:0:0:0:
385,67,71318,2,0,L|460:64,1,70,0|4,0:0|0:3,0:0:0:0:
352,182,71651,2,0,L|427:185,1,70,10|0,0:0|0:0,0:0:0:0:
388,299,71984,6,0,L|463:296,2,70,4|2|8,0:3|0:0|0:0,0:0:0:0:
318,368,72484,1,0,0:0:0:0:
246,300,72651,1,2,0:0:0:0:
246,300,72818,1,4,0:3:0:0:
165,355,72984,2,0,P|124:347|102:322,1,70,8|0,0:0|0:0,0:0:0:0:
28,212,73318,6,0,P|81:199|131:123,1,140,4|4,0:0|0:3,0:0:0:0:
138,34,73818,1,0,0:0:0:0:
219,87,73984,1,6,0:3:0:0:
214,185,74151,2,0,L|295:200,1,70,0|6,0:0|0:3,0:0:0:0:
355,264,74484,6,0,P|377:226|380:186,2,70,0|6|0,0:0|0:3|0:0,0:0:0:0:
285,333,74984,1,6,0:3:0:0:
285,333,75151,2,0,L|214:338,1,70,0|6,0:0|0:3,0:0:0:0:
152,262,75484,1,0,0:0:0:0:
211,181,75651,2,0,L|250:239,1,70,6|2,0:3|0:0,0:0:0:0:
340,277,75984,5,6,0:3:0:0:
434,251,76151,1,0,0:3:0:0:
409,157,76318,1,4,0:3:0:0:
315,182,76484,1,6,0:3:0:0:
315,182,76818,5,4,0:3:0:0:
434,251,76984,1,4,0:3:0:0:
435,114,77151,1,4,0:3:0:0:
315,182,77318,6,0,L|259:191,3,35,4|0|0|0,0:0|0:0|0:0|0:0,0:0:0:0:
239,215,77651,2,0,L|183:224,3,35,2|0|2|0,0:0|0:0|0:0|0:0,0:0:0:0:
163,248,77984,2,0,L|107:257,3,35,6|4|6|4,0:3|0:3|0:3|0:3,0:0:0:0:
87,281,78318,2,0,L|31:290,3,35,6|4|6|4,0:3|0:3|0:3|0:3,0:0:0:0:
14,318,78651,6,0,P|-4:266|9:181,1,140,12|12,0:0|0:3,0:0:0:0:
59,100,79151,1,0,0:0:0:0:
137,159,79318,2,0,L|210:146,1,70,2|4,0:0|0:3,0:0:0:0:
250,59,79651,2,0,L|323:72,1,70,12|0,0:3|0:0,0:0:0:0:
401,18,79984,6,0,P|419:62|387:148,1,140,6|12,0:3|0:3,0:0:0:0:
304,193,80484,1,0,0:0:0:0:
348,280,80651,2,0,L|425:268,1,70,2|4,0:0|0:3,0:0:0:0:
441,364,80984,2,0,L|364:376,1,70,14|0,0:3|0:0,0:0:0:0:
275,354,81318,6,0,B|189:357|239:315|132:321,1,140,6|12,0:3|0:3,0:0:0:0:
51,355,81818,1,0,0:3:0:0:
142,320,81984,2,0,P|144:284|125:248,1,70,2|0,0:0|0:0,0:0:0:0:
90,163,82318,2,0,P|57:179|36:213,1,70,12|0,0:3|0:0,0:0:0:0:
183,173,82651,6,0,P|228:159|259:60,1,140,6|14,0:3|0:3,0:0:0:0:
165,73,83151,1,0,0:0:0:0:
263,79,83318,2,0,L|336:87,1,70,2|4,0:0|0:3,0:0:0:0:
401,156,83651,2,0,P|412:197|404:231,1,70,14|0,0:3|0:0,0:0:0:0:
328,281,83984,6,0,B|268:273|268:273|252:252|252:252|194:242,2,140,12|12|2,0:0|0:3|0:0,0:0:0:0:
391,356,84818,1,0,0:0:0:0:
478,315,84984,2,0,B|501:284|501:284|492:242,1,70,12|0,0:3|0:0,0:0:0:0:
502,154,85318,6,0,L|348:174,1,140,6|14,0:3|0:3,0:0:0:0:
273,132,85818,1,0,0:0:0:0:
191,185,85984,2,0,P|176:153|179:108,1,70,2|4,0:0|0:3,0:0:0:0:
257,65,86318,2,0,P|272:97|269:142,1,70,14|0,0:3|0:0,0:0:0:0:
117,245,86651,6,0,P|180:238|240:301,1,140,6|12,0:3|0:3,0:0:0:0:
304,354,87151,1,0,0:0:0:0:
392,311,87318,2,0,L|410:240,2,70,2|4|12,0:0|0:3|0:3,0:0:0:0:
304,354,87818,1,0,0:0:0:0:
307,206,87984,6,0,L|291:58,1,140,6|14,0:3|0:3,0:0:0:0:
212,9,88484,1,0,0:0:0:0:
133,67,88651,2,0,P|99:57|75:21,1,70,2|4,0:0|0:3,0:0:0:0:
12,215,88984,2,0,P|36:179|101:158,1,105,12|0,0:3|0:0,0:0:0:0:
113,165,89318,6,0,B|201:188|169:132|262:144,1,140,12|12,0:0|0:3,0:0:0:0:
246,142,89984,2,0,P|280:120|294:81,1,70,2|0,0:0|0:0,0:0:0:0:
370,33,90318,1,14,0:3:0:0:
454,82,90484,2,0,L|466:158,1,70,2|4,0:0|0:3,0:0:0:0:
462,249,90818,2,0,L|390:221,1,70,2|12,0:0|0:3,0:0:0:0:
313,172,91151,2,0,L|372:123,1,70,2|0,0:0|0:0,0:0:0:0:
309,271,91484,1,6,0:3:0:0:
212,257,91651,2,0,B|157:274|157:274|137:325,1,105,14|0,0:3|0:0,0:0:0:0:
134,337,91984,6,0,B|63:322|63:322|36:246,1,140,6|12,0:3|0:3,0:0:0:0:
40,258,92651,2,0,L|59:182,1,70,2|0,0:0|0:0,0:0:0:0:
129,123,92984,1,14,0:3:0:0:
79,38,93151,2,0,P|42:66|32:94,1,70,2|6,0:0|0:3,0:0:0:0:
129,123,93484,1,0,0:0:0:0:
227,122,93651,2,0,P|221:75|202:53,1,70,12|2,0:3|0:0,0:0:0:0:
177,209,93984,2,0,L|192:282,1,70,2|6,0:0|0:3,0:0:0:0:
269,337,94318,2,0,L|284:264,1,70,14|0,0:3|0:0,0:0:0:0:
358,205,94651,6,0,B|419:202|419:202|442:222|442:222|501:218,1,140,12|12,0:0|0:3,0:0:0:0:
475,121,95151,1,2,0:0:0:0:
475,121,95318,2,0,L|460:44,1,70,0|4,0:0|0:3,0:0:0:0:
363,48,95651,2,0,L|348:125,1,70,14|0,0:3|0:0,0:0:0:0:
263,164,95984,5,4,0:3:0:0:
177,116,96151,2,0,P|117:119|62:184,1,140,2|0,0:0|0:0,0:0:0:0:
157,206,96651,2,0,L|145:281,1,70,0|6,0:0|0:3,0:0:0:0:
62,326,96984,2,0,L|50:251,1,70,14|0,0:3|0:0,0:0:0:0:
237,264,97318,6,0,B|321:267|275:312|379:315,2,140,6|14|2,0:3|0:3|0:0,0:0:0:0:
239,362,98151,1,4,0:3:0:0:
153,312,98318,2,0,L|80:320,1,70,14|2,0:3|0:0,0:0:0:0:
8,256,98651,6,0,L|25:181,1,70,6|0,0:3|0:0,0:0:0:0:
107,137,98984,1,12,0:3:0:0:
24,83,99151,2,0,L|0:39,2,35,4|4|14,0:3|0:3|0:3,0:0:0:0:
101,173,99484,1,4,0:3:0:0:
200,108,99651,1,12,0:3:0:0:
213,105,99734,1,12,0:3:0:0:
226,102,99818,1,12,0:3:0:0:
239,99,99901,1,12,0:3:0:0:
252,95,99984,6,0,P|307:122|391:106,1,140,4|12,0:0|0:3,0:0:0:0:
466,58,100484,1,0,0:0:0:0:
469,156,100651,2,0,L|447:244,1,70,2|0,0:0|0:0,0:0:0:0:
378,288,100984,2,0,P|341:280|318:248,1,70,12|0,0:3|0:0,0:0:0:0:
278,167,101318,6,0,B|229:192|224:243|224:243|196:243|185:220,1,140,6|14,0:3|0:3,0:0:0:0:
108,167,101818,1,0,0:0:0:0:
21,212,101984,2,0,P|8:171|16:138,1,70,2|4,0:0|0:3,0:0:0:0:
78,71,102318,2,0,L|155:64,1,70,12|0,0:3|0:0,0:0:0:0:
213,137,102651,6,0,B|209:195|209:195|192:212|192:212|188:275,1,140,6|12,0:3|0:3,0:0:0:0:
274,317,103151,1,0,0:0:0:0:
363,357,103318,2,0,B|376:322|376:322|367:281,1,70,2|4,0:0|0:3,0:0:0:0:
424,209,103651,2,0,L|346:193,1,70,12|0,0:3|0:0,0:0:0:0:
307,109,103984,6,0,P|361:73|443:97,1,140,6|12,0:3|0:3,0:0:0:0:
499,157,104484,1,0,0:0:0:0:
451,243,104651,2,0,L|437:313,1,70,2|4,0:0|0:3,0:0:0:0:
345,346,104984,2,0,L|331:276,1,70,14|0,0:3|0:0,0:0:0:0:
244,230,105318,6,0,B|156:234|198:277|101:277,2,140,12|12|6,0:0|0:3|0:3,0:0:0:0:
248,328,106151,1,0,0:0:0:0:
345,346,106318,2,0,P|383:340|404:304,1,70,12|0,0:3|0:0,0:0:0:0:
479,256,106651,6,0,L|460:102,1,140,6|14,0:3|0:3,0:0:0:0:
511,32,107151,1,0,0:0:0:0:
461,117,107318,2,0,P|417:114|390:89,1,70,2|4,0:0|0:3,0:0:0:0:
327,30,107651,2,0,P|283:33|256:58,1,70,14|0,0:3|0:0,0:0:0:0:
256,164,107984,6,0,P|210:139|126:156,1,140,6|12,0:3|0:3,0:0:0:0:
50,217,108484,1,0,0:0:0:0:
6,128,108651,2,0,L|-7:51,2,70,2|4|12,0:0|0:3|0:3,0:0:0:0:
50,217,109151,1,0,0:0:0:0:
100,79,109318,6,0,B|190:77|140:119|245:117,1,140,6|12,0:3|0:3,0:0:0:0:
325,143,109818,1,0,0:0:0:0:
402,86,109984,2,0,L|419:14,1,70,2|4,0:0|0:3,0:0:0:0:
473,154,110318,2,0,L|457:265,1,105,12|0,0:3|0:0,0:0:0:0:
458,257,110651,5,12,0:0:0:0:
285,350,110984,1,12,0:3:0:0:
458,257,111318,2,0,L|388:242,1,70,6|0,0:3|0:0,0:0:0:0:
292,256,111651,1,12,0:3:0:0:
240,172,111818,6,0,P|234:137|249:101,1,70,2|4,0:0|0:3,0:0:0:0:
154,69,112151,2,0,L|170:-5,2,70,2|12|0,0:0|0:3|0:0,0:0:0:0:
70,120,112651,2,0,L|84:202,1,70,2|4,0:0|0:3,0:0:0:0:
49,281,112984,2,0,P|91:288|132:271,1,70,14|2,0:3|0:0,0:0:0:0:
181,355,113318,5,4,0:3:0:0:
361,280,113651,1,14,0:3:0:0:
181,355,113984,2,0,L|203:275,1,70,4|0,0:3|0:0,0:0:0:0:
283,234,114318,1,14,0:3:0:0:
283,234,114484,2,0,L|264:160,1,70,2|4,0:0|0:3,0:0:0:0:
320,84,114818,2,0,P|359:82|398:106,2,70,2|12|2,0:0|0:3|0:0,0:0:0:0:
241,24,115318,1,2,0:0:0:0:
166,86,115484,1,4,0:3:0:0:
76,45,115651,2,0,L|65:117,1,70,14|2,0:3|0:0,0:0:0:0:
26,277,115984,6,0,P|58:280|98:266,1,70,12|0,0:0|0:0,0:0:0:0:
171,329,116318,2,0,P|184:299|185:257,1,70,14|0,0:3|0:0,0:0:0:0:
269,210,116651,2,0,P|246:187|206:172,1,70,2|4,0:0|0:3,0:0:0:0:
115,155,116984,1,14,0:3:0:0:
176,78,117151,6,0,L|253:65,1,70,2|4,0:0|0:0,0:0:0:0:
329,116,117484,2,0,L|354:41,2,70,0|4|6,0:0|0:3|0:3,0:0:0:0:
398,185,117984,1,6,0:3:0:0:
337,262,118151,1,6,0:3:0:0:
391,343,118318,1,6,0:3:0:0:
484,315,118484,1,4,0:3:0:0:
484,315,118568,1,4,0:3:0:0:
484,315,118651,6,0,L|505:177,1,140,12|12,0:0|0:3,0:0:0:0:
456,91,119151,2,0,P|399:74|316:113,1,140,2|0,0:0|0:0,0:0:0:0:
314,115,119568,1,0,0:0:0:0:
299,127,119651,2,0,P|261:113|241:84,1,70,12|2,0:3|0:0,0:0:0:0:
155,46,119984,5,6,0:3:0:0:
77,105,120151,2,0,L|64:190,1,70,0|12,0:0|0:3,0:0:0:0:
155,46,120484,1,2,0:0:0:0:
175,142,120651,2,0,L|191:233,1,70,0|4,0:0|0:3,0:0:0:0:
174,308,120984,2,0,P|227:299|270:250,1,105,14|0,0:3|0:0,0:0:0:0:
263,264,121318,6,0,P|329:292|363:375,1,140,6|12,0:3|0:3,0:0:0:0:
457,331,121818,1,0,0:0:0:0:
457,331,121984,2,0,L|477:244,1,70,6|0,0:3|0:0,0:0:0:0:
375,204,122318,2,0,L|355:117,1,70,14|2,0:3|0:0,0:0:0:0:
413,54,122651,5,6,0:3:0:0:
499,100,122818,1,0,0:0:0:0:
485,196,122984,1,14,0:3:0:0:
389,218,123151,1,0,0:0:0:0:
335,300,123318,2,0,L|259:284,1,70,2|6,0:0|0:3,0:0:0:0:
186,342,123651,2,0,B|147:345|147:345|113:318,1,70,14|2,0:3|0:0,0:0:0:0:
50,223,123984,6,0,B|80:182|80:182|66:98,1,105,12|0,0:0|0:0,0:0:0:0:
77,101,124318,2,0,L|-3:92,1,70,12|0,0:3|0:0,0:0:0:0:
158,52,124651,1,6,0:3:0:0:
228,119,124818,2,0,L|212:205,1,70,0|12,0:0|0:3,0:0:0:0:
205,285,125151,2,0,L|287:255,1,70,2|6,0:0|0:3,0:0:0:0:
345,197,125484,5,2,0:0:0:0:
368,292,125651,1,12,0:3:0:0:
345,197,125818,1,2,0:0:0:0:
430,149,125984,2,0,L|441:65,1,70,0|4,0:0|0:3,0:0:0:0:
372,15,126318,2,0,P|332:8|282:28,1,70,14|0,0:3|0:0,0:0:0:0:
232,82,126651,6,0,P|171:77|122:7,1,140,6|12,0:3|0:3,0:0:0:0:
69,100,127151,2,0,L|154:79,1,70,2|0,0:0|0:0,0:0:0:0:
173,174,127484,2,0,L|155:262,1,70,6|12,0:3|0:3,0:0:0:0:
88,311,127818,1,0,0:0:0:0:
82,319,127901,1,0,0:0:0:0:
73,325,127984,6,0,P|36:318|15:285,2,70,6|0|12,0:3|0:0|0:3,0:0:0:0:
164,360,128484,2,0,L|318:350,1,140,2|6,0:0|0:3,0:0:0:0:
401,357,128984,2,0,P|395:313|345:264,1,105,12|0,0:3|0:0,0:0:0:0:
355,269,129318,5,12,0:0:0:0:
397,181,129484,1,0,0:0:0:0:
320,119,129651,2,0,L|244:131,1,70,12|0,0:3|0:0,0:0:0:0:
182,199,129984,1,6,0:3:0:0:
104,138,130151,2,0,L|93:98,2,35,0|0|12,0:0|0:0|0:3,0:0:0:0:
156,284,130484,6,0,P|209:284|268:219,1,140,2|0,0:0|0:0,0:0:0:0:
314,138,130984,2,0,P|345:161|361:195,1,70,12|0,0:3|0:0,0:0:0:0:
441,243,131318,1,2,0:0:0:0:
359,297,131484,1,4,0:3:0:0:
441,243,131651,2,0,L|478:128,1,105,14|0,0:3|0:0,0:0:0:0:
473,143,131984,5,6,0:3:0:0:
399,77,132151,1,0,0:0:0:0:
311,129,132318,2,0,L|233:110,1,70,12|0,0:3|0:0,0:0:0:0:
309,31,132651,1,6,0:3:0:0:
399,77,132818,2,0,L|438:67,2,35,0|0|12,0:0|0:0|0:3,0:0:0:0:
215,18,133151,6,0,B|168:13|168:13|150:30|150:30|73:17,1,140,2|2,0:0|0:0,0:0:0:0:
18,92,133651,1,12,0:3:0:0:
79,168,133818,2,0,L|68:251,1,70,2|0,0:0|0:0,0:0:0:0:
50,333,134151,1,6,0:3:0:0:
50,333,134318,1,14,0:3:0:0:
141,297,134484,1,2,0:3:0:0:
293,356,134651,6,0,P|273:316|282:216,1,140,12|12,0:0|0:3,0:0:0:0:
288,229,135318,1,2,0:0:0:0:
304,233,135401,1,0,0:0:0:0:
321,236,135484,1,0,0:0:0:0:
338,239,135568,1,0,0:0:0:0:
354,243,135651,6,0,L|367:207,3,35,14|0|0|0,0:3|0:0|0:0|0:0,0:0:0:0:
396,171,135984,2,0,L|385:134,3,35,6|0|0|0,0:3|0:0|0:0|0:0,0:0:0:0:
397,88,136318,2,0,L|366:64,3,35,14|0|6|0,0:3|0:0|0:3|0:0,0:0:0:0:
349,21,136651,2,0,L|310:19,3,35,6|6|4|6,0:3|0:3|0:3|0:3,0:0:0:0:
272,45,136984,2,0,L|227:40,3,35,14|0|6|0,0:3|0:0|0:3|0:0,0:0:0:0:
203,62,137318,6,0,P|155:68|99:34,1,112,14|0,0:0|0:0,0:0:0:0:
17,169,137984,1,10,0:0:0:0:
141,264,138318,2,0,L|212:248,1,56
251,306,138651,2,0,P|305:302|364:345,1,112,2|4,0:0|0:3,0:0:0:0:
424,363,139151,1,0,0:0:0:0:
424,363,139318,2,0,L|457:306,1,56,8|0,0:0|0:0,0:0:0:0:
490,245,139651,2,0,L|470:190,1,56,0|2,0:0|0:0,0:0:0:0:
495,117,139984,6,0,P|458:157|405:153,1,112,6|0,0:3|0:0,0:0:0:0:
274,63,140651,1,8,0:0:0:0:
173,183,140984,2,0,L|185:228,3,28
164,246,141318,2,0,P|117:259|46:224,1,112,2|4,0:0|0:3,0:0:0:0:
13,174,141818,1,0,0:0:0:0:
13,174,141984,2,0,L|25:110,1,56,8|0,0:0|0:0,0:0:0:0:
104,92,142318,2,0,L|92:28,1,56,0|2,0:0|0:0,0:0:0:0:
183,111,142651,5,6,0:3:0:0:
336,81,142984,1,0,0:0:0:0:
229,196,143318,1,8,0:0:0:0:
382,166,143651,2,0,L|448:184,1,56
499,226,143984,1,2,0:0:0:0:
415,359,144318,1,4,0:3:0:0:
268,303,144651,1,8,0:0:0:0:
277,146,144984,2,0,L|296:82,1,56
309,15,145318,6,0,P|258:18|214:65,1,112,6|0,0:3|0:0,0:0:0:0:
74,126,145984,1,8,0:0:0:0:
146,265,146318,2,0,L|138:304,3,28
133,331,146651,2,0,B|191:347|191:347|251:317,1,112,2|4,0:0|0:3,0:0:0:0:
292,267,147151,1,0,0:0:0:0:
368,284,147318,2,0,P|369:255|354:219,1,56,10|0,0:0|0:0,0:0:0:0:
294,187,147651,1,4,0:3:0:0:
343,125,147818,1,0,0:0:0:0:
343,125,147901,1,0,0:0:0:0:
343,125,147984,6,0,L|492:160,1,140,12|8,0:0|0:0,0:0:0:0:
505,251,148484,1,0,0:0:0:0:
473,343,148651,2,0,P|441:362|407:359,1,70,0|4,0:0|0:3,0:0:0:0:
343,286,148984,2,0,P|310:274|268:278,1,70,8|0,0:0|0:0,0:0:0:0:
216,355,149318,6,0,P|232:305|188:227,1,140,4|8,0:3|0:0,0:0:0:0:
103,192,149818,1,0,0:0:0:0:
26,252,149984,2,0,L|38:326,1,70,0|4,0:0|0:3,0:0:0:0:
128,358,150318,2,0,L|116:284,1,70,8|0,0:0|0:0,0:0:0:0:
103,192,150651,6,0,B|115:137|115:137|107:110|107:110|123:36,1,140,6|8,0:3|0:0,0:0:0:0:
212,24,151151,1,0,0:0:0:0:
284,90,151318,2,0,L|379:80,1,70,0|4,0:0|0:3,0:0:0:0:
425,150,151651,2,0,L|414:227,1,70,8|0,0:0|0:0,0:0:0:0:
422,317,151984,6,0,B|340:315|364:263|299:260,1,140,6|8,0:3|0:0,0:0:0:0:
218,315,152484,1,0,0:0:0:0:
145,249,152651,2,0,P|139:212|153:175,1,70,0|4,0:0|0:3,0:0:0:0:
231,128,152984,1,8,0:0:0:0:
185,40,153151,1,0,0:0:0:0:
93,76,153318,6,0,L|23:67,1,70,12|0,0:0|0:0,0:0:0:0:
9,164,153651,1,8,0:0:0:0:
59,247,153818,2,0,L|48:329,1,70,2|4,0:0|0:3,0:0:0:0:
132,369,154151,1,0,0:0:0:0:
202,300,154318,1,12,0:3:0:0:
288,344,154484,1,4,0:3:0:0:
346,265,154651,6,0,P|351:229|333:192,1,70,14|0,0:3|0:0,0:0:0:0:
358,102,154984,2,0,P|322:97|285:115,1,70,14|0,0:3|0:0,0:0:0:0:
195,90,155318,2,0,P|190:126|208:163,1,70,10|4,0:0|0:3,0:0:0:0:
183,253,155651,2,0,P|219:258|256:240,1,70,12|0,0:3|0:0,0:0:0:0:
330,300,155984,6,0,L|422:311,1,70,6|0,0:3|0:0,0:0:0:0:
487,352,156318,1,14,0:3:0:0:
478,254,156484,1,6,0:3:0:0:
478,254,156818,1,6,0:3:0:0:
386,221,156984,6,0,L|399:177,2,46.6666666666667,10|2|2,0:0|0:0|0:0,0:0:0:0:
363,173,157318,2,0,B|375:97|309:43|221:65|214:155|214:155|251:129|289:151,1,336,6|0,0:3|0:0,0:0:0:0:
285,149,158651,5,2,0:0:0:0:
56,244,168651,6,0,B|69:200|69:200|61:181|61:181|79:120,1,125.999996154785,2|0,0:0|0:0,0:0:0:0:
73,120,169318,5,12,0:0:0:0:
217,167,169651,1,2,0:0:0:0:
304,49,169984,1,8,0:0:0:0:
423,134,170318,1,2,0:0:0:0:
423,134,170484,1,2,0:0:0:0:
361,267,170818,2,0,L|375:333,2,52.5000020027161,0|4|2,0:0|0:3|0:0,0:0:0:0:
298,228,171318,2,0,P|271:226|244:238,1,52.5000020027161,8|0,0:0|0:0,0:0:0:0:
196,288,171651,2,0,P|169:290|142:278,1,52.5000020027161,0|2,0:0|0:0,0:0:0:0:
95,226,171984,5,4,0:3:0:0:
24,355,172318,1,2,0:0:0:0:
95,226,172651,1,8,0:0:0:0:
27,95,172984,1,2,0:0:0:0:
27,95,173151,1,2,0:0:0:0:
157,28,173484,2,0,L|225:18,2,52.5000020027161,0|4|2,0:0|0:3|0:0,0:0:0:0:
124,94,173984,2,0,L|141:168,1,52.5000020027161,8|0,0:0|0:0,0:0:0:0:
189,195,174318,2,0,P|221:197|253:180,1,52.5000020027161,2|0,0:0|0:0,0:0:0:0:
339,121,174651,6,0,P|362:175|347:242,1,125.999996154785,12|8,0:0|0:0,0:0:0:0:
371,324,175151,1,0,0:0:0:0:
291,362,175318,2,0,L|220:347,1,62.9999980773926,10|0,0:0|0:0,0:0:0:0:
142,362,175651,2,0,L|157:291,1,62.9999980773926,10|0,0:0|0:0,0:0:0:0:
211,232,175984,6,0,B|203:184|203:184|186:163|186:163|175:97,1,125.999996154785,10|8,0:0|0:0,0:0:0:0:
236,46,176484,1,0,0:0:0:0:
309,95,176651,2,0,P|347:99|373:84,1,62.9999980773926,10|0,0:0|0:0,0:0:0:0:
417,14,176984,2,0,P|447:46|455:81,1,62.9999980773926,10|0,0:0|0:0,0:0:0:0:
482,210,177318,5,14,0:3:0:0:
425,277,177484,1,0,0:0:0:0:
396,193,177651,2,0,L|317:202,1,62.9999980773926,10|4,0:0|0:3,0:0:0:0:
333,200,178151,1,6,0:3:0:0:
252,163,178318,1,6,0:3:0:0:
196,231,178484,1,6,0:3:0:0:
237,306,178651,6,0,L|129:324,1,105,14|0,0:0|0:0,0:0:0:0:
86,336,178984,2,0,L|65:300,3,35,4|0|0|0,0:3|0:0|0:0|0:0,0:0:0:0:
43,263,179318,2,0,L|55:221,3,35,6|0|4|0,0:3|0:0|0:3|0:0,0:0:0:0:
69,182,179651,2,0,L|114:165,4,35,8|8|8|8|0,0:0|0:0|0:0|0:0|0:0,0:0:0:0:
26,71,180151,5,14,0:0:0:0:
111,22,180318,2,0,L|182:45,1,70,2|4,0:0|0:3,0:0:0:0:
232,124,180651,5,12,0:0:0:0:
322,85,180818,2,0,L|362:10,1,70,2|4,0:0|0:3,0:0:0:0:
312,184,181151,5,12,0:0:0:0:
409,195,181318,2,0,L|435:275,1,70,2|0,0:0|0:0,0:0:0:0:
391,351,181651,5,14,0:0:0:0:
306,300,181818,1,2,0:0:0:0:
215,336,181984,2,0,P|176:329|137:297,1,70,14|0,0:0|0:0,0:0:0:0:
80,243,182318,1,6,0:3:0:0:
88,227,182401,1,4,0:3:0:0:
96,211,182484,1,4,0:3:0:0:
104,195,182568,1,4,0:3:0:0:
112,179,182651,6,0,B|102:118|102:118|143:64|203:106|203:106|237:120|276:91,1,251.999992309571,14|0,0:0|0:0,0:0:0:0:
441,194,183984,2,0,L|432:247,3,35,12|0|0|0,0:0|0:0|0:0|0:0,0:0:0:0:
400,264,184318,2,0,L|391:317,3,35,6|0|0|0,0:3|0:0|0:0|0:0,0:0:0:0:
361,334,184651,2,0,L|352:387,3,35,6|0|0|0,0:3|0:0|0:0|0:0,0:0:0:0:
112,334,185318,6,0,P|58:299|66:212,2,140,12|12|2,0:0|0:3|0:0,0:0:0:0:
197,285,186151,1,4,0:3:0:0:
282,333,186318,2,0,L|303:256,1,70,12|0,0:3|0:0,0:0:0:0:
391,228,186651,6,0,L|358:84,1,140,6|14,0:3|0:3,0:0:0:0:
426,19,187151,1,0,0:0:0:0:
359,91,187318,2,0,P|316:86|287:61,1,70,2|4,0:0|0:3,0:0:0:0:
204,33,187651,2,0,P|161:38|132:63,1,70,12|0,0:3|0:0,0:0:0:0:
116,148,187984,6,0,P|181:169|208:238,1,140,14|12,0:0|0:3,0:0:0:0:
278,300,188484,1,0,0:0:0:0:
195,353,188651,2,0,L|108:341,1,70,6|0,0:3|0:0,0:0:0:0:
53,276,188984,2,0,B|43:239|43:239|55:202,1,70,12|0,0:3|0:0,0:0:0:0:
40,110,189318,6,0,B|112:124|112:124|123:146|123:146|181:158,1,140,6|12,0:3|0:3,0:0:0:0:
243,212,189818,1,0,0:0:0:0:
322,155,189984,2,0,B|334:121|334:121|324:79,1,70,2|4,0:3|0:3,0:0:0:0:
402,25,190318,2,0,L|494:46,1,70,12|0,0:3|0:0,0:0:0:0:
501,133,190651,6,0,L|480:279,1,140,6|12,0:3|0:3,0:0:0:0:
431,356,191151,1,0,0:0:0:0:
342,312,191318,2,0,L|313:247,2,70,2|4|12,0:0|0:3|0:3,0:0:0:0:
431,356,191818,1,0,0:0:0:0:
253,348,191984,6,0,B|174:331|199:384|99:354,1,140,6|12,0:3|0:3,0:0:0:0:
146,265,192484,1,0,0:0:0:0:
221,202,192651,2,0,P|235:169|230:129,1,70,2|4,0:0|0:3,0:0:0:0:
174,56,192984,2,0,L|65:71,1,105,12|0,0:3|0:0,0:0:0:0:
69,70,193318,6,0,L|40:2,1,70,12|0,0:0|0:0,0:0:0:0:
56,171,193651,2,0,L|-4:126,1,70,12|0,0:3|0:0,0:0:0:0:
98,255,193984,2,0,L|23:268,1,70,2|0,0:0|0:0,0:0:0:0:
185,215,194318,1,12,0:3:0:0:
248,288,194484,2,0,P|288:291|321:271,1,70,2|4,0:0|0:3,0:0:0:0:
360,190,194818,2,0,L|344:117,1,70,2|12,0:0|0:3,0:0:0:0:
445,239,195151,2,0,L|435:317,1,70
356,365,195484,1,4,0:3:0:0:
356,365,195651,2,0,P|317:371|263:326,1,105,12|0,0:3|0:0,0:0:0:0:
259,325,195984,6,0,L|181:338,1,70,6|0,0:3|0:0,0:0:0:0:
209,239,196318,2,0,L|131:226,1,70,12|0,0:3|0:0,0:0:0:0:
190,143,196651,2,0,L|126:108,1,70,2|0,0:0|0:0,0:0:0:0:
282,171,196984,1,12,0:3:0:0:
363,116,197151,2,0,L|377:33,1,70,2|4,0:0|0:3,0:0:0:0:
282,171,197484,1,2,0:0:0:0:
325,258,197651,2,0,P|361:272|408:260,1,70,12|2,0:3|0:0,0:0:0:0:
471,211,197984,1,0,0:0:0:0:
471,211,198151,1,4,0:3:0:0:
435,119,198318,2,0,L|443:49,1,70,12|0,0:3|0:0,0:0:0:0:
347,25,198651,6,0,P|278:16|223:60,1,140,12|14,0:0|0:3,0:0:0:0:
194,149,199151,1,2,0:0:0:0:
194,149,199318,2,0,P|159:132|135:96,1,70,0|4,0:0|0:3,0:0:0:0:
45,80,199651,2,0,P|62:45|98:21,1,70,14|0,0:3|0:0,0:0:0:0:
184,23,199984,5,4,0:3:0:0:
268,73,200151,2,0,B|362:73|321:32|408:35,1,140,2|0,0:0|0:0,0:0:0:0:
480,89,200651,2,0,L|474:167,1,70,2|4,0:0|0:3,0:0:0:0:
391,211,200984,2,0,L|397:285,1,70,12|0,0:3|0:0,0:0:0:0:
327,350,201318,6,0,P|272:338|236:262,2,140,6|12|2,0:3|0:3|0:0,0:0:0:0:
423,369,202151,1,4,0:3:0:0:
483,291,202318,2,0,P|487:252|474:213,1,70,12|0,0:3|0:0,0:0:0:0:
425,140,202651,5,6,0:3:0:0:
353,207,202818,2,0,P|318:189|303:158,1,70,0|12,0:0|0:3,0:0:0:0:
309,64,203151,2,0,L|301:27,2,35,0|0|12,0:0|0:0|0:3,0:0:0:0:
211,132,203484,1,12,0:3:0:0:
124,52,203651,1,12,0:3:0:0:
106,49,203734,1,12,0:3:0:0:
88,45,203818,1,12,0:3:0:0:
70,42,203901,1,12,0:3:0:0:
52,39,203984,6,0,P|22:109|54:166,1,140,12|12,0:0|0:3,0:0:0:0:
114,234,204484,1,0,0:0:0:0:
53,311,204651,2,0,P|25:278|20:240,1,70,2|4,0:0|0:3,0:0:0:0:
114,234,204984,2,0,L|188:242,1,70,12|0,0:3|0:0,0:0:0:0:
251,312,205318,6,0,B|314:304|314:304|340:322|340:322|394:315,1,140,6|12,0:3|0:3,0:0:0:0:
466,369,205818,1,0,0:0:0:0:
495,276,205984,2,0,B|506:240|506:240|490:206,1,70,2|4,0:0|0:3,0:0:0:0:
438,127,206318,2,0,L|363:118,1,70,12|0,0:3|0:0,0:0:0:0:
285,171,206651,6,0,P|241:168|189:88,1,140,6|14,0:3|0:3,0:0:0:0:
249,17,207151,1,0,0:0:0:0:
343,42,207318,2,0,L|412:31,1,70,2|4,0:0|0:3,0:0:0:0:
482,100,207651,2,0,P|490:144|477:177,1,70,12|0,0:3|0:0,0:0:0:0:
477,265,207984,6,0,B|395:253|441:213|343:210,1,140,6|14,0:3|0:3,0:0:0:0:
267,260,208484,1,0,0:0:0:0:
181,211,208651,2,0,P|167:178|168:138,1,70,2|4,0:0|0:3,0:0:0:0:
246,86,208984,2,0,P|260:119|259:159,1,70,12|0,0:3|0:0,0:0:0:0:
156,49,209318,6,0,L|6:27,2,140,14|12|2,0:0|0:3|0:0,0:0:0:0:
246,86,210151,1,4,0:3:0:0:
328,32,210318,2,0,B|364:40|364:40|386:75,1,70,12|0,0:3|0:0,0:0:0:0:
341,157,210651,6,0,B|313:204|313:204|324:297,1,140,6|14,0:3|0:3,0:0:0:0:
391,359,211151,1,0,0:0:0:0:
480,318,211318,2,0,L|496:244,1,70,2|4,0:0|0:3,0:0:0:0:
455,159,211651,2,0,L|443:88,1,70,12|0,0:3|0:0,0:0:0:0:
488,2,211984,6,0,P|449:42|366:40,1,140,6|12,0:3|0:3,0:0:0:0:
296,108,212484,1,0,0:0:0:0:
210,59,212651,2,0,L|140:40,2,70,2|4|12,0:0|0:3|0:3,0:0:0:0:
296,108,213151,1,0,0:0:0:0:
265,223,213318,6,0,P|196:234|128:186,1,140,6|12,0:3|0:3,0:0:0:0:
51,246,213818,1,0,0:0:0:0:
103,328,213984,2,0,P|134:355|176:355,1,70,2|4,0:0|0:3,0:0:0:0:
258,339,214318,2,0,P|287:323|332:325,1,70,14|0,0:3|0:0,0:0:0:0:
412,363,214651,5,12,0:0:0:0:
494,185,214984,1,12,0:3:0:0:
412,363,215318,2,0,L|396:282,1,70,2|0,0:0|0:0,0:0:0:0:
374,199,215651,1,12,0:3:0:0:
420,112,215818,2,0,P|375:161|305:158,1,140,2|2,0:0|0:0,0:0:0:0:
220,109,216318,2,0,L|232:26,1,70,12|0,0:3|0:0,0:0:0:0:
132,28,216651,1,2,0:0:0:0:
132,28,216818,1,4,0:3:0:0:
53,85,216984,2,0,L|74:166,1,70,12|0,0:3|0:0,0:0:0:0:
98,247,217318,5,6,0:3:0:0:
284,305,217651,1,12,0:3:0:0:
98,247,217984,2,0,L|170:228,1,70,2|0,0:0|0:0,0:0:0:0:
261,203,218318,1,12,0:3:0:0:
318,124,218484,2,0,P|323:88|314:55,1,70,2|6,0:0|0:3,0:0:0:0:
220,26,218818,2,0,P|215:62|224:95,2,70,0|12|0,0:0|0:3|0:0,0:0:0:0:
314,55,219318,1,2,0:0:0:0:
404,18,219484,1,4,0:3:0:0:
461,97,219651,2,0,L|449:182,1,70,12|0,0:3|0:0,0:0:0:0:
483,259,219984,6,0,P|438:285|353:270,1,140,12|12,0:0|0:3,0:0:0:0:
277,210,220484,1,0,0:0:0:0:
277,210,220651,2,0,L|256:284,1,70,2|6,0:0|0:3,0:0:0:0:
175,330,220984,1,12,0:3:0:0:
295,365,221151,6,0,P|245:323|167:334,1,140,2|2,0:0|0:0,0:0:0:0:
84,369,221651,2,0,P|74:325|84:293,1,70,12|2,0:3|0:0,0:0:0:0:
151,234,221984,2,0,L|144:163,1,70,2|4,0:0|0:3,0:0:0:0:
51,130,222318,2,0,L|72:55,1,70,12|0,0:3|0:0,0:0:0:0:
159,22,222651,6,0,B|221:35|221:35|241:56|241:56|303:67,2,140,6|12|2,0:3|0:3|0:0,0:0:0:0:
169,119,223484,1,4,0:3:0:0:
199,212,223651,2,0,P|238:195|257:154,1,70,12|0,0:3|0:0,0:0:0:0:
349,157,223984,2,0,L|430:174,1,70,6|0,0:3|0:0,0:0:0:0:
480,289,224318,6,0,P|423:282|374:348,1,140,12|6,0:0|0:3,0:0:0:0:
279,367,224818,1,6,0:3:0:0:
279,367,224984,2,0,L|203:358,1,70,12|0,0:3|0:0,0:0:0:0:
126,304,225318,6,0,P|110:271|112:231,1,70,4|0,0:0|0:0,0:0:0:0:
104,140,225651,2,0,P|140:142|174:164,1,70,4|0,0:3|0:0,0:0:0:0:
257,202,225984,2,0,P|236:232|200:250,1,70,4|0,0:3|0:0,0:0:0:0:
126,304,226318,2,0,P|110:271|112:231,1,70,4|0,0:3|0:0,0:0:0:0:
104,140,226651,5,6,0:3:0:0:
169,66,226818,1,6,0:3:0:0:
265,78,226984,1,6,0:3:0:0:
265,78,227318,2,0,L|317:70,3,35,8|8|8|8,0:0|0:0|0:0|0:0,0:0:0:0:
346,87,227651,2,0,L|398:79,3,35,8|8|8|8,0:0|0:0|0:0|0:0,0:0:0:0:
426,99,227984,6,0,P|443:134|436:171,1,70,12|8,0:0|0:2,0:0:0:0:
362,226,228318,1,12,0:0:0:0:
295,297,228484,2,0,P|357:271|429:310,1,140,10|10,3:2|0:2,0:0:0:0:
496,360,228984,2,0,P|512:325|509:285,1,70,14|10,0:0|0:2,0:0:0:0:
466,206,229318,6,0,L|486:133,1,70,6|10,0:0|0:2,0:0:0:0:
425,59,229651,1,14,0:0:0:0:
339,107,229818,2,0,P|285:108|218:56,1,140,10|10,0:2|0:2,0:0:0:0:
120,53,230318,2,0,L|43:69,1,70,14|10,0:0|0:2,0:0:0:0:
21,160,230651,6,0,L|37:233,2,70,6|8|14,0:0|0:2|0:0,0:0:0:0:
118,149,231151,2,0,B|172:164|172:164|181:185|181:185|252:204,1,140,10|10,0:2|0:2,0:0:0:0:
317,260,231651,2,0,B|339:230|339:230|334:194,1,70,14|10,0:0|0:2,0:0:0:0:
285,112,231984,5,6,0:0:0:0:
448,220,232318,1,14,0:0:0:0:
314,363,232651,1,6,0:0:0:0:
314,363,232734,2,0,L|197:333,1,105,12|12,0:0|0:0,0:0:0:0:
114,348,233151,1,12,0:2:0:0:
98,356,233234,1,4,0:0:0:0:
82,363,233318,6,0,P|61:331|61:295,1,70,12|10,0:0|0:2,0:0:0:0:
124,226,233651,1,14,0:0:0:0:
41,172,233818,2,0,P|108:194|162:138,1,140,10|10,0:2|0:2,0:0:0:0:
200,65,234318,2,0,L|277:85,1,70,14|10,0:0|0:2,0:0:0:0:
324,162,234651,5,6,0:0:0:0:
387,87,234818,1,10,0:2:0:0:
324,162,234984,1,14,0:0:0:0:
225,166,235151,2,0,L|252:311,1,140,10|10,0:2|0:2,0:0:0:0:
332,357,235651,2,0,B|375:362|375:362|410:340,1,70,14|10,0:0|0:2,0:0:0:0:
472,284,235984,5,12,0:0:0:0:
458,186,236151,1,0,0:0:0:0:
380,246,236318,1,2,0:0:0:0:
329,162,236484,2,0,L|314:85,1,70,6|0,0:0|0:0,0:0:0:0:
226,50,236818,5,4,0:0:0:0:
188,140,236984,1,6,0:0:0:0:
90,125,237151,1,12,0:0:0:0:
256,192,237318,12,4,238568,0:0:0:0:
