osu file format v14

[General]
AudioFilename: audio.ogg
AudioLeadIn: 0
PreviewTime: 145695
Countdown: 0
SampleSet: Normal
StackLeniency: 0.7
Mode: 1
LetterboxInBreaks: 0
WidescreenStoryboard: 1

[Editor]
Bookmarks: 1848,16848,24348,31848,39348,46848,54348,61848,69348,84348,91848,99348,106848,114348,136848,146223,161223,176223
DistanceSpacing: 0.1
BeatDivisor: 4
GridSize: 32
TimelineZoom: 0.8999999

[Metadata]
Title:Adventure
TitleUnicode:アドベンチャー
Artist:YOASOBI
ArtistUnicode:YOASOBI
Creator:gaston_2199
Version:Muzukashii
Source:
Tags:THE BOOK 3 Ayase 幾田りら ikura ikuta lilas japanese pop jpop j-pop female vocal
BeatmapID:4068450
BeatmapSetID:1954331

[Difficulty]
HPDrainRate:7
CircleSize:2
OverallDifficulty:4
ApproachRate:10
SliderMultiplier:1.4
SliderTickRate:1

[Events]
//Background and Video events
0,0,"BG.jpg",0,-100
//Break Periods
//Storyboard Layer 0 (Background)
//Storyboard Layer 1 (Fail)
//Storyboard Layer 2 (Pass)
//Storyboard Layer 3 (Foreground)
//Storyboard Layer 4 (Overlay)
//Storyboard Sound Samples

[TimingPoints]
1848,468.75,4,1,0,80,1,0
16848,-111.111111111111,4,1,0,70,0,0
23996,-100,4,1,0,80,0,0
39113,-95.2380952380952,4,1,0,80,0,0
46379,-90.9090909090909,4,1,0,80,0,0
54348,-100,4,1,0,80,0,0
61848,-90.9090909090909,4,1,0,80,0,0
69348,-86.9565217391304,4,1,0,90,0,1
84348,-86.9565217391304,4,1,0,90,0,0
84465,-90.9090909090909,4,1,0,80,0,0
114582,-100,4,1,0,80,0,0
122313,-99.1748651221834,4,1,0,80,0,0
122782,-98.3615157290993,4,1,0,80,0,0
123016,-97.9606764075861,4,1,0,80,0,0
123251,-97.5613986402109,4,1,0,80,0,0
123720,-96.7741935483871,4,1,0,80,0,0
124188,-96.0012288157288,4,1,0,80,0,0
124423,-95.617733052288,4,1,0,80,0,0
124657,-95.238901493346,4,1,0,80,0,0
124891,-94.8630599028602,4,1,0,80,0,0
125126,-94.4885857788379,4,1,0,80,0,0
125595,-93.75,4,1,0,80,0,0
126063,-93.0244096050804,4,1,0,80,0,0
126532,-92.3084497103566,4,1,0,80,0,0
126766,-91.9553383139069,4,1,0,80,0,0
127001,-91.6034263752728,4,1,0,80,0,0
127470,-90.9090909090909,4,1,0,80,0,0
129348,-100,4,1,0,70,0,0
136848,-95.2380952380952,4,1,0,80,0,0
145751,-86.9565217391304,4,1,0,80,0,0
146223,-86.9565217391304,4,1,0,90,0,1
161223,-86.9565217391304,4,1,0,90,0,0
161340,-95.2380952380952,4,1,0,80,0,0
175282,-93.4609250398724,4,1,0,80,0,0
175516,-91.7488648817911,4,1,0,80,0,0
175751,-90.0914751326005,4,1,0,80,0,0
175868,-89.2884351668444,4,1,0,80,0,0
175985,-88.4995846862493,4,1,0,80,0,0
176223,-86.9565217391304,4,1,0,100,0,1
191223,-100,4,1,0,80,0,0

[HitObjects]
256,192,1848,5,8,0:0:0:0:
256,192,2199,1,0,0:0:0:0:
256,192,2551,1,8,0:0:0:0:
224,91,3019,1,0,0:0:0:0:
256,192,3254,1,8,0:0:0:0:
256,192,3723,1,0,0:0:0:0:
256,192,4074,1,8,0:0:0:0:
256,192,4426,1,0,0:0:0:0:
256,192,5129,1,8,0:0:0:0:
256,192,5363,1,8,0:0:0:0:
256,192,5598,1,0,0:0:0:0:
256,192,5949,1,0,0:0:0:0:
256,192,6301,1,8,0:0:0:0:
256,192,6769,1,8,0:0:0:0:
256,192,7004,1,0,0:0:0:0:
256,192,7473,1,8,0:0:0:0:
256,192,7824,1,0,0:0:0:0:
256,192,8176,1,8,0:0:0:0:
256,192,8644,1,8,0:0:0:0:
256,192,9348,1,0,0:0:0:0:
256,192,9816,1,8,0:0:0:0:
256,192,10285,1,0,0:0:0:0:
256,192,10519,1,0,0:0:0:0:
256,192,10754,1,8,0:0:0:0:
256,192,11223,1,0,0:0:0:0:
256,192,11691,1,8,0:0:0:0:
256,192,11926,1,0,0:0:0:0:
256,192,12394,1,8,0:0:0:0:
256,192,12863,1,0,0:0:0:0:
256,192,13098,1,8,0:0:0:0:
256,192,13449,1,8,0:0:0:0:
256,192,13801,1,0,0:0:0:0:
256,192,14269,1,0,0:0:0:0:
256,192,14504,1,8,0:0:0:0:
256,192,14973,1,0,0:0:0:0:
256,192,15324,1,8,0:0:0:0:
256,192,15910,1,0,0:0:0:0:
256,192,16848,1,0,0:0:0:0:
256,192,17199,1,0,0:0:0:0:
256,192,17551,1,8,0:0:0:0:
256,192,18019,1,8,0:0:0:0:
256,192,18254,1,0,0:0:0:0:
256,192,18723,1,8,0:0:0:0:
256,192,19074,1,0,0:0:0:0:
256,192,19426,1,8,0:0:0:0:
256,192,20129,1,8,0:0:0:0:
256,192,20363,1,8,0:0:0:0:
256,192,20598,1,0,0:0:0:0:
256,192,20949,1,0,0:0:0:0:
256,192,21301,1,8,0:0:0:0:
256,192,21769,1,8,0:0:0:0:
256,192,22004,1,0,0:0:0:0:
256,192,22473,1,8,0:0:0:0:
256,192,22824,1,0,0:0:0:0:
256,192,23176,1,8,0:0:0:0:
256,192,24113,1,8,0:0:0:0:
256,192,24348,1,0,0:0:0:0:
256,192,24816,1,0,0:0:0:0:
256,192,25051,1,8,0:0:0:0:
256,192,25285,1,0,0:0:0:0:
256,192,25519,1,8,0:0:0:0:
256,192,25754,1,0,0:0:0:0:
256,192,25988,1,0,0:0:0:0:
256,192,26223,1,8,0:0:0:0:
256,192,26574,1,0,0:0:0:0:
256,192,26926,1,8,0:0:0:0:
256,192,27394,1,0,0:0:0:0:
256,192,27629,1,8,0:0:0:0:
256,192,27863,1,0,0:0:0:0:
256,192,27980,1,0,0:0:0:0:
256,192,28098,1,0,0:0:0:0:
256,192,28566,1,0,0:0:0:0:
256,192,28801,1,8,0:0:0:0:
256,192,29035,1,0,0:0:0:0:
256,192,29269,1,8,0:0:0:0:
256,192,29504,1,8,0:0:0:0:
256,192,29738,1,0,0:0:0:0:
256,192,29973,1,8,0:0:0:0:
256,192,30324,1,0,0:0:0:0:
256,192,30676,1,8,0:0:0:0:
256,192,31613,1,8,0:0:0:0:
256,192,31848,1,0,0:0:0:0:
256,192,32316,1,0,0:0:0:0:
256,192,32551,1,8,0:0:0:0:
256,192,32785,1,0,0:0:0:0:
256,192,33019,1,8,0:0:0:0:
256,192,33254,1,0,0:0:0:0:
256,192,33488,1,8,0:0:0:0:
256,192,33605,1,8,0:0:0:0:
256,192,33723,1,8,0:0:0:0:
256,192,34074,1,0,0:0:0:0:
256,192,34426,1,8,0:0:0:0:
256,192,34894,1,0,0:0:0:0:
256,192,35129,1,8,0:0:0:0:
256,192,35363,1,0,0:0:0:0:
256,192,35832,1,8,0:0:0:0:
256,192,36066,1,0,0:0:0:0:
256,192,36301,1,8,0:0:0:0:
256,192,36535,1,0,0:0:0:0:
256,192,37238,1,0,0:0:0:0:
256,192,37473,1,8,0:0:0:0:
256,192,37824,1,0,0:0:0:0:
256,192,38058,1,8,0:0:0:0:
256,192,38293,1,0,0:0:0:0:
231,89,38410,1,0,0:0:0:0:
216,67,38644,1,0,0:0:0:0:
216,67,38879,1,8,0:0:0:0:
256,192,39348,1,0,0:0:0:0:
256,192,39816,1,0,0:0:0:0:
256,192,40285,1,8,0:0:0:0:
247,182,40988,1,0,0:0:0:0:
256,192,41223,1,8,0:0:0:0:
256,192,41457,1,0,0:0:0:0:
256,192,41574,1,0,0:0:0:0:
256,192,41691,1,0,0:0:0:0:
256,192,41926,1,0,0:0:0:0:
256,192,42160,1,8,0:0:0:0:
256,192,42512,1,0,0:0:0:0:
256,192,43098,1,8,0:0:0:0:
256,192,43566,1,8,0:0:0:0:
256,192,44035,1,0,0:0:0:0:
256,192,44387,1,8,0:0:0:0:
256,192,44738,1,0,0:0:0:0:
248,156,44973,1,0,0:0:0:0:
256,192,45207,1,8,0:0:0:0:
256,192,45441,1,8,0:0:0:0:
256,192,46848,1,0,0:0:0:0:
256,192,47316,1,8,0:0:0:0:
256,192,47785,1,0,0:0:0:0:
256,192,48488,1,8,0:0:0:0:
256,192,48723,1,0,0:0:0:0:
256,192,48957,1,8,0:0:0:0:
256,192,49074,1,8,0:0:0:0:
256,192,49191,1,8,0:0:0:0:
256,192,49426,1,8,0:0:0:0:
256,192,49660,1,0,0:0:0:0:
256,192,50012,1,8,0:0:0:0:
256,192,50363,1,0,0:0:0:0:
254,187,50480,1,0,0:0:0:0:
256,192,50598,1,0,0:0:0:0:
256,192,50949,1,0,0:0:0:0:
256,192,51301,1,8,0:0:0:0:
256,192,51769,1,0,0:0:0:0:
256,192,52004,1,8,0:0:0:0:
256,192,52238,1,0,0:0:0:0:
256,192,52707,1,8,0:0:0:0:
256,192,52941,1,0,0:0:0:0:
256,192,53176,1,8,0:0:0:0:
256,192,53644,1,8,0:0:0:0:
256,192,53762,1,8,0:0:0:0:
256,192,53879,1,8,0:0:0:0:
256,192,54348,1,0,0:0:0:0:
256,192,54816,1,0,0:0:0:0:
256,192,55285,1,0,0:0:0:0:
256,192,55754,1,0,0:0:0:0:
256,192,56223,1,0,0:0:0:0:
256,192,56457,1,0,0:0:0:0:
256,192,56691,1,8,0:0:0:0:
256,192,57160,1,0,0:0:0:0:
256,192,57512,1,8,0:0:0:0:
258,201,57863,1,8,0:0:0:0:
256,192,58098,1,0,0:0:0:0:
256,192,58566,1,0,0:0:0:0:
256,192,59035,1,0,0:0:0:0:
256,192,59504,1,0,0:0:0:0:
256,192,59973,1,0,0:0:0:0:
262,193,60207,1,0,0:0:0:0:
256,192,60441,1,8,0:0:0:0:
256,192,60910,1,0,0:0:0:0:
256,192,61262,1,8,0:0:0:0:
256,192,61613,1,8,0:0:0:0:
256,192,61848,1,0,0:0:0:0:
256,192,62316,1,8,0:0:0:0:
256,192,62785,1,0,0:0:0:0:
256,192,63019,1,0,0:0:0:0:
256,192,63254,1,8,0:0:0:0:
256,192,63723,1,8,0:0:0:0:
256,192,63957,1,0,0:0:0:0:
253,185,64191,1,8,0:0:0:0:
256,192,64426,1,8,0:0:0:0:
256,192,64660,1,0,0:0:0:0:
256,192,65129,1,8,0:0:0:0:
256,192,65598,1,0,0:0:0:0:
256,192,66066,1,8,0:0:0:0:
256,192,66301,1,0,0:0:0:0:
256,192,66769,1,0,0:0:0:0:
256,192,67004,1,8,0:0:0:0:
256,192,67238,1,8,0:0:0:0:
256,192,67473,1,0,0:0:0:0:
256,192,69348,1,4,0:0:0:0:
256,192,69816,1,8,0:0:0:0:
256,192,70285,1,0,0:0:0:0:
256,192,70402,1,0,0:0:0:0:
256,192,70519,1,0,0:0:0:0:
256,192,70754,1,8,0:0:0:0:
256,192,70988,1,8,0:0:0:0:
256,192,71223,1,0,0:0:0:0:
256,192,71574,1,8,0:0:0:0:
256,192,71691,1,8,0:0:0:0:
256,192,71926,1,8,0:0:0:0:
256,192,72160,1,0,0:0:0:0:
256,192,72629,1,8,0:0:0:0:
256,192,72863,1,8,0:0:0:0:
256,192,73098,1,0,0:0:0:0:
256,192,73449,1,8,0:0:0:0:
256,192,73801,1,0,0:0:0:0:
256,192,74269,1,0,0:0:0:0:
256,192,74504,1,8,0:0:0:0:
256,192,74738,1,8,0:0:0:0:
256,192,74973,1,0,0:0:0:0:
256,192,75324,1,8,0:0:0:0:
256,192,75676,1,8,0:0:0:0:
256,192,75910,1,0,0:0:0:0:
256,192,76379,1,8,0:0:0:0:
256,192,76613,1,8,0:0:0:0:
256,192,76848,1,0,0:0:0:0:
256,192,77316,1,8,0:0:0:0:
256,192,77785,1,0,0:0:0:0:
256,192,77902,1,0,0:0:0:0:
256,192,78019,1,0,0:0:0:0:
256,192,78254,1,8,0:0:0:0:
256,192,78488,1,8,0:0:0:0:
256,192,78723,1,0,0:0:0:0:
256,192,79074,1,8,0:0:0:0:
256,192,79191,1,8,0:0:0:0:
256,192,79426,1,0,0:0:0:0:
256,192,79660,1,8,0:0:0:0:
256,192,80129,1,8,0:0:0:0:
256,192,80598,1,0,0:0:0:0:
256,192,80949,1,8,0:0:0:0:
256,192,81301,1,0,0:0:0:0:
256,192,81769,1,8,0:0:0:0:
256,192,82004,1,8,0:0:0:0:
256,192,82238,1,8,0:0:0:0:
256,192,82473,1,0,0:0:0:0:
256,192,82824,1,0,0:0:0:0:
256,192,83176,1,0,0:0:0:0:
256,192,83410,1,8,0:0:0:0:
256,192,83762,1,8,0:0:0:0:
256,192,84113,1,8,0:0:0:0:
256,192,84348,1,4,0:0:0:0:
255,177,84816,1,8,0:0:0:0:
256,192,85051,1,0,0:0:0:0:
256,192,85285,1,0,0:0:0:0:
256,192,85754,1,8,0:0:0:0:
256,192,85871,1,8,0:0:0:0:
256,192,85988,1,8,0:0:0:0:
256,192,86223,1,0,0:0:0:0:
256,192,86574,1,0,0:0:0:0:
256,192,86926,1,8,0:0:0:0:
256,192,87629,1,8,0:0:0:0:
251,184,87863,1,8,0:0:0:0:
256,192,88098,1,0,0:0:0:0:
245,168,88566,1,8,0:0:0:0:
256,192,88801,1,0,0:0:0:0:
256,192,89035,1,0,0:0:0:0:
256,192,89504,1,8,0:0:0:0:
256,192,89973,1,0,0:0:0:0:
256,192,90207,1,0,0:0:0:0:
250,182,90324,1,0,0:0:0:0:
253,184,90558,1,0,0:0:0:0:
256,192,90793,1,8,0:0:0:0:
256,192,91379,1,8,0:0:0:0:
256,192,91848,1,0,0:0:0:0:
256,192,92316,1,8,0:0:0:0:
256,192,92551,1,0,0:0:0:0:
256,192,92785,1,0,0:0:0:0:
256,192,93254,1,8,0:0:0:0:
256,192,93371,1,8,0:0:0:0:
256,192,93488,1,8,0:0:0:0:
256,192,93723,1,0,0:0:0:0:
256,192,94074,1,0,0:0:0:0:
256,192,94426,1,8,0:0:0:0:
256,192,95129,1,8,0:0:0:0:
253,184,95363,1,8,0:0:0:0:
256,192,95598,1,0,0:0:0:0:
251,178,96066,1,8,0:0:0:0:
256,192,96301,1,0,0:0:0:0:
256,192,96535,1,0,0:0:0:0:
256,192,97004,1,8,0:0:0:0:
256,192,97473,1,0,0:0:0:0:
256,192,97707,1,8,0:0:0:0:
256,192,97824,1,8,0:0:0:0:
256,192,98058,1,8,0:0:0:0:
256,192,98293,1,0,0:0:0:0:
256,192,98879,1,0,0:0:0:0:
256,192,99348,1,12,0:0:0:0:
256,192,99816,1,8,0:0:0:0:
256,192,100285,1,0,0:0:0:0:
248,173,100637,1,8,0:0:0:0:
256,192,100988,1,0,0:0:0:0:
253,184,101223,1,8,0:0:0:0:
256,192,101457,1,0,0:0:0:0:
256,192,101574,1,0,0:0:0:0:
256,192,101691,1,0,0:0:0:0:
256,192,101926,1,0,0:0:0:0:
256,192,102160,1,8,0:0:0:0:
256,192,102512,1,8,0:0:0:0:
256,192,102629,1,8,0:0:0:0:
256,192,102863,1,8,0:0:0:0:
256,192,103098,1,0,0:0:0:0:
256,192,103566,1,8,0:0:0:0:
256,192,104035,1,0,0:0:0:0:
256,192,104152,1,0,0:0:0:0:
256,192,104269,1,0,0:0:0:0:
256,192,104504,1,8,0:0:0:0:
256,192,104738,1,0,0:0:0:0:
256,192,104973,1,0,0:0:0:0:
256,192,105207,1,8,0:0:0:0:
256,192,105441,1,8,0:0:0:0:
256,192,105910,1,0,0:0:0:0:
256,192,106848,1,0,0:0:0:0:
256,192,107316,1,8,0:0:0:0:
256,192,107785,1,0,0:0:0:0:
229,136,108137,1,0,0:0:0:0:
256,192,108488,1,8,0:0:0:0:
256,192,108723,1,0,0:0:0:0:
209,82,108957,1,8,0:0:0:0:
256,192,109074,1,8,0:0:0:0:
256,192,109191,1,8,0:0:0:0:
256,192,109426,1,8,0:0:0:0:
256,192,109660,1,0,0:0:0:0:
256,192,110012,1,8,0:0:0:0:
256,192,110363,1,0,0:0:0:0:
256,192,110480,1,0,0:0:0:0:
256,192,110598,1,0,0:0:0:0:
256,192,110949,1,8,0:0:0:0:
256,192,111301,1,0,0:0:0:0:
256,192,111769,1,0,0:0:0:0:
256,192,112004,1,8,0:0:0:0:
256,192,112238,1,0,0:0:0:0:
256,192,112707,1,8,0:0:0:0:
256,192,112824,1,8,0:0:0:0:
256,192,112941,1,8,0:0:0:0:
256,192,113176,1,8,0:0:0:0:
256,192,113644,1,0,0:0:0:0:
256,192,113879,1,8,0:0:0:0:
256,192,114348,1,0,0:0:0:0:
256,192,114816,1,8,0:0:0:0:
256,192,115519,1,0,0:0:0:0:
256,192,115754,1,8,0:0:0:0:
256,192,116223,1,0,0:0:0:0:
256,192,116574,1,0,0:0:0:0:
256,192,116926,1,0,0:0:0:0:
256,192,117160,1,8,0:0:0:0:
256,192,117394,1,0,0:0:0:0:
256,192,117629,1,8,0:0:0:0:
256,192,118098,1,0,0:0:0:0:
256,192,118566,1,8,0:0:0:0:
256,192,119269,1,0,0:0:0:0:
256,192,119504,1,8,0:0:0:0:
256,192,119973,1,0,0:0:0:0:
256,192,120324,1,0,0:0:0:0:
256,192,120676,1,0,0:0:0:0:
256,192,120910,1,8,0:0:0:0:
256,192,121144,1,0,0:0:0:0:
256,192,121379,1,8,0:0:0:0:
256,192,121848,1,8,0:0:0:0:
256,192,122316,1,8,0:0:0:0:
256,192,122785,1,8,0:0:0:0:
256,192,123019,1,0,0:0:0:0:
256,192,123254,1,8,0:0:0:0:
256,192,123723,1,8,0:0:0:0:
256,192,124191,1,8,0:0:0:0:
254,185,124426,1,0,0:0:0:0:
256,192,124660,1,8,0:0:0:0:
216,136,124894,1,0,0:0:0:0:
256,192,125129,1,8,0:0:0:0:
256,192,125598,1,8,0:0:0:0:
253,188,126066,1,8,0:0:0:0:
256,192,126535,1,8,0:0:0:0:
256,192,126769,1,0,0:0:0:0:
256,192,127004,1,8,0:0:0:0:
256,192,127473,1,0,0:0:0:0:
256,192,128176,1,8,0:0:0:0:
256,192,129348,5,0,0:0:0:0:
256,192,129816,1,8,0:0:0:0:
256,192,130285,1,0,0:0:0:0:
256,192,130519,1,0,0:0:0:0:
256,192,130754,1,8,0:0:0:0:
256,192,131223,1,0,0:0:0:0:
256,192,131691,1,8,0:0:0:0:
256,192,132043,1,8,0:0:0:0:
256,192,132160,1,8,0:0:0:0:
256,192,132394,1,0,0:0:0:0:
256,192,132629,1,8,0:0:0:0:
256,192,133098,1,0,0:0:0:0:
256,192,133566,1,8,0:0:0:0:
256,192,134035,1,0,0:0:0:0:
256,192,134269,1,0,0:0:0:0:
256,192,134504,1,8,0:0:0:0:
256,192,134973,1,0,0:0:0:0:
256,192,135441,1,8,0:0:0:0:
256,192,135910,1,0,0:0:0:0:
256,192,136027,1,0,0:0:0:0:
256,192,136144,1,0,0:0:0:0:
256,192,136379,1,8,0:0:0:0:
256,192,136848,1,4,0:0:0:0:
256,192,137316,1,8,0:0:0:0:
256,192,137785,1,8,0:0:0:0:
256,192,138019,1,0,0:0:0:0:
256,192,138254,1,8,0:0:0:0:
256,192,138723,1,0,0:0:0:0:
256,192,139074,1,8,0:0:0:0:
256,192,139191,1,8,0:0:0:0:
256,192,139426,1,8,0:0:0:0:
256,192,139660,1,0,0:0:0:0:
256,192,140129,1,8,0:0:0:0:
256,192,140598,1,0,0:0:0:0:
256,192,141066,1,8,0:0:0:0:
256,192,141535,1,0,0:0:0:0:
237,181,141769,1,8,0:0:0:0:
256,192,142004,1,8,0:0:0:0:
256,192,142238,1,8,0:0:0:0:
256,192,142473,1,0,0:0:0:0:
256,192,142824,1,0,0:0:0:0:
256,192,143176,1,0,0:0:0:0:
256,192,143410,1,8,0:0:0:0:
256,192,143762,1,8,0:0:0:0:
256,192,144113,1,0,0:0:0:0:
256,192,144348,12,0,145519,0:0:0:0:
256,192,145754,5,8,0:0:0:0:
256,192,145871,1,8,0:0:0:0:
256,192,145988,1,8,0:0:0:0:
256,192,146223,1,4,0:0:0:0:
256,192,146691,1,8,0:0:0:0:
256,192,147160,1,0,0:0:0:0:
256,192,147277,1,0,0:0:0:0:
256,192,147394,1,0,0:0:0:0:
256,192,147629,1,8,0:0:0:0:
256,192,147863,1,8,0:0:0:0:
256,192,148098,1,0,0:0:0:0:
256,192,148449,1,8,0:0:0:0:
256,192,148566,1,8,0:0:0:0:
256,192,148801,1,8,0:0:0:0:
256,192,149035,1,0,0:0:0:0:
256,192,149504,1,8,0:0:0:0:
256,192,149738,1,8,0:0:0:0:
256,192,149973,1,0,0:0:0:0:
256,192,150324,1,8,0:0:0:0:
256,192,150676,1,0,0:0:0:0:
256,192,151144,1,0,0:0:0:0:
256,192,151379,1,8,0:0:0:0:
253,189,151496,1,8,0:0:0:0:
256,192,151613,1,8,0:0:0:0:
256,192,151848,1,0,0:0:0:0:
256,192,152199,1,8,0:0:0:0:
256,192,152551,1,8,0:0:0:0:
250,185,152785,1,0,0:0:0:0:
256,192,153254,1,8,0:0:0:0:
256,192,153488,1,8,0:0:0:0:
256,192,153723,1,0,0:0:0:0:
256,192,154191,1,8,0:0:0:0:
256,192,154660,1,0,0:0:0:0:
256,192,154777,1,0,0:0:0:0:
256,192,154894,1,0,0:0:0:0:
256,192,155129,1,8,0:0:0:0:
256,192,155363,1,8,0:0:0:0:
256,192,155598,1,0,0:0:0:0:
256,192,155949,1,8,0:0:0:0:
256,192,156066,1,8,0:0:0:0:
256,192,156301,1,0,0:0:0:0:
256,192,156535,1,8,0:0:0:0:
256,192,157004,1,8,0:0:0:0:
256,192,157121,1,8,0:0:0:0:
256,192,157238,1,8,0:0:0:0:
256,192,157473,1,0,0:0:0:0:
256,192,157824,1,8,0:0:0:0:
256,192,158176,1,0,0:0:0:0:
256,192,158879,1,8,0:0:0:0:
256,192,159113,1,8,0:0:0:0:
256,192,159348,1,0,0:0:0:0:
249,182,159699,1,8,0:0:0:0:
256,192,159933,1,8,0:0:0:0:
255,184,160285,1,0,0:0:0:0:
256,192,160754,1,8,0:0:0:0:
253,188,160871,1,8,0:0:0:0:
256,192,160988,1,8,0:0:0:0:
256,192,161223,1,4,0:0:0:0:
256,192,161691,1,8,0:0:0:0:
256,192,162394,1,0,0:0:0:0:
256,192,162629,1,8,0:0:0:0:
256,192,163098,1,0,0:0:0:0:
256,192,163332,1,0,0:0:0:0:
256,192,163566,1,8,0:0:0:0:
256,192,163683,1,8,0:0:0:0:
256,192,163801,1,8,0:0:0:0:
256,192,164269,1,0,0:0:0:0:
256,192,164504,1,8,0:0:0:0:
256,192,164738,1,8,0:0:0:0:
256,192,164973,1,0,0:0:0:0:
256,192,165441,1,8,0:0:0:0:
256,192,166144,1,0,0:0:0:0:
256,192,166379,1,8,0:0:0:0:
256,192,166848,1,8,0:0:0:0:
256,192,167082,1,0,0:0:0:0:
256,192,167316,1,8,0:0:0:0:
256,192,167785,1,0,0:0:0:0:
256,192,167902,1,0,0:0:0:0:
256,192,168019,1,0,0:0:0:0:
256,192,168254,1,8,0:0:0:0:
223,132,168488,1,8,0:0:0:0:
256,192,168723,1,0,0:0:0:0:
256,192,169191,1,8,0:0:0:0:
256,192,169894,1,0,0:0:0:0:
256,192,170129,1,8,0:0:0:0:
256,192,170598,1,0,0:0:0:0:
256,192,170832,1,0,0:0:0:0:
256,192,171066,1,8,0:0:0:0:
256,192,171183,1,8,0:0:0:0:
256,192,171301,1,8,0:0:0:0:
256,192,171769,1,0,0:0:0:0:
256,192,172004,1,8,0:0:0:0:
256,192,172238,1,8,0:0:0:0:
256,192,172473,1,0,0:0:0:0:
256,192,172941,1,8,0:0:0:0:
256,192,173644,1,0,0:0:0:0:
256,192,173879,1,8,0:0:0:0:
256,192,174348,1,8,0:0:0:0:
256,192,174582,1,0,0:0:0:0:
256,192,174816,1,8,0:0:0:0:
256,192,175051,1,8,0:0:0:0:
256,192,175285,1,0,0:0:0:0:
256,192,175519,1,0,0:0:0:0:
256,192,175754,1,8,0:0:0:0:
256,192,175871,1,8,0:0:0:0:
256,192,175988,1,8,0:0:0:0:
256,192,176223,1,4,0:0:0:0:
251,181,176574,1,0,0:0:0:0:
256,192,176926,1,8,0:0:0:0:
241,158,177043,1,8,0:0:0:0:
241,158,177160,1,8,0:0:0:0:
256,192,177394,1,0,0:0:0:0:
256,192,177629,1,8,0:0:0:0:
235,141,177863,1,8,0:0:0:0:
256,192,178098,1,0,0:0:0:0:
256,192,178449,1,8,0:0:0:0:
256,192,178801,1,0,0:0:0:0:
256,192,179269,1,8,0:0:0:0:
256,192,179738,1,8,0:0:0:0:
256,192,179973,1,0,0:0:0:0:
256,192,180324,1,8,0:0:0:0:
256,192,180676,1,0,0:0:0:0:
256,192,180793,1,0,0:0:0:0:
256,192,180910,1,0,0:0:0:0:
256,192,181144,1,0,0:0:0:0:
256,192,181379,1,8,0:0:0:0:
252,180,181613,1,0,0:0:0:0:
256,192,181848,1,8,0:0:0:0:
256,192,182199,1,0,0:0:0:0:
256,192,182551,1,8,0:0:0:0:
256,192,183019,1,8,0:0:0:0:
256,192,183723,1,0,0:0:0:0:
251,185,183957,1,0,0:0:0:0:
256,192,184191,1,8,0:0:0:0:
256,192,184426,1,0,0:0:0:0:
256,192,184543,1,0,0:0:0:0:
256,192,184660,1,0,0:0:0:0:
256,192,184894,1,0,0:0:0:0:
256,192,185129,1,8,0:0:0:0:
246,170,185363,1,0,0:0:0:0:
256,192,185598,1,8,0:0:0:0:
256,192,186066,1,8,0:0:0:0:
256,192,186301,1,0,0:0:0:0:
256,192,186769,1,8,0:0:0:0:
252,172,187238,1,0,0:0:0:0:
256,192,187473,1,8,0:0:0:0:
256,192,187824,1,0,0:0:0:0:
256,192,188176,1,8,0:0:0:0:
256,192,188644,1,0,0:0:0:0:
256,192,188879,1,8,0:0:0:0:
256,192,189113,1,8,0:0:0:0:
256,192,189348,1,0,0:0:0:0:
256,192,189699,1,8,0:0:0:0:
256,192,190051,1,0,0:0:0:0:
256,192,190285,1,8,0:0:0:0:
256,192,190519,1,0,0:0:0:0:
256,192,190754,1,8,0:0:0:0:
256,192,191223,1,0,0:0:0:0:
256,192,191691,1,8,0:0:0:0:
256,192,192394,1,0,0:0:0:0:
256,192,192629,1,8,0:0:0:0:
256,192,193098,1,0,0:0:0:0:
256,192,193566,1,8,0:0:0:0:
256,192,194269,1,0,0:0:0:0:
256,192,194504,1,8,0:0:0:0:
256,192,194973,1,0,0:0:0:0:
256,192,195441,1,8,0:0:0:0:
256,192,196144,1,0,0:0:0:0:
256,192,196379,1,8,0:0:0:0:
256,192,196848,1,0,0:0:0:0:
256,192,197551,1,8,0:0:0:0:
