osu file format v14

[General]
AudioFilename: omocha.mp3
AudioLeadIn: 1000
PreviewTime: 21597
Countdown: 0
SampleSet: Normal
StackLeniency: 0.7
Mode: 0
LetterboxInBreaks: 0
WidescreenStoryboard: 0

[Editor]
DistanceSpacing: 1
BeatDivisor: 4
GridSize: 4
TimelineZoom: 1

[Metadata]
Title:Omocha no Heitai no March
TitleUnicode:おもちゃの兵隊のマーチ
Artist:YMCK
ArtistUnicode:YMCK
Creator:alacat
Version:Normal
Source:
Tags:OK_oreGENKI Rei24 Family Cooking March of the Toy Soldiers
BeatmapID:812291
BeatmapSetID:370677

[Difficulty]
HPDrainRate:4
CircleSize:3
OverallDifficulty:4
ApproachRate:5
SliderMultiplier:1.2
SliderTickRate:1

[Events]
//Background and Video events
0,0,"YMCK.jpg",0,0
//Break Periods
//Storyboard Layer 0 (Background)
//Storyboard Layer 1 (Fail)
//Storyboard Layer 2 (Pass)
//Storyboard Layer 3 (Foreground)
//Storyboard Sound Samples

[TimingPoints]
-688,428.571428571429,4,1,1,60,1,0
20312,-100,4,1,1,40,0,0
21597,-100,4,1,1,70,0,1
34454,-100,4,1,1,50,0,1
34883,-100,4,1,1,40,0,0

[Colours]
Combo1 : 127,127,127
Combo2 : 255,255,128
Combo3 : 255,128,192
Combo4 : 104,180,255

[HitObjects]
208,360,812,6,0,P|124:344|76:268,1,180,2|0,1:2|0:0,0:0:0:0:
104,152,1883,1,2,1:2:0:0:
256,248,2526,2,0,L|440:224,1,180,2|0,1:2|0:0,0:0:0:0:
500,124,3597,1,2,1:2:0:0:
256,192,4240,12,2,6169,1:2:0:0:
408,360,7883,6,0,P|420:300|408:244,1,120,2|8,1:2|0:0,0:0:0:0:
300,192,8740,1,2,1:2:0:0:
204,264,9169,2,0,L|144:256,1,60,8|0,0:0|0:0,0:0:0:0:
84,248,9597,2,0,L|100:368,2,120,2|8|2,1:2|0:0|1:2,0:0:0:0:
20,148,10883,2,0,L|28:88,1,60,8|0,0:0|0:0,0:0:0:0:
64,40,11312,6,0,P|124:60|180:60,1,120,2|8,1:2|0:0,0:0:0:0:
296,36,12169,2,0,P|355:36|412:55,1,120,2|8,1:2|0:0,0:0:0:0:
476,160,13026,2,0,L|468:220,1,60,2|0,1:2|0:0,0:0:0:0:
428,264,13454,2,0,L|436:324,2,60,8|0|2,0:0|0:0|1:2,0:0:0:0:
372,236,14097,1,2,0:0:0:0:
316,264,14312,2,0,L|256:252,1,60,8|0,0:0|0:0,0:0:0:0:
200,240,14740,6,0,L|80:264,1,120,2|8,1:2|0:0,0:0:0:0:
24,156,15597,1,2,1:2:0:0:
48,100,15812,2,0,L|40:36,2,60,0|8|0,0:0|0:0|0:0,0:0:0:0:
104,124,16454,2,0,P|172:124|224:108,1,120,2|8,1:2|0:0,0:0:0:0:
304,24,17312,1,2,1:2:0:0:
360,48,17526,2,0,L|376:112,1,60,0|8,0:0|0:0,0:0:0:0:
420,144,17954,1,0,0:0:0:0:
468,180,18169,6,0,L|456:300,1,120,2|8,1:2|0:0,0:0:0:0:
356,368,19026,2,0,L|344:248,1,120,2|8,1:2|0:0,0:0:0:0:
256,168,19883,1,2,1:2:0:0:
228,284,20312,1,2,0:0:0:0:
136,208,20740,2,0,L|124:148,1,60,0|2,0:0|1:2,0:0:0:0:
76,112,21169,2,0,L|87:53,1,60,8|2,0:0|1:2,0:0:0:0:
144,32,21597,6,0,L|268:56,1,120,2|8,0:0|0:0,0:0:0:0:
380,36,22454,1,2,0:0:0:0:
380,36,22669,2,0,P|436:60|476:108,1,120,2|8,0:0|0:0,0:0:0:0:
484,164,23312,1,2,0:0:0:0:
400,252,23740,1,8,0:0:0:0:
296,192,24169,1,2,0:0:0:0:
296,192,24383,2,0,L|176:212,1,120,2|8,0:0|0:0,0:0:0:0:
152,264,25026,5,2,0:0:0:0:
56,192,25454,1,8,0:0:0:0:
100,80,25883,1,2,0:0:0:0:
220,96,26312,1,8,0:0:0:0:
264,208,26740,2,0,L|276:276,1,60,2|0,0:0|0:0,0:0:0:0:
316,308,27169,2,0,L|304:376,2,60,8|0|2,0:0|0:0|0:0,0:0:0:0:
368,276,27812,1,0,0:0:0:0:
416,312,28026,2,0,L|476:300,1,60,8|0,0:0|0:0,0:0:0:0:
504,248,28454,6,0,P|508:188|488:132,1,120,2|8,0:0|0:0,0:0:0:0:
376,88,29312,1,2,0:0:0:0:
304,184,29740,2,0,L|312:244,1,60,8|0,0:0|0:0,0:0:0:0:
284,296,30169,1,2,0:0:0:0:
180,356,30597,1,8,0:0:0:0:
104,264,31026,2,0,P|92:204|100:144,1,120,2|8,0:0|0:0,0:0:0:0:
176,52,31883,5,2,0:0:0:0:
372,192,32740,1,2,0:0:0:0:
152,292,33597,1,2,0:0:0:0:
152,292,33812,2,0,P|68:296|20:220,1,180,0|2,0:0|0:0,0:0:0:0:
48,104,34883,5,2,1:2:0:0:
