osu file format v14

[General]
AudioFilename: omocha.mp3
AudioLeadIn: 1000
PreviewTime: 21597
Countdown: 0
SampleSet: Normal
StackLeniency: 0.7
Mode: 0
LetterboxInBreaks: 0
WidescreenStoryboard: 0

[Editor]
DistanceSpacing: 1
BeatDivisor: 4
GridSize: 4
TimelineZoom: 1

[Metadata]
Title:Omocha no Heitai no March
TitleUnicode:おもちゃの兵隊のマーチ
Artist:YMCK
ArtistUnicode:YMCK
Creator:alacat
Version:Hard
Source:
Tags:OK_oreGENKI Rei24 Family Cooking March of the Toy Soldiers
BeatmapID:812289
BeatmapSetID:370677

[Difficulty]
HPDrainRate:6
CircleSize:4
OverallDifficulty:6
ApproachRate:7
SliderMultiplier:1.5
SliderTickRate:1

[Events]
//Background and Video events
0,0,"YMCK.jpg",0,0
//Break Periods
//Storyboard Layer 0 (Background)
//Storyboard Layer 1 (Fail)
//Storyboard Layer 2 (Pass)
//Storyboard Layer 3 (Foreground)
//Storyboard Sound Samples

[TimingPoints]
-688,428.571428571429,4,1,1,60,1,0
6169,-100,4,1,1,40,0,0
7669,-100,4,1,1,60,0,0
20312,-100,4,1,1,40,0,0
21597,-100,4,1,1,70,0,1
33812,-100,4,1,1,50,0,1
34454,-100,4,1,1,40,0,1
34883,-100,4,1,1,30,0,0

[Colours]
Combo1 : 127,127,127
Combo2 : 255,255,128
Combo3 : 255,128,192
Combo4 : 104,180,255

[HitObjects]
112,300,812,6,0,L|104:340,2,37.5,2|0|0,1:2|0:0|0:0,0:0:0:0:
184,248,1240,1,2,1:2:0:0:
100,212,1454,2,0,L|24:220,2,75,2|0|2,1:2|0:0|1:2,0:0:0:0:
360,136,2526,6,0,L|400:144,2,37.5,2|0|0,1:2|0:0|0:0,0:0:0:0:
292,76,2954,1,2,1:2:0:0:
276,164,3168,2,0,L|284:240,2,75,2|0|2,1:2|0:0|1:2,0:0:0:0:
256,192,4240,12,2,6169,1:2:0:0:
216,336,6597,5,2,0:0:0:0:
216,336,7026,2,0,P|256:272|244:200,1,150,2|2,1:2|0:0,0:0:0:0:
172,152,7669,5,0,0:0:0:0:
172,152,7776,1,0,0:0:0:0:
172,152,7883,2,0,L|20:168,2,150,2|8|2,1:2|0:0|1:2,0:0:0:0:
308,36,9169,1,8,0:0:0:0:
380,88,9383,6,0,L|420:84,2,37.5,0|0|2,0:0|0:0|1:2,0:0:0:0:
256,220,10026,1,8,0:0:0:0:
196,52,10454,1,2,1:2:0:0:
332,172,10883,1,8,0:0:0:0:
256,220,11097,5,0,0:0:0:0:
256,220,11204,1,0,0:0:0:0:
256,220,11312,2,0,L|104:208,1,150,2|8,1:2|0:0,0:0:0:0:
304,296,12169,2,0,L|456:284,1,150,2|8,1:2|0:0,0:0:0:0:
480,108,13026,5,2,1:2:0:0:
400,148,13240,1,2,1:2:0:0:
336,84,13454,2,0,P|296:76|260:76,2,75,8|2|2,0:0|0:2|1:2,0:0:0:0:
400,148,14097,2,0,L|408:228,1,75,2|8,0:0|0:0,0:0:0:0:
352,296,14526,5,0,0:0:0:0:
352,296,14633,1,0,0:0:0:0:
352,296,14740,2,0,P|280:280|200:288,1,150,2|8,1:2|0:0,0:0:0:0:
40,364,15597,1,2,1:2:0:0:
76,280,15812,2,0,L|64:204,1,75,0|8,0:0|0:0,0:0:0:0:
16,132,16240,5,0,0:0:0:0:
16,132,16347,1,0,0:0:0:0:
16,132,16454,1,2,1:2:0:0:
160,24,16883,1,8,0:0:0:0:
320,104,17312,1,2,1:2:0:0:
392,48,17526,2,0,P|432:52|468:64,1,75,0|8,0:0|0:0,0:0:0:0:
496,148,17954,6,0,L|504:184,2,37.5,0|0|2,0:0|0:0|1:2,0:0:0:0:
320,104,18597,1,8,0:0:0:0:
224,256,19026,2,0,P|292:292|364:284,1,150,2|8,1:2|0:0,0:0:0:0:
416,112,19883,5,2,1:2:0:0:
248,44,20312,2,0,L|236:88,3,37.5,2|0|0|0,0:0|0:0|0:0|0:0,0:0:0:0:
224,124,20740,2,0,L|148:112,1,75,0|2,0:0|1:2,0:0:0:0:
80,56,21169,2,0,L|4:68,1,75,8|2,0:0|1:2,0:0:0:0:
24,180,21597,6,0,L|175:204,1,150,2|8,0:0|0:0,0:0:0:0:
312,316,22454,1,2,0:0:0:0:
388,268,22669,2,0,P|408:196|392:124,1,150,2|8,0:0|0:0,0:0:0:0:
320,68,23312,5,2,0:0:0:0:
212,212,23740,1,8,0:0:0:0:
112,64,24169,1,2,0:0:0:0:
84,148,24383,2,0,L|236:132,1,150,2|8,0:0|0:0,0:0:0:0:
300,192,25026,5,2,0:0:0:0:
203,344,25454,1,8,0:0:0:0:
50,248,25883,1,2,0:0:0:0:
145,95,26312,1,8,0:0:0:0:
300,192,26740,5,2,0:0:0:0:
316,279,26954,1,0,0:0:0:0:
405,262,27169,1,8,0:0:0:0:
388,173,27383,1,2,0:0:0:0:
316,279,27597,1,2,0:0:0:0:
232,248,27812,2,0,L|156:240,1,75,0|8,0:0|0:0,0:0:0:0:
88,300,28240,5,0,0:0:0:0:
88,300,28347,1,0,0:0:0:0:
88,300,28454,1,2,0:0:0:0:
4,140,28883,1,8,0:0:0:0:
156,40,29312,2,0,B|228:24|228:68|308:48,1,150,2|8,0:0|0:0,0:0:0:0:
388,20,29954,5,0,0:0:0:0:
388,20,30062,1,0,0:0:0:0:
388,20,30169,2,0,P|468:40|508:92,1,150,2|8,0:0|0:0,0:0:0:0:
416,248,31026,2,0,P|336:228|296:176,1,150,2|8,0:0|0:0,0:0:0:0:
164,56,31883,6,0,L|12:72,1,150,2|8,0:0|0:0,0:0:0:0:
112,224,32740,2,0,L|264:240,1,150,2|8,0:0|0:0,0:0:0:0:
352,84,33597,5,2,0:0:0:0:
404,156,33812,2,0,L|400:196,4,37.5,0|0|2|0|0,0:0|0:0|0:0|0:0|0:0,0:0:0:0:
412,232,34454,1,2,0:0:0:0:
272,152,34883,5,2,1:2:0:0:
