osu file format v14

[General]
AudioFilename: audio.mp3
AudioLeadIn: 0
PreviewTime: 3609
Countdown: 0
SampleSet: Soft
StackLeniency: 0.7
Mode: 0
LetterboxInBreaks: 0
WidescreenStoryboard: 1

[Editor]
DistanceSpacing: 1.5
BeatDivisor: 4
GridSize: 8
TimelineZoom: 1

[Metadata]
Title:Big Bank feat. 2 Chainz, Big Sean, Nicki Minaj (Nicki Minaj Verse)
TitleUnicode:Big Bank feat. 2 Chainz, Big Sean, Nicki Minaj (Nicki Minaj Verse)
Artist:YG
ArtistUnicode:YG
Creator:cleangamer220
Version:TO FREEDOM!!!!
Source:
Tags:rap hip hop 2018 stay dangerous mustard 4hunnid cte def jam queen barbie
BeatmapID:2012467
BeatmapSetID:961057

[Difficulty]
HPDrainRate:7
CircleSize:4
OverallDifficulty:8
ApproachRate:8
SliderMultiplier:2
SliderTickRate:1

[Events]
//Background and Video events
0,0,"bb.jpg",0,0
//Break Periods
//Storyboard Layer 0 (Background)
//Storyboard Layer 1 (Fail)
//Storyboard Layer 2 (Pass)
//Storyboard Layer 3 (Foreground)
//Storyboard Sound Samples

[TimingPoints]
-655,588.235294117647,4,2,1,100,1,0
3903,-400,4,2,1,100,0,0
4050,588.235294117647,4,2,1,5,1,0
5227,-100,4,2,1,100,0,0
22726,-50,4,2,1,100,0,0
22874,-100,4,2,1,5,0,0
24050,-100,4,2,1,100,0,0
32285,-100,4,2,1,100,0,1
39049,-400,4,2,1,100,0,0
39932,-100,4,2,1,100,0,0

[Colours]
Combo1 : 218,200,186
Combo2 : 0,168,0
Combo3 : 192,192,192
Combo4 : 246,47,106

[HitObjects]
182,119,227,5,0,0:0:0:0:
72,221,521,2,0,B|103:260|103:260|148:281,1,100,2|0,0:0|0:0,0:0:0:0:
440,221,1109,2,0,B|409:260|409:260|364:281,1,100,8|0,0:0|0:0,0:0:0:0:
259,173,1697,2,0,P|241:122|193:98,1,100,2|0,0:0|0:0,0:0:0:0:
85,55,2286,1,10,0:0:0:0:
34,196,2580,1,0,0:0:0:0:
103,328,2874,2,0,L|204:351,1,100,2|0,0:0|0:0,0:0:0:0:
356,96,3462,1,10,0:0:0:0:
414,142,3609,1,2,0:0:0:0:
442,211,3756,1,2,0:0:0:0:
432,285,3903,6,0,P|379:269|322:290,1,112.5
184,334,5520,1,0,0:0:0:0:
128,283,5667,2,0,B|128:180|128:180|72:102,1,200
207,38,6402,5,2,0:0:0:0:
252,97,6550,1,0,0:0:0:0:
306,45,6697,2,0,P|327:101|310:142,1,100
207,242,7285,1,0,0:0:0:0:
482,361,7579,2,0,P|461:305|478:264,1,100
418,219,8020,2,0,B|489:156|489:156|454:55,1,200
307,87,8755,5,2,0:0:0:0:
241,51,8902,1,0,0:0:0:0:
175,89,9050,2,0,L|217:179,1,100
257,324,9638,1,0,0:0:0:0:
191,361,9785,1,0,0:0:0:0:
62,285,9932,2,0,B|48:241|48:241|93:209,1,100,2|0,0:0|0:0,0:0:0:0:
155,170,10373,2,0,P|201:219|316:179,1,200
427,81,11108,5,2,0:0:0:0:
461,147,11255,1,0,0:0:0:0:
387,160,11402,2,0,L|337:71,1,100,0|2,0:0|0:0,0:0:0:0:
193,115,11991,1,0,0:0:0:0:
155,49,12138,1,0,0:0:0:0:
66,170,12285,2,0,P|50:218|10:250,1,100,2|0,0:0|0:0,0:0:0:0:
69,297,12726,1,0,0:0:0:0:
135,261,12873,1,2,0:0:0:0:
188,313,13020,1,2,0:0:0:0:
253,275,13167,5,2,0:0:0:0:
307,326,13314,1,0,0:0:0:0:
441,255,13461,2,0,P|456:169|427:143,1,100,2|0,0:0|0:0,0:0:0:0:
380,148,13902,1,0,0:0:0:0:
239,102,14049,2,0,P|227:54|251:11,1,100
1,179,14638,1,0,0:0:0:0:
0,328,14932,1,0,0:0:0:0:
68,355,15079,2,0,B|131:304|131:304|201:325,1,150
268,347,15667,5,0,0:0:0:0:
358,228,15814,2,0,B|407:248|407:248|475:215,1,100,2|0,0:0|0:0,0:0:0:0:
501,173,16255,1,0,0:0:0:0:
411,53,16402,2,0,B|362:33|362:33|294:66,1,100
40,165,16991,1,0,0:0:0:0:
71,311,17285,1,0,0:0:0:0:
59,384,17432,2,0,P|141:342|118:252,1,200
39,124,18167,6,0,L|87:110,1,50,2|0,0:0|0:0,0:0:0:0:
152,145,18461,2,0,L|200:131,1,50
331,57,18755,2,0,P|356:104|339:157,1,100
139,364,19344,1,2,0:0:0:0:
284,328,19638,1,0,0:0:0:0:
357,343,19785,2,0,B|404:325|404:325|450:356|450:356|497:335,1,150
458,270,20373,5,0,0:0:0:0:
458,120,20520,2,0,P|439:74|458:29,1,100,2|0,0:0|0:0,0:0:0:0:
237,235,21108,1,2,0:0:0:0:
130,128,21402,1,0,0:0:0:0:
62,159,21549,1,0,0:0:0:0:
18,15,21697,2,0,L|117:31,1,100,2|0,0:0|0:0,0:0:0:0:
181,68,22138,1,0,0:0:0:0:
206,138,22285,1,2,0:0:0:0:
179,208,22432,1,2,0:0:0:0:
112,242,22579,1,2,0:0:0:0:
40,227,22726,6,0,B|40:139|40:139|40:43|156:43|156:139|156:139|156:195|240:195|240:139|240:139|240:43|356:43|356:139|356:139|356:43|472:43|472:139|472:139|472:199,1,900
436,334,24344,1,0,0:0:0:0:
370,297,24491,2,0,L|172:263,1,200
42,337,25226,5,2,0:0:0:0:
77,271,25373,2,0,P|103:222|92:179,1,100
16,51,25814,2,0,P|65:25|108:36,1,100
168,77,26255,1,0,0:0:0:0:
287,167,26402,2,0,B|323:202|323:202|373:209,1,100
437,169,26844,2,0,B|378:87|378:87|278:91,1,200
166,188,27579,5,2,0:0:0:0:
108,140,27726,1,0,0:0:0:0:
60,198,27873,2,0,P|34:155|45:98,1,100
166,27,28461,1,0,0:0:0:0:
421,185,28755,2,0,L|385:281,1,100,2|0,0:0|0:0,0:0:0:0:
352,346,29197,2,0,P|249:318|212:338,1,150
17,111,29932,5,2,0:0:0:0:
163,145,30226,2,0,L|214:139,1,50
349,76,30520,1,2,0:0:0:0:
374,146,30667,2,0,L|323:152,1,50
296,221,30961,1,0,0:0:0:0:
240,360,31108,2,0,B|210:324|210:324|153:329,1,100,2|0,0:0|0:0,0:0:0:0:
91,292,31549,1,0,0:0:0:0:
157,255,31697,1,2,0:0:0:0:
93,215,31844,1,2,0:0:0:0:
160,181,31991,1,2,0:0:0:0:
160,181,32285,6,0,L|257:158,1,100,2|0,0:0|0:0,0:0:0:0:
512,0,32873,2,0,L|415:23,1,100,8|2,0:0|0:0,0:0:0:0:
356,70,33314,1,0,0:0:0:0:
284,47,33461,2,0,P|248:73|195:69,1,100
169,139,33902,1,0,0:0:0:0:
129,284,34050,2,0,P|80:277|39:304,1,100,8|0,0:0|0:0,0:0:0:0:
335,361,34638,6,0,B|378:332|378:332|391:272,1,100,2|0,0:0|0:0,0:0:0:0:
148,104,35226,2,0,B|158:57|158:57|201:28,1,100,8|2,0:0|0:0,0:0:0:0:
221,100,35667,1,0,0:0:0:0:
242,172,35814,2,0,B|285:143|285:143|295:96,1,100
369,86,36255,1,0,0:0:0:0:
425,224,36402,2,0,P|374:241|331:228,1,100,10|0,0:0|0:0,0:0:0:0:
55,110,36991,6,0,P|106:93|149:106,1,100,2|0,0:0|0:0,0:0:0:0:
383,294,37579,2,0,L|404:179,1,100,8|2,0:0|0:0,0:0:0:0:
449,138,38020,1,0,0:0:0:0:
341,33,38167,2,0,L|319:130,1,100
270,188,38608,1,0,0:0:0:0:
123,156,38755,1,8,0:0:0:0:
123,156,39049,2,0,B|146:184|146:184|186:187,1,75
334,180,40226,5,0,0:0:0:0:
366,247,40373,1,0,0:0:0:0:
331,313,40520,1,0,0:0:0:0:
181,313,40814,1,0,0:0:0:0:
146,247,40961,1,0,0:0:0:0:
178,180,41108,1,0,0:0:0:0:
256,52,41402,1,0,0:0:0:0:
