osu file format v14

[General]
AudioFilename: audio.ogg
AudioLeadIn: 0
PreviewTime: 140155
Countdown: 0
SampleSet: Soft
StackLeniency: 0.7
Mode: 0
LetterboxInBreaks: 0
WidescreenStoryboard: 1

[Editor]
DistanceSpacing: 1.3
BeatDivisor: 12
GridSize: 8
TimelineZoom: 1.8

[Metadata]
Title:Lop Luean
TitleUnicode:ลบเลือน
Artist:YEW
ArtistUnicode:YEW
Creator:GalaxySkys
Version:Hard
Source:
Tags:ไทย thai pop tpop t-pop indie rock alternative shoegaze male vocal vocalist about time
BeatmapID:4299835
BeatmapSetID:2053104

[Difficulty]
HPDrainRate:4
CircleSize:4
OverallDifficulty:6.5
ApproachRate:8
SliderMultiplier:2.4
SliderTickRate:1

[Events]
//Background and Video events
Video,141,"vid.mp4"
0,0,"bg.jpg",0,0
//Break Periods
2,100536,113175
2,198170,207416
//Storyboard Layer 0 (Background)
//Storyboard Layer 1 (Fail)
//Storyboard Layer 2 (Pass)
//Storyboard Layer 3 (Foreground)
//Storyboard Layer 4 (Overlay)
//Storyboard Sound Samples

[TimingPoints]
148,851.063829787234,2,2,1,55,1,0
148,-66.6666666666667,2,2,1,55,0,0
2984,-66.6666666666667,2,2,1,55,0,0
3552,842.105263157895,2,2,1,70,1,0
3552,-58.8235294117647,2,2,1,70,0,0
5236,848.056537102474,2,2,1,70,1,0
5236,-58.8235294117647,2,2,1,70,0,0
8628,845.070422535212,2,2,1,70,1,0
8628,-58.8235294117647,2,2,1,70,0,0
9473,857.142857142858,2,2,1,70,1,0
9473,-58.8235294117647,2,2,1,70,0,0
10330,854.092526690392,2,2,1,70,1,0
10330,-58.8235294117647,2,2,1,70,0,0
12038,851.063829787235,2,2,1,70,1,0
12038,-58.8235294117647,2,2,1,70,0,0
13740,842.105263157896,2,2,1,70,1,0
13740,-58.8235294117647,2,2,1,70,0,0
15354,-58.8235294117647,2,2,1,5,0,0
15424,854.092526690392,2,2,1,70,1,0
15424,-58.8235294117647,2,2,1,70,0,0
17132,836.23693379791,2,2,1,55,1,0
17132,-66.6666666666667,2,2,1,55,0,0
17968,854.092526690392,2,2,1,55,1,0
17968,-58.8235294117647,2,2,1,55,0,0
18537,-100,2,2,2,55,0,0
18822,851.063829787235,2,2,2,50,1,0
18822,-66.6666666666667,2,2,2,50,0,0
22226,830.44982698962,2,2,2,50,1,0
22226,-66.6666666666667,2,2,2,50,0,0
23056,863.309352517987,2,2,2,50,1,0
23056,-66.6666666666667,2,2,2,50,0,0
23919,839.16083916084,2,2,2,50,1,0
23919,-66.6666666666667,2,2,2,50,0,0
24758,869.565217391305,2,2,2,50,1,0
24758,-66.6666666666667,2,2,2,50,0,0
25627,842.105263157895,2,2,2,50,1,0
25627,-66.6666666666667,2,2,2,50,0,0
26469,830.44982698962,2,2,2,50,1,0
26469,-66.6666666666667,2,2,2,50,0,0
27299,879.12087912088,2,2,2,50,1,0
27299,-66.6666666666667,2,2,2,50,0,0
28178,845.070422535212,2,2,2,50,1,0
28178,-66.6666666666667,2,2,2,50,0,0
28389,-66.6666666666667,2,2,2,5,0,0
28459,-66.6666666666667,2,2,2,50,0,0
29023,842.105263157895,2,2,2,50,1,0
29023,-66.6666666666667,2,2,2,50,0,0
30707,860.215053763441,2,2,2,50,1,0
30707,-66.6666666666667,2,2,2,50,0,0
31567,848.056537102474,2,2,2,50,1,0
31567,-66.6666666666667,2,2,2,50,0,0
32415,830.44982698962,2,2,2,50,1,0
32415,-66.6666666666667,2,2,2,50,0,0
33245,851.063829787234,2,2,2,50,1,0
33245,-66.6666666666667,2,2,2,50,0,0
34096,866.425992779783,2,2,2,50,1,0
34096,-66.6666666666667,2,2,2,50,0,0
34962,851.063829787234,2,2,2,50,1,0
34962,-66.6666666666667,2,2,2,50,0,0
35813,845.070422535211,2,2,2,50,1,0
35813,-66.6666666666667,2,2,2,50,0,0
36094,-66.6666666666667,2,2,2,50,0,0
36869,-66.6666666666667,2,2,2,5,0,0
36939,-66.6666666666667,2,2,2,50,0,0
37503,851.063829787234,2,2,2,50,1,0
37503,-66.6666666666667,2,2,2,50,0,0
39205,842.105263157895,2,2,2,50,1,0
39205,-66.6666666666667,2,2,2,50,0,0
40047,836.236933797909,2,2,2,50,1,0
40047,-66.6666666666667,2,2,2,50,0,0
40883,860.215053763441,2,2,2,50,1,0
40883,-66.6666666666667,2,2,2,50,0,0
41743,854.092526690391,2,2,2,50,1,0
41743,-66.6666666666667,2,2,2,50,0,0
42597,845.070422535211,2,2,2,50,1,0
42597,-66.6666666666667,2,2,2,50,0,0
44287,845.070422535211,2,2,2,50,1,0
44287,-66.6666666666667,2,2,2,50,0,0
45132,839.160839160839,2,2,2,50,1,0
45132,-66.6666666666667,2,2,2,50,0,0
45411,-66.6666666666667,2,2,2,50,0,0
45691,895.522388059701,2,2,2,50,1,0
45691,-66.6666666666667,2,2,2,50,0,0
45989,842.105263157894,2,2,2,60,1,0
45989,-62.5,5,2,2,60,0,0
46831,863.309352517985,2,2,2,60,1,0
46831,-62.5,5,2,2,60,0,0
47694,848.056537102473,2,2,2,60,1,0
47694,-62.5,5,2,2,60,0,0
49390,851.063829787233,2,2,2,60,1,0
49390,-62.5,2,2,2,60,0,0
51092,842.105263157894,2,2,2,60,1,0
51092,-62.5,5,2,2,60,0,0
51934,848.056537102472,2,2,2,60,1,0
51934,-62.5,2,2,2,60,0,0
52782,854.09252669039,2,2,2,60,1,0
52782,-62.5,2,2,2,60,0,0
54490,848.056537102472,2,2,2,60,1,0
54490,-62.5,2,2,2,60,0,0
55338,836.236933797908,2,2,2,60,1,0
55338,-62.5,2,2,2,60,0,0
56174,863.309352517984,2,2,2,60,1,0
56174,-62.5,5,2,2,60,0,0
57037,848.056537102473,2,2,2,60,1,0
57037,-62.5,5,2,2,60,0,0
57885,830.449826989619,2,2,2,60,1,0
57885,-62.5,5,2,2,60,0,0
58715,866.425992779783,2,2,2,60,1,0
58715,-62.5,5,2,2,60,0,0
59581,845.070422535211,2,2,2,60,1,0
59581,-62.5,5,2,2,60,0,0
60426,839.160839160838,2,2,2,60,1,0
60426,-62.5,2,2,2,60,0,0
61265,866.425992779782,2,2,2,60,1,0
61265,-62.5,2,2,2,60,0,0
62131,860.21505376344,2,2,2,60,1,0
62131,-62.5,2,2,2,60,0,0
62991,830.449826989619,2,2,2,60,1,0
62991,-61.3956706056362,5,2,2,60,0,0
63821,860.21505376344,2,2,2,60,1,0
63821,-62.5,2,2,2,60,0,0
64681,839.160839160838,2,2,2,60,1,0
64681,-62.5,5,2,2,60,0,0
65520,848.056537102472,2,2,2,60,1,0
65520,-62.5,2,2,2,60,0,0
65732,-62.5,2,2,2,5,0,0
65802,-62.5,2,2,2,60,0,0
66368,851.063829787233,2,2,2,70,1,0
66368,-58.8235294117647,5,2,2,70,0,0
67431,-58.8235294117647,5,2,2,5,0,0
67502,-58.8235294117647,5,2,2,70,0,0
68921,845.07042253521,2,2,2,70,1,0
68921,-58.8235294117647,2,2,2,70,0,0
69132,-58.8235294117647,2,2,2,5,0,0
69202,-58.8235294117647,2,2,2,70,0,0
69766,866.425992779782,2,2,2,70,1,0
69766,-58.8235294117647,5,2,2,70,0,0
70632,839.160839160838,2,2,2,70,1,0
70632,-58.8235294117647,5,2,2,70,0,0
70841,-58.8235294117647,5,2,2,5,0,0
70911,-58.8235294117647,5,2,2,70,0,0
71471,842.105263157893,2,2,2,70,1,0
71471,-58.8235294117647,5,2,2,70,0,0
72313,854.09252669039,2,2,2,70,1,0
72313,-58.8235294117647,5,2,2,50,0,0
72597,-58.8235294117647,5,2,2,60,0,0
72882,-58.8235294117647,5,2,2,80,0,0
73167,851.063829787233,2,2,2,80,1,0
73167,-55.5555555555556,2,2,2,80,0,0
74018,854.09252669039,2,2,1,80,1,0
74018,-55.5555555555556,2,2,1,80,0,0
74231,-55.5555555555556,2,2,1,5,0,0
74302,-55.5555555555556,2,2,1,80,0,0
74872,842.105263157893,2,2,1,80,1,0
74872,-55.5555555555556,2,2,1,80,0,0
75714,845.07042253521,2,2,1,80,1,0
75714,-55.5555555555556,2,2,1,80,0,0
76559,851.063829787232,2,2,1,80,1,0
76559,-55.5555555555556,2,2,1,80,0,0
77410,860.215053763439,2,2,1,80,1,0
77410,-55.5555555555556,2,2,1,80,0,0
77625,-55.5555555555556,2,2,1,5,0,0
77696,-55.5555555555556,2,2,1,80,0,0
78270,833.333333333332,2,2,1,80,1,0
78270,-55.5555555555556,2,2,1,80,0,0
79103,863.309352517984,2,2,1,80,1,0
79103,-55.5555555555556,2,2,1,80,0,0
79966,845.07042253521,2,2,1,80,1,0
79966,-55.5555555555556,2,2,1,80,0,0
80811,839.160839160838,2,2,1,80,1,0
80811,-55.5555555555556,2,2,1,80,0,0
81650,845.07042253521,2,2,1,80,1,0
81650,-55.5555555555556,2,2,1,80,0,0
82495,863.309352517984,2,2,1,80,1,0
82495,-55.5555555555556,2,2,1,80,0,0
83358,836.236933797908,2,2,1,80,1,0
83358,-55.5555555555556,2,2,1,80,0,0
84194,866.425992779782,2,2,1,80,1,0
84194,-55.5555555555556,2,2,1,80,0,0
85060,842.105263157893,2,2,1,80,1,0
85060,-55.5555555555556,2,2,1,80,0,0
85340,-55.5555555555556,2,2,1,80,0,0
85831,-55.5555555555556,2,2,1,5,0,0
85902,830.449826989618,2,2,2,80,1,0
85902,-55.5555555555556,2,2,2,80,0,0
86455,882.352941176469,2,2,2,80,1,0
86455,-55.5555555555556,2,2,2,80,0,0
86749,848.056537102472,2,2,1,80,1,0
86749,-55.5555555555556,2,2,1,80,0,0
87597,842.105263157893,2,2,1,80,1,0
87597,-55.5555555555556,2,2,1,80,0,0
87807,-55.5555555555556,2,2,1,5,0,0
87877,-55.5555555555556,2,2,1,80,0,0
88439,842.105263157893,2,2,1,80,1,0
88439,-55.5555555555556,2,2,1,80,0,0
89281,857.142857142856,2,2,1,80,1,0
89281,-55.5555555555556,2,2,1,80,0,0
90138,854.09252669039,2,2,1,80,1,0
90138,-55.5555555555556,2,2,1,80,0,0
91846,848.056537102472,2,2,1,80,1,0
91846,-55.5555555555556,2,2,1,80,0,0
92694,851.063829787233,2,2,1,80,1,0
92694,-55.5555555555556,2,2,1,80,0,0
93545,845.07042253521,2,2,1,80,1,0
93545,-55.5555555555556,2,2,1,80,0,0
94390,857.142857142856,2,2,1,80,1,0
94390,-55.5555555555556,2,2,1,80,0,0
95247,842.105263157894,2,2,1,80,1,0
95247,-55.5555555555556,2,2,1,80,0,0
96089,839.160839160838,2,2,1,80,1,0
96089,-55.5555555555556,2,2,1,80,0,0
96648,888.888888888888,2,2,2,80,1,0
96648,-55.5555555555556,2,2,2,80,0,0
96944,839.160839160838,2,2,1,80,1,0
96944,-55.5555555555556,2,2,1,80,0,0
97783,854.09252669039,2,2,1,80,1,0
97783,-55.5555555555556,2,2,1,80,0,0
98637,848.056537102472,2,2,1,80,1,0
98637,-55.5555555555556,2,2,1,80,0,0
99485,851.063829787233,2,2,1,80,1,0
99485,-55.5555555555556,2,2,1,80,0,0
100336,848.056537102472,2,2,1,80,1,0
102032,851.063829787233,2,2,1,60,1,0
102883,845.07042253521,2,2,1,60,1,0
103728,848.056537102472,2,2,1,60,1,0
104576,845.07042253521,2,2,1,60,1,0
105421,854.09252669039,2,2,1,60,1,0
106275,848.056537102472,2,2,1,60,1,0
107123,863.309352517984,2,2,1,60,1,0
107986,842.105263157893,2,2,1,60,1,0
108828,845.07042253521,2,2,1,60,1,0
110518,848.056537102472,2,2,1,60,1,0
111366,857.142857142856,2,2,1,60,1,0
112223,851.063829787233,2,2,1,60,1,0
113925,842.105263157894,2,2,2,60,1,0
113925,-62.5,5,2,2,50,0,0
114767,845.07042253521,2,2,2,50,1,0
114767,-62.5,5,2,2,50,0,0
115612,860.21505376344,2,2,2,50,1,0
115612,-62.5,5,2,2,50,0,0
116472,854.092526690391,2,2,2,50,1,0
116472,-62.5,2,2,2,50,0,0
117326,848.056537102473,2,2,2,50,1,0
117326,-62.5,2,2,2,50,0,0
118174,839.160839160838,2,2,2,50,1,0
118174,-62.5,5,2,2,50,0,0
119013,845.07042253521,2,2,2,50,1,0
119013,-62.5,2,2,2,50,0,0
120703,860.21505376344,2,2,2,50,1,0
120703,-62.5,2,2,2,50,0,0
121563,848.056537102472,2,2,2,50,1,0
121563,-62.5,2,2,2,50,0,0
122411,851.063829787233,2,2,2,50,1,0
122411,-62.5,2,2,2,50,0,0
123262,842.105263157893,2,2,2,50,1,0
123262,-62.5,2,2,2,50,0,0
124104,854.09252669039,2,2,2,50,1,0
124104,-62.5,5,2,2,50,0,0
124958,836.236933797908,2,2,2,50,1,0
124958,-62.5,5,2,2,50,0,0
125794,854.09252669039,2,2,2,50,1,0
125794,-62.5,5,2,2,50,0,0
126648,860.215053763439,2,2,2,50,1,0
126648,-62.5,5,2,2,50,0,0
127508,842.105263157893,2,2,2,50,1,0
127508,-62.5,5,2,2,50,0,0
128350,854.09252669039,2,2,2,50,1,0
128350,-62.5,5,2,2,50,0,0
129204,848.056537102472,2,2,2,50,1,0
129204,-62.5,5,2,2,50,0,0
130052,854.09252669039,2,2,2,50,1,0
130052,-62.5,5,2,2,50,0,0
130906,851.063829787233,2,2,2,60,1,0
130906,-61.070976208709,5,2,2,60,0,0
131757,845.07042253521,2,2,2,60,1,0
131757,-62.5,5,2,2,60,0,0
132602,839.160839160838,2,2,2,60,1,0
132602,-62.5,5,2,2,60,0,0
133441,851.063829787233,2,2,2,60,1,0
133441,-62.5,5,2,2,60,0,0
133653,-62.5,5,2,2,5,0,0
133724,-62.5,5,2,2,60,0,0
134292,854.09252669039,2,2,2,70,1,0
134292,-58.8235294117647,5,2,2,70,0,0
135359,-58.8235294117647,5,2,2,5,0,0
135430,-58.8235294117647,5,2,2,70,0,0
136000,842.105263157893,2,2,2,70,1,0
136000,-58.8235294117647,5,2,2,70,0,0
136842,845.07042253521,2,2,2,70,1,0
136842,-58.8235294117647,2,2,2,70,0,0
137053,-58.8235294117647,2,2,2,5,0,0
137123,-58.8235294117647,2,2,2,70,0,0
137687,857.142857142856,2,2,2,70,1,0
137687,-58.8235294117647,5,2,2,70,0,0
138544,845.07042253521,2,2,2,70,1,0
138544,-58.8235294117647,5,2,2,70,0,0
138755,-58.8235294117647,5,2,2,5,0,0
138825,-58.8235294117647,5,2,2,70,0,0
139389,827.586206896551,2,2,2,70,1,0
139389,-58.8235294117647,5,2,2,70,0,0
139940,863.309352517984,2,2,2,70,1,0
139940,-58.8235294117647,5,2,2,70,0,0
140227,833.333333333332,2,2,2,70,1,0
140227,-58.8235294117647,5,2,2,50,0,0
140504,-58.8235294117647,5,2,2,60,0,0
140782,923.076923076922,2,2,2,70,1,0
140782,-58.8235294117647,5,2,2,70,0,0
141089,854.09252669039,2,2,1,80,1,0
141089,-55.5555555555556,2,2,1,80,0,0
141943,848.056537102472,2,2,1,80,1,0
141943,-55.5555555555556,2,2,1,80,0,0
142155,-55.5555555555556,2,2,1,5,0,0
142225,-55.5555555555556,2,2,1,80,0,0
142791,845.07042253521,2,2,1,80,1,0
142791,-55.5555555555556,2,2,1,80,0,0
144481,851.063829787233,2,2,1,80,1,0
144481,-55.5555555555556,2,2,1,80,0,0
145544,-55.5555555555556,2,2,1,5,0,0
145615,-55.5555555555556,2,2,1,80,0,0
146183,854.09252669039,2,2,1,80,1,0
146183,-55.5555555555556,2,2,1,80,0,0
147037,845.07042253521,2,2,1,80,1,0
147037,-55.5555555555556,2,2,1,80,0,0
147882,848.056537102472,2,2,1,80,1,0
147882,-55.5555555555556,2,2,1,80,0,0
149578,842.105263157894,2,2,1,80,1,0
149578,-55.5555555555556,2,2,1,80,0,0
150420,857.142857142856,2,2,1,80,1,0
150420,-55.5555555555556,2,2,1,80,0,0
151277,851.063829787233,2,2,1,80,1,0
151277,-55.5555555555556,2,2,1,80,0,0
152979,857.142857142856,2,2,1,80,1,0
152979,-55.5555555555556,2,2,1,80,0,0
153836,848.056537102472,2,2,1,80,1,0
153836,-55.5555555555556,2,2,1,80,0,0
154260,-55.5555555555556,2,2,2,80,0,0
154684,842.105263157893,2,2,1,80,1,0
154684,-55.5555555555556,2,2,1,80,0,0
155736,-55.5555555555556,2,2,1,5,0,0
155806,-55.5555555555556,2,2,1,80,0,0
156368,848.056537102472,2,2,1,80,1,0
156368,-55.5555555555556,2,2,1,80,0,0
157216,845.07042253521,2,2,1,80,1,0
157216,-55.5555555555556,2,2,1,80,0,0
157779,888.888888888887,2,2,1,80,1,0
157779,-55.5555555555556,2,2,1,80,0,0
158075,845.07042253521,2,2,1,80,1,0
158075,-55.5555555555556,2,2,1,80,0,0
159765,857.142857142856,2,2,1,80,1,0
159765,-55.5555555555556,2,2,1,80,0,0
160622,839.160839160838,2,2,1,80,1,0
160622,-55.5555555555556,2,2,1,80,0,0
161461,854.09252669039,2,2,1,80,1,0
161461,-55.5555555555556,2,2,1,80,0,0
163169,851.063829787233,2,2,1,80,1,0
163169,-55.5555555555556,2,2,1,80,0,0
164871,845.07042253521,2,2,1,80,1,0
164871,-55.5555555555556,2,2,1,80,0,0
165716,848.056537102472,2,2,1,80,1,0
165716,-55.5555555555556,2,2,1,80,0,0
166564,845.07042253521,2,2,1,80,1,0
166564,-55.5555555555556,2,2,1,80,0,0
167620,-55.5555555555556,2,2,1,5,0,0
167690,-55.5555555555556,2,2,1,80,0,0
168254,854.09252669039,2,2,1,90,1,0
168254,-55.5555555555556,2,2,1,90,0,0
169962,845.07042253521,2,2,1,90,1,0
169962,-55.5555555555556,2,2,1,90,0,0
171652,851.063829787233,2,2,1,90,1,0
171652,-55.5555555555556,2,2,1,90,0,0
173354,842.105263157894,2,2,1,90,1,0
173354,-55.5555555555556,2,2,1,90,0,0
174196,854.09252669039,2,2,1,90,1,0
174196,-55.5555555555556,2,2,1,90,0,0
175050,851.063829787233,2,2,1,90,1,0
175050,-55.5555555555556,2,2,1,90,0,0
176752,848.056537102472,2,2,1,90,1,0
176752,-55.5555555555556,2,2,1,90,0,0
178448,839.160839160838,2,2,1,90,1,0
178448,-55.5555555555556,2,2,1,90,0,0
179287,854.09252669039,2,2,1,90,1,0
179287,-55.5555555555556,2,2,1,90,0,0
180141,860.215053763439,2,2,1,90,1,0
180141,-55.5555555555556,2,2,1,90,0,0
181001,833.333333333332,2,2,1,90,1,0
181001,-55.5555555555556,2,2,2,90,0,0
181556,882.352941176469,2,2,2,90,1,0
181556,-55.5555555555556,2,2,2,90,0,0
181850,848.056537102472,2,2,1,90,1,0
181850,-55.5555555555556,2,2,1,90,0,0
182698,842.105263157893,2,2,1,90,1,0
182698,-55.5555555555556,2,2,1,90,0,0
183540,848.056537102472,2,2,1,90,1,0
183540,-55.5555555555556,2,2,1,90,0,0
185236,854.09252669039,2,2,1,90,1,0
185236,-55.5555555555556,2,2,1,90,0,0
186944,845.07042253521,2,2,1,90,1,0
186944,-55.5555555555556,2,2,1,90,0,0
188634,848.056537102472,2,2,1,90,1,0
188634,-55.5555555555556,2,2,1,90,0,0
189482,839.160839160838,2,2,1,90,1,0
189482,-55.5555555555556,2,2,1,90,0,0
190321,860.21505376344,2,2,1,90,1,0
190321,-55.5555555555556,2,2,1,90,0,0
191181,848.056537102472,2,2,1,90,1,0
191181,-55.5555555555556,2,2,1,90,0,0
191393,-55.5555555555556,2,2,1,5,0,0
191463,-55.5555555555556,2,2,1,90,0,0
192029,845.07042253521,2,2,1,90,1,0
192029,-55.5555555555556,2,2,1,90,0,0
193719,854.09252669039,2,2,2,90,1,0
193719,-55.5555555555556,2,2,2,60,0,0
194003,-55.5555555555556,2,2,2,65,0,0
194288,-55.5555555555556,2,2,2,70,0,0
194573,875.912408759123,2,2,1,75,1,0
194573,-55.5555555555556,2,2,1,75,0,0
194791,-55.5555555555556,2,2,1,5,0,0
194864,-55.5555555555556,2,2,1,80,0,0
195083,-55.5555555555556,2,2,1,5,0,0
195156,-55.5555555555556,2,2,1,85,0,0
195375,-55.5555555555556,2,2,1,5,0,0
195448,854.09252669039,2,2,1,90,1,0
195448,-55.5555555555556,2,2,1,90,0,0
196302,805.369127516777,2,2,2,90,1,0
196838,863.309352517984,2,2,2,90,1,0
197125,845.07042253521,2,2,2,90,1,0
197970,866.425992779782,2,2,1,40,1,0
198836,851.063829787233,2,2,1,40,1,0
199687,810.81081081081,2,2,1,40,1,0
200227,869.565217391303,2,2,1,40,1,0
200516,863.309352517984,2,2,1,40,1,0
201379,854.09252669039,2,2,1,40,1,0
202233,845.07042253521,2,2,1,40,1,0
207303,863.309352517984,2,2,1,40,1,0
208166,851.063829787233,2,2,1,40,1,0
208733,882.352941176469,2,2,1,40,1,0
209027,833.333333333332,2,2,1,60,1,0
209027,-100,2,2,1,60,0,0
209860,842.105263157893,2,2,1,60,1,0
209860,-100,2,2,1,60,0,0
210702,857.142857142855,2,2,1,60,1,0
210702,-100,2,2,1,60,0,0
211559,854.092526690389,2,2,1,60,1,0
211559,-100,2,2,1,60,0,0
212413,848.056537102471,2,2,1,60,1,0
212413,-100,2,2,1,60,0,0
213261,821.917808219176,2,2,1,60,1,0
213261,-100,2,2,1,60,0,0
213808,919.540229885055,2,2,1,60,1,0
213808,-100,2,2,1,60,0,0
214114,842.105263157893,2,2,1,60,1,0
214114,-100,2,2,1,60,0,0
214956,833.333333333332,2,2,1,60,1,0
214956,-100,2,2,1,60,0,0
215511,895.5223880597,2,2,1,60,1,0
215511,-100,2,2,1,60,0,0
215809,845.07042253521,2,2,1,60,1,0
215809,-100,2,2,1,60,0,0
217499,842.105263157894,2,2,1,60,1,0
217499,-100,2,2,1,60,0,0
219183,854.09252669039,2,2,2,60,1,0
220037,-100,2,2,2,60,0,0
220891,882.352941176469,2,2,2,60,1,0
220891,-66.6666666666667,2,2,2,60,0,0
221185,-66.6666666666667,2,2,2,65,0,0
221479,799.999999999999,2,2,2,70,1,0
221479,-66.6666666666667,2,2,2,70,0,0
221745,863.309352517984,2,2,2,75,1,0
221745,-66.6666666666667,2,2,2,75,0,0
222032,-66.6666666666667,2,2,2,80,0,0
222320,-66.6666666666667,2,2,2,85,0,0
222608,851.063829787233,2,2,1,90,1,0
222608,-52.6315789473684,2,2,1,90,0,0
224239,-52.6315789473684,2,2,1,5,0,0
224310,848.056537102472,2,2,1,90,1,0
224310,-52.6315789473684,2,2,1,90,0,0
225864,-52.6315789473684,2,2,2,90,0,0
226006,836.236933797908,2,2,1,90,1,0
226006,-52.6315789473684,2,2,1,90,0,0
226842,851.063829787233,2,2,1,90,1,0
226842,-52.6315789473684,2,2,1,90,0,0
227622,-52.6315789473684,2,2,1,5,0,0
227693,851.063829787233,2,2,1,90,1,0
227693,-52.6315789473684,2,2,1,90,0,0
228544,848.056537102472,2,2,1,90,1,0
228544,-52.6315789473684,2,2,1,90,0,0
229392,851.063829787233,2,2,1,90,1,0
229392,-52.6315789473684,2,2,1,90,0,0
230243,845.07042253521,2,2,1,90,1,0
230243,-52.6315789473684,2,2,1,90,0,0
231017,-52.6315789473684,2,2,1,5,0,0
231088,851.063829787233,2,2,1,90,1,0
231088,-52.6315789473684,2,2,1,90,0,0
231939,821.917808219177,2,2,1,90,1,0
231939,-52.6315789473684,2,2,1,90,0,0
232623,-52.6315789473684,2,2,2,90,0,0
232760,879.120879120878,2,2,1,90,1,0
232760,-52.6315789473684,2,2,1,90,0,0
233639,845.07042253521,2,2,1,90,1,0
233639,-52.6315789473684,2,2,1,90,0,0
234413,-52.6315789473684,2,2,1,5,0,0
234484,851.063829787233,2,2,1,90,1,0
234484,-52.6315789473684,2,2,1,90,0,0
235476,-52.6315789473684,2,2,2,90,0,0
236186,848.056537102472,2,2,1,90,1,0
236186,-52.6315789473684,2,2,1,90,0,0
237810,-52.6315789473684,2,2,1,5,0,0
237882,854.09252669039,2,2,1,90,1,0
237882,-52.6315789473684,2,2,1,90,0,0
239447,-52.6315789473684,2,2,2,90,0,0
239590,839.160839160838,2,2,1,90,1,0
239590,-52.6315789473684,2,2,1,90,0,0
240429,848.056537102472,2,2,1,90,1,0
240429,-52.6315789473684,2,2,1,90,0,0
241206,-52.6315789473684,2,2,1,5,0,0
241277,842.105263157893,2,2,1,90,1,0
241277,-52.6315789473684,2,2,1,90,0,0
242119,866.425992779782,2,2,1,90,1,0
242119,-52.6315789473684,2,2,1,90,0,0
242696,-52.6315789473684,2,2,2,90,0,0
242985,839.160839160838,2,2,1,90,1,0
242985,-52.6315789473684,2,2,1,90,0,0
243824,848.056537102472,2,2,1,90,1,0
243824,-52.6315789473684,2,2,1,90,0,0
244601,-52.6315789473684,2,2,1,5,0,0
244672,851.063829787233,2,2,1,90,1,0
244672,-52.6315789473684,2,2,1,90,0,0
246090,-52.6315789473684,2,2,2,90,0,0
246374,848.056537102472,2,2,1,90,1,0
246374,-52.6315789473684,2,2,1,90,0,0
248070,848.056537102472,2,2,1,60,1,0
248070,-52.6315789473684,2,2,1,60,0,0
248352,-52.6315789473684,2,2,1,65,0,0
248635,-52.6315789473684,2,2,1,70,0,0
248918,845.07042253521,2,2,1,75,1,0
248918,-52.6315789473684,2,2,1,75,0,0
249129,-52.6315789473684,2,2,1,5,0,0
249199,-52.6315789473684,2,2,1,80,0,0
249410,-52.6315789473684,2,2,1,5,0,0
249480,-52.6315789473684,2,2,1,85,0,0
249692,-52.6315789473684,2,2,1,5,0,0
249763,851.063829787233,2,2,1,90,1,0
249763,-100,2,2,1,90,0,0
254869,-52.6315789473684,2,2,1,5,0,0

[Colours]
Combo1 : 98,199,227
Combo2 : 97,116,192
Combo3 : 33,138,177
Combo4 : 23,63,111

[HitObjects]
83,384,148,6,0,P|72:312|120:292,1,120.000004577637,0|0,1:0|0:0,0:0:0:0:
179,267,573,2,0,B|220:277|220:277|238:308|238:308|297:320,1,120.000004577637,0|0,1:0|0:0,0:0:0:0:
339,366,999,1,8,0:0:0:0:
339,366,1566,1,0,0:0:0:0:
475,289,1850,6,0,P|486:217|438:197,1,120.000004577637,0|0,1:0|0:0,0:0:0:0:
379,172,2275,2,0,B|338:182|338:182|320:213|320:213|261:225,1,120.000004577637,0|0,1:0|0:0,0:0:0:0:
219,271,2701,1,8,0:0:0:0:
68,228,2984,2,0,L|82:157,1,60.0000022888184
28,116,3268,1,12,0:3:0:0:
28,116,3410,1,0,0:0:0:0:
81,43,3552,6,0,B|136:-6|216:19|216:19|191:58|219:81,1,204.000003890991,6|0,1:2|0:2,0:0:0:0:
296,103,4113,2,0,P|341:106|375:84,1,68.0000012969971,0|0,0:2|0:2,0:0:0:0:
315,20,4394,1,8,0:2:0:0:
451,131,4674,2,0,P|474:172|471:207,1,68.0000012969971,2|0,0:2|0:2,0:0:0:0:
508,274,4955,2,0,P|505:321|475:357,1,68.0000012969971,2|0,0:2|0:2,0:0:0:0:
411,368,5236,6,0,B|339:389|339:389|297:373|310:336,1,136.000002593994,2|0,1:2|0:0,0:0:0:0:
294,251,5660,2,0,B|215:244|244:305|163:293,1,136.000002593994,0|0,1:2|0:2,0:0:0:0:
128,371,6084,1,8,0:2:0:0:
34,220,6366,2,0,L|13:146,1,68.0000012969971,2|0,0:2|0:2,0:0:0:0:
103,159,6649,2,0,L|83:87,1,68.0000012969971,2|0,0:2|0:2,0:0:0:0:
43,15,6932,6,0,P|113:60|242:32,1,204.000003890991,2|0,1:2|0:2,0:0:0:0:
305,6,7497,2,0,P|332:38|332:78,1,68.0000012969971,0|0,0:2|0:2,0:0:0:0:
278,130,7780,1,8,0:2:0:0:
424,229,8062,2,0,L|335:218,1,68.0000012969971,2|0,0:2|0:2,0:0:0:0:
275,255,8345,2,0,L|191:246,1,68.0000012969971,2|0,0:2|0:2,0:0:0:0:
130,203,8628,6,0,L|151:352,1,136.000002593994,2|0,1:2|0:0,0:0:0:0:
233,360,9050,2,0,B|306:379|306:379|334:348|378:344,1,136.000002593994,0|0,1:2|0:2,0:0:0:0:
441,373,9473,1,8,0:2:0:0:
408,199,9758,2,0,L|425:127,1,68.0000012969971,2|0,0:2|0:2,0:0:0:0:
338,107,10044,2,0,L|319:187,1,68.0000012969971,2|0,0:2|0:2,0:0:0:0:
297,258,10330,6,0,B|255:254|220:277|220:277|141:244|169:175,1,204.000003890991,6|0,1:2|0:2,0:0:0:0:
234,122,10899,2,0,L|218:43,1,68.0000012969971,0|0,0:2|0:2,0:0:0:0:
301,19,11184,1,8,0:2:0:0:
124,18,11468,2,0,P|92:57|98:88,1,68.0000012969971,2|0,0:2|0:2,0:0:0:0:
22,127,11753,2,0,P|36:172|77:190,1,68.0000012969971,2|0,0:2|0:2,0:0:0:0:
101,256,12038,6,0,L|251:229,1,136.000002593994,2|0,1:2|0:0,0:0:0:0:
318,190,12463,2,0,B|362:202|362:202|379:244|379:244|450:264,1,136.000002593994,0|0,1:2|0:2,0:0:0:0:
468,331,12889,2,0,P|524:275|498:212,1,136.000002593994,8|0,0:2|0:2,0:0:0:0:
436,179,13314,2,0,P|415:139|420:101,1,68.0000012969971,0|0,0:2|0:2,0:0:0:0:
493,75,13598,1,2,0:2:0:0:
426,17,13740,6,0,B|341:4|359:72|278:51,2,136.000002593994,2|2|2,1:2|0:2|0:2,0:0:0:0:
317,157,14582,2,0,L|239:142,1,68.0000012969971,10|0,0:2|0:2,0:0:0:0:
176,193,14862,2,0,L|127:207,2,34.0000006484985,2|2|2,0:2|0:2|0:2,0:0:0:0:
181,104,15143,2,0,P|184:55|119:40,1,102.000001945496,2|0,0:2|0:2,0:0:0:0:
85,47,15424,6,0,B|55:71|55:71|64:110,1,68.0000012969971,2|0,1:2|0:2,0:0:0:0:
11,172,15708,2,0,B|29:206|29:206|76:211,1,68.0000012969971,2|0,0:2|1:2,0:0:0:0:
82,294,15993,2,0,B|115:304|115:304|153:282,1,68.0000012969971,2|0,0:2|1:2,0:0:0:0:
220,331,16278,2,0,B|249:320|249:320|258:261,1,68.0000012969971,10|0,0:2|0:2,0:0:0:0:
274,191,16562,5,10,0:2:0:0:
274,191,16705,1,8,0:2:0:0:
215,122,16847,1,10,0:2:0:0:
215,122,16989,1,8,0:2:0:0:
275,52,17132,6,0,L|347:69,1,60.0000022888184,0|0,1:2|0:2,0:0:0:0:
429,186,17550,2,0,L|506:204,1,60.0000022888184,0|0,1:2|0:2,0:0:0:0:
329,328,17968,2,0,B|253:286|253:286|281:165,1,204.000003890991,8|0,0:0|0:0,0:0:0:0:
360,133,18537,5,8,0:0:0:0:
429,186,18679,1,8,0:0:0:0:
496,113,18822,6,0,P|478:21|387:5,1,180.000006866455,2|2,1:2|0:2,0:0:0:0:
346,52,19389,2,0,L|266:68,1,60.0000022888184,0|0,0:2|0:2,0:0:0:0:
223,19,19673,2,0,B|183:13|183:13|144:32|144:32|92:20,2,120.000004577637,10|2|2,0:2|0:2|0:2,0:0:0:0:
276,166,20524,6,0,B|357:189|357:189|404:156|384:103,1,180.000006866455,2|0,0:2|0:2,0:0:0:0:
310,82,21091,2,0,L|237:98,1,60.0000022888184,0|0,1:2|0:2,0:0:0:0:
197,151,21375,2,0,B|133:138|133:138|111:89|111:89|45:80,1,180.000006866455,8|0,0:2|1:2,0:0:0:0:
8,150,21942,2,0,L|21:213,1,60.0000022888184,0|0,0:2|0:2,0:0:0:0:
12,286,22226,6,0,B|55:290|91:331|91:331|91:271|120:233,1,180.000006866455,0|0,1:2|0:2,0:0:0:0:
175,204,22779,2,0,P|219:203|240:224,1,60.0000022888184,2|0,0:2|0:0,0:0:0:0:
280,271,23056,2,0,L|403:246,2,120.000004577637,10|2|2,0:2|0:2|0:2,0:0:0:0:
144,349,23919,6,0,P|98:310|118:250,1,120.000004577637,2|0,1:2|0:2,0:0:0:0:
169,206,24338,2,0,L|157:132,2,60.0000022888184,2|0|0,0:2|0:2|0:2,0:0:0:0:
225,259,24758,2,0,B|339:230|339:230|312:198|330:152,1,180.000006866455,2|0,0:2|0:0,0:0:0:0:
383,120,25337,1,0,0:0:0:0:
261,21,25627,6,0,B|204:41|204:41|221:108,1,120.000004577637,2|0,1:2|0:2,0:0:0:0:
177,165,26048,2,0,L|101:150,1,60.0000022888184,2|0,0:2|0:2,0:0:0:0:
61,99,26328,1,2,0:2:0:0:
21,166,26469,2,0,P|4:234|50:288,2,120.000004577637,10|2|2,0:2|0:2|0:2,0:0:0:0:
177,165,27299,6,0,B|237:174|237:174|260:231|260:231|333:245,1,180.000006866455,2|2,1:2|0:2,0:0:0:0:
382,284,27885,2,0,P|416:263|453:265,1,60.0000022888184,0|0,0:2|0:2,0:0:0:0:
496,207,28178,2,0,L|478:109,1,90.0000034332277,10|0,0:2|0:2,0:0:0:0:
478,79,28459,2,0,L|398:64,1,60.0000022888184,2|0,0:2|0:2,0:0:0:0:
358,117,28741,2,0,L|281:101,1,60.0000022888184,10|0,0:3|0:2,0:0:0:0:
257,28,29023,6,0,P|164:83|182:152,1,180.000006866455,2|2,1:2|0:2,0:0:0:0:
220,202,29584,2,0,L|210:280,1,60.0000022888184,0|0,0:2|0:2,0:0:0:0:
202,339,29865,1,8,0:2:0:0:
46,322,30145,2,0,P|23:299|25:261,1,60.0000022888184,2|0,0:2|0:2,0:0:0:0:
32,193,30426,2,0,P|58:158|94:159,1,60.0000022888184,2|0,0:2|0:2,0:0:0:0:
147,174,30707,6,0,L|284:142,1,120.000004577637,2|0,1:2|0:2,0:0:0:0:
329,102,31137,2,0,L|342:173,1,60.0000022888184,2|0,1:2|0:2,0:0:0:0:
397,213,31423,1,0,1:2:0:0:
359,280,31567,2,0,B|314:275|277:302|277:302|209:277|240:220,1,180.000006866455,10|2,0:2|0:2,0:0:0:0:
259,158,32132,1,8,0:2:0:0:
259,158,32273,1,8,0:2:0:0:
186,89,32415,6,0,B|87:73|128:178|17:153,1,180.000006866455,2|2,1:2|0:2,0:0:0:0:
0,231,32968,2,0,L|9:293,1,60.0000022888184,0|0,0:2|0:2,0:0:0:0:
59,347,33245,2,0,L|178:323,2,120.000004577637,10|2|2,0:2|0:2|0:2,0:0:0:0:
154,250,34096,6,0,P|258:268|267:343,1,180.000006866455,2|2,0:2|0:2,0:0:0:0:
339,367,34673,2,0,L|416:348,1,60.0000022888184,0|0,1:2|0:2,0:0:0:0:
473,370,34962,2,0,B|491:269|491:269|414:227,1,180.000006866455,10|0,0:2|0:0,0:0:0:0:
356,273,35529,1,0,0:0:0:0:
439,141,35813,5,2,1:2:0:0:
359,38,36094,2,0,P|323:35|293:66,1,60.0000022888184,2|0,0:2|0:2,0:0:0:0:
248,102,36376,2,0,P|210:107|182:76,1,60.0000022888184,2|0,0:2|0:2,0:0:0:0:
129,49,36658,2,0,B|78:65|78:65|87:117,1,90.0000034332277,10|0,0:2|0:2,0:0:0:0:
99,137,36939,2,0,L|84:208,1,60.0000022888184,2|0,1:2|0:2,0:0:0:0:
152,238,37221,2,0,L|168:164,1,60.0000022888184,2|0,1:2|0:2,0:0:0:0:
242,183,37503,6,0,B|294:195|294:195|321:263|321:263|395:279,1,180.000006866455,2|0,1:2|0:0,0:0:0:0:
432,225,38070,1,0,0:0:0:0:
350,357,38354,2,0,L|275:373,1,60.0000022888184,8|0,0:2|0:2,0:0:0:0:
223,330,38637,2,0,L|88:357,1,120.000004577637,10|2,0:2|0:2,0:0:0:0:
6,232,39205,6,0,B|15:184|15:184|50:169|50:169|63:118,1,120.000004577637,2|2,1:2|0:2,0:0:0:0:
134,103,39626,1,2,0:2:0:0:
203,145,39766,2,0,L|266:161,1,60.0000022888184,2|0,0:2|0:2,0:0:0:0:
310,221,40047,2,0,P|379:223|426:116,1,180.000006866455,10|2,0:2|0:2,0:0:0:0:
388,67,40604,2,0,L|313:47,1,60.0000022888184,0|0,0:2|0:2,0:0:0:0:
258,20,40883,6,0,B|178:58|178:58|208:162,1,180.000006866455,0|2,1:2|0:2,0:0:0:0:
252,207,41456,2,0,L|242:275,1,60.0000022888184,0|0,0:2|0:2,0:0:0:0:
177,308,41743,1,10,0:2:0:0:
327,350,42027,2,0,L|392:334,1,60.0000022888184,2|0,0:2|0:2,0:0:0:0:
441,280,42312,2,0,L|423:199,1,60.0000022888184,2|0,0:2|0:2,0:0:0:0:
366,169,42597,6,0,B|255:153|299:246|208:240,1,180.000006866455,2|2,1:2|0:2,0:0:0:0:
137,223,43160,1,2,0:2:0:0:
57,55,43442,2,0,B|168:39|124:132|215:126,1,180.000006866455,10|2,0:2|0:2,0:0:0:0:
286,109,44005,1,2,0:2:0:0:
430,49,44287,6,0,B|485:70|485:70|472:150,1,120.000004577637,2|0,1:2|0:2,0:0:0:0:
416,182,44709,2,0,L|341:201,2,60.0000022888184,0|0|0,0:2|0:0|0:2,0:0:0:0:
468,239,45132,5,10,0:2:0:0:
360,352,45411,1,8,0:2:0:0:
211,304,45691,1,8,0:2:0:0:
64,382,45989,6,0,P|-5:326|15:224,1,192,6|0,1:2|0:0,0:0:0:0:
77,185,46550,1,0,0:0:0:0:
238,225,46831,2,0,B|342:231|307:311|413:310,1,192,10|2,0:2|0:2,0:0:0:0:
498,297,47406,2,0,L|513:220,1,64,0|0,0:2|0:2,0:0:0:0:
480,155,47694,6,0,B|462:112|388:118|388:118|431:181|395:209,1,192,2|0,1:2|0:0,0:0:0:0:
321,214,48259,1,0,0:0:0:0:
211,339,48542,2,0,L|82:366,1,128,10|0,0:2|0:2,0:0:0:0:
27,304,48966,2,0,L|161:273,1,128,2|2,0:2|0:2,0:0:0:0:
232,253,49390,6,0,B|283:229|283:229|270:131,1,128,2|0,1:2|0:2,0:0:0:0:
221,91,49815,2,0,B|141:81|165:157|89:141,1,128,2|0,0:2|0:2,0:0:0:0:
38,184,50241,2,0,B|12:64|12:64|99:40,1,192,10|0,0:2|0:2,0:0:0:0:
156,14,50808,2,0,L|169:88,1,64,2|0,0:2|0:0,0:0:0:0:
215,145,51092,6,0,P|299:134|313:78,1,128,0|0,1:2|0:2,0:0:0:0:
345,24,51513,2,0,P|429:35|443:91,1,128,2|2,0:2|0:2,0:0:0:0:
485,139,51934,2,0,B|477:175|477:175|507:214|507:214|492:270,1,128,8|2,0:2|0:2,0:0:0:0:
433,309,52358,1,0,0:2:0:0:
433,309,52499,1,10,0:3:0:0:
277,368,52782,6,0,B|215:365|219:284|219:284|277:268|277:222,1,192,2|2,1:2|0:2,0:0:0:0:
302,159,53351,2,0,P|349:177|361:208,1,64,2|0,0:2|0:2,0:0:0:0:
391,261,53636,2,0,P|483:260|501:210,2,128,8|0|0,0:2|0:2|0:0,0:0:0:0:
206,202,54490,6,0,L|226:60,1,128,0|0,1:2|0:2,0:0:0:0:
147,16,54914,2,0,L|134:99,1,64,2|0,0:2|0:2,0:0:0:0:
117,165,55196,1,2,0:2:0:0:
63,236,55338,2,0,B|12:200|12:200|29:125,1,128,8|2,0:0|0:2,0:0:0:0:
205,202,55895,1,2,0:2:0:0:
147,16,56174,6,0,P|211:47|200:100,2,128,2|2|2,1:2|0:2|0:2,0:0:0:0:
82,160,57037,1,10,0:2:0:0:
231,244,57319,1,2,0:2:0:0:
231,244,57461,1,2,0:2:0:0:
159,286,57602,2,0,L|91:298,1,64,2|0,0:2|0:2,0:0:0:0:
23,256,57885,6,0,L|-2:116,2,128,2|2|2,1:2|0:2|0:2,0:0:0:0:
95,297,58577,1,0,1:2:0:0:
109,214,58715,2,0,L|201:197,1,64,10|0,0:2|0:2,0:0:0:0:
238,252,59003,2,0,L|316:238,1,64,2|0,0:2|0:2,0:0:0:0:
363,295,59292,2,0,L|448:280,1,64,14|0,0:3|0:2,0:0:0:0:
480,220,59581,6,0,P|522:156|487:103,1,128,4|0,1:2|0:2,0:0:0:0:
436,46,60003,2,0,L|360:32,1,64,2|0,0:2|0:2,0:0:0:0:
341,111,60285,1,2,0:2:0:0:
291,178,60426,2,0,B|227:154|227:154|245:74,1,128,8|0,0:2|0:2,0:0:0:0:
283,24,60845,2,0,L|355:38,2,64,2|0|0,0:2|0:2|0:2,0:0:0:0:
198,22,61265,6,0,B|91:8|130:114|36:100,1,192,2|2,1:2|0:2,0:0:0:0:
9,178,61842,1,2,0:2:0:0:
164,238,62131,1,8,0:2:0:0:
329,292,62417,2,0,B|399:312|399:312|465:279|438:197,1,192,2|0,0:2|0:2,0:0:0:0:
380,125,62991,6,0,B|308:1|118:56|118:56|315:210|212:368,1,660.416273656237,2|0,1:2|0:0,0:0:0:0:
117,258,64681,6,0,B|397:215,1,256,2|0,1:2|0:0,0:0:0:0:
403,38,65520,2,0,B|365:28|365:28|333:45|333:45|285:33,1,96,8|0,0:2|0:0,0:0:0:0:
274,16,65802,2,0,P|259:48|262:76,1,64,2|0,0:2|0:2,0:0:0:0:
197,129,66085,2,0,P|210:177|238:199,1,64,2|0,1:2|0:0,0:0:0:0:
300,220,66368,6,0,B|353:252|353:252|332:350,1,136.000002593994,6|0,1:2|0:2,0:0:0:0:
266,377,66793,1,2,0:2:0:0:
179,362,66935,2,0,L|164:276,1,68.0000012969971,2|0,0:2|0:2,0:0:0:0:
135,211,67219,2,0,B|67:207|77:245|23:237,1,102.000001945496,8|0,0:2|0:2,0:0:0:0:
22,279,67502,2,0,P|-12:235|-10:204,1,68.0000012969971,0|0,0:2|0:2,0:0:0:0:
24,144,67786,2,0,L|99:127,1,68.0000012969971,0|0,1:2|0:2,0:0:0:0:
178,140,68070,6,0,L|151:-4,2,136.000002593994,0|0|0,1:2|1:2|1:2,0:0:0:0:
322,243,68921,2,0,P|382:235|391:196,1,102.000001945496,10|0,0:2|0:2,0:0:0:0:
423,170,69202,2,0,L|406:98,1,68.0000012969971,10|0,0:3|0:2,0:0:0:0:
363,27,69484,1,14,0:3:0:0:
235,150,69766,6,0,B|205:170|205:170|160:157,1,68.0000012969971,4|0,1:2|0:2,0:0:0:0:
109,219,70054,2,0,B|67:211|67:211|65:156,1,68.0000012969971,2|0,0:2|0:2,0:0:0:0:
6,119,70343,2,0,B|-11:82|-11:82|13:40,1,68.0000012969971,2|0,1:2|0:2,0:0:0:0:
79,20,70632,2,0,L|197:-1,1,102.000001945496,10|0,0:2|0:2,0:0:0:0:
216,26,70911,2,0,L|269:13,2,34.0000006484985,2|2|2,0:2|0:2|0:2,0:0:0:0:
164,97,71191,1,2,1:2:0:0:
327,165,71471,6,0,L|338:82,1,68.0000012969971,12|0,0:2|0:2,0:0:0:0:
417,62,71751,2,0,L|406:146,1,68.0000012969971,10|0,0:2|0:2,0:0:0:0:
477,185,72032,2,0,L|541:196,2,34.0000006484985,10|2|2,0:2|0:2|0:2,0:0:0:0:
396,207,72313,5,10,1:2:0:0:
383,384,72597,1,8,1:2:0:0:
247,274,72882,1,10,1:2:0:0:
460,347,73167,6,0,P|403:302|327:318,1,143.999995605469,6|0,1:2|0:2,0:0:0:0:
249,381,73592,1,2,0:2:0:0:
169,331,73734,2,0,L|156:260,1,71.9999978027344,2|0,0:2|0:2,0:0:0:0:
228,200,74018,2,0,B|263:190|263:190|299:207|299:207|357:195,1,107.999996704102,8|0,0:2|0:2,0:0:0:0:
371,177,74302,2,0,L|451:198,1,71.9999978027344,2|0,0:2|0:2,0:0:0:0:
512,256,74587,2,0,L|486:344,1,71.9999978027344,2|0,1:2|0:2,0:0:0:0:
402,356,74872,6,0,B|331:377|331:377|288:363|286:314,1,143.999995605469,2|0,1:2|0:2,0:0:0:0:
209,272,75293,2,0,B|126:254|148:322|62:306,1,143.999995605469,2|0,0:2|0:2,0:0:0:0:
21,226,75714,2,0,L|44:71,2,143.999995605469,10|2|2,0:2|0:2|0:2,0:0:0:0:
165,326,76559,6,0,P|244:331|258:255,1,143.999995605469,2|0,1:2|0:2,0:0:0:0:
206,206,76984,1,2,0:2:0:0:
285,157,77126,2,0,L|370:180,1,71.9999978027344,2|0,0:2|0:2,0:0:0:0:
443,205,77410,2,0,L|464:80,1,107.999996704102,8|0,0:2|0:2,0:0:0:0:
470,52,77696,2,0,P|431:32|386:45,1,71.9999978027344,2|0,0:2|0:2,0:0:0:0:
309,63,77983,2,0,P|269:71|223:46,1,71.9999978027344,2|0,1:2|0:2,0:0:0:0:
160,12,78270,6,0,B|70:51|70:51|103:173,1,215.999993408203,2|2,1:2|0:2,0:0:0:0:
82,262,78825,2,0,L|159:241,1,71.9999978027344,2|0,1:2|0:2,0:0:0:0:
209,157,79103,2,0,B|253:170|253:170|266:211|266:211|330:229,1,143.999995605469,8|2,0:2|0:2,0:0:0:0:
402,180,79534,1,2,0:2:0:0:
402,180,79678,1,2,0:2:0:0:
474,348,79966,6,0,B|433:345|390:379|390:379|402:349|383:323,1,143.999995605469,6|0,1:2|0:2,0:0:0:0:
294,292,80388,2,0,L|304:207,2,71.9999978027344,2|0|0,0:2|0:2|0:2,0:0:0:0:
232,362,80811,2,0,L|64:331,1,143.999995605469,8|0,0:2|0:2,0:0:0:0:
13,280,81230,1,2,0:2:0:0:
62,200,81370,2,0,P|96:178|143:190,1,71.9999978027344,0|0,1:2|0:2,0:0:0:0:
194,244,81650,6,0,B|259:220|259:220|238:124,1,143.999995605469,2|0,1:2|0:2,0:0:0:0:
182,74,82072,2,0,L|162:-14,2,71.9999978027344,2|2|2,0:2|0:2|0:2,0:0:0:0:
280,80,82495,2,0,B|353:87|330:21|435:39,1,143.999995605469,10|0,0:2|0:2,0:0:0:0:
500,74,82926,1,2,0:2:0:0:
500,74,83070,1,2,0:2:0:0:
444,252,83358,6,0,L|286:229,1,143.999995605469,2|0,1:2|0:2,0:0:0:0:
210,282,83776,1,2,0:2:0:0:
125,222,83915,2,0,L|109:124,1,71.9999978027344,0|0,0:2|0:2,0:0:0:0:
172,63,84194,2,0,B|271:35|271:35|338:95|292:161,1,215.999993408203,10|2,0:2|0:2,0:0:0:0:
275,221,84771,1,2,1:2:0:0:
457,266,85060,6,0,L|472:186,1,71.9999978027344,2|0,1:2|0:0,0:0:0:0:
414,119,85340,2,0,L|427:35,1,71.9999978027344,2|0,0:2|1:2,0:0:0:0:
346,1,85621,2,0,P|286:11|272:60,1,107.999996704102,2|0,0:2|0:0,0:0:0:0:
293,90,85902,5,10,0:0:0:0:
148,209,86178,1,8,0:0:0:0:
302,316,86455,1,10,0:0:0:0:
125,359,86749,6,0,B|55:380|55:380|1:359|21:308,1,143.999995605469,6|0,1:2|0:2,0:0:0:0:
65,244,87173,1,2,0:2:0:0:
148,209,87314,2,0,L|248:229,1,71.9999978027344,2|0,0:2|0:2,0:0:0:0:
315,239,87597,2,0,B|380:228|358:194|449:200,1,107.999996704102,8|0,0:2|0:2,0:0:0:0:
460,218,87877,2,0,L|470:138,1,71.9999978027344,2|0,0:2|0:2,0:0:0:0:
483,53,88158,2,0,L|410:39,1,71.9999978027344,2|0,1:2|0:2,0:0:0:0:
307,14,88439,6,0,B|239:36|239:36|259:121,1,143.999995605469,2|0,1:2|0:2,0:0:0:0:
210,207,88860,2,0,B|159:211|131:240|131:240|136:199|95:171,1,143.999995605469,2|0,0:2|0:2,0:0:0:0:
17,120,89281,2,0,L|165:92,1,143.999995605469,10|2,0:2|0:2,0:0:0:0:
255,106,89709,1,0,0:2:0:0:
255,106,89852,1,2,0:2:0:0:
415,31,90138,6,0,P|482:42|484:130,1,143.999995605469,2|0,1:2|0:2,0:0:0:0:
443,187,90565,1,2,0:2:0:0:
443,187,90707,2,0,L|350:204,1,71.9999978027344,2|0,0:2|0:0,0:0:0:0:
313,273,90992,2,0,B|266:265|266:265|238:225|238:225|173:212,1,143.999995605469,10|0,0:2|0:2,0:0:0:0:
100,213,91419,1,2,0:2:0:0:
100,213,91561,2,0,L|85:304,1,71.9999978027344,2|0,1:2|0:2,0:0:0:0:
5,306,91846,6,0,L|27:145,1,143.999995605469,2|0,1:2|0:2,0:0:0:0:
97,104,92270,2,0,P|187:103|215:152,1,143.999995605469,0|0,1:2|0:2,0:0:0:0:
249,228,92694,2,0,P|339:229|367:180,1,143.999995605469,8|2,0:2|0:2,0:0:0:0:
373,99,93119,1,2,0:2:0:0:
373,99,93261,1,2,1:2:0:0:
196,36,93545,6,0,B|107:28|136:95|56:86,1,143.999995605469,6|0,1:2|0:2,0:0:0:0:
13,163,93967,2,0,L|49:319,1,143.999995605469,2|0,0:2|0:2,0:0:0:0:
127,349,94390,2,0,B|183:360|183:360|233:328|203:262,1,143.999995605469,10|0,0:2|0:2,0:0:0:0:
126,243,94818,1,2,0:2:0:0:
194,180,94961,2,0,L|269:197,1,71.9999978027344,0|0,1:2|0:2,0:0:0:0:
307,279,95247,6,0,L|455:245,1,143.999995605469,0|0,1:2|0:2,0:0:0:0:
486,161,95668,2,0,B|473:63|416:125|399:16,1,143.999995605469,0|0,0:2|0:2,0:0:0:0:
319,11,96089,2,0,P|248:37|261:116,1,143.999995605469,10|0,0:2|0:2,0:0:0:0:
401,202,96648,1,10,0:2:0:0:
260,325,96944,6,0,L|111:300,1,143.999995605469,4|0,1:2|0:0,0:0:0:0:
29,285,97363,1,0,0:2:0:0:
29,285,97503,1,0,0:2:0:0:
146,139,97783,6,0,L|295:114,1,143.999995605469,4|0,1:2|0:0,0:0:0:0:
385,109,98210,1,0,0:2:0:0:
385,109,98352,1,0,0:2:0:0:
480,269,98637,6,0,L|331:244,1,143.999995605469,4|0,1:2|0:2,0:0:0:0:
262,188,99061,2,0,B|216:168|182:202|182:202|201:248|164:265,1,143.999995605469,8|0,0:3|1:2,0:0:0:0:
86,279,99485,2,0,L|5:265,2,71.9999978027344,10|0|8,0:2|1:2|0:2,0:0:0:0:
135,361,99910,1,8,0:2:0:0:
135,361,100052,1,6,0:3:0:0:
222,326,100194,1,0,0:0:0:0:
301,375,100336,5,4,0:0:0:0:
141,12,113925,6,0,B|214:45|214:45|191:164,1,192,6|0,1:2|0:0,0:0:0:0:
109,145,114486,1,0,0:0:0:0:
113,311,114767,2,0,B|204:308|168:210|267:219,1,192,10|0,0:2|0:2,0:0:0:0:
349,236,115330,2,0,P|364:267|358:308,1,64,0|0,0:2|0:2,0:0:0:0:
302,353,115612,6,0,P|271:309|285:168,1,192,2|0,1:2|0:0,0:0:0:0:
358,150,116185,1,0,0:0:0:0:
500,63,116472,2,0,L|371:36,1,128,10|0,0:2|0:2,0:0:0:0:
292,21,116899,2,0,B|242:35|242:35|228:70|228:70|180:87,1,128,2|2,0:2|0:2,0:0:0:0:
114,49,117326,6,0,P|60:65|67:137,1,128,2|0,1:2|0:2,0:0:0:0:
22,203,117750,2,0,B|54:243|54:243|141:220,1,128,2|0,0:2|0:2,0:0:0:0:
189,165,118174,2,0,B|245:122|303:181|303:181|261:225|290:261,1,192,10|2,0:2|0:2,0:0:0:0:
329,303,118733,2,0,L|416:281,1,64,0|0,0:2|0:2,0:0:0:0:
473,299,119013,6,0,L|451:159,1,128,2|0,1:2|0:2,0:0:0:0:
387,121,119435,2,0,P|325:123|311:203,1,128,2|2,0:2|0:2,0:0:0:0:
245,240,119858,2,0,P|171:237|150:190,1,128,8|2,0:2|0:2,0:0:0:0:
172,117,120280,1,0,0:2:0:0:
172,117,120421,1,10,0:3:0:0:
45,8,120703,6,0,L|21:217,1,192,2|2,1:2|0:2,0:0:0:0:
85,273,121276,2,0,P|131:291|158:277,1,64,2|0,0:2|0:2,0:0:0:0:
217,248,121563,2,0,B|293:261|264:306|330:316,1,128,8|0,0:2|0:2,0:0:0:0:
386,261,121987,2,0,L|372:196,2,64,2|0|0,0:2|0:2|0:2,0:0:0:0:
472,286,122411,6,0,L|444:148,1,128,0|0,1:2|0:2,0:0:0:0:
372,110,122836,2,0,L|302:128,1,64,2|0,0:2|0:2,0:0:0:0:
255,189,123120,1,2,0:2:0:0:
191,134,123262,2,0,P|188:66|261:50,1,128,8|2,0:2|0:2,0:0:0:0:
321,62,123683,1,0,1:2:0:0:
321,62,123823,1,2,0:2:0:0:
312,281,124104,6,0,B|254:305|254:305|196:282|214:242,2,128,2|2|2,1:2|0:2|0:2,0:0:0:0:
478,266,124958,1,10,0:2:0:0:
343,362,125236,1,2,0:2:0:0:
343,362,125376,1,2,0:2:0:0:
312,281,125515,2,0,L|321:204,1,64,2|0,0:2|0:2,0:0:0:0:
366,138,125794,6,0,B|407:146|407:146|424:177|424:177|486:188,2,128,2|2|2,1:2|0:2|0:2,0:0:0:0:
235,286,126648,2,0,P|209:317|166:313,1,64,10|0,0:2|0:2,0:0:0:0:
109,357,126934,2,0,P|68:339|62:299,1,64,2|0,0:2|0:2,0:0:0:0:
15,255,127221,2,0,P|19:207|42:193,1,64,14|0,0:3|0:2,0:0:0:0:
62,105,127508,6,0,L|202:132,1,128,4|0,1:2|0:2,0:0:0:0:
273,147,127929,2,0,L|349:133,1,64,2|0,0:2|0:2,0:0:0:0:
414,107,128209,1,0,0:2:0:0:
482,155,128350,2,0,P|521:216|497:277,1,128,8|0,0:2|0:2,0:0:0:0:
438,314,128777,2,0,L|422:404,2,64,2|0|0,0:2|0:2|0:2,0:0:0:0:
388,246,129204,6,0,B|356:202|293:220|293:220|337:272|299:321,1,192,2|2,1:2|0:2,0:0:0:0:
249,354,129769,1,2,0:2:0:0:
93,294,130052,1,8,0:2:0:0:
220,187,130336,2,0,B|188:185|157:202|157:202|106:175|103:116|144:73,1,192,2|0,0:2|0:2,0:0:0:0:
193,40,130906,6,0,B|336:-16|436:108|436:108|342:173|321:252|356:334|356:334|420:314|433:255,1,652.925538044923,2|0,1:2|0:0,0:0:0:0:
288,153,132602,6,0,B|136:135|177:233|40:210,1,256,2|0,1:2|0:0,0:0:0:0:
122,342,133441,2,0,P|165:299|218:309,1,96,8|0,0:2|0:0,0:0:0:0:
235,304,133724,2,0,L|315:288,1,64,2|0,0:2|0:2,0:0:0:0:
368,254,134008,2,0,L|386:327,1,64,2|0,1:2|0:2,0:0:0:0:
466,367,134292,6,0,B|524:339|524:339|499:248,1,136.000002593994,6|0,1:2|0:2,0:0:0:0:
439,200,134719,1,2,0:2:0:0:
482,125,134861,2,0,L|496:47,1,68.0000012969971,2|0,0:2|0:2,0:0:0:0:
413,21,135146,2,0,B|370:9|370:9|343:25|343:25|294:14,1,102.000001945496,8|0,0:2|0:2,0:0:0:0:
273,25,135430,2,0,L|257:102,1,68.0000012969971,0|0,0:2|0:2,0:0:0:0:
211,166,135715,2,0,L|133:148,1,68.0000012969971,0|0,1:2|0:2,0:0:0:0:
69,198,136000,6,0,P|13:165|34:82,2,136.000002593994,0|0|0,1:2|0:2|1:2,0:0:0:0:
78,375,136842,2,0,P|127:319|158:326,1,102.000001945496,10|0,0:2|0:2,0:0:0:0:
185,342,137123,2,0,L|262:329,1,68.0000012969971,10|0,0:3|0:2,0:0:0:0:
331,369,137405,1,14,0:3:0:0:
478,310,137687,6,0,B|508:282|508:282|494:231,1,68.0000012969971,6|0,1:2|0:2,0:0:0:0:
484,168,137972,2,0,B|446:148|446:148|403:168,1,68.0000012969971,2|0,0:2|0:2,0:0:0:0:
339,129,138258,2,0,B|297:153|297:153|309:204,1,68.0000012969971,2|0,1:2|0:2,0:0:0:0:
253,247,138544,2,0,L|135:226,1,102.000001945496,10|0,0:2|0:2,0:0:0:0:
108,234,138825,2,0,L|59:221,2,34.0000006484985,2|2|2,0:2|0:2|0:2,0:0:0:0:
51,302,139107,1,2,1:2:0:0:
219,356,139389,6,0,P|255:362|284:331,1,68.0000012969971,10|0,0:2|0:2,0:0:0:0:
322,267,139664,2,0,P|363:266|386:296,1,68.0000012969971,10|0,0:2|0:2,0:0:0:0:
445,345,139940,2,0,L|434:407,2,34.0000006484985,10|2|2,0:2|0:2|0:2,0:0:0:0:
460,246,140227,5,10,1:2:0:0:
309,338,140504,1,8,1:2:0:0:
266,166,140782,1,10,1:2:0:0:
467,167,141089,6,0,B|379:155|414:243|314:221,1,143.999995605469,6|0,1:2|0:2,0:0:0:0:
253,281,141516,1,2,0:2:0:0:
171,224,141658,2,0,L|184:153,1,71.9999978027344,2|0,0:2|0:2,0:0:0:0:
259,97,141943,2,0,P|254:25|208:9,1,107.999996704102,8|0,0:2|0:2,0:0:0:0:
181,11,142225,2,0,L|102:29,1,71.9999978027344,2|0,0:2|0:2,0:0:0:0:
42,95,142508,2,0,L|58:182,1,71.9999978027344,2|0,1:2|0:2,0:0:0:0:
20,253,142791,6,0,B|69:245|69:245|106:273|106:273|184:257,1,143.999995605469,2|0,1:2|0:2,0:0:0:0:
243,234,143213,2,0,L|392:264,1,143.999995605469,2|0,0:2|0:2,0:0:0:0:
469,302,143636,2,0,P|521:232|482:166,2,143.999995605469,10|2|2,0:2|0:2|0:2,0:0:0:0:
286,346,144481,6,0,B|256:348|228:363|228:363|170:350|179:285,1,143.999995605469,2|0,1:2|0:2,0:0:0:0:
236,230,144906,1,2,0:2:0:0:
176,162,145048,2,0,L|91:185,1,71.9999978027344,2|0,0:2|0:2,0:0:0:0:
39,246,145332,2,0,L|66:357,1,107.999996704102,8|0,0:2|0:2,0:0:0:0:
107,369,145615,2,0,P|158:364|176:342,1,71.9999978027344,2|0,0:2|0:2,0:0:0:0:
251,301,145899,2,0,P|301:306|319:328,1,71.9999978027344,2|0,1:2|0:2,0:0:0:0:
394,370,146183,6,0,P|472:350|467:225,1,215.999993408203,2|2,1:2|0:2,0:0:0:0:
401,171,146752,2,0,L|386:98,1,71.9999978027344,2|0,1:2|0:2,0:0:0:0:
448,29,147037,2,0,B|360:14|389:98|289:73,1,143.999995605469,10|2,0:2|0:2,0:0:0:0:
229,47,147459,1,2,0:2:0:0:
229,47,147600,1,2,0:2:0:0:
62,161,147882,6,0,B|81:217|81:217|177:201,1,143.999995605469,6|0,1:2|0:2,0:0:0:0:
247,238,148306,2,0,L|324:219,2,71.9999978027344,2|0|0,0:2|0:2|0:2,0:0:0:0:
198,318,148730,2,0,P|148:292|164:201,1,143.999995605469,8|0,0:2|0:2,0:0:0:0:
226,155,149154,1,2,0:2:0:0:
148,103,149295,2,0,L|62:121,1,71.9999978027344,0|0,1:2|0:2,0:0:0:0:
28,198,149578,6,0,L|56:352,1,143.999995605469,2|0,1:2|0:2,0:0:0:0:
147,331,149999,2,0,L|131:243,2,71.9999978027344,2|2|2,0:2|0:2|0:2,0:0:0:0:
233,367,150420,2,0,P|313:334|396:342,1,143.999995605469,10|0,0:2|0:2,0:0:0:0:
440,272,150848,1,2,0:2:0:0:
440,272,150991,1,2,0:2:0:0:
418,86,151277,6,0,B|329:68|367:159|272:145,1,143.999995605469,2|0,1:2|0:2,0:0:0:0:
210,127,151702,1,2,0:2:0:0:
138,67,151844,2,0,L|49:84,1,71.9999978027344,0|0,0:2|0:2,0:0:0:0:
28,166,152128,2,0,P|51:226|207:224,1,215.999993408203,10|2,0:2|0:2,0:0:0:0:
263,190,152695,1,2,1:2:0:0:
385,47,152979,6,0,L|482:67,1,71.9999978027344,0|0,1:2|0:0,0:0:0:0:
494,147,153264,2,0,L|478:222,1,71.9999978027344,0|0,0:2|1:2,0:0:0:0:
421,291,153550,2,0,L|342:273,1,71.9999978027344,2|0,0:2|1:2,0:0:0:0:
257,284,153836,2,0,B|217:238|172:267|172:267|181:316|137:325,1,143.999995605469,10|0,0:2|0:2,0:0:0:0:
76,359,154260,5,8,0:2:0:0:
0,304,154401,1,10,0:2:0:0:
81,256,154542,1,8,0:2:0:0:
14,165,154684,6,0,L|38:16,1,143.999995605469,6|0,1:2|0:2,0:0:0:0:
126,17,155105,1,2,0:2:0:0:
186,96,155245,2,0,L|274:114,1,71.9999978027344,2|0,0:2|0:2,0:0:0:0:
330,167,155526,2,0,P|375:115|438:128,1,107.999996704102,8|0,0:2|0:2,0:0:0:0:
457,112,155806,2,0,L|475:191,1,71.9999978027344,2|0,0:2|0:2,0:0:0:0:
414,255,156087,2,0,L|432:339,1,71.9999978027344,2|0,1:2|0:2,0:0:0:0:
506,378,156368,6,0,L|536:227,1,143.999995605469,2|0,1:2|0:2,0:0:0:0:
465,171,156792,2,0,B|415:160|415:160|372:193|372:193|306:180,1,143.999995605469,2|0,0:2|0:2,0:0:0:0:
249,143,157216,2,0,B|219:145|179:124|179:124|182:174|158:201,1,143.999995605469,10|2,0:2|0:2,0:0:0:0:
85,241,157638,1,0,0:2:0:0:
85,241,157779,1,2,0:2:0:0:
203,371,158075,6,0,L|367:338,1,143.999995605469,2|0,1:2|0:2,0:0:0:0:
438,371,158497,1,2,0:2:0:0:
438,371,158638,2,0,L|417:271,1,71.9999978027344,2|0,0:2|0:0,0:0:0:0:
351,239,158920,2,0,B|363:147|409:211|421:88,1,143.999995605469,10|0,0:2|0:2,0:0:0:0:
352,47,159342,1,2,0:2:0:0:
352,47,159483,2,0,L|259:65,1,71.9999978027344,2|0,1:2|0:2,0:0:0:0:
228,138,159765,6,0,B|140:119|140:119|132:38,1,143.999995605469,2|0,1:2|0:2,0:0:0:0:
50,22,160193,2,0,L|65:180,1,143.999995605469,0|0,1:2|0:2,0:0:0:0:
15,245,160622,2,0,P|62:212|169:231,1,143.999995605469,8|2,0:2|0:2,0:0:0:0:
242,236,161041,1,2,0:2:0:0:
242,236,161181,1,2,1:2:0:0:
368,373,161461,6,0,L|528:340,1,143.999995605469,6|0,1:2|0:2,0:0:0:0:
495,250,161888,2,0,L|342:280,1,143.999995605469,2|0,0:2|0:2,0:0:0:0:
264,308,162315,2,0,P|310:238|275:170,1,143.999995605469,10|0,0:2|0:2,0:0:0:0:
203,142,162742,1,2,0:2:0:0:
110,155,162884,2,0,L|95:235,1,71.9999978027344,0|0,1:2|0:2,0:0:0:0:
4,245,163169,6,0,L|31:90,1,143.999995605469,0|0,1:2|0:2,0:0:0:0:
90,31,163594,2,0,B|118:-3|164:13|164:13|167:64|229:67,1,143.999995605469,0|0,0:2|0:2,0:0:0:0:
269,121,164020,2,0,B|338:138|338:138|383:108|359:49,1,143.999995605469,10|0,0:2|0:2,0:0:0:0:
184,30,164587,1,10,0:2:0:0:
111,202,164871,6,0,L|138:350,1,143.999995605469,4|0,1:2|0:0,0:0:0:0:
224,379,165293,1,0,0:2:0:0:
224,379,165434,1,0,0:2:0:0:
396,306,165716,6,0,L|422:158,1,143.999995605469,4|0,1:2|0:0,0:0:0:0:
353,105,166140,1,0,0:2:0:0:
353,105,166281,1,0,0:2:0:0:
187,17,166564,6,0,L|213:164,1,143.999995605469,4|0,1:2|0:2,0:0:0:0:
296,202,166986,2,0,B|345:209|372:227|372:227|389:190|440:171,1,143.999995605469,8|0,0:2|1:2,0:0:0:0:
504,153,167409,2,0,L|492:266,1,107.999996704102,10|0,0:2|1:2,0:0:0:0:
465,315,167690,1,8,0:2:0:0:
465,315,167831,1,8,0:2:0:0:
391,371,167972,1,6,0:3:0:0:
391,371,168113,1,0,0:0:0:0:
324,304,168254,6,0,B|275:316|275:316|259:371|259:371|200:384,2,143.999995605469,6|0|0,1:2|0:0|0:0,0:0:0:0:
457,172,169108,1,8,0:2:0:0:
296,75,169392,6,0,L|281:162,1,71.9999978027344,2|0,0:2|0:2,0:0:0:0:
217,213,169677,2,0,L|139:196,1,71.9999978027344,2|0,1:2|0:2,0:0:0:0:
60,159,169962,2,0,P|19:100|136:30,1,215.999993408203,2|0,1:2|0:0,0:0:0:0:
180,77,170525,1,0,0:0:0:0:
355,8,170807,6,0,L|434:29,1,71.9999978027344,10|0,0:2|0:2,0:0:0:0:
464,111,171088,2,0,L|438:199,1,71.9999978027344,2|0,0:2|0:2,0:0:0:0:
477,267,171370,2,0,L|450:355,1,71.9999978027344,2|0,0:2|0:2,0:0:0:0:
370,376,171652,6,0,L|222:328,2,143.999995605469,6|0|0,1:2|0:0|0:0,0:0:0:0:
128,347,172503,1,8,0:2:0:0:
263,167,172786,6,0,L|192:145,1,71.9999978027344,2|0,0:2|0:2,0:0:0:0:
103,119,173070,2,0,B|61:139|61:139|73:192,1,71.9999978027344,2|0,1:2|0:2,0:0:0:0:
14,242,173354,2,0,B|33:282|33:282|75:283,1,71.9999978027344,2|0,1:2|0:2,0:0:0:0:
128,347,173634,2,0,B|157:367|157:367|199:340,1,71.9999978027344,2|0,0:2|1:2,0:0:0:0:
281,328,173915,2,0,B|314:310|314:310|306:263,1,71.9999978027344,2|0,0:2|0:0,0:0:0:0:
248,203,174196,2,0,B|259:157|259:157|307:132|307:132|324:74,2,143.999995605469,10|2|2,0:2|0:2|0:2,0:0:0:0:
395,318,175050,6,0,B|453:335|453:335|507:310|479:249,1,143.999995605469,6|0,1:2|0:2,0:0:0:0:
408,212,175475,2,0,B|324:187|348:275|253:250,1,143.999995605469,2|2,0:2|0:2,0:0:0:0:
222,328,175901,2,0,P|165:290|84:298,1,143.999995605469,10|0,0:2|0:0,0:0:0:0:
15,348,176326,1,0,0:2:0:0:
15,348,176468,1,0,1:2:0:0:
35,161,176752,6,0,L|113:180,1,71.9999978027344,2|0,1:2|0:2,0:0:0:0:
174,244,177034,2,0,P|211:217|261:216,1,71.9999978027344,2|0,0:2|0:2,0:0:0:0:
280,129,177317,2,0,P|331:162|366:166,1,71.9999978027344,2|0,0:2|0:2,0:0:0:0:
406,232,177600,2,0,B|471:214|471:214|461:114,2,143.999995605469,10|2|2,0:2|0:2|0:2,0:0:0:0:
251,338,178448,6,0,B|183:320|112:370|112:370|136:331|102:295,1,215.999993408203,6|0,1:2|0:0,0:0:0:0:
23,339,179007,1,0,0:0:0:0:
33,152,179287,2,0,B|101:134|172:184|172:184|148:145|182:109,1,215.999993408203,10|0,0:2|0:2,0:0:0:0:
261,153,179856,1,0,0:2:0:0:
445,182,180141,2,0,P|472:122|434:26,2,143.999995605469,2|0|2,1:2|0:0|0:2,0:0:0:0:
360,347,181001,5,10,1:2:0:0:
173,330,181278,1,10,1:2:0:0:
142,145,181556,1,10,1:2:0:0:
1,269,181850,6,0,L|236:221,1,215.999993408203,6|0,1:2|0:2,0:0:0:0:
290,173,182415,2,0,B|329:189|329:189|325:239,1,71.9999978027344,2|2,0:2|0:2,0:0:0:0:
388,286,182698,2,0,P|463:259|470:185,2,143.999995605469,10|0|0,0:2|0:0|1:2,0:0:0:0:
362,94,183540,6,0,B|321:12|212:58|212:58|231:98|211:127,1,215.999993408203,2|0,1:2|0:2,0:0:0:0:
133,133,184105,1,0,0:2:0:0:
69,319,184388,6,0,B|110:401|219:355|219:355|200:315|220:286,1,215.999993408203,10|0,0:2|0:2,0:0:0:0:
298,280,184953,1,0,0:2:0:0:
476,223,185236,6,0,L|38:174,1,431.999986816407,6|8,1:2|0:2,0:0:0:0:
367,369,186659,6,0,P|386:328|376:295,1,71.9999978027344,2|0,1:2|0:2,0:0:0:0:
304,248,186944,2,0,B|211:240|243:310|156:301,2,143.999995605469,2|2|2,1:2|0:2|0:2,0:0:0:0:
459,142,187789,2,0,P|434:43|329:49,1,215.999993408203,10|0,0:2|0:2,0:0:0:0:
265,106,188352,2,0,L|184:89,1,71.9999978027344,2|0,0:2|0:2,0:0:0:0:
106,58,188634,6,0,L|131:208,2,143.999995605469,6|0|0,1:2|0:0|0:0,0:0:0:0:
21,226,189482,1,8,0:2:0:0:
183,319,189761,2,0,L|275:294,1,71.9999978027344,2|2,0:2|0:2,0:0:0:0:
303,221,190041,2,0,L|282:132,1,71.9999978027344,2|0,1:2|0:2,0:0:0:0:
200,113,190321,6,0,B|144:123|144:123|127:170|127:170|64:187,2,143.999995605469,2|2|2,1:2|0:2|0:2,0:0:0:0:
369,32,191181,2,0,B|419:48|419:48|403:124,1,107.999996704102,10|0,0:2|0:0,0:0:0:0:
367,126,191463,2,0,L|384:210,1,71.9999978027344,8|0,0:2|0:2,0:0:0:0:
464,239,191746,2,0,L|484:327,1,71.9999978027344,8|0,0:2|0:2,0:0:0:0:
391,341,192029,5,2,1:2:0:0:
304,322,192169,1,10,0:3:0:0:
304,322,192310,1,10,0:3:0:0:
218,358,192451,2,0,L|130:384,2,71.9999978027344,2|6|6,1:2|0:3|0:3,0:0:0:0:
240,266,192874,6,0,L|220:190,1,71.9999978027344,10|2,0:2|1:2,0:0:0:0:
141,157,193155,1,10,0:3:0:0:
141,157,193296,2,0,L|123:79,2,71.9999978027344,10|2|2,0:3|0:2|1:2,0:0:0:0:
231,180,193719,6,0,P|288:158|329:157,1,71.9999978027344,10|0,1:2|0:2,0:0:0:0:
352,80,194003,2,0,P|430:93|449:104,1,71.9999978027344,10|0,1:2|0:2,0:0:0:0:
484,154,194288,2,0,L|466:257,1,71.9999978027344,10|0,1:2|0:2,0:0:0:0:
471,329,194573,2,0,B|437:367|437:367|361:343,1,107.999996704102,10|0,1:2|0:2,0:0:0:0:
337,363,194864,2,0,P|301:324|325:260,1,107.999996704102,2|0,0:2|0:2,0:0:0:0:
337,235,195156,2,0,L|222:259,1,107.999996704102,2|0,0:2|0:2,0:0:0:0:
185,266,195448,5,6,1:2:0:0:
256,192,195590,12,0,197970,0:0:0:0:
99,380,208166,5,10,0:2:0:0:
178,327,208449,1,8,0:2:0:0:
106,268,208733,1,10,0:2:0:0:
185,204,209027,6,0,B|245:219|245:219|262:253|262:253|333:270,1,160,6|2,1:2|0:2,0:0:0:0:
411,240,209860,2,0,L|427:106,1,120,8|0,0:2|0:2,0:0:0:0:
431,73,210421,1,0,1:2:0:0:
340,44,210702,6,0,P|280:15|187:26,1,160,0|0,1:2|0:0,0:0:0:0:
125,103,211559,2,0,L|140:192,1,80,10|0,0:2|0:0,0:0:0:0:
111,274,212128,1,2,0:2:0:0:
195,321,212413,6,0,L|360:289,1,160,2|2,1:2|0:2,0:0:0:0:
446,258,213261,2,0,L|425:138,1,120,10|0,0:2|0:2,0:0:0:0:
449,104,213808,1,2,1:2:0:0:
371,31,214114,6,0,B|236:15|270:129|138:107,1,240,2|8,1:2|0:2,0:0:0:0:
59,99,215233,1,2,0:2:0:0:
22,180,215511,1,2,1:2:0:0:
80,263,215809,6,0,L|168:245,1,80,6|0,1:2|0:0,0:0:0:0:
204,233,216231,2,0,P|227:267|217:317,1,80,2|0,0:2|0:0,0:0:0:0:
203,348,216654,2,0,L|365:327,1,160,10|0,0:2|1:2,0:0:0:0:
445,280,217499,6,0,P|412:223|315:231,1,160,0|2,1:2|0:2,0:0:0:0:
232,245,218341,2,0,L|247:116,1,120,10|2,0:2|0:2,0:0:0:0:
254,78,218902,1,2,0:2:0:0:
170,122,219183,5,8,1:2:0:0:
368,249,220037,5,8,1:2:0:0:
159,384,220891,6,0,P|134:356|135:326,1,60.0000022888184,8|0,1:2|0:2,0:0:0:0:
59,307,221185,2,0,P|58:255|72:240,1,60.0000022888184,8|0,1:2|0:2,0:0:0:0:
123,203,221479,2,0,L|191:220,1,60.0000022888184,8|0,1:2|0:2,0:0:0:0:
239,269,221745,2,0,L|319:281,1,60.0000022888184,10|0,1:2|0:2,0:0:0:0:
370,246,222032,2,0,P|404:199|398:177,1,60.0000022888184,8|0,1:2|0:2,0:0:0:0:
425,126,222320,2,0,P|410:75|385:70,1,60.0000022888184,10|0,1:2|0:2,0:0:0:0:
287,12,222608,6,0,B|214:40|214:40|244:142,1,151.999995941162,6|0,1:2|0:2,0:0:0:0:
302,183,223033,1,2,0:2:0:0:
201,229,223175,2,0,L|185:329,1,75.9999979705811,2|0,0:2|0:2,0:0:0:0:
120,357,223459,2,0,B|172:344|172:344|206:374|206:374|287:358,1,151.999995941162,10|0,0:2|0:2,0:0:0:0:
356,355,223884,1,2,0:2:0:0:
356,355,224026,2,0,P|390:316|475:328,1,113.999996955872,2|0,1:2|0:2,0:0:0:0:
488,342,224310,6,0,L|458:178,1,151.999995941162,6|0,1:2|0:2,0:0:0:0:
363,173,224734,1,2,0:2:0:0:
276,220,224875,2,0,L|194:200,1,75.9999979705811,2|0,0:2|0:2,0:0:0:0:
147,119,225158,2,0,P|78:133|83:223,1,151.999995941162,14|0,0:2|0:2,0:0:0:0:
29,295,225582,2,0,B|54:325|54:325|112:308,1,75.9999979705811,0|2,0:2|0:2,0:0:0:0:
187,297,225864,1,8,0:2:0:0:
194,195,226006,6,0,B|101:168|125:244|31:225,1,151.999995941162,6|0,1:2|0:2,0:0:0:0:
2,142,226424,1,2,0:2:0:0:
48,54,226563,2,0,L|145:81,1,75.9999979705811,2|0,0:2|0:2,0:0:0:0:
215,104,226842,2,0,P|307:81|311:22,1,151.999995941162,10|0,0:2|0:2,0:0:0:0:
410,8,227267,1,2,0:2:0:0:
410,8,227409,2,0,B|463:27|463:27|449:96,1,113.999996955872,2|0,1:2|0:2,0:0:0:0:
419,121,227693,6,0,L|447:273,1,151.999995941162,6|0,1:2|0:2,0:0:0:0:
505,350,228118,1,2,1:2:0:0:
408,371,228260,2,0,L|326:351,1,75.9999979705811,2|0,0:2|1:2,0:0:0:0:
259,287,228544,2,0,B|211:300|211:300|197:346|197:346|145:360,2,151.999995941162,14|2|2,0:2|0:2|0:2,0:0:0:0:
455,258,229392,6,0,P|505:170|475:129,1,151.999995941162,6|0,1:2|0:2,0:0:0:0:
398,86,229817,1,2,0:2:0:0:
307,127,229959,2,0,L|292:210,1,75.9999979705811,2|0,1:2|0:2,0:0:0:0:
200,236,230243,2,0,L|225:82,1,151.999995941162,10|0,0:2|0:2,0:0:0:0:
171,8,230665,1,2,0:2:0:0:
171,8,230806,2,0,B|93:-3|117:51|53:48,1,113.999996955872,2|0,1:2|0:2,0:0:0:0:
25,69,231088,6,0,L|200:99,1,151.999995941162,6|0,1:2|0:2,0:0:0:0:
257,149,231513,1,2,0:2:0:0:
341,201,231655,2,0,L|419:181,1,75.9999979705811,2|0,1:2|0:2,0:0:0:0:
491,119,231939,2,0,P|470:35|391:32,1,151.999995941162,14|0,0:2|0:2,0:0:0:0:
318,0,232349,2,0,P|289:30|301:77,1,75.9999979705811,2|0,0:2|0:2,0:0:0:0:
362,130,232623,1,8,0:2:0:0:
278,183,232760,6,0,B|211:211|211:211|156:181|168:139,1,151.999995941162,6|0,1:2|0:2,0:0:0:0:
135,62,233199,1,2,0:2:0:0:
135,62,233346,2,0,L|55:83,1,75.9999979705811,2|0,1:2|0:2,0:0:0:0:
8,164,233639,2,0,L|40:325,1,151.999995941162,10|0,0:2|0:2,0:0:0:0:
133,367,234061,1,2,0:2:0:0:
133,367,234202,2,0,P|193:314|236:328,1,113.999996955872,2|0,1:2|0:2,0:0:0:0:
261,346,234484,6,0,B|294:381|294:381|417:360,1,151.999995941162,6|0,1:2|0:2,0:0:0:0:
498,355,234909,1,2,1:2:0:0:
498,355,235051,2,0,L|484:263,1,75.9999979705811,2|0,0:2|1:2,0:0:0:0:
478,180,235335,5,14,0:2:0:0:
394,128,235476,1,8,0:2:0:0:
473,68,235618,1,8,0:2:0:0:
473,68,235760,1,8,0:2:0:0:
393,8,235902,2,0,L|317:20,1,75.9999979705811,2|0,1:2|0:2,0:0:0:0:
219,3,236186,6,0,B|158:41|158:41|181:138,1,151.999995941162,4|0,1:2|0:2,0:0:0:0:
267,158,236610,1,2,0:2:0:0:
332,232,236751,2,0,L|313:312,1,75.9999979705811,0|0,0:2|0:2,0:0:0:0:
246,371,237034,2,0,P|157:369|139:297,1,151.999995941162,8|0,0:2|0:2,0:0:0:0:
52,266,237458,1,2,0:2:0:0:
52,266,237599,2,0,B|94:250|94:250|109:223|109:223|174:206,1,113.999996955872,2|0,1:2|0:2,0:0:0:0:
195,211,237882,6,0,L|157:34,1,151.999995941162,6|0,1:2|0:2,0:0:0:0:
78,9,238309,1,2,1:2:0:0:
12,83,238451,2,0,P|61:107|100:87,1,75.9999979705811,2|0,0:2|1:2,0:0:0:0:
162,48,238736,2,0,B|194:14|246:37|246:37|264:82|297:75,1,151.999995941162,14|0,0:2|0:2,0:0:0:0:
379,113,239163,2,0,L|475:88,1,75.9999979705811,0|2,0:2|0:2,0:0:0:0:
510,174,239447,1,8,0:2:0:0:
447,250,239590,6,0,L|281:219,1,151.999995941162,6|0,1:2|0:2,0:0:0:0:
210,174,240009,1,2,0:2:0:0:
118,211,240149,2,0,L|99:291,1,75.9999979705811,0|0,1:2|0:2,0:0:0:0:
159,364,240429,2,0,B|209:353|209:353|245:381|245:381|325:365,1,151.999995941162,8|0,0:2|0:2,0:0:0:0:
396,351,240853,1,2,0:2:0:0:
471,287,240994,2,0,L|447:173,1,113.999996955872,2|0,1:2|0:2,0:0:0:0:
423,131,241277,6,0,P|362:124|318:201,1,151.999995941162,6|0,1:2|0:2,0:0:0:0:
267,282,241698,1,2,1:2:0:0:
167,266,241838,2,0,L|59:238,1,75.9999979705811,2|0,0:2|1:2,0:0:0:0:
26,173,242119,2,0,B|69:163|69:163|87:135|87:135|150:122,1,113.999996955872,14|0,0:2|0:2,0:0:0:0:
168,108,242407,2,0,P|197:152|182:188,1,75.9999979705811,0|0,1:2|0:0,0:0:0:0:
167,266,242696,1,10,0:2:0:0:
210,354,242841,1,8,0:2:0:0:
303,310,242985,6,0,B|353:319|411:335|411:335|451:300|423:282,1,151.999995941162,6|0,1:2|0:2,0:0:0:0:
511,259,243404,1,2,0:2:0:0:
444,185,243544,2,0,L|422:91,1,75.9999979705811,0|0,1:2|0:2,0:0:0:0:
330,88,243824,2,0,L|363:245,1,151.999995941162,8|0,0:2|0:2,0:0:0:0:
303,310,244248,1,2,0:2:0:0:
303,310,244389,2,0,P|215:271|183:285,1,113.999996955872,2|0,1:2|0:0,0:0:0:0:
167,303,244672,6,0,B|127:306|95:336|95:336|102:305|67:256,1,151.999995941162,6|0,1:2|0:2,0:0:0:0:
11,200,245097,1,2,0:2:0:0:
82,130,245239,2,0,L|61:32,1,75.9999979705811,2|0,1:2|0:2,0:0:0:0:
156,14,245523,2,0,B|206:28|206:28|225:74|225:74|280:89,1,151.999995941162,14|0,0:2|0:2,0:0:0:0:
337,162,245948,1,2,0:2:0:0:
440,136,246090,2,0,L|447:48,1,75.9999979705811,10|0,0:2|0:2,0:0:0:0:
354,16,246374,6,0,P|264:46|268:109,1,151.999995941162,4|0,1:2|0:0,0:0:0:0:
337,162,246798,1,0,0:2:0:0:
337,162,246939,1,0,1:2:0:0:
127,181,247222,6,0,P|217:211|213:274,1,151.999995941162,6|0,1:2|0:0,0:0:0:0:
154,329,247646,1,2,0:2:0:0:
154,329,247787,1,0,1:2:0:0:
349,357,248070,6,0,L|434:333,1,75.9999979705811,10|0,1:2|0:2,0:0:0:0:
467,248,248352,2,0,L|449:166,1,75.9999979705811,8|0,1:2|0:2,0:0:0:0:
366,126,248635,2,0,L|278:148,1,75.9999979705811,10|0,1:2|0:2,0:0:0:0:
224,216,248918,2,0,B|165:198|165:198|149:234|96:227,1,113.999996955872,10|0,0:2|0:0,0:0:0:0:
75,230,249199,2,0,P|35:200|49:121,1,113.999996955872,4|0,1:2|0:0,0:0:0:0:
17,92,249481,2,0,P|41:45|126:56,1,113.999996955872,6|0,1:2|0:0,0:0:0:0:
143,58,249763,5,4,1:2:0:0:
256,192,249904,12,0,254869,0:0:0:0:
