osu file format v14

[General]
AudioFilename: audio.mp3
AudioLeadIn: 0
PreviewTime: 426527
Countdown: 0
SampleSet: Drum
StackLeniency: 0.7
Mode: 0
LetterboxInBreaks: 0
WidescreenStoryboard: 1

[Editor]
DistanceSpacing: 0.9
BeatDivisor: 2
GridSize: 8
TimelineZoom: 3.359999

[Metadata]
Title:Roundabout
TitleUnicode:Roundabout
Artist:YES
ArtistUnicode:YES
Creator:IwanWenChoong
Version:Normal
Source:ジョジョの奇妙な冒険
Tags:1971 JoJo's Bizarre Adventure Ending Anime To be Continued jojo Fragile Rock Progressive Jon Anderson Steve Howe Rick Wakeman Bill Bruford Chris Squire meme old song full version Marathon english british Los Santos Rock Radio Grand Theft Auto V GTA 5
BeatmapID:2046314
BeatmapSetID:456802

[Difficulty]
HPDrainRate:3
CircleSize:3
OverallDifficulty:3
ApproachRate:5
SliderMultiplier:1.59999990463257
SliderTickRate:2

[Events]
//Background and Video events
0,0,"cover.jpg",0,0
//Break Periods
2,8370,9970
2,13121,15507
2,22988,27504
2,30206,32284
2,37454,39994
2,106521,118030
2,205866,218729
2,241340,254289
2,298590,300375
2,303539,305930
2,313415,317869
2,320620,322660
2,331431,334104
2,426727,435003
//Storyboard Layer 0 (Background)
//Storyboard Layer 1 (Fail)
//Storyboard Layer 2 (Pass)
//Storyboard Layer 3 (Foreground)
//Storyboard Layer 4 (Overlay)
//Storyboard Sound Samples

[TimingPoints]
0,447.761194029851,4,2,2,5,1,0
8059,444.444444444444,4,2,2,71,1,0
11170,437.956204379562,4,2,2,71,1,0
12922,473.186119873817,4,2,2,71,1,0
16707,441.891294741494,4,2,2,71,1,0
19800,448.095593726662,4,2,2,71,1,0
21872,458.015267175573,4,2,2,71,1,0
22788,493.015612161052,4,2,2,71,1,0
28704,434.467776973208,4,2,2,71,1,0
33484,491.803278688525,4,2,2,71,1,0
37254,492.610837438424,4,2,2,71,1,0
41194,545.454545454546,4,2,2,71,1,0
42284,448.296654275093,4,2,2,71,1,0
43180,461.538461538462,4,2,2,71,1,0
44103,433.526011560694,4,2,2,71,1,0
44754,437.956204379562,4,1,2,71,1,0
45000,437.956204379562,4,1,1,71,1,0
46751,430.941607412196,4,1,1,71,1,0
48475,437.956204379562,4,1,1,71,1,0
50226,431.468430893139,4,1,1,71,1,0
51951,446.727719454992,4,1,1,71,1,0
53740,433.996383363472,4,1,1,71,1,0
57214,436.270032286469,4,1,1,71,1,0
58959,460.829493087558,4,1,2,71,1,0
59189,-100,4,1,1,71,0,0
59880,442.444444444444,4,1,1,71,1,0
61649,440.787540405525,4,1,1,71,1,0
63412,445.930880713489,4,1,1,71,1,0
68541,444.444444444444,4,1,2,71,1,0
68763,444.444444444444,4,1,1,71,1,0
71429,464.108910891089,4,1,1,71,1,0
72359,484.652665589661,4,2,2,71,1,0
75267,456.725279744234,4,1,2,71,1,0
78977,447.360572621533,4,1,1,71,1,0
80767,434.562178605055,4,1,1,71,1,0
82287,445.136879590474,4,1,1,71,1,0
82509,445.136879590474,4,1,1,71,1,0
82509,-100,4,3,1,61,0,0
82620,-100,4,1,1,71,0,0
83399,443.360673908224,4,1,1,71,1,0
84286,442.02151171357,4,1,1,71,1,0
85833,-100,4,1,2,71,0,0
86081,445.43429844098,4,1,1,71,1,0
88308,-100,4,1,2,61,0,0
88391,-100,4,1,1,71,0,0
92317,-100,4,3,1,61,0,0
92428,-100,4,1,1,71,0,0
95657,-100,4,1,2,71,0,0
95880,444.938820912125,4,1,1,71,1,0
99440,480,4,2,2,71,1,0
100400,492.206726825267,4,2,2,71,1,0
102368,845.427645484007,4,2,2,71,1,0
103213,737.100737100737,4,2,2,71,1,0
103950,705.882352941176,4,2,2,71,1,0
105361,480,4,2,2,71,1,0
106321,471.031559114461,4,1,1,71,1,0
107263,457.003579861376,4,1,1,71,1,0
108177,464.001237336633,4,1,1,71,1,0
112817,454.235748353395,4,2,2,43,1,0
116451,462.962962962963,4,2,2,43,1,0
119230,460.440488066917,4,1,1,71,1,1
119230,-83.3333333333333,4,1,1,71,0,1
125676,463.105896881754,4,1,1,71,1,1
125676,-83.3333333333333,4,1,1,71,0,1
128454,-83.3333333333333,4,3,1,61,0,1
128686,-83.3333333333333,4,1,1,71,0,1
129380,454.545454545455,4,1,1,71,1,1
129380,-83.3333333333333,4,1,1,71,0,1
130970,483.014007406215,4,1,2,71,1,0
131211,-100,4,1,1,71,0,0
131936,458.400183360073,4,2,2,71,1,0
133770,453.514739229025,4,1,2,71,1,0
135773,456.273764258555,4,1,1,71,1,0
137598,421.940928270042,4,1,1,71,1,0
138441,445.16990651432,4,1,1,71,1,0
139331,440.27003228647,4,1,1,71,1,0
140651,459.664444955183,4,1,1,71,1,0
141111,425.954848786029,4,1,1,71,1,0
141323,-100,4,3,1,61,0,0
141430,-100,4,1,1,71,0,0
142601,-100,4,1,2,71,0,0
142868,445.997175351223,4,1,1,71,1,0
145543,418.03107364314,4,1,1,71,1,0
145543,-100,4,3,1,61,0,0
145766,-100,4,1,1,71,0,0
145961,475.134621476085,4,1,1,71,1,0
146436,235.941801022415,4,1,1,71,1,0
146907,227.876946448918,4,1,1,71,1,0
146907,-200,4,1,1,71,0,0
147818,237.492083597213,7,1,1,71,1,0
148530,247.790534401585,7,1,1,71,1,0
149274,233.009708737864,7,1,1,71,1,0
149973,257.510729613734,7,1,1,71,1,0
149973,-133.333333333333,7,1,1,71,0,0
150230,445.103857566766,4,1,2,71,1,0
150452,-100,4,1,1,71,0,0
151120,-100,4,3,1,61,0,0
151342,-100,4,1,1,71,0,0
152010,-100,4,3,1,61,0,0
152232,-100,4,1,1,71,0,0
153790,449.269936353426,4,1,1,71,1,0
156485,-100,4,3,1,61,0,0
156710,-100,4,1,1,71,0,0
157833,-100,4,1,2,61,0,0
157945,-100,4,1,1,71,0,0
159855,-100,4,1,2,71,0,0
160080,452.556946749133,4,1,1,71,1,0
163701,491.400491400491,4,2,2,71,1,0
166649,816.215480886954,4,2,2,71,1,0
167465,710.059171597633,4,2,2,71,1,0
168175,685.714285714286,4,2,2,71,1,0
169546,460.545454545455,4,2,2,71,1,0
170467,464.037122969838,4,1,1,71,1,1
174179,-100,4,3,1,61,0,1
174411,-100,4,1,1,71,0,1
176963,462.962962962963,4,1,1,71,1,1
179740,-100,4,3,1,61,0,1
179972,-100,4,1,1,71,0,1
180319,-83.3333333333333,4,1,1,71,0,1
180666,-83.3333333333333,4,3,1,61,0,1
180898,-83.3333333333333,4,1,1,71,0,1
182518,451.127819548872,4,1,1,71,1,1
182518,-83.3333333333333,4,1,1,71,0,1
182969,475.134621476085,4,1,1,71,1,1
182969,-83.3333333333333,4,1,1,71,0,1
183444,459.382895643519,4,1,1,71,1,1
187119,-76.9230769230769,4,1,1,71,0,1
188956,477.288998488585,4,1,1,71,1,1
188956,-76.9230769230769,4,1,1,71,0,1
189910,454.063871651279,4,1,1,71,1,1
191726,462.42774566474,4,1,1,71,1,1
193576,460.29919447641,4,1,1,71,1,1
195188,471.623958497092,4,1,2,71,1,1
195659,-100,4,1,1,71,0,1
196132,460.830591605033,4,2,2,71,1,0
197976,553.250345781466,4,1,2,71,1,0
201295,-100,4,2,4,5,0,0
201849,241.954996370675,3,2,2,71,1,0
202332,226.860254083484,3,1,1,71,1,0
202785,254.798709019874,3,2,2,71,1,0
203295,247.167868177137,3,1,1,71,1,0
204779,221.81146025878,3,1,1,51,1,0
205444,222.469410456062,3,1,1,51,1,0
205444,-133.333333333333,3,1,1,51,0,0
205666,458.330150485066,4,1,2,71,1,0
207499,439.335139488907,4,1,1,71,1,0
209257,453.754821144975,4,1,1,71,1,0
211070,439.721509710516,4,1,1,71,1,0
211949,419.58041958042,4,1,1,71,1,0
212368,461.538461538462,4,1,1,71,1,0
212829,441.988950276243,4,1,1,71,1,0
214596,443.458980044346,4,1,1,71,1,0
216369,445.103857566766,4,1,1,71,1,0
221709,438.436244062843,4,1,1,71,1,0
223462,438.020148926851,4,1,1,71,1,0
226091,408.163265306122,4,1,1,71,1,0
226499,446.528242911364,4,1,1,71,1,0
226945,441.533593347561,4,1,2,71,1,0
227276,-100,4,1,1,71,0,0
230477,444.80687967974,4,1,1,71,1,0
232256,431.996544027649,4,1,1,71,1,0
233119,457.526307762697,4,1,1,71,1,0
234035,444.115470022206,4,1,1,71,1,0
241140,445.136879590474,4,1,1,71,1,0
244701,453.309156844968,4,1,1,71,1,0
248327,447.627017484625,4,1,1,71,1,0
255489,449.775112443778,4,1,1,71,1,0
259088,454.270139309509,4,1,1,71,1,0
262722,449.068183519198,4,1,1,71,1,0
266316,464.32440798638,4,1,1,71,1,0
268173,418.848167539267,4,1,1,71,1,0
269455,419.58041958042,4,1,1,71,1,0
269875,447.928331466965,4,1,2,71,1,0
269986,-100,4,1,1,71,0,0
277042,451.739195904231,4,1,1,71,1,0
277945,-133.333333333333,4,1,1,71,0,0
280655,447.761194029851,4,1,1,71,1,0
281550,-133.333333333333,4,1,1,71,0,0
282669,-100,4,1,1,71,0,0
284237,450.45045045045,4,1,2,71,1,0
284462,-100,4,1,1,71,0,0
286038,447.761194029851,4,1,1,71,1,0
287829,450.653447498873,4,1,1,71,1,0
290983,413.736036408771,4,1,2,71,1,0
292637,391.236036408771,4,2,2,71,1,0
293810,437.31778425656,4,2,2,71,1,0
295121,510.33426894616,4,2,2,71,1,0
295630,418.322526668061,4,2,2,71,1,0
296257,390.32006245121,4,2,2,71,1,0
296647,508.216161273928,4,2,2,71,1,0
297155,338.028169014084,4,2,2,71,1,0
297831,253.796370711899,4,2,2,7,1,0
298085,305.701329800785,4,2,2,7,1,0
298390,455.027819548872,4,2,2,37,1,0
298845,350.405886818899,4,2,2,7,1,0
299545,332.06043499917,4,2,2,7,1,0
300209,352.941176470588,4,2,2,7,1,0
300562,301.507537688442,4,2,2,7,1,0
300863,325.55615843733,4,2,2,7,1,0
301575,429.184549356223,4,2,2,37,1,0
302647,415.512465373961,4,2,2,37,1,0
303339,473.9336492891,4,2,2,37,1,0
303575,393.366311272916,4,2,2,7,1,0
303969,333.333333333333,4,2,2,7,1,0
304302,330.487473180393,4,2,2,7,1,0
304963,340.078651685393,4,2,2,7,1,0
307130,551.825623103099,4,2,2,37,1,0
307681,482.81966685443,4,2,2,7,1,0
308164,518.627366237359,4,2,2,37,1,0
308390,323.066982554383,4,2,2,7,1,0
309037,343.977526801582,4,2,2,7,1,0
309724,481.772924361651,4,2,2,7,1,0
310206,450.34902049088,4,2,2,37,1,0
312288,434.782608695652,4,2,2,37,1,0
312722,492.97510475721,4,2,2,37,1,0
313217,319.233838786911,4,2,2,37,1,0
314175,334.690690020639,4,2,2,7,1,0
314844,344.708721130645,4,2,2,7,1,0
315533,333.704115684093,4,2,2,7,1,0
316200,343.308348114665,4,2,2,7,1,0
316887,332.704890761894,4,2,2,7,1,0
317552,332.704890761894,4,2,2,7,1,0
319069,450.721153846154,4,2,2,37,1,0
320421,474.420811259587,4,2,2,37,1,0
321370,340.155337604173,4,2,2,7,1,0
322050,340.155337604173,4,2,2,7,1,0
322730,328.748936170212,4,2,2,7,1,0
323387,472.664250827162,4,2,2,7,1,0
323860,333.333333333333,4,2,2,37,1,0
323860,-166.666666666667,4,2,2,37,0,0
324610,334.484596702032,4,2,2,37,1,0
325028,482.625482625483,4,2,2,37,1,0
325843,377.358490566038,4,2,2,37,1,0
326220,446.827524575514,4,2,2,7,1,0
326667,345.164816199735,4,2,2,7,1,0
327357,281.00412139378,4,2,2,7,1,0
327638,488.20179007323,4,2,2,37,1,0
328615,321.888412017167,4,2,2,37,1,0
329581,471.698113207547,4,2,2,37,1,0
331231,404.176490400809,4,2,2,37,1,0
331635,461.71604463255,4,2,2,7,1,0
332327,482.780817508851,4,2,2,7,1,0
335304,509.078567792296,4,2,2,7,1,0
335304,-200,4,2,2,20,0,0
337340,441.176470588235,4,2,2,20,1,0
337340,-200,4,2,2,20,0,0
339104,475.098754669988,4,2,2,20,1,0
339104,-200,4,2,2,20,0,0
341004,769.230769230769,4,1,1,20,1,0
341772,638.297872340426,4,1,1,20,1,0
342410,727.625515401407,4,1,1,20,1,0
343137,659.340659340659,4,1,1,20,1,0
343796,1023.71608940454,4,1,1,20,1,0
344819,474.308300395257,4,2,2,37,1,0
346716,695.974944901984,4,2,2,37,1,0
347412,483.870967741935,4,1,1,71,1,0
351282,459.418070444105,4,1,1,71,1,0
353120,452.147701582517,4,1,1,71,1,0
354024,-100,4,3,1,61,0,0
354250,-100,4,1,1,71,0,0
354929,450.281425891182,4,1,1,71,1,0
356730,-100,4,3,1,61,0,0
356955,-100,4,1,1,71,0,0
359432,458.891013384322,4,1,1,71,1,0
360349,-100,4,3,1,61,0,0
360579,-100,4,1,1,71,0,0
361267,454.545454545455,4,1,1,71,1,0
362631,-100,4,1,2,71,0,0
362858,-100,4,1,1,71,0,0
363085,-100,4,1,2,61,0,0
363199,-100,4,1,1,71,0,0
363994,453.446191051995,4,1,1,71,1,0
366714,-100,4,3,1,61,0,0
366941,-100,4,1,1,71,0,0
367621,452.864367122047,4,1,2,71,1,0
368073,-100,4,1,1,71,0,0
369206,-142.857142857143,4,1,1,71,0,0
369658,-100,4,3,1,61,0,0
369885,-100,4,1,2,61,0,0
370111,-100,4,1,1,71,0,0
370338,457.805786851012,4,1,1,71,1,0
372169,435.888122048674,4,1,1,71,1,0
372604,453.514739229025,4,1,1,71,1,0
373057,-100,4,3,1,61,0,0
373284,-100,4,1,1,71,0,0
373965,450.112528132033,4,1,1,71,1,0
375540,-125,4,1,1,71,0,0
375990,-125,4,3,1,61,0,0
376215,-125,4,1,2,61,0,0
376440,-125,4,1,1,71,0,0
376666,218.978102189781,4,1,1,71,1,0
376666,-200,4,1,1,71,0,0
377541,-200,4,3,1,61,0,0
377651,-200,4,1,1,71,0,0
379293,-200,4,3,1,61,0,0
379403,-200,4,1,1,71,0,0
380169,220.685596586729,4,1,1,71,1,0
380169,-200,4,1,1,71,0,0
381051,-200,4,3,1,61,0,0
381162,-200,4,1,1,71,0,0
383700,442.543147956926,4,1,1,71,1,0
389011,434.341971912553,4,1,1,71,1,0
390748,461.538461538462,4,1,2,71,1,0
390978,-100,4,1,1,71,0,0
391671,454.545454545455,4,1,1,71,1,0
397125,453.206435531385,4,1,1,71,1,0
399844,-100,4,3,1,61,0,0
400070,-100,4,1,1,71,0,0
402336,-125,4,1,1,71,0,0
402563,-125,4,3,1,61,0,0
402790,-125,4,1,1,71,0,0
403016,-125,4,1,2,61,0,0
403243,-125,4,1,1,71,0,0
403470,227.980849608633,4,1,1,71,1,0
403470,-200,4,1,1,71,0,0
404381,-200,4,3,1,61,0,0
404495,-200,4,1,1,71,0,0
405293,220.426157237325,4,1,1,71,1,0
405293,-200,4,1,1,71,0,0
406174,-200,4,3,1,61,0,0
406284,-200,4,1,2,61,0,0
406395,-200,4,1,1,71,0,0
406615,234.192037470726,4,1,1,71,1,0
406615,-200,4,1,1,71,0,0
407083,221.206311753429,4,1,1,71,1,1
407083,-200,4,1,1,71,0,1
407967,-100,4,3,1,61,0,1
408078,-200,4,1,1,71,0,1
409405,-200,4,1,2,61,0,1
409516,-200,4,1,1,71,0,1
410401,-200,4,3,1,61,0,1
410511,-200,4,1,1,71,0,1
410622,466.926070038911,4,1,2,71,1,0
411088,-100,4,1,1,71,0,0
411556,452.318130418394,4,1,2,71,1,0
412008,-100,4,1,1,71,0,0
412461,439.979467624844,4,1,1,71,1,0
412461,-83.3333333333333,4,1,1,71,0,0
417300,463.965357253325,4,1,1,71,1,0
417300,-83.3333333333333,4,1,1,71,0,0
417764,454.029511918275,4,1,2,71,1,0
418218,-100,4,1,1,71,0,0
419353,-100,4,1,2,71,0,0
419596,443.786982248521,4,1,1,71,1,0
421149,-100,4,1,2,71,0,0
421371,453.857791225416,4,1,1,71,1,0
422732,-100,4,3,1,61,0,0
422959,475.812846946868,4,1,2,71,1,0
423077,-100,4,1,1,5,0,0
426527,-100,4,1,2,71,0,0
426765,438.660622898085,4,1,1,71,1,0
432029,439.270810454645,4,1,1,71,1,0
436202,-100,4,1,2,71,0,0
436422,439.206500256204,4,1,1,71,1,0
439936,477.707006369427,4,2,2,71,1,0
442802,464.900046490005,4,2,2,71,1,0
442802,-125,4,2,2,71,0,0
446521,456.273764258555,4,1,1,71,1,1
450171,-100,4,3,1,61,0,1
450399,-100,4,1,1,71,0,1
451996,475.812846946868,4,1,1,71,1,1
452947,450.315220654458,4,1,1,71,1,1
456549,457.142857142857,4,1,2,71,1,1
456777,-100,4,1,1,71,0,1
458834,-100,4,1,2,61,0,1
458949,-100,4,1,1,71,0,1
459292,451.569202980357,4,1,1,71,1,1
461098,446.927374301676,4,1,1,71,1,1
461992,458.015267175573,4,1,1,71,1,1
465657,451.127819548873,4,1,1,71,1,1
465657,-83.3333333333333,4,1,1,71,0,1
467461,438.116100766703,4,1,1,71,1,1
467461,-83.3333333333333,4,1,1,71,0,1
468337,460.829493087558,4,1,1,71,1,1
468337,-83.3333333333333,4,1,1,71,0,1
469258,444.609114486847,4,1,1,71,1,1
469258,-83.3333333333333,4,1,1,71,0,1
470815,462.214005084354,4,1,2,71,1,0
471277,-100,4,1,1,71,0,0
471739,443.458980044346,4,2,2,71,1,0
473734,460.475825019186,4,2,2,71,1,0
477187,471.142520612485,4,2,2,71,1,0
477422,471.142520612485,7,2,2,71,1,0
487315,472.44094488189,7,2,2,71,1,0
490622,467.836257309942,7,2,2,71,1,0
497171,470.035252643948,7,2,2,71,1,0
501872,485.122897800776,4,1,2,71,1,0
501993,-100,4,2,2,71,0,0
503327,443.458980044346,4,2,2,71,1,0
504213,464.396284829721,4,2,2,71,1,0
506070,461.538461538462,4,2,2,41,1,0
509762,-100,4,2,4,5,0,0

[Colours]
Combo1 : 155,0,0
Combo2 : 20,41,129
Combo3 : 84,135,32
Combo4 : 28,104,192
Combo5 : 255,0,0

[HitObjects]
256,192,8059,6,0,L|304:192,1,39.9999976158142
242,259,11170,5,0,0:0:0:0:
264,176,11580,2,0,L|264:96,1,79.9999952316285
199,49,12237,2,0,P|110:65|56:208,1,249.999985098839
362,257,16707,53,0,0:0:0:0:
256,192,17756,2,0,L|192:192,1,59.9999964237214
253,132,19800,5,0,0:0:0:0:
296,208,20164,2,0,L|296:280,1,69.9999958276749
240,344,20696,1,0,0:0:0:0:
248,88,21872,6,0,L|308:88,1,59.9999964237214
307,182,22329,2,0,L|245:182,1,59.9999964237214
155,182,22788,1,0,0:0:0:0:
256,192,28704,37,0,0:0:0:0:
256,192,29862,2,0,L|256:138,1,53.333330154419
200,64,33484,5,0,0:0:0:0:
304,64,33914,2,0,L|304:128,1,59.9999964237214
182,197,34652,2,0,P|252:305|363:273,1,259.999984502793
425,266,37254,5,0,0:0:0:0:
484,42,41194,53,2,0:0:0:0:
368,40,41637,2,0,L|296:40,1,69.9999958276749
208,40,42284,6,0,P|168:40|141:162,1,159.999990463257,2|0,0:0|0:0,0:0:0:0:
160,240,43180,38,0,P|208:277|248:264,1,79.9999952316285,2|0,0:0|0:0,0:0:0:0:
264,264,43642,2,0,P|296:232|336:232,1,79.9999952316285,2|0,0:0|0:0,0:0:0:0:
376,232,44103,21,2,0:0:0:0:
376,232,44319,2,0,L|456:232,2,79.9999952316285,2|2|14,0:0|0:0|0:0,0:0:0:0:
207,340,45437,53,8,0:0:0:0:
112,160,45875,2,0,P|125:90|204:45,1,159.999990463257,10|8,3:0|0:0,0:0:0:0:
476,45,46751,6,0,P|476:133|412:165,1,159.999990463257,2|10,0:0|0:0,0:0:0:0:
376,168,47397,2,0,L|296:168,1,79.9999952316285,2|8,0:1|3:0,0:0:0:0:
248,240,48043,2,0,L|168:240,2,79.9999952316285,8|2|8,0:0|0:0|3:0,0:0:0:0:
304,240,48693,38,0,L|384:240,2,79.9999952316285,2|10|0,0:0|0:0|0:0,0:0:0:0:
272,288,49350,2,0,P|192:336|136:304,1,159.999990463257,10|8,3:0|0:0,0:0:0:0:
112,272,50007,2,0,L|112:184,1,79.9999952316285,2|8,0:0|3:0,0:0:0:0:
120,128,50441,6,0,L|195:83,1,79.9999952316285,0|8,0:0|0:0,0:0:0:0:
240,72,50873,1,0,0:0:0:0:
240,72,51088,2,0,L|336:72,1,79.9999952316285,12|4,3:0|0:0,0:0:0:0:
368,72,51520,2,0,L|453:72,2,79.9999952316285,8|2|8,0:0|0:0|3:0,0:0:0:0:
336,128,52174,6,0,L|279:195,1,79.9999952316285,0|10,0:0|0:0,0:0:0:0:
232,208,52621,1,0,0:0:0:0:
232,208,52844,2,0,L|144:208,2,79.9999952316285,10|0|10,3:0|0:0|0:0,0:0:0:0:
264,256,53514,2,0,L|360:256,1,79.9999952316285,0|10,0:0|3:0,0:0:0:0:
408,240,53956,37,0,0:0:0:0:
408,240,54173,2,0,L|464:184,1,79.9999952316285,10|2,0:0|0:0,0:0:0:0:
472,112,54607,2,0,P|448:64|344:48,1,159.999990463257,8|8,3:0|0:0,0:0:0:0:
288,48,55258,2,0,L|200:48,1,79.9999952316285,2|8,0:0|3:0,0:0:0:0:
144,48,55692,6,0,L|64:48,2,79.9999952316285,2|10|0,0:0|0:0|0:0,0:0:0:0:
184,112,56343,2,0,L|184:280,1,159.999990463257,10|10,3:0|0:0,0:0:0:0:
200,344,56994,2,0,L|296:344,1,79.9999952316285,2|8,0:0|3:0,0:0:0:0:
416,240,57650,53,8,0:0:0:0:
416,72,58086,2,0,L|496:72,2,79.9999952316285,12|4|12,3:0|0:0|0:0,0:0:0:0:
344,72,58740,2,0,L|264:72,1,79.9999952316285,4|14,0:0|0:0,0:0:0:0:
208,80,59189,21,2,0:0:0:0:
208,80,59419,1,10,0:0:0:0:
208,80,59650,1,2,0:0:0:0:
208,80,59880,2,0,P|168:152|199:223,2,159.999990463257,10|8|8,3:0|0:0|3:0,0:0:0:0:
264,128,60986,1,2,0:0:0:0:
264,128,61207,2,0,L|347:128,1,79.9999952316285,8|2,0:0|0:0,0:0:0:0:
408,136,61649,38,0,P|417:213|356:260,1,159.999990463257,8|8,3:0|0:0,0:0:0:0:
304,264,62310,2,0,L|224:264,1,79.9999952316285,0|8,0:0|3:0,0:0:0:0:
176,256,62750,1,2,0:0:0:0:
176,256,62971,1,10,0:0:0:0:
176,256,63191,1,2,0:0:0:0:
176,256,63412,6,0,P|128:184|152:120,2,159.999990463257,10|8|8,3:0|0:0|3:0,0:0:0:0:
224,264,64526,2,0,L|304:264,1,79.9999952316285,2|8,0:0|0:0,0:0:0:0:
344,264,64972,2,0,P|432:304|464:264,1,159.999990463257,2|10,0:0|3:0,0:0:0:0:
488,224,65641,1,10,0:0:0:0:
336,88,66087,5,8,3:0:0:0:
336,88,66310,2,0,L|336:168,1,79.9999952316285,2|10,0:0|0:0,0:0:0:0:
336,224,66756,1,2,0:0:0:0:
336,224,66979,2,0,P|332:268|236:308,2,159.999990463257,10|8|8,3:0|0:0|3:0,0:0:0:0:
336,168,68094,2,0,L|416:144,2,79.9999952316285,2|8|14,0:0|0:0|0:0,0:0:0:0:
184,32,69207,38,0,P|104:40|48:96,1,159.999990463257,10|10,0:0|3:0,0:0:0:0:
80,208,70096,2,0,P|136:200|232:128,1,159.999990463257,10|10,0:0|3:0,0:0:0:0:
304,80,70985,2,0,L|392:80,1,79.9999952316285,10|2,0:0|0:0,0:0:0:0:
440,80,71429,1,8,0:0:0:0:
440,80,71661,2,0,P|440:160|360:208,1,159.999990463257,10|10,0:0|3:0,0:0:0:0:
320,216,72358,5,14,1:0:0:0:
320,216,72601,2,0,L|238:216,1,79.9999952316285
168,192,73085,2,0,P|155:138|170:118,1,79.9999952316285,2|14,0:0|1:0,0:0:0:0:
200,88,73570,6,0,P|249:69|279:75,1,79.9999952316285,2|2,0:0|0:0,0:0:0:0:
320,88,74055,2,0,P|365:108|381:143,1,79.9999952316285,2|14,0:0|1:0,0:0:0:0:
384,184,74539,38,0,P|370:220|386:257,1,79.9999952316285,2|2,0:0|0:0,0:0:0:0:
424,288,75024,2,0,P|451:343|442:377,1,79.9999952316285,2|14,0:0|0:0,0:0:0:0:
256,192,75381,12,14,78692,0:0:0:0:
160,72,79200,6,0,L|160:160,1,79.9999952316285,0|10,0:0|0:0,0:0:0:0:
304,152,79871,2,0,L|384:152,1,79.9999952316285,10|0,3:0|0:0,0:0:0:0:
456,168,80319,2,0,L|456:256,1,79.9999952316285,10|0,0:0|0:0,0:0:0:0:
432,320,80767,6,0,P|368:360|280:344,1,159.999990463257,10|10,3:0|0:0,0:0:0:0:
232,304,81418,2,0,L|136:304,1,79.9999952316285,2|8,0:0|3:0,0:0:0:0:
88,272,81852,2,0,L|88:176,1,79.9999952316285,0|8,0:0|0:0,0:0:0:0:
152,160,82287,38,4,L|328:144,1,159.999990463257
368,144,82954,2,0,L|448:144,1,79.9999952316285,12|4,0:0|0:0,0:0:0:0:
496,144,83399,2,0,L|496:48,2,79.9999952316285,12|4|12,3:0|0:0|0:0,0:0:0:0:
400,272,84286,6,0,P|322:289|250:242,1,159.999990463257,10|10,3:0|0:0,0:0:0:0:
168,48,85170,2,0,L|80:48,2,79.9999952316285,10|10|10,0:0|0:0|3:0,0:0:0:0:
168,48,85833,1,14,0:0:0:0:
280,96,86303,6,0,L|280:184,1,79.9999952316285,2|10,0:0|0:0,0:0:0:0:
280,232,86749,1,0,0:0:0:0:
280,232,86971,2,0,P|232:256|136:224,2,159.999990463257,10|8|8,3:0|0:0|3:0,0:0:0:0:
328,200,88085,2,0,P|376:160|368:64,1,159.999990463257,2|2,0:0|0:0,0:0:0:0:
320,56,88753,2,0,L|232:56,1,79.9999952316285,8|2,3:0|0:0,0:0:0:0:
184,64,89199,2,0,P|120:88|128:176,1,159.999990463257,8|8,0:0|3:0,0:0:0:0:
160,208,89867,37,2,0:0:0:0:
200,248,90089,1,10,0:0:0:0:
248,280,90312,1,2,0:0:0:0:
296,304,90535,6,0,P|368:344|448:336,2,159.999990463257,10|8|8,3:0|0:0|3:0,0:0:0:0:
312,248,91648,2,0,P|336:232|344:152,1,79.9999952316285,2|8,0:0|0:0,0:0:0:0:
352,128,92094,2,0,P|336:80|232:56,1,159.999990463257,2|2,0:0|0:0,0:0:0:0:
184,64,92762,1,10,0:0:0:0:
176,176,93207,6,0,L|176:256,1,79.9999952316285,8|2,3:0|0:0,0:0:0:0:
176,304,93653,2,0,L|256:328,1,79.9999952316285,10|2,0:0|0:0,0:0:0:0:
296,336,94098,2,0,P|360:320|400:224,1,159.999990463257,10|8,3:0|0:0,0:0:0:0:
400,192,94766,2,0,L|400:112,1,79.9999952316285,0|8,0:0|3:0,0:0:0:0:
400,64,95212,2,0,L|488:64,2,79.9999952316285,2|8|14,0:0|0:0|0:0,0:0:0:0:
72,240,96324,38,0,P|96:184|184:208,1,159.999990463257,10|10,0:0|3:0,0:0:0:0:
272,288,97214,2,0,P|344:328|400:280,1,159.999990463257,10|10,0:0|3:0,0:0:0:0:
400,176,98104,2,0,L|400:96,1,79.9999952316285,10|2,0:0|0:0,0:0:0:0:
368,48,98549,1,8,0:0:0:0:
368,48,98772,2,8,L|272:48,2,79.9999952316285,10|10|10,0:0|0:0|3:0,0:0:0:0:
352,120,99439,5,14,1:0:0:0:
352,120,99680,2,0,L|320:200,1,79.9999952316285,2|2,0:0|0:0,0:0:0:0:
280,224,100160,2,0,L|200:224,1,79.9999952316285,2|14,0:0|1:0,0:0:0:0:
152,224,100646,6,0,L|64:224,1,79.9999952316285,2|2,0:0|0:0,0:0:0:0:
40,184,101138,2,0,L|40:104,1,79.9999952316285,2|14,0:0|1:0,0:0:0:0:
64,64,101630,38,0,B|160:64,1,79.9999952316285,2|2,0:0|0:0,0:0:0:0:
192,64,102122,2,0,L|272:48,1,79.9999952316285,2|14,0:0|1:0,0:0:0:0:
256,192,102473,12,10,106321,3:0:0:0:
320,56,119230,6,0,L|120:55,2,191.999982696534,10|8|8,0:0|0:0|0:0,0:0:0:0:
496,56,120611,2,0,P|488:112|376:176,1,191.999982696534,8|0,3:0|0:0,0:0:0:0:
216,104,121531,2,0,P|120:120|83:209,1,191.999982696534,8|8,0:0|0:0,0:0:0:0:
184,328,122453,2,0,L|280:328,1,95.9999913482669,8|2,3:0|0:0,0:0:0:0:
320,320,122913,6,0,P|344:272|332:225,1,95.9999913482669,10|2,0:0|0:0,0:0:0:0:
304,192,123373,2,0,P|280:152|297:104,1,95.9999913482669,10|2,0:0|0:0,0:0:0:0:
320,64,123833,2,0,P|374:45|424:56,1,95.9999913482669,10|2,0:0|0:0,0:0:0:0:
448,80,124294,2,0,P|448:144|476:171,1,95.9999913482669,10|2,3:0|0:0,0:0:0:0:
480,216,124755,38,0,P|488:272|452:298,1,95.9999913482669,10|2,3:0|0:0,0:0:0:0:
416,312,125215,2,0,P|344:320|320:296,1,95.9999913482669,10|2,0:0|0:0,0:0:0:0:
296,272,125676,6,0,P|232:232|136:280,1,191.999982696534,10|8,0:0|0:0,0:0:0:0:
56,216,126602,2,0,P|16:112|56:48,1,191.999982696534,8|8,0:0|3:0,0:0:0:0:
152,48,127528,2,0,P|256:80|336:48,1,191.999982696534,8|8,3:0|0:0,0:0:0:0:
368,32,128223,2,0,P|440:112|384:296,1,287.999974044801,0|8,0:0|0:0,0:0:0:0:
360,304,129149,1,2,0:0:0:0:
360,304,129380,6,0,P|312:336|272:328,1,95.9999913482669,10|2,0:0|0:0,0:0:0:0:
240,304,129834,2,0,P|208:280|160:312,1,95.9999913482669,10|2,3:0|0:0,0:0:0:0:
128,336,130289,2,0,P|104:352|56:296,1,95.9999913482669,10|2,3:0|0:0,0:0:0:0:
40,280,130743,1,10,0:0:0:0:
40,280,130970,38,0,P|48:192|128:152,1,159.999990463257,14|2,0:0|0:0,0:0:0:0:
312,152,131936,6,0,L|472:152,2,159.999990463257,14|2|2,1:0|0:0|0:0,0:0:0:0:
176,152,133311,2,0,P|96:152|32:216,1,159.999990463257,2|14,0:0|0:0,0:0:0:0:
256,192,133883,12,14,135584,0:0:0:0:
208,48,136229,6,0,P|136:40|40:88,1,159.999990463257,10|10,0:0|3:0,0:0:0:0:
24,176,137141,1,10,0:0:0:0:
80,280,137598,38,0,P|176:272|240:224,1,159.999990463257,10|10,3:0|0:0,0:0:0:0:
264,200,138230,1,2,0:0:0:0:
264,200,138441,2,0,P|336:160|408:184,1,159.999990463257,8|8,3:0|0:0,0:0:0:0:
448,216,139108,1,4,0:0:0:0:
448,216,139331,6,0,P|448:264|424:288,1,79.9999952316285,8|4,3:0|0:0,0:0:0:0:
376,304,139771,2,0,L|288:304,1,79.9999952316285,12|4,0:0|0:0,0:0:0:0:
248,304,140211,2,0,L|141:304,2,79.9999952316285,12|4|12,3:0|0:0|0:0,0:0:0:0:
280,264,140880,1,0,0:0:0:0:
280,264,141111,6,0,P|320:216|296:104,1,159.999990463257,2|10,0:0|0:0,0:0:0:0:
192,48,141962,2,0,L|112:48,2,79.9999952316285,10|10|10,0:0|3:0|3:0,0:0:0:0:
192,48,142601,1,14,0:0:0:0:
112,352,143313,54,0,P|69:270|123:212,1,159.999990463257,10|10,0:0|3:0,0:0:0:0:
192,160,144205,2,0,P|256:208|328:176,1,159.999990463257,10|10,0:0|3:0,0:0:0:0:
400,96,145097,1,10,0:0:0:0:
400,96,145320,2,0,P|416:224|375:313,1,229.999986290932,2|8,0:0|0:0,0:0:0:0:
272,352,146435,1,8,0:0:0:0:
116,247,146907,6,0,P|79:195|84:162,1,79.9999952316285,12|12,3:0|3:0,0:0:0:0:
288,40,147818,1,12,3:0:0:0:
336,264,148530,1,12,3:0:0:0:
112,184,149273,1,12,3:0:0:0:
376,120,149973,6,0,P|350:197|301:247,1,119.999997425079,12|14,3:0|0:0,0:0:0:0:
280,248,150452,22,0,L|184:248,1,79.9999952316285,2|8,0:0|0:0,0:0:0:0:
160,256,150897,2,0,P|72:272|40:213,1,159.999990463257,2|2,0:0|0:0,0:0:0:0:
32,184,151565,6,0,P|82:83|231:106,1,239.999985694885,10|2,0:0|0:0,0:0:0:0:
272,80,152455,1,8,0:0:0:0:
272,80,152678,2,0,P|328:56|349:33,2,79.9999952316285,2|10|0,0:0|3:0|0:0,0:0:0:0:
248,136,153345,2,0,P|191:203|127:180,1,159.999990463257,8|8,0:0|3:0,0:0:0:0:
80,176,154014,5,2,0:0:0:0:
80,176,154239,2,0,L|80:256,1,79.9999952316285,10|2,0:0|0:0,0:0:0:0:
96,296,154688,2,0,P|120:320|240:328,1,159.999990463257,10|8,3:0|0:0,0:0:0:0:
264,296,155362,1,0,0:0:0:0:
304,256,155587,38,0,L|414:256,1,79.9999952316285,8|2,3:0|0:0,0:0:0:0:
432,256,156036,1,8,0:0:0:0:
432,256,156260,2,0,P|480:208|416:104,1,159.999990463257,2|2,0:0|0:0,0:0:0:0:
424,88,156934,2,0,P|352:56|278:92,1,159.999990463257,10|8,0:0|3:0,0:0:0:0:
280,128,157608,6,0,P|308:200|272:272,1,159.999990463257,2|2,0:0|0:0,0:0:0:0:
232,296,158282,2,0,L|152:296,1,79.9999952316285,8|2,3:0|0:0,0:0:0:0:
104,288,158731,2,0,P|64:248|88:144,1,159.999990463257,10|8,0:0|3:0,0:0:0:0:
112,120,159405,2,0,L|112:40,2,79.9999952316285,2|10|14,0:0|0:0|0:0,0:0:0:0:
320,48,160532,6,0,P|296:128|216:152,1,159.999990463257,10|10,0:0|3:0,0:0:0:0:
216,200,161211,1,0,0:0:0:0:
216,200,161437,2,0,P|226:257|332:303,1,159.999990463257,10|10,0:0|3:0,0:0:0:0:
360,304,162116,1,0,0:0:0:0:
360,304,162342,2,0,L|448:304,2,79.9999952316285,10|2|8,0:0|0:0|3:0,0:0:0:0:
344,256,163021,2,0,P|376:192|304:128,1,159.999990463257,10|10,0:0|3:0,0:0:0:0:
272,120,163701,37,14,1:0:0:0:
272,120,163946,2,0,L|186:99,2,79.9999952316285,2|2|2,0:0|0:0|0:0,0:0:0:0:
264,176,164683,6,0,L|176:176,2,79.9999952316285,12|2|2,1:0|0:0|0:0,0:0:0:0:
272,240,165420,1,2,0:0:0:0:
272,240,165666,54,0,L|192:264,2,79.9999952316285,12|2|2,1:0|0:0|0:0,0:0:0:0:
304,296,166403,2,0,L|248:360,1,79.9999952316285,2|14,0:0|1:0,0:0:0:0:
256,192,166751,12,14,170467,0:0:0:0:
240,120,170931,22,0,P|160:80|96:136,1,159.999990463257,10|8,0:0|0:0,0:0:0:0:
101,224,171859,2,0,P|173:264|253:192,1,159.999990463257,8|8,3:0|3:0,0:0:0:0:
304,152,172787,2,0,P|332:122|392:120,1,79.9999952316285,8|0,0:0|0:0,0:0:0:0:
416,104,173251,38,0,L|496:104,2,79.9999952316285,10|2|10,0:0|0:0|3:0,0:0:0:0:
376,72,173947,2,0,P|320:32|224:48,1,159.999990463257,2|0,0:0|0:0,0:0:0:0:
192,48,174643,2,0,L|96:48,1,79.9999952316285,10|2,0:0|0:0,0:0:0:0:
64,56,175107,2,0,P|48:104|56:144,1,79.9999952316285,10|0,3:0|0:0,0:0:0:0:
64,176,175571,6,0,P|80:224|104:248,1,79.9999952316285,10|2,0:0|0:0,0:0:0:0:
144,256,176035,2,0,L|232:256,1,79.9999952316285,8|2,0:0|0:0,0:0:0:0:
264,256,176499,2,0,L|264:336,2,79.9999952316285,8|0|8,3:0|0:0|3:0,0:0:0:0:
224,208,177425,6,0,P|168:144|192:80,2,159.999990463257,8|8|8,0:0|0:0|0:3,0:0:0:0:
336,240,178814,2,0,P|403:236|441:153,1,159.999990463257,8|8,3:0|0:0,0:0:0:0:
432,112,179509,2,0,P|376:40|264:104,1,239.999985694885,0|8,0:0|0:0,0:0:0:0:
248,152,180435,38,0,P|192:208|80:192,1,191.999982696534,2|2,0:0|0:0,0:0:0:0:
48,168,181129,1,10,0:0:0:0:
48,168,181361,2,0,L|48:272,1,95.9999913482669,2|10,0:0|3:0,0:0:0:0:
48,312,181824,2,0,L|144:312,1,95.9999913482669,2|10,0:0|0:0,0:0:0:0:
192,320,182287,1,2,0:0:0:0:
192,320,182518,6,0,P|272:328|304:304,1,95.9999913482669,10|2,3:0|0:0,0:0:0:0:
328,304,182969,2,0,P|392:280|424:288,2,95.9999913482669,8|2|10,0:0|0:0|3:0,0:0:0:0:
280,224,183903,5,8,0:0:0:0:
216,136,184362,1,8,0:0:0:0:
152,232,184822,1,8,3:0:0:0:
232,296,185281,1,8,3:0:0:0:
344,304,185740,1,8,0:0:0:0:
344,304,185970,2,0,L|424:304,1,79.9999952316285,0|8,0:0|3:0,0:0:0:0:
424,248,186429,1,0,0:0:0:0:
424,248,186659,2,0,L|336:248,1,79.9999952316285,8|2,0:0|0:0,0:0:0:0:
288,248,187119,38,0,L|184:248,1,103.999989040375,8|2,3:0|0:0,0:0:0:0:
136,216,187578,2,0,L|136:112,1,103.999989040375,10|2,0:0|0:0,0:0:0:0:
144,56,188037,2,0,L|256:56,1,103.999989040375,10|2,3:0|0:0,0:0:0:0:
296,56,188497,2,0,L|400:56,1,103.999989040375,10|0,0:0|0:0,0:0:0:0:
448,80,188956,2,0,L|448:184,2,103.999989040375,2|2|10,3:0|0:0|0:0,0:0:0:0:
392,104,189671,2,0,L|288:104,1,103.999989040375,2|10,0:0|3:0,0:0:0:0:
360,192,190364,6,0,P|343:238|240:280,1,159.999990463257,8|8,0:0|0:0,0:0:0:0:
176,280,191045,1,2,0:0:0:0:
176,280,191272,2,0,L|88:280,1,79.9999952316285,8|2,3:0|0:0,0:0:0:0:
40,240,191726,54,0,P|16:192|22:162,1,79.9999952316285,8|2,3:0|0:0,0:0:0:0:
22,111,192188,2,0,P|54:100|88:64,1,79.9999952316285,8|0,0:0|0:0,0:0:0:0:
128,40,192650,2,8,P|176:24|208:32,1,79.9999952316285,8|8,3:0|3:0,3:0:0:0:
248,48,193113,2,0,P|285:45|340:15,2,79.9999952316285,8|2|8,0:0|0:0|3:0,0:0:0:0:
216,88,193806,22,0,L|216:168,1,79.9999952316285,2|10,0:0|0:0,0:0:0:0:
224,216,194266,2,0,P|272:232|315:216,1,79.9999952316285,2|10,0:0|3:0,0:0:0:0:
344,216,194726,2,0,P|392:200|440:224,2,79.9999952316285,2|10|14,0:0|0:0|0:0,0:0:0:0:
280,144,195659,38,0,L|191:144,2,79.9999952316285,10|8|14,3:0|0:0|1:0,0:0:0:0:
392,144,196592,6,0,P|390:89|304:32,1,159.999990463257,2|2,0:0|0:0,0:0:0:0:
208,32,197514,2,0,P|144:64|120:144,1,159.999990463257,2|14,0:0|0:0,0:0:0:0:
256,192,198252,12,0,201295,0:0:0:0:
264,280,202332,5,12,3:0:0:0:
488,80,203294,1,12,3:0:0:0:
264,24,204036,1,12,3:0:0:0:
32,104,204778,1,12,3:0:0:0:
56,248,205444,1,12,3:0:0:0:
56,248,205666,1,14,0:0:0:0:
88,104,219929,38,0,P|82:161|109:219,1,119.999992847443
176,272,220597,2,0,L|258:272,1,79.9999952316285
312,272,221042,1,2,0:0:0:0:
360,248,221265,1,2,0:0:0:0:
408,216,221487,1,2,0:0:0:0:
440,168,221709,6,0,P|464:96|432:56,2,119.999992847443,0|2|2,0:0|0:0|0:0,0:0:0:0:
288,192,222805,2,0,L|200:192,2,79.9999952316285,2|2|2,0:0|0:0|0:0,0:0:0:0:
344,147,223462,6,0,P|335:96|277:50,2,119.999992847443,2|0|2,0:0|0:0|0:0,0:0:0:0:
224,256,224557,2,0,L|96:256,2,119.999992847443,2|2|2,0:0|0:0|0:0,0:0:0:0:
281,201,225433,2,0,P|348:175|278:47,1,239.999985694885
152,32,226499,2,0,P|97:43|46:133,1,159.999990463257,0|14,0:0|0:0,0:0:0:0:
63,242,227277,38,0,P|95:314|135:338,1,119.999992847443
207,341,227828,2,0,L|296:351,3,79.9999952316285,0|2|2|2,0:0|0:0|0:0|0:0,0:0:0:0:
357,312,228711,2,0,P|376:262|367:188,2,119.999992847443,2|2|0,0:0|0:0|0:0,0:0:0:0:
203,268,229814,5,0,0:0:0:0:
203,268,230035,2,0,L|203:188,1,79.9999952316285,2|2,0:0|0:0,0:0:0:0:
194,108,230477,6,0,P|250:60|298:52,2,119.999992847443,2|2|2,0:0|0:0|0:0,0:0:0:0:
167,265,231589,2,0,L|47:257,2,119.999992847443,2|2|2,0:0|0:0|0:0,0:0:0:0:
246,273,232471,2,0,P|398:273|462:205,1,239.999985694885
463,56,233576,2,0,L|291:33,1,159.999990463257,0|14,0:0|0:0,0:0:0:0:
184,24,234368,38,0,P|128:72|112:128,1,119.999992847443
111,194,234923,1,0,0:0:0:0:
111,194,235145,2,0,L|31:194,2,79.9999952316285,2|2|2,0:0|0:0|0:0,0:0:0:0:
192,192,235811,6,0,L|312:192,2,119.999992847443,2|2|0,0:0|0:0|0:0,0:0:0:0:
192,32,236921,2,0,L|280:32,1,79.9999952316285,2|2,0:0|0:0,0:0:0:0:
312,96,237365,2,0,L|400:96,1,79.9999952316285,2|2,0:0|0:0,0:0:0:0:
456,216,237921,6,0,P|376:272|344:264,1,119.999992847443,2|2,0:0|0:0,0:0:0:0:
280,272,238476,1,0,0:0:0:0:
280,272,238698,2,0,P|216:272|152:304,2,119.999992847443,2|2|2,0:0|0:0|0:0,0:0:0:0:
256,192,239586,12,14,241140,0:0:0:0:
360,168,255489,38,0,L|488:168,2,119.999992847443
296,176,256388,5,0,0:0:0:0:
296,176,256613,2,0,L|208:216,1,79.9999952316285,2|2,0:0|0:0,0:0:0:0:
152,224,257063,1,2,0:0:0:0:
152,224,257288,6,0,P|96:160|104:128,2,119.999992847443,2|2|0,0:0|0:0|0:0,0:0:0:0:
192,152,258412,1,2,0:0:0:0:
192,152,258637,1,2,0:0:0:0:
192,152,258862,1,2,0:0:0:0:
192,152,259088,38,0,P|256:168|304:128,2,119.999992847443,2|2|2,0:0|0:0|0:0,0:0:0:0:
144,280,260223,2,0,P|72:288|24:264,2,119.999992847443,2|2|2,0:0|0:0|0:0,0:0:0:0:
256,216,261132,22,0,P|309:182|477:233,1,239.999985694885,4|4,0:0|0:0,0:0:0:0:
376,352,262267,1,4,0:0:0:0:
213,335,262722,54,0,P|156:322|138:254,2,119.999992847443,14|0|0,0:1|0:1|0:1,0:1:0:0:
240,296,263620,2,0,L|240:200,1,79.9999952316285,0|2,0:0|0:0,0:0:0:0:
248,168,264069,2,0,L|304:96,1,79.9999952316285,2|2,0:0|0:0,0:0:0:0:
336,80,264518,6,0,P|408:72|448:96,2,119.999992847443,2|2|2,0:0|0:0|0:0,0:0:0:0:
160,144,265640,2,0,L|160:248,2,79.9999952316285,2|2|2,0:0|0:0|0:0,0:0:0:0:
152,96,266316,38,0,P|88:72|60:21,2,119.999992847443,2|2|2,0:0|0:0|0:0,0:0:0:0:
256,208,267476,2,0,P|272:248|344:264,2,119.999992847443,2|2|2,0:0|0:0|0:0,0:0:0:0:
256,168,268382,22,0,B|354:197|385:50|451:50,1,239.999985694885,4|4,0:0|0:0,0:0:0:0:
480,200,269455,5,4,0:0:0:0:
364,334,269875,38,0,L|496:352,2,119.999992847443,14|0|0,0:0|0:0|0:0,0:0:0:0:
328,328,270770,2,0,L|240:328,1,79.9999952316285,0|2,0:0|0:0,0:0:0:0:
214,328,271218,2,0,L|118:328,2,79.9999952316285,2|2|2,0:0|0:0|0:0,0:0:0:0:
232,264,271890,6,0,P|320:216|352:168,1,159.999990463257,2|2,0:0|0:0,0:0:0:0:
392,40,272786,2,0,L|480:40,2,79.9999952316285,2|2|2,0:0|0:0|0:0,0:0:0:0:
328,40,273458,38,0,P|272:40|224:88,2,119.999992847443,2|2|2,0:0|0:0|0:0,0:0:0:0:
336,168,274578,2,0,P|343:237|385:278,2,119.999992847443,2|2|2,0:0|0:0|0:0,0:0:0:0:
328,104,275474,6,0,P|208:88|120:168,1,239.999985694885,4|4,0:1|0:1,0:1:0:0:
128,288,276594,2,0,P|184:352|248:336,1,159.999990463257,4|14,0:0|0:0,0:0:0:0:
280,312,277267,6,0,L|360:312,2,79.9999952316285,2|2|0,0:0|0:0|0:0,0:0:0:0:
248,280,277945,2,0,B|216:184|272:120|320:208|448:208|470:84,1,359.999992275238,2|2,0:0|0:0,0:0:0:0:
400,59,279526,38,0,L|336:59,1,59.9999987125397,2|2,0:0|0:0,0:0:0:0:
297,59,279978,2,0,L|201:59,2,89.9999980688095
309,113,280878,6,0,L|403:113,2,79.9999952316285,2|2|2,0:0|0:0|0:0,0:0:0:0:
267,118,281550,6,0,B|151:156|161:231|154:305|259:333,1,299.999993562698,2|2,0:0|0:0,0:0:0:0:
400,336,283117,2,0,P|448:280|448:184,1,159.999990463257,2|2,0:0|0:0,0:0:0:0:
432,128,283789,2,0,P|393:59|306:44,1,159.999990463257,2|14,0:0|0:0,0:0:0:0:
184,32,284462,38,0,L|96:32,1,79.9999952316285,2|2,0:0|0:0,0:0:0:0:
32,56,284912,1,2,0:0:0:0:
32,56,285137,2,0,B|5:149|48:176|128:160|128:160|176:280,1,319.999980926514,2|0,0:0|0:0,0:0:0:0:
392,288,286485,6,0,L|496:288,1,79.9999952316285,2|2,0:0|0:0,0:0:0:0:
472,208,286933,2,0,L|472:56,2,119.999992847443,2|0|0,0:0|0:0|0:0,0:0:0:0:
392,208,287829,6,0,L|312:208,1,79.9999952316285,0|2,0:0|0:0,0:0:0:0:
240,208,288279,2,0,L|160:208,1,79.9999952316285,2|2,0:0|0:0,0:0:0:0:
88,192,288730,38,0,P|112:96|320:64,1,319.999980926514,2|2,0:0|0:0,0:0:0:0:
368,96,289856,1,2,0:0:0:0:
280,232,290307,2,0,P|312:288|416:256,1,159.999990463257,2|2,0:0|0:0,0:0:0:0:
456,232,290982,1,14,0:0:0:0:
256,192,291086,12,2,298390,0:0:0:0:
176,88,301575,38,0,P|104:120|88:192,1,149.999991059303,2|2,0:0|0:0,0:0:0:0:
320,328,302647,2,0,P|408:288|448:128,1,266.666650772095,2|2,0:0|0:0,0:0:0:0:
96,72,307130,5,2,0:0:0:0:
232,192,308164,2,0,L|288:192,1,53.333330154419,0|2,0:0|0:0,0:0:0:0:
328,72,310206,54,0,P|240:48|192:56,1,133.333325386047,2|2,0:0|0:0,0:0:0:0:
32,128,311106,1,2,0:0:0:0:
400,200,312288,6,0,P|368:280|296:312,1,159.999990463257,2|2,0:0|0:0,0:0:0:0:
104,312,313215,1,2,0:0:0:0:
256,56,319069,53,2,0:0:0:0:
256,280,320270,2,0,L|256:336,1,53.333330154419,0|2,0:0|0:0,0:0:0:0:
88,80,323860,6,0,L|216:80,1,125.9999886446,2|2,0:0|0:0,0:0:0:0:
370,138,325028,2,0,P|346:218|180:276,1,269.999983906746,2|2,0:0|0:0,0:0:0:0:
304,56,327638,54,0,P|218:67|175:97,1,133.333325386047,2|2,0:0|0:0,0:0:0:0:
56,208,328614,1,2,0:0:0:0:
416,184,329581,5,2,0:0:0:0:
360,256,329875,2,0,L|288:256,1,69.9999958276749,2|2,0:0|0:0,0:0:0:0:
216,256,330318,2,0,L|128:256,1,79.9999952316285,2|2,0:0|0:0,0:0:0:0:
88,168,330878,2,0,P|88:104|128:64,1,119.999992847443,2|2,0:0|0:0,0:0:0:0:
488,88,335304,22,0,B|392:64|424:240|296:168,1,239.999985694885,2|0,0:0|0:0,0:0:0:0:
216,256,337340,2,0,P|160:320|56:240,1,239.999985694885,2|0,0:0|0:0,0:0:0:0:
48,152,339104,2,0,P|120:72|224:128,1,239.999985694885,2|0,0:0|0:0,0:0:0:0:
224,248,341004,5,2,0:0:0:0:
406,177,341772,2,0,P|454:241|414:305,1,159.999990463257
272,344,343137,2,0,P|216:328|160:248,1,159.999990463257
160,32,344819,38,0,L|248:32,1,79.9999952316285,2|2,0:0|0:0,0:0:0:0:
288,32,345293,2,0,L|368:56,1,79.9999952316285,2|2,0:0|0:0,0:0:0:0:
400,88,345767,2,0,L|400:168,1,79.9999952316285,2|2,0:0|0:0,0:0:0:0:
392,216,346241,2,0,L|312:216,1,79.9999952316285,2|2,0:0|0:0,0:0:0:0:
264,216,346716,6,0,B|200:216,1,59.9999964237214,0|2,0:0|0:0,0:0:0:0:
32,216,347411,1,6,0:0:0:0:
256,192,347532,12,14,351282,0:0:0:0:
272,192,351741,6,0,P|232:179|200:64,1,159.999990463257,10|10,0:0|0:0,0:0:0:0:
288,24,352660,2,0,P|368:72|376:136,1,159.999990463257,10|10,3:0|3:0,0:0:0:0:
376,224,353572,2,0,P|352:296|200:296,1,239.999985694885,10|0,0:0|0:0,0:0:0:0:
207,303,354476,1,8,0:0:0:0:
156,179,354928,38,0,P|119:134|28:155,1,159.999990463257,10|10,3:0|0:0,0:0:0:0:
8,252,355829,2,0,P|14:313|104:344,1,159.999990463257,10|10,0:0|3:0,0:0:0:0:
144,344,356504,2,0,B|301:371|208:272|360:272,1,239.999985694885,2|8,0:0|0:0,0:0:0:0:
400,272,357405,1,0,0:0:0:0:
400,272,357631,6,0,P|480:232|472:168,1,159.999990463257,10|10,3:0|0:0,0:0:0:0:
384,80,358531,2,0,P|336:80|216:24,1,159.999990463257,10|10,0:0|3:0,0:0:0:0:
128,88,359432,2,0,B|56:120|72:224,1,159.999990463257,2|10,0:0|0:0,0:0:0:0:
96,280,360120,2,0,P|128:328|288:304,1,239.999985694885,2|8,0:0|0:0,0:0:0:0:
344,200,361267,6,0,B|408:200|432:176|504:176,1,159.999990463257,10|10,3:0|0:0,0:0:0:0:
496,48,362176,2,0,B|424:48|400:72|336:72,1,159.999990463257,10|14,0:0|0:0,0:0:0:0:
312,136,362857,2,0,B|200:208|176:64|88:160,1,239.999985694885,2|10,0:0|0:0,0:0:0:0:
64,216,363767,1,2,0:0:0:0:
64,216,363994,38,0,P|72:296|144:328,1,159.999990463257,10|10,3:0|0:0,0:0:0:0:
280,328,364900,2,0,P|352:312|416:248,1,159.999990463257,10|10,0:0|3:0,0:0:0:0:
496,144,365807,2,0,P|424:104|352:120,1,159.999990463257,10|10,0:0|0:0,0:0:0:0:
296,168,366487,2,0,P|216:200|136:176,1,159.999990463257,2|10,0:0|0:0,0:0:0:0:
88,136,367168,1,10,0:0:0:0:
16,256,367621,5,12,0:0:0:0:
128,352,368073,1,10,0:0:0:0:
224,248,368526,1,10,3:0:0:0:
320,336,368979,1,10,0:0:0:0:
320,336,369206,2,0,P|488:304|499:215,1,279.999974765779
432,96,370795,5,10,0:0:0:0:
296,64,371253,1,10,0:0:0:0:
144,104,371711,38,0,P|117:145|155:241,1,159.999990463257,10|10,3:0|3:0,0:0:0:0:
248,288,372605,1,10,0:0:0:0:
248,288,372830,2,0,P|294:292|448:168,1,239.999985694885,2|8,0:0|0:0,0:0:0:0:
368,40,373965,6,0,B|288:88|282:16|210:48,1,159.999990463257,10|10,3:0|0:0,0:0:0:0:
56,72,374865,1,10,3:0:0:0:
32,232,375315,1,10,0:0:0:0:
32,232,375540,2,0,P|72:312|200:352,1,191.999988555908,0|8,0:0|0:0,0:0:0:0:
216,352,376440,2,0,L|216:248,1,63.9999961853028,0|8,0:0|3:0,0:0:0:0:
288,280,376884,6,0,L|384:280,1,79.9999952316285,2|10,0:0|0:0,0:0:0:0:
440,272,377322,2,0,P|448:176|408:72,1,159.999990463257,2|2,0:0|0:0,0:0:0:0:
408,48,377979,2,0,L|328:48,1,79.9999952316285,10|2,0:0|0:0,0:0:0:0:
256,48,378417,38,0,L|168:48,1,79.9999952316285,8|2,3:0|0:0,0:0:0:0:
112,64,378855,1,10,0:0:0:0:
112,64,379074,2,0,P|112:136|44:190,1,159.999990463257,2|2,0:0|0:0,0:0:0:0:
24,256,379731,2,0,L|24:341,1,79.9999952316285,10|2,0:0|0:0,0:0:0:0:
96,352,380169,6,0,L|176:352,1,79.9999952316285,8|2,3:0|0:0,0:0:0:0:
256,352,380610,1,10,0:0:0:0:
256,352,380831,2,0,P|304:312|336:216,1,159.999990463257,2|2,0:0|0:0,0:0:0:0:
344,152,381493,2,0,P|304:128|288:89,1,79.9999952316285,10|2,0:0|0:0,0:0:0:0:
240,40,381934,6,0,L|152:40,1,79.9999952316285,10|2,3:0|0:0,0:0:0:0:
88,64,382375,2,0,L|32:120,1,79.9999952316285,10|2,0:0|0:0,0:0:0:0:
24,192,382817,2,0,L|24:272,1,79.9999952316285,10|2,3:0|0:0,0:0:0:0:
48,344,383258,2,0,L|128:344,1,79.9999952316285,10|2,0:0|0:0,0:0:0:0:
127,344,383699,37,10,3:0:0:0:
192,208,384142,2,0,P|256:203|320:136,1,159.999990463257,8|10,0:0|3:0,0:0:0:0:
352,80,384806,1,2,0:0:0:0:
352,80,385027,2,0,P|415:49|475:103,1,159.999990463257,10|10,0:0|3:0,0:0:0:0:
432,280,385912,6,0,P|400:304|304:256,1,159.999990463257,10|10,0:0|3:0,0:0:0:0:
296,216,386576,1,0,0:0:0:0:
296,216,386797,1,10,0:0:0:0:
64,120,387240,6,0,P|95:100|216:96,1,159.999990463257,10|8,3:0|0:0,0:0:0:0:
360,168,388125,2,0,L|440:168,2,79.9999952316285,10|2|10,3:0|0:0|0:0,0:0:0:0:
216,96,389011,38,0,L|112:96,1,79.9999952316285,10|8,0:0|3:0,0:0:0:0:
72,128,389445,2,0,L|8:232,1,79.9999952316285,10|8,0:0|3:0,0:0:0:0:
32,272,389879,2,0,L|120:344,1,79.9999952316285,10|8,0:0|3:0,0:0:0:0:
168,344,390314,2,0,L|256:344,2,79.9999952316285,10|8|14,0:0|3:0|0:0,0:0:0:0:
256,184,391209,5,10,0:0:0:0:
120,88,391671,1,10,3:0:0:0:
272,40,392125,2,0,P|352:48|392:136,1,159.999990463257,10|10,0:0|3:0,0:0:0:0:
392,248,393034,2,0,L|392:328,1,79.9999952316285,10|2,0:0|0:0,0:0:0:0:
320,344,393489,6,0,L|224:344,1,79.9999952316285,10|0,3:0|0:0,0:0:0:0:
168,336,393943,2,0,P|128:256|176:192,1,159.999990463257,10|10,0:0|3:0,0:0:0:0:
224,160,394625,1,0,0:0:0:0:
224,160,394852,54,0,P|288:192|368:128,1,159.999990463257,10|10,0:0|0:0,0:0:0:0:
432,132,395534,1,2,0:0:0:0:
432,132,395761,2,0,L|432:212,1,79.9999952316285,10|2,0:0|0:0,0:0:0:0:
400,276,396216,54,0,L|312:276,1,79.9999952316285,10|2,3:0|0:0,0:0:0:0:
248,276,396671,2,0,L|168:276,2,79.9999952316285,8|2|10,0:0|0:0|3:0,0:0:0:0:
376,120,397578,6,0,P|304:144|224:120,1,159.999990463257,10|10,0:0|3:0,0:0:0:0:
96,120,398484,2,0,P|29:199|40:248,1,159.999990463257,10|10,0:0|3:0,0:0:0:0:
64,296,399164,1,0,0:0:0:0:
112,328,399391,1,10,0:0:0:0:
168,344,399617,1,0,0:0:0:0:
224,344,399844,6,0,P|272:328|328:240,1,159.999990463257,10|10,3:0|0:0,0:0:0:0:
336,168,400524,1,0,0:0:0:0:
336,168,400750,38,0,B|312:96|312:96|224:80,1,159.999990463257,10|10,3:0|0:0,0:0:0:0:
168,80,401430,1,0,0:0:0:0:
168,80,401657,2,0,B|96:80|96:80|40:152,1,159.999990463257,10|8,3:0|0:0,0:0:0:0:
32,208,402336,6,0,P|112:336|248:280,1,319.999980926514,0|8,0:0|3:0,0:0:0:0:
304,240,403697,54,0,L|384:240,1,79.9999952316285,2|10,0:0|0:0,0:0:0:0:
440,184,404153,2,0,B|480:144|472:96|432:72|392:72,1,159.999990463257,2|2,0:0|0:0,0:0:0:0:
320,64,404837,2,0,L|232:64,1,79.9999952316285,10|2,0:0|0:0,0:0:0:0:
160,64,405293,5,8,3:0:0:0:
160,64,405513,2,0,L|64:64,1,79.9999952316285,2|10,0:0|0:0,0:0:0:0:
32,128,405954,2,0,P|24:192|96:272,1,159.999990463257,2|2,0:0|0:0,0:0:0:0:
144,296,406615,2,0,L|228:296,2,79.9999952316285,10|2|8,0:0|0:0|3:0,0:0:0:0:
216,200,407304,21,2,0:0:0:0:
312,200,407525,1,10,0:0:0:0:
272,104,407746,2,0,P|169:70|114:124,1,159.999990463257,2|2,0:0|0:0,0:0:0:0:
64,160,408410,2,0,L|64:256,1,79.9999952316285,10|2,0:0|0:0,0:0:0:0:
128,336,408852,6,0,L|232:336,1,79.9999952316285,10|10,3:0|0:0,0:0:0:0:
208,208,409295,2,0,L|304:208,1,79.9999952316285,2|2,0:0|0:0,0:0:0:0:
415,349,409737,53,10,0:0:0:0:
415,349,409848,1,2,0:0:0:0:
415,349,409958,2,0,L|459:293,1,39.9999976158142,2|10,0:0|0:0,0:0:0:0:
463,290,410179,2,0,P|490:221|462:108,1,159.999990463257,2|14,0:0|0:0,0:0:0:0:
384,96,411088,53,8,0:0:0:0:
320,200,411556,1,14,0:0:0:0:
280,96,412008,1,8,0:0:0:0:
312,240,412461,38,0,P|276:291|240:304,1,95.9999913482669,10|0,3:0|0:0,0:0:0:0:
176,296,412900,2,0,P|112:272|96:240,1,95.9999913482669,10|2,0:0|0:0,0:0:0:0:
80,176,413340,2,0,P|96:112|128:88,1,95.9999913482669,10|0,3:0|0:0,0:0:0:0:
192,72,413780,2,0,P|224:72|280:38,1,95.9999913482669,10|0,0:0|0:0,0:0:0:0:
352,24,414220,6,0,P|418:53|480:168,1,191.999982696534,10|10,0:3|0:0,0:0:0:0:
336,256,415100,2,0,L|232:256,2,95.9999913482669,10|0|8,3:0|0:0|0:0,0:0:0:0:
320,80,415980,6,0,P|275:83|227:69,1,95.9999913482669,10|2,3:0|0:0,0:0:0:0:
147,46,416420,2,0,P|107:38|59:86,1,95.9999913482669,10|2,0:0|0:0,0:0:0:0:
63,156,416860,2,0,P|77:190|55:252,1,95.9999913482669,10|2,3:0|0:0,0:0:0:0:
72,326,417300,2,0,P|120:350|264:310,1,191.999982696534,10|14,0:0|0:0,0:0:0:0:
384,96,418218,38,0,P|368:64|256:40,1,159.999990463257,10|10,0:0|3:0,0:0:0:0:
192,56,418899,2,0,L|112:56,2,79.9999952316285,2|8|14,0:0|0:0|0:0,0:0:0:0:
328,168,420039,6,0,P|312:208|208:200,1,159.999990463257,10|10,0:0|3:0,0:0:0:0:
168,168,420705,2,0,L|88:168,2,79.9999952316285,10|8|14,0:0|3:0|0:0,0:0:0:0:
400,288,421824,6,0,P|448:232|440:136,1,159.999990463257,10|10,0:0|0:0,0:0:0:0:
416,88,422505,2,0,P|392:56|280:48,1,159.999990463257,10|14,0:0|0:0,0:0:0:0:
256,192,423077,12,14,426527,0:0:0:0:
256,16,436203,37,14,0:0:0:0:
160,80,436641,2,0,L|80:80,1,79.9999952316285,0|8,0:0|0:0,0:0:0:0:
40,128,437080,2,0,L|40:208,1,79.9999952316285,0|10,0:0|3:0,0:0:0:0:
64,256,437520,2,0,L|152:256,1,79.9999952316285,0|10,0:0|0:0,0:0:0:0:
200,256,437959,2,0,L|280:232,1,79.9999952316285,0|10,0:0|3:0,0:0:0:0:
328,224,438398,2,0,L|408:224,1,79.9999952316285,8|10,0:0|0:0,0:0:0:0:
456,224,438837,1,10,0:0:0:0:
456,224,439057,1,8,3:0:0:0:
456,224,439276,2,0,L|456:144,2,79.9999952316285,10|8|10,3:0|3:0|3:0,0:0:0:0:
456,296,439936,5,14,1:0:0:0:
176,48,440891,5,14,1:0:0:0:
48,144,441369,1,2,0:0:0:0:
248,224,441846,37,14,1:0:0:0:
248,224,442085,1,2,0:0:0:0:
248,224,442324,1,2,0:0:0:0:
248,224,442563,1,2,0:0:0:0:
248,224,442802,6,0,P|344:216|424:128,1,207.999987602234,14|0,1:0|0:0,0:0:0:0:
360,40,444196,2,0,P|248:40|176:104,1,207.999987602234,2|0,0:0|0:0,0:0:0:0:
280,312,445591,5,2,0:0:0:0:
280,312,445823,1,2,0:0:0:0:
280,312,446056,1,2,0:0:0:0:
280,312,446288,1,2,0:0:0:0:
280,312,446521,38,0,P|204:349|144:312,1,159.999990463257,10|10,0:0|0:0,0:0:0:0:
128,240,447205,1,2,0:0:0:0:
128,240,447433,2,0,P|184:176|256:184,1,159.999990463257,10|8,0:0|3:0,0:0:0:0:
392,184,448346,2,0,P|432:120|384:48,1,159.999990463257,8|8,3:0|0:0,0:0:0:0:
296,32,449030,6,0,L|208:32,1,79.9999952316285,0|10,0:0|3:0,0:0:0:0:
136,40,449486,2,0,L|72:96,1,79.9999952316285,2|10,0:0|0:0,0:0:0:0:
48,168,449943,2,0,P|56:232|160:280,1,159.999990463257,2|2,0:0|0:0,0:0:0:0:
208,288,450627,2,0,L|296:288,1,79.9999952316285,10|2,0:0|0:0,0:0:0:0:
368,280,451083,1,8,0:0:0:0:
448,272,451311,6,0,L|456:192,1,79.9999952316285,2|10,0:0|3:0,0:0:0:0:
456,112,451768,2,0,L|432:32,1,79.9999952316285,2|8,0:0|0:0,0:0:0:0:
360,40,452233,2,0,L|280:40,2,79.9999952316285,2|8|0,0:0|0:0|0:0,0:0:0:0:
368,112,452947,38,0,L|288:112,1,79.9999952316285,8|0,3:0|0:0,0:0:0:0:
216,96,453397,2,0,L|141:67,1,79.9999952316285,8|0,0:0|0:0,0:0:0:0:
72,96,453847,2,0,L|32:176,1,79.9999952316285,8|0,0:0|0:0,0:0:0:0:
40,240,454297,2,0,L|72:320,1,79.9999952316285,8|0,3:0|0:0,0:0:0:0:
136,344,454748,2,0,L|216:344,1,79.9999952316285,8|0,3:0|0:0,0:0:0:0:
272,296,455198,2,0,L|352:296,1,79.9999952316285,8|8,0:0|0:0,0:0:0:0:
424,312,455648,38,0,L|488:312,3,39.9999976158142,8|8|8|8,0:0|0:0|0:0|0:0,0:0:0:0:
488,280,456099,2,0,L|504:192,1,79.9999952316285,8|10,0:0|3:0,0:0:0:0:
480,160,456549,37,14,0:0:0:0:
451,112,456777,1,2,0:0:0:0:
405,79,457006,1,10,0:0:0:0:
352,64,457234,1,2,0:0:0:0:
296,56,457463,1,10,3:0:0:0:
240,64,457691,1,2,0:0:0:0:
192,96,457920,1,10,0:0:0:0:
168,144,458149,1,2,0:0:0:0:
168,200,458377,1,10,3:0:0:0:
200,240,458606,2,0,P|248:272|352:272,1,159.999990463257,2|2,0:0|0:0,0:0:0:0:
392,248,459292,5,8,3:0:0:0:
392,248,459517,2,0,L|440:184,1,79.9999952316285,0|8,0:0|0:0,0:0:0:0:
448,128,459969,2,0,L|392:64,1,79.9999952316285,0|8,0:0|0:0,0:0:0:0:
336,32,460420,38,0,L|256:32,1,79.9999952316285,0|8,0:0|3:0,0:0:0:0:
200,32,460872,2,0,L|120:32,1,79.9999952316285,0|8,0:0|0:0,0:0:0:0:
72,56,461321,6,0,L|72:136,1,79.9999952316285,0|8,0:0|0:0,0:0:0:0:
72,192,461768,2,0,L|72:288,1,79.9999952316285,0|8,0:0|3:0,0:0:0:0:
88,328,462221,6,0,P|128:354|167:357,1,79.9999952316285,0|8,0:0|0:0,0:0:0:0:
203,348,462679,2,0,P|243:316|259:284,1,79.9999952316285,2|8,0:0|3:0,0:0:0:0:
240,232,463137,38,0,P|216:184|224:152,1,79.9999952316285,2|10,0:0|0:0,0:0:0:0:
240,104,463595,2,0,P|288:120|328:104,1,79.9999952316285,10|10,3:0|0:0,0:0:0:0:
360,80,464053,2,0,P|410:53|445:68,1,79.9999952316285,10|2,3:0|0:0,0:0:0:0:
472,80,464511,6,0,P|480:112|480:160,1,79.9999952316285,10|10,3:0|0:0,0:0:0:0:
472,208,464969,1,2,0:0:0:0:
440,248,465198,2,0,L|360:248,1,79.9999952316285,8|2,0:0|0:0,0:0:0:0:
353,302,465656,5,10,3:0:0:0:
353,302,465882,2,0,P|305:294|257:310,1,95.9999913482669,0|8,0:0|0:0,0:0:0:0:
208,328,466333,1,0,0:0:0:0:
208,328,466559,2,0,P|192:296|192:232,1,95.9999913482669,8|0,0:0|0:0,0:0:0:0:
208,192,467010,1,8,3:0:0:0:
208,192,467235,2,0,P|256:176|288:144,1,95.9999913482669,2|8,0:0|0:0,0:0:0:0:
320,112,467680,1,0,0:0:0:0:
320,112,467899,2,0,P|368:104|416:128,1,95.9999913482669,8|0,0:0|0:0,0:0:0:0:
448,152,468337,37,8,3:0:0:0:
448,152,468567,2,0,L|448:248,1,95.9999913482669,0|8,0:0|0:0,0:0:0:0:
432,320,469028,2,0,L|336:352,1,95.9999913482669,2|8,0:0|3:0,0:0:0:0:
264,352,469480,6,0,L|158:352,1,95.9999913482669,2|10,0:0|0:0,0:0:0:0:
104,312,469924,2,0,L|57:222,1,95.9999913482669,2|10,0:0|3:0,0:0:0:0:
72,152,470369,2,0,L|184:74,1,95.9999913482669,2|10,0:0|0:0,0:0:0:0:
216,64,470815,5,14,0:0:0:0:
424,64,471277,2,0,L|424:152,1,79.9999952316285,10|8,3:0|0:0,0:0:0:0:
424,216,471739,37,14,1:0:0:0:
304,344,472182,1,2,0:0:0:0:
144,344,472625,1,2,0:0:0:0:
32,232,473069,1,2,0:0:0:0:
32,72,473512,2,0,L|112:56,1,79.9999952316285,2|0,0:0|0:0,0:0:0:0:
280,48,474194,5,0,0:0:0:0:
360,48,474424,1,0,0:0:0:0:
440,48,474654,1,0,0:0:0:0:
464,192,475115,5,0,0:0:0:0:
464,272,475345,1,0,0:0:0:0:
432,344,475575,2,0,P|320:360|280:328,1,159.999990463257
264,264,476266,53,2,0:0:0:0:
264,264,476496,1,2,0:0:0:0:
264,264,476727,1,2,0:0:0:0:
264,264,476957,1,2,0:0:0:0:
264,264,477187,2,0,P|344:160|200:64,1,319.999980926514,2|2,0:0|0:0,0:0:0:0:
144,64,478364,2,0,L|64:72,2,79.9999952316285,0|0|2,0:0|0:0|0:0,0:0:0:0:
272,264,479542,5,2,0:0:0:0:
272,264,479777,1,2,0:0:0:0:
272,264,480013,1,2,0:0:0:0:
272,264,480248,1,2,0:0:0:0:
272,264,480484,38,0,P|304:336|432:264,1,239.999985694885,2|0,0:0|0:0,0:0:0:0:
456,216,481426,2,0,P|424:112|304:144,1,239.999985694885,2|2,0:0|0:0,0:0:0:0:
24,72,482840,5,2,0:0:0:0:
24,72,483075,2,0,L|24:160,1,79.9999952316285,2|2,0:0|0:0,0:0:0:0:
24,232,483546,1,2,0:0:0:0:
24,232,483782,2,0,P|88:320|200:288,1,239.999985694885,2|0,0:0|0:0,0:0:0:0:
248,224,484724,2,0,P|288:152|448:120,1,239.999985694885,2|2,0:0|0:0,0:0:0:0:
440,304,486138,6,0,P|416:340|382:354,2,79.9999952316285,2|2|2,0:0|0:0|0:0,0:0:0:0:
464,232,486844,1,2,0:0:0:0:
464,232,487080,2,0,P|464:168|320:96,1,239.999985694885,2|0,0:0|0:0,0:0:0:0:
248,88,488023,2,0,P|136:56|56:136,1,239.999985694885,2|2,0:0|0:0,0:0:0:0:
120,272,489440,38,0,L|35:286,2,79.9999952316285,2|2|2,0:0|0:0|0:0,0:0:0:0:
192,272,490149,2,0,L|272:272,1,79.9999952316285,2|2,0:0|0:0,0:0:0:0:
344,272,490622,2,0,P|416:256|472:112,2,239.999985694885,0|2|2,0:0|0:0|0:0,0:0:0:0:
192,168,492727,5,2,0:0:0:0:
192,168,492961,2,0,L|112:168,1,79.9999952316285,2|2,0:0|0:0,0:0:0:0:
56,176,493429,1,2,0:0:0:0:
56,176,493662,2,0,P|72:280|256:272,1,319.999980926514,2|2,0:0|0:0,0:0:0:0:
288,240,494832,2,0,L|368:240,1,79.9999952316285
424,240,495300,1,2,0:0:0:0:
448,48,496002,6,0,L|368:80,1,79.9999952316285,2|2,0:0|0:0,0:0:0:0:
320,80,496469,2,0,L|232:48,1,79.9999952316285,2|2,0:0|0:0,0:0:0:0:
192,64,496937,38,0,L|112:88,1,79.9999952316285,2|0,0:0|0:0,0:0:0:0:
64,112,497406,2,0,L|34:186,1,79.9999952316285
48,240,497876,2,0,L|96:304,1,79.9999952316285,2|0,0:0|0:0,0:0:0:0:
144,328,498346,2,0,L|232:328,1,79.9999952316285,0|2,0:0|0:0,0:0:0:0:
456,224,499286,5,2,0:0:0:0:
448,144,499521,1,2,0:0:0:0:
392,88,499756,1,2,0:0:0:0:
328,48,499991,1,2,0:0:0:0:
256,32,500226,2,0,P|172:38|104:96,1,159.999990463257,2|0,0:0|0:0,0:0:0:0:
80,152,500931,2,0,L|80:240,1,79.9999952316285,0|2,0:0|0:0,0:0:0:0:
112,304,501401,2,0,L|208:344,1,79.9999952316285
256,352,501872,5,14,0:0:0:0:
304,64,502600,37,0,0:0:0:0:
304,64,502842,2,0,L|392:56,1,79.9999952316285
464,88,503327,6,0,L|496:168,1,79.9999952316285,2|0,0:0|0:0,0:0:0:0:
472,240,503770,2,0,L|416:320,1,79.9999952316285
352,336,504213,5,2,0:0:0:0:
272,342,504445,1,0,0:0:0:0:
192,328,504677,1,2,0:0:0:0:
120,296,504909,1,0,0:0:0:0:
72,232,505141,1,2,0:0:0:0:
80,152,505373,1,0,0:0:0:0:
136,96,505606,1,2,0:0:0:0:
256,192,506243,5,2,0:0:0:0:
256,192,506300,12,0,509762,0:0:0:0:
