osu file format v14

[General]
AudioFilename: audio.mp3
AudioLeadIn: 0
PreviewTime: 426527
Countdown: 0
SampleSet: Normal
StackLeniency: 0.7
Mode: 0
LetterboxInBreaks: 0
WidescreenStoryboard: 1

[Editor]
DistanceSpacing: 0.5
BeatDivisor: 4
GridSize: 8
TimelineZoom: 2.559998

[Metadata]
Title:Roundabout
TitleUnicode:Roundabout
Artist:YES
ArtistUnicode:YES
Creator:IwanWenChoong
Version:Insane
Source:ジョジョの奇妙な冒険
Tags:1971 JoJo's Bizarre Adventure Ending Anime To be Continued jojo Fragile Rock Progressive Jon Anderson Steve Howe Rick Wakeman Bill Bruford Chris Squire meme old song full version Marathon english british Los Santos Rock Radio Grand Theft Auto V GTA 5
BeatmapID:2046313
BeatmapSetID:456802

[Difficulty]
HPDrainRate:5
CircleSize:4
OverallDifficulty:7
ApproachRate:9
SliderMultiplier:1.99999990463257
SliderTickRate:2

[Events]
//Background and Video events
0,0,"cover.jpg",0,0
//Break Periods
2,8369,10570
2,13121,16107
2,18121,19200
2,30206,32884
2,35651,36654
2,37454,40594
2,106521,118630
2,205866,212229
2,298760,300975
2,303539,306530
2,308536,309606
2,313417,318469
2,320620,323260
2,326043,327038
2,335313,340403
2,426727,435603
//Storyboard Layer 0 (Background)
//Storyboard Layer 1 (Fail)
//Storyboard Layer 2 (Pass)
//Storyboard Layer 3 (Foreground)
//Storyboard Layer 4 (Overlay)
//Storyboard Sound Samples

[TimingPoints]
0,447.761194029851,4,2,2,5,1,0
8059,444.444444444444,4,2,2,71,1,0
11170,437.956204379562,4,2,2,71,1,0
12922,473.186119873817,4,2,2,71,1,0
16707,441.891294741494,4,2,2,71,1,0
19800,448.095593726662,4,2,2,71,1,0
21872,458.015267175573,4,2,2,71,1,0
22788,493.015612161052,4,2,2,71,1,0
28457,-100,4,2,4,71,0,0
28704,434.467776973208,4,2,2,71,1,0
33484,491.803278688525,4,2,2,71,1,0
37254,492.610837438424,4,2,2,71,1,0
41194,545.454545454546,4,2,2,71,1,0
42284,448.296654275093,4,2,2,71,1,0
43180,461.538461538462,4,2,2,71,1,0
44103,433.526011560694,4,2,2,71,1,0
44754,437.956204379562,4,1,2,71,1,0
45000,437.956204379562,4,1,1,71,1,0
46751,430.941607412196,4,1,1,71,1,0
48475,437.956204379562,4,1,1,71,1,0
49569,-100,4,3,1,61,0,0
49679,-100,4,1,1,71,0,0
50226,431.468430893139,4,1,1,71,1,0
50442,-100,4,3,1,61,0,0
50550,-100,4,1,1,71,0,0
51951,446.727719454992,4,1,1,71,1,0
53740,433.996383363472,4,1,1,71,1,0
56560,-100,4,3,1,61,0,0
56669,-100,4,1,1,71,0,0
57214,436.270032286469,4,1,1,71,1,0
57432,-100,4,3,1,61,0,0
57541,-100,4,1,1,71,0,0
58959,460.829493087558,4,1,2,71,1,0
59189,-100,4,1,1,71,0,0
59880,442.444444444444,4,1,1,71,1,0
60101,-100,4,3,1,61,0,0
60211,-100,4,1,1,71,0,0
60322,-100,4,1,2,61,0,0
60433,-100,4,1,1,71,0,0
61649,440.787540405525,4,1,1,71,1,0
63412,445.930880713489,4,1,1,71,1,0
63634,-100,4,3,1,61,0,0
63746,-100,4,1,1,71,0,0
63857,-100,4,1,2,61,0,0
63969,-100,4,1,1,71,0,0
67202,-100,4,3,1,61,0,0
67313,-100,4,1,1,71,0,0
67425,-100,4,1,2,61,0,0
67536,-100,4,1,1,71,0,0
68541,444.444444444444,4,1,2,71,1,0
68652,-100,4,1,1,71,0,0
68763,444.444444444444,4,1,1,71,1,0
71429,464.108910891089,4,1,1,71,1,0
72359,484.652665589661,4,2,2,71,1,0
75267,456.725279744234,4,1,2,71,1,0
77778,-100,4,2,4,5,0,0
78007,-100,4,1,1,71,0,0
78692,-100,4,1,2,71,0,0
78977,447.360572621533,4,1,1,71,1,0
80767,434.562178605055,4,1,1,71,1,0
81853,-100,4,3,1,61,0,0
81962,-100,4,1,1,71,0,0
82287,445.136879590474,4,1,1,71,1,0
82509,445.136879590474,4,1,1,71,1,0
83399,443.360673908224,4,1,1,71,1,0
84286,442.02151171357,4,1,1,71,1,0
85833,-100,4,1,2,71,0,0
86081,445.43429844098,4,1,1,71,1,0
95657,-100,4,1,2,71,0,0
95769,-100,4,1,1,71,0,0
95880,444.938820912125,4,1,1,71,1,0
99440,480,4,2,2,71,1,0
100400,492.206726825267,4,2,2,71,1,0
102368,845.427645484007,4,1,1,71,1,0
103213,737.100737100737,4,1,1,71,1,0
103950,705.882352941176,4,1,1,71,1,0
105361,480,4,1,1,71,1,0
106321,471.031559114461,4,1,1,71,1,0
107263,457.003579861376,4,1,1,71,1,0
108177,464.001237336633,4,1,1,71,1,0
112817,454.235748353395,4,2,2,43,1,0
116451,462.962962962963,4,2,2,43,1,0
119230,460.440488066917,4,1,1,71,1,1
119230,-76.9230769230769,4,1,1,71,0,1
125676,463.105896881754,4,1,1,71,1,1
125676,-76.9230769230769,4,1,1,71,0,1
127759,-76.9230769230769,4,3,1,61,0,1
127875,-76.9230769230769,4,1,1,71,0,1
129380,454.545454545455,4,1,1,71,1,1
129380,-76.9230769230769,4,1,1,71,0,1
130970,483.014007406215,4,1,2,71,1,0
131453,-100,4,1,1,71,0,0
131936,458.400183360073,4,2,2,71,1,0
133770,453.514739229025,4,1,2,71,1,0
135773,456.273764258555,4,1,1,71,1,0
137598,421.940928270042,4,1,1,71,1,0
138441,445.16990651432,4,1,1,71,1,0
139331,440.27003228647,4,1,1,71,1,0
140651,459.664444955183,4,1,1,71,1,0
141111,425.954848786029,4,1,1,71,1,0
142601,-100,4,1,2,71,0,0
142868,445.997175351223,4,1,1,71,1,0
145543,418.03107364314,4,1,1,71,1,0
145961,475.134621476085,4,1,1,71,1,0
146436,235.941801022415,4,1,1,71,1,0
146671,-100,3,2,2,71,0,0
146907,227.876946448918,4,1,1,71,1,0
147362,-100,3,2,2,71,0,0
147818,237.492083597213,7,1,1,71,1,0
148055,-100,7,2,2,71,0,0
148530,247.790534401585,7,1,1,71,1,0
148777,-100,7,2,2,71,0,0
149274,233.009708737864,7,1,1,71,1,0
149507,-100,7,2,2,71,0,0
149973,257.510729613734,7,1,1,71,1,0
150230,445.103857566766,4,1,2,71,1,0
150452,-100,4,1,1,71,0,0
153790,449.269936353426,4,1,1,71,1,0
159855,-100,4,1,2,71,0,0
160080,452.556946749133,4,1,1,71,1,0
163701,491.400491400491,4,2,2,71,1,0
166649,816.215480886954,4,2,2,71,1,0
167465,710.059171597633,4,2,2,71,1,0
168175,685.714285714286,4,2,2,71,1,0
169546,460.545454545455,4,1,1,71,1,0
170467,464.037122969838,4,1,1,71,1,1
176963,462.962962962963,4,1,1,71,1,1
176963,-76.9230769230769,4,1,1,71,0,1
180319,-66.6666666666667,4,1,1,71,0,1
182518,451.127819548872,4,1,1,71,1,1
182518,-66.6666666666667,4,1,1,71,0,1
182969,475.134621476085,4,1,1,71,1,1
182969,-66.6666666666667,4,1,1,71,0,1
183444,459.382895643519,4,1,1,71,1,1
183444,-71.4285714285714,4,1,1,71,0,1
186774,-66.6666666666667,4,1,1,71,0,1
188956,477.288998488585,4,1,1,71,1,1
189910,454.063871651279,4,1,1,71,1,1
191045,-100,4,1,1,71,0,1
191726,462.42774566474,4,1,1,71,1,1
193576,460.29919447641,4,1,1,71,1,1
195188,471.623958497092,4,1,2,71,1,1
195305,-100,4,1,1,71,0,1
196132,460.830591605033,4,2,2,71,1,0
197976,553.250345781466,4,1,2,71,1,0
198079,-100,4,2,4,5,0,0
201849,241.954996370675,3,2,2,71,1,0
202332,226.860254083484,3,1,1,71,1,0
202785,254.798709019874,3,2,2,71,1,0
203295,247.167868177137,3,1,1,71,1,0
203542,-100,3,2,2,71,0,0
204036,-100,3,1,1,71,0,0
204283,-100,3,2,2,71,0,0
204779,221.81146025878,3,1,1,51,1,0
205000,-100,3,2,2,51,0,0
205444,222.469410456062,3,1,1,51,1,0
205666,458.330150485066,4,1,2,71,1,0
207499,439.335139488907,4,1,1,71,1,0
209257,453.754821144975,4,1,1,71,1,0
211070,439.721509710516,4,1,1,71,1,0
211949,419.58041958042,4,1,1,71,1,0
212368,461.538461538462,4,1,1,71,1,0
212829,441.988950276243,4,1,1,71,1,0
214596,443.458980044346,4,1,1,71,1,0
216369,445.103857566766,4,1,1,71,1,0
221709,438.436244062843,4,1,1,71,1,0
223462,438.020148926851,4,1,1,71,1,0
226091,408.163265306122,4,1,1,71,1,0
226499,446.528242911364,4,1,1,71,1,0
226945,441.533593347561,4,1,2,71,1,0
227055,-100,4,1,1,71,0,0
230477,444.80687967974,4,1,1,71,1,0
231811,-100,4,1,2,61,0,0
231922,-100,4,1,1,71,0,0
232256,431.996544027649,4,1,1,71,1,0
233119,457.526307762697,4,1,1,71,1,0
234035,444.115470022206,4,1,1,71,1,0
235367,-100,4,1,2,61,0,0
235478,-100,4,1,1,71,0,0
241140,445.136879590474,4,1,1,71,1,0
244701,453.309156844968,4,1,1,71,1,0
248327,447.627017484625,4,1,1,71,1,0
254146,-100,4,3,2,71,0,0
255489,449.775112443778,4,1,1,71,1,0
259088,454.270139309509,4,1,1,71,1,0
262722,449.068183519198,4,1,1,71,1,0
266316,464.32440798638,4,1,1,71,1,0
268173,418.848167539267,4,1,1,71,1,0
269455,419.58041958042,4,1,1,71,1,0
269875,447.928331466965,4,1,2,71,1,0
269986,-100,4,1,1,71,0,0
277042,451.739195904231,4,1,1,71,1,0
280655,447.761194029851,4,1,1,71,1,0
284237,450.45045045045,4,1,2,71,1,0
284349,-100,4,1,1,71,0,0
286038,447.761194029851,4,1,1,71,1,0
287829,450.653447498873,4,1,1,71,1,0
290983,413.736036408771,4,1,2,71,1,0
292637,391.236036408771,4,2,2,71,1,0
293810,437.31778425656,4,2,2,71,1,0
295121,510.33426894616,4,2,2,71,1,0
295630,418.322526668061,4,2,2,71,1,0
296257,390.32006245121,4,2,2,71,1,0
296647,508.216161273928,4,2,2,71,1,0
297155,338.028169014084,4,3,1,71,1,0
297831,253.796370711899,4,2,2,7,1,0
298085,305.701329800785,4,2,2,7,1,0
298390,455.027819548872,4,2,2,37,1,0
298845,350.405886818899,4,2,2,7,1,0
299545,332.06043499917,4,2,2,7,1,0
300209,352.941176470588,4,2,2,7,1,0
300562,301.507537688442,4,2,2,7,1,0
300863,325.55615843733,4,2,2,7,1,0
301575,429.184549356223,4,2,2,37,1,0
302647,415.512465373961,4,2,2,37,1,0
303339,473.9336492891,4,2,2,37,1,0
303575,393.366311272916,4,2,2,7,1,0
303969,333.333333333333,4,2,2,7,1,0
304302,330.487473180393,4,2,2,7,1,0
304963,340.078651685393,4,2,2,7,1,0
307130,551.825623103099,4,2,2,37,1,0
307681,482.81966685443,4,2,2,7,1,0
308164,518.627366237359,4,2,2,37,1,0
308390,323.066982554383,4,2,2,7,1,0
309037,343.977526801582,4,2,2,7,1,0
309724,481.772924361651,4,2,2,7,1,0
310206,450.34902049088,4,2,2,37,1,0
312288,434.782608695652,4,2,2,37,1,0
312722,492.97510475721,4,2,2,37,1,0
313217,319.233838786911,4,2,2,37,1,0
314175,334.690690020639,4,2,2,7,1,0
314844,344.708721130645,4,2,2,7,1,0
315533,333.704115684093,4,2,2,7,1,0
316200,343.308348114665,4,2,2,7,1,0
316887,332.704890761894,4,2,2,7,1,0
317552,332.704890761894,4,2,2,7,1,0
319069,450.721153846154,4,2,2,37,1,0
320421,474.420811259587,4,2,2,37,1,0
321370,340.155337604173,4,2,2,7,1,0
322050,340.155337604173,4,2,2,7,1,0
322730,328.748936170212,4,2,2,7,1,0
323387,472.664250827162,4,2,2,7,1,0
323860,333.333333333333,4,2,2,37,1,0
324610,334.484596702032,4,2,2,37,1,0
325028,482.625482625483,4,2,2,37,1,0
325843,377.358490566038,4,2,2,37,1,0
326220,446.827524575514,4,2,2,7,1,0
326667,345.164816199735,4,2,2,7,1,0
327357,281.00412139378,4,2,2,7,1,0
327638,488.20179007323,4,2,2,37,1,0
328615,321.888412017167,4,2,2,37,1,0
329581,471.698113207547,4,2,2,37,1,0
331231,404.176490400809,4,2,2,37,1,0
331635,461.71604463255,4,2,2,7,1,0
332327,482.780817508851,4,2,2,7,1,0
335304,509.078567792296,4,2,2,7,1,0
337340,441.176470588235,4,2,2,20,1,0
339104,475.098754669988,4,2,2,20,1,0
341004,769.230769230769,4,1,1,20,1,0
341772,638.297872340426,4,1,1,20,1,0
342410,727.625515401407,4,1,1,20,1,0
343137,659.340659340659,4,1,1,20,1,0
343796,1023.71608940454,4,1,1,20,1,0
344819,474.308300395257,4,1,1,37,1,0
346716,695.974944901984,4,1,1,37,1,0
347412,483.870967741935,4,1,1,71,1,0
347532,-100,4,2,4,5,0,0
351282,459.418070444105,4,1,1,71,1,1
353120,452.147701582517,4,1,1,71,1,1
354929,450.281425891182,4,1,1,71,1,1
359432,458.891013384322,4,1,1,71,1,1
361267,454.545454545455,4,1,1,71,1,1
362631,-100,4,1,2,71,0,1
362858,-100,4,1,1,71,0,1
363085,-100,4,1,2,61,0,1
363199,-100,4,1,1,71,0,1
363994,453.446191051995,4,1,1,71,1,1
367621,452.864367122047,4,1,2,71,1,1
367847,-100,4,1,1,71,0,1
369658,-100,4,3,1,61,0,1
369715,-100,4,1,1,71,0,1
369885,-100,4,1,2,61,0,1
369913,-100,4,1,1,71,0,1
370338,457.805786851012,4,1,1,71,1,1
372169,435.888122048674,4,1,1,71,1,1
372604,453.514739229025,4,1,1,71,1,1
372830,-83.3333333333333,4,1,1,71,0,1
373284,-100,4,1,1,71,0,1
373965,450.112528132033,4,1,1,71,1,1
375990,-100,4,3,1,61,0,1
376103,-100,4,1,1,71,0,1
376215,-100,4,1,2,61,0,1
376328,-100,4,1,1,71,0,1
376666,218.978102189781,4,1,1,71,1,1
376666,-200,4,1,1,71,0,1
377541,-200,4,3,1,61,0,1
377651,-200,4,1,1,71,0,1
379293,-200,4,3,1,61,0,1
379403,-200,4,1,1,71,0,1
380169,220.685596586729,4,1,1,71,1,1
380169,-200,4,1,1,71,0,1
381051,-200,4,3,1,61,0,1
381162,-200,4,1,1,71,0,1
383700,442.543147956926,4,1,1,71,1,1
387240,-100,4,3,1,61,0,1
387350,-100,4,1,1,71,0,1
389011,434.341971912553,4,1,1,71,1,1
390748,461.538461538462,4,1,2,71,1,1
390863,-100,4,1,1,71,0,1
391671,454.545454545455,4,1,1,71,1,1
397125,453.206435531385,4,1,1,71,1,1
399391,-100,4,1,2,61,0,1
399447,-100,4,1,1,71,0,1
400297,-100,4,1,2,61,0,1
400354,-100,4,1,1,71,0,1
402563,-100,4,3,1,61,0,1
402676,-100,4,1,1,71,0,1
403016,-100,4,1,2,61,0,1
403073,-100,4,1,1,71,0,1
403470,227.980849608633,4,1,1,71,1,1
403470,-200,4,1,1,71,0,1
404381,-200,4,3,1,61,0,1
404495,-200,4,1,1,71,0,1
405293,220.426157237325,4,1,1,71,1,1
405293,-200,4,1,1,71,0,1
406174,-200,4,3,1,61,0,1
406284,-200,4,1,1,71,0,1
406615,234.192037470726,4,1,1,71,1,1
406615,-200,4,1,1,71,0,1
407083,221.206311753429,4,1,1,71,1,1
409626,-100,4,3,1,61,0,1
409682,-100,4,1,1,71,0,1
410622,466.926070038911,4,1,2,71,1,1
410622,-76.9230769230769,4,1,2,71,0,1
410738,-76.9230769230769,4,1,1,71,0,1
411556,452.318130418394,4,1,2,71,1,1
411556,-66.6666666666667,4,1,2,71,0,1
411669,-66.6666666666667,4,1,1,71,0,1
412461,439.979467624844,4,1,1,71,1,1
412461,-66.6666666666667,4,1,1,71,0,1
417300,463.965357253325,4,1,1,71,1,1
417300,-66.6666666666667,4,1,1,71,0,1
417764,454.029511918275,4,1,2,71,1,0
417991,-100,4,1,1,71,0,0
419353,-100,4,1,2,71,0,0
419596,443.786982248521,4,1,1,71,1,0
421149,-100,4,1,2,71,0,0
421371,453.857791225416,4,1,1,71,1,0
422732,-100,4,3,1,61,0,0
422846,-100,4,1,1,71,0,0
422959,475.812846946868,4,1,2,71,1,0
423077,-100,4,2,4,5,0,0
426527,-100,4,1,2,71,0,0
426765,438.660622898085,4,1,1,71,1,0
432029,439.270810454645,4,1,1,71,1,0
436202,-100,4,1,2,71,0,0
436422,439.206500256204,4,1,1,71,1,0
439936,477.707006369427,4,2,2,71,1,0
442802,464.900046490005,4,2,2,71,1,0
446521,456.273764258555,4,1,1,71,1,1
451996,475.812846946868,4,1,1,71,1,1
452947,450.315220654458,4,1,1,71,1,1
456549,457.142857142857,4,1,2,71,1,1
456663,-100,4,1,1,71,0,1
459292,451.569202980357,4,1,1,71,1,1
460195,-76.9230769230769,4,1,1,71,0,1
460533,-100,4,1,1,71,0,1
461098,446.927374301676,4,1,1,71,1,1
461098,-76.9230769230769,4,1,1,71,0,1
461992,458.015267175573,4,1,1,71,1,1
465657,451.127819548873,4,1,1,71,1,1
465657,-66.6666666666667,4,1,1,71,0,1
467461,438.116100766703,4,1,1,71,1,1
467461,-66.6666666666667,4,1,1,71,0,1
468337,460.829493087558,4,1,1,71,1,1
468337,-66.6666666666667,4,1,1,71,0,1
469258,444.609114486847,4,1,1,71,1,1
469258,-66.6666666666667,4,1,1,71,0,1
470815,462.214005084354,4,1,2,71,1,0
471046,-100,4,1,1,71,0,0
471739,443.458980044346,4,2,2,71,1,0
473734,460.475825019186,4,2,2,71,1,0
476266,-100,4,2,2,71,0,0
477187,471.142520612485,4,2,2,71,1,0
477422,471.142520612485,7,2,2,71,1,0
477893,-100,4,1,3,61,0,0
478010,-100,4,2,2,71,0,0
480719,-100,4,1,3,61,0,0
480837,-100,4,2,2,71,0,0
481662,-100,4,1,3,61,0,0
481780,-100,4,2,2,71,0,0
483546,-100,4,1,3,61,0,0
483664,-100,4,2,2,71,0,0
487315,472.44094488189,7,2,2,71,1,0
490622,467.836257309942,7,2,2,71,1,0
497171,470.035252643948,7,2,2,71,1,0
501401,-100,4,1,3,61,0,0
501518,-100,4,2,2,71,0,0
501872,485.122897800776,4,1,2,71,1,0
501932,-100,4,2,2,71,0,0
503327,443.458980044346,4,2,2,71,1,0
504213,464.396284829721,4,2,2,71,1,0
506070,461.538461538462,4,2,2,71,1,0
506243,-100,4,2,2,41,0,0
509762,-100,4,2,4,5,0,0

[Colours]
Combo1 : 155,0,0
Combo2 : 20,41,129
Combo3 : 84,135,32
Combo4 : 28,104,192
Combo5 : 255,0,0

[HitObjects]
256,192,1119,12,0,8059,0:0:0:0:
256,192,8114,6,0,L|224:192,1,24.9999988079071
487,179,11170,5,0,0:0:0:0:
408,328,11580,2,0,L|344:328,1,62.4999970197678
344,292,11799,2,0,L|344:244,1,37.4999982118607
344,136,12237,2,0,P|192:72|56:120,1,312.499985098839
362,257,16707,5,0,0:0:0:0:
248,192,17756,2,0,L|208:192,2,37.4999982118607
256,88,19800,37,0,0:0:0:0:
256,232,20164,2,0,L|256:288,1,49.9999976158143
264,320,20360,1,0,0:0:0:0:
296,328,20472,2,0,L|400:328,1,99.9999952316285
256,32,21872,6,0,L|296:32,2,37.4999982118607
256,112,22329,2,0,L|216:112,2,37.4999982118607
256,192,22788,1,0,0:0:0:0:
256,192,22911,12,0,28457,0:0:0:0:
256,192,28704,5,0,0:0:0:0:
256,192,29862,1,0,0:0:0:0:
256,192,29934,2,0,L|256:148,1,33.3333317438762
92,61,33484,37,0,0:0:0:0:
313,62,33914,2,0,L|313:117,1,49.9999976158143
312,160,34129,1,0,0:0:0:0:
312,160,34221,2,0,B|240:208|240:208|240:296,1,174.99999165535
472,296,35451,1,0,0:0:0:0:
88,192,37254,21,0,0:0:0:0:
112,48,41194,53,2,0:0:0:0:
316,48,41637,2,0,L|316:136,1,87.4999958276749
320,164,41944,2,0,L|368:164,1,37.4999982118607
399,266,42284,6,0,B|401:317|401:317|373:362,1,99.9999952316285,2|0,0:0|0:0,0:0:0:0:
212,360,42732,2,0,L|112:360,1,99.9999952316285
96,264,43180,38,0,L|96:160,1,99.9999952316285,2|0,0:0|0:0,0:0:0:0:
256,292,43641,2,0,L|256:192,1,99.9999952316285,2|0,0:0|0:0,0:0:0:0:
256,32,44103,2,0,P|207:25|160:38,2,99.9999952316285,2|0|2,0:0|0:0|0:0,0:0:0:0:
256,192,44754,5,14,0:0:0:0:
466,53,45218,1,0,0:0:0:0:
466,53,45437,2,0,L|464:164,1,99.9999952316285,10|0,0:0|0:0,0:0:0:0:
464,192,45766,1,0,0:0:0:0:
464,232,45875,1,2,0:0:0:0:
358,332,46094,1,8,3:0:0:0:
208,312,46313,2,0,P|152:296|120:264,1,99.9999952316285,10|0,0:0|0:0,0:0:0:0:
112,240,46642,1,0,0:0:0:0:
112,208,46751,5,2,0:0:0:0:
176,72,46966,1,8,3:0:0:0:
344,88,47181,2,0,P|384:112|416:160,1,99.9999952316285,10|2,0:0|0:0,0:0:0:0:
252,187,47612,37,0,0:0:0:0:
117,279,47828,1,8,3:0:0:0:
117,279,47936,1,0,0:0:0:0:
117,279,48043,1,8,0:0:0:0:
216,336,48259,2,0,L|323:336,1,99.9999952316285,2|8,0:0|3:0,0:0:0:0:
368,248,48693,5,10,3:0:0:0:
272,136,48912,1,8,0:0:0:0:
216,264,49131,1,0,0:0:0:0:
85,223,49350,2,0,P|75:124|154:83,1,199.999990463257,2|8,0:0|0:0,0:0:0:0:
272,86,50007,2,0,L|272:142,1,49.9999976158143,2|0,0:0|0:0,0:0:0:0:
176,208,50226,6,0,P|217:314|296:344,1,199.999990463257,8|8,3:0|0:0,0:0:0:0:
296,216,50873,1,0,0:0:0:0:
176,176,51088,1,4,0:0:0:0:
197,143,51196,1,4,0:0:0:0:
224,112,51304,1,12,3:0:0:0:
336,112,51520,1,12,0:0:0:0:
360,144,51628,1,4,0:0:0:0:
384,176,51736,1,4,0:0:0:0:
288,288,51951,37,8,3:0:0:0:
176,248,52174,2,0,L|176:144,1,99.9999952316285,10|8,3:0|0:0,0:0:0:0:
304,144,52621,1,0,0:0:0:0:
386,264,52844,6,0,L|488:264,2,99.9999952316285,10|8|10,3:0|3:0|0:0,0:0:0:0:
280,264,53514,1,0,0:0:0:0:
248,288,53626,1,0,0:0:0:0:
216,264,53737,5,2,0:0:0:0:
96,120,53956,1,8,3:0:0:0:
128,248,54173,1,10,0:0:0:0:
192,104,54390,2,0,P|232:100|288:72,1,99.9999952316285,2|0,0:0|0:0,0:0:0:0:
384,136,54824,2,0,L|488:136,2,99.9999952316285,8|8|2,3:0|0:0|0:0,0:0:0:0:
376,184,55367,38,0,L|320:184,1,49.9999976158143,0|8,0:0|3:0,0:0:0:0:
248,280,55692,2,0,L|248:384,2,99.9999952316285,10|10|0,3:0|0:0|0:0,0:0:0:0:
208,168,56343,2,0,P|128:144|80:240,1,199.999990463257,2|10,0:0|0:0,0:0:0:0:
144,336,56994,1,2,0:0:0:0:
144,336,57103,1,0,0:0:0:0:
144,336,57214,6,0,L|344:336,1,199.999990463257,8|8,3:0|0:0,0:0:0:0:
416,240,57868,2,0,B|447:191|444:140,1,99.9999952316285,0|4,0:0|0:0,0:0:0:0:
448,104,58195,1,4,0:0:0:0:
448,72,58304,1,4,0:0:0:0:
200,40,58522,5,12,0:0:0:0:
172,64,58631,1,4,0:0:0:0:
155,95,58740,2,0,P|139:143|147:191,1,99.9999952316285,12|12,3:0|0:0,0:0:0:0:
176,304,59189,37,2,0:0:0:0:
32,248,59419,1,10,0:0:0:0:
16,104,59650,1,2,0:0:0:0:
172,64,59880,22,0,B|225:233|436:64|468:320,1,399.999980926514,2|0,0:0|3:0,0:0:0:0:
328,244,60986,1,10,3:0:0:0:
248,344,61207,1,8,0:0:0:0:
176,224,61428,54,0,L|32:224,1,99.9999952316285,2|2,0:0|0:0,0:0:0:0:
104,64,61869,2,0,L|168:64,3,49.9999976158143,8|0|8|0,3:0|0:0|0:0|0:0,0:0:0:0:
200,68,62310,2,0,B|200:124,1,49.9999976158143
132,176,62530,2,0,L|132:280,1,99.9999952316285,0|10,0:0|3:0,0:0:0:0:
336,352,62971,1,10,0:0:0:0:
208,352,63191,1,2,0:0:0:0:
424,256,63412,6,0,B|296:80|272:280|168:272|104:128,1,399.999980926514,2|0,0:0|0:0,0:0:0:0:
184,24,64526,2,0,P|128:40|88:72,1,99.9999952316285,10|8,3:0|0:0,0:0:0:0:
288,24,64972,38,0,P|342:30|389:58,1,99.9999952316285,2|0,0:0|0:0,0:0:0:0:
448,152,65418,1,10,3:0:0:0:
388,264,65641,1,10,0:0:0:0:
320,136,65864,1,0,0:0:0:0:
320,176,65976,1,0,0:0:0:0:
320,216,66087,5,8,3:0:0:0:
200,144,66310,1,10,3:0:0:0:
228,288,66533,1,10,0:0:0:0:
320,216,66756,1,2,0:0:0:0:
312,96,66979,6,0,P|96:136|138:240,1,399.999980926514,2|8,0:0|3:0,0:0:0:0:
240,176,68094,1,10,3:0:0:0:
280,304,68317,1,8,0:0:0:0:
424,240,68541,38,0,P|329:172|309:93,1,199.999990463257,14|0,0:0|0:0,0:0:0:0:
168,96,69207,2,0,P|120:104|88:144,1,99.9999952316285,10|0,0:0|0:0,0:0:0:0:
160,320,69651,22,0,P|216:320|254:286,1,99.9999952316285,2|8,0:0|3:0,0:0:0:0:
168,96,70096,2,0,P|118:96|75:118,1,99.9999952316285,10|0,0:0|0:0,0:0:0:0:
160,320,70540,54,0,L|262:286,1,99.9999952316285,2|8,0:0|3:0,0:0:0:0:
168,96,70985,2,0,L|64:112,1,99.9999952316285,10|2,0:0|0:0,0:0:0:0:
51,205,71429,5,8,0:0:0:0:
256,192,71661,2,0,B|256:136,2,49.9999976158143,10|8|8,0:0|0:0|0:0,0:0:0:0:
256,224,72009,1,8,0:0:0:0:
256,256,72125,1,10,3:0:0:0:
440,80,72359,37,14,1:0:0:0:
456,176,72601,1,2,0:0:0:0:
432,280,72843,1,2,0:0:0:0:
336,320,73085,1,2,0:0:0:0:
96,264,73328,5,14,1:0:0:0:
48,120,73570,1,2,0:0:0:0:
144,16,73812,1,2,0:0:0:0:
240,168,74055,1,2,0:0:0:0:
368,304,74297,5,14,1:0:0:0:
240,168,74539,1,2,0:0:0:0:
448,144,74782,1,2,0:0:0:0:
296,32,75024,1,2,0:0:0:0:
88,72,75267,37,14,1:0:0:0:
256,192,75381,12,0,77778,0:0:0:0:
96,336,78007,5,8,0:0:0:0:
96,336,78121,1,8,0:0:0:0:
256,352,78349,1,8,0:0:0:0:
256,352,78464,2,0,P|263:302|251:214,1,99.9999952316285,8|14,3:0|0:0,0:0:0:0:
256,46,79200,5,0,0:0:0:0:
256,192,79424,2,0,L|360:168,1,99.9999952316285,10|0,0:0|0:0,0:0:0:0:
256,192,79871,2,0,L|152:152,1,99.9999952316285,10|8,3:0|3:0,0:0:0:0:
256,192,80319,2,0,L|256:80,1,99.9999952316285,10|0,0:0|0:0,0:0:0:0:
256,192,80767,38,0,L|256:296,1,99.9999952316285,2|8,0:0|3:0,0:0:0:0:
256,192,81201,1,10,0:0:0:0:
256,192,81418,2,0,B|128:160|72:240|80:312|136:360,1,299.999985694885,2|8,0:0|0:0,0:0:0:0:
256,312,82286,1,4,0:0:0:0:
256,312,82398,1,4,0:0:0:0:
256,312,82509,6,0,L|360:312,1,99.9999952316285,4|12,0:0|3:0,0:0:0:0:
336,160,82954,2,4,L|229:160,1,99.9999952316285,12|4,0:0|0:0,0:0:0:0:
360,40,83399,2,4,L|235:40,1,99.9999952316285,4|12,0:0|3:0,0:0:0:0:
167,155,83842,1,12,0:0:0:0:
335,161,84064,6,0,B|391:145|431:193,1,99.9999952316285,2|2,0:0|0:0,0:0:0:0:
448,216,84396,1,0,0:0:0:0:
456,256,84507,2,0,L|456:344,1,49.9999976158143,10|2,3:0|0:0,0:0:0:0:
352,344,84728,2,0,L|292:344,1,49.9999976158143,10|2,0:0|0:0,0:0:0:0:
200,296,84950,2,0,L|144:296,1,49.9999976158143,2|2,0:0|0:0,0:0:0:0:
112,168,85170,38,0,L|112:112,1,49.9999976158143,10|2,0:0|0:0,0:0:0:0:
304,120,85391,2,0,L|304:178,1,49.9999976158143,10|2,3:0|0:0,0:0:0:0:
216,240,85612,1,10,3:0:0:0:
152,32,85833,5,14,0:0:0:0:
152,32,86303,2,0,L|256:32,1,99.9999952316285,2|10,0:0|0:0,0:0:0:0:
248,192,86749,2,0,L|352:192,1,99.9999952316285,2|2,0:0|0:0,0:0:0:0:
359,39,87194,6,0,P|401:75|390:117,1,99.9999952316285,8|8,3:0|0:0,0:0:0:0:
328,248,87640,1,0,0:0:0:0:
328,248,87751,1,0,0:0:0:0:
328,248,87862,37,0,0:0:0:0:
260,76,88085,1,10,3:0:0:0:
152,208,88308,1,8,0:0:0:0:
384,192,88530,1,2,0:0:0:0:
312,304,88753,6,0,L|208:320,1,99.9999952316285,0|10,0:0|3:0,0:0:0:0:
128,160,89199,1,8,0:0:0:0:
216,40,89421,1,0,0:0:0:0:
256,40,89533,1,0,0:0:0:0:
296,40,89644,5,0,0:0:0:0:
328,184,89867,2,0,L|224:184,1,99.9999952316285,10|10,3:0|0:0,0:0:0:0:
136,304,90312,2,0,L|249:287,1,99.9999952316285,2|2,0:0|0:0,0:0:0:0:
333,303,90758,38,0,L|227:288,1,99.9999952316285,8|8,3:0|0:0,0:0:0:0:
128,200,91203,2,0,L|171:162,1,49.9999976158143,8|0,3:0|0:0,0:0:0:0:
257,82,91426,5,0,0:0:0:0:
352,192,91648,1,10,3:0:0:0:
128,200,91871,1,8,0:0:0:0:
240,312,92094,1,2,0:0:0:0:
380,212,92317,1,0,0:0:0:0:
256,96,92539,1,10,3:0:0:0:
104,152,92762,2,0,P|64:176|40:232,1,99.9999952316285,10|8,0:0|3:0,0:0:0:0:
32,256,93096,1,0,0:0:0:0:
32,296,93207,5,0,0:0:0:0:
168,232,93430,1,2,0:0:0:0:
280,328,93653,2,0,P|328:328|368:296,1,99.9999952316285,10|2,0:0|0:0,0:0:0:0:
432,184,94098,37,2,0:0:0:0:
264,120,94321,2,0,L|264:16,2,99.9999952316285,8|8|0,3:0|0:0|0:0,0:0:0:0:
264,152,94878,1,0,0:0:0:0:
264,184,94989,5,0,0:0:0:0:
216,328,95212,2,0,P|168:336|128:296,1,99.9999952316285,10|8,3:0|0:0,0:0:0:0:
264,152,95657,6,0,P|369:121|433:185,1,199.999990463257,14|2,0:0|0:0,0:0:0:0:
303,308,96324,2,0,P|232:223|291:136,1,199.999990463257,10|2,0:0|0:0,0:0:0:0:
120,92,96992,37,8,3:0:0:0:
106,268,97214,2,0,L|306:308,1,199.999990463257,10|2,0:0|0:0,0:0:0:0:
240,128,97881,1,8,3:0:0:0:
392,256,98104,2,0,L|392:152,1,99.9999952316285,10|2,0:0|0:0,0:0:0:0:
240,128,98549,22,8,B|176:136|136:176,1,99.9999952316285
112,264,98882,2,8,L|32:264,1,49.9999976158143
24,176,99105,2,8,L|80:176,1,49.9999976158143,8|0,0:0|0:0,0:0:0:0:
149,94,99440,38,0,B|197:139|245:126,1,99.9999952316285,14|2,1:0|0:0,0:0:0:0:
335,119,99920,2,0,B|280:102|239:127,1,99.9999952316285,2|2,0:0|0:0,0:0:0:0:
228,220,100400,2,0,B|201:178|241:122,1,99.9999952316285,14|2,1:0|0:0,0:0:0:0:
226,33,100892,2,0,B|263:75|234:137,1,99.9999952316285,2|2,0:0|0:0,0:0:0:0:
168,194,101384,2,0,B|191:144|248:122,1,99.9999952316285,14|2,1:0|0:0,0:0:0:0:
295,49,101876,2,0,B|287:97|233:131,1,99.9999952316285,2|2,0:0|0:0,0:0:0:0:
104,56,102368,6,0,P|204:25|302:52,1,199.999990463257,14|0,1:0|0:0,0:0:0:0:
96,280,103950,2,0,P|191:309|296:272,1,199.999990463257
344,176,105361,5,2,0:0:0:0:
232,48,105601,1,2,0:0:0:0:
96,112,105841,2,0,P|48:168|96:296,1,199.999990463257,2|10,0:0|3:0,0:0:0:0:
224,344,119230,69,14,0:0:0:0:
72,344,119460,1,0,0:0:0:0:
106,193,119690,2,8,L|378:193,1,259.99997570038
436,107,120380,53,8,3:0:0:0:
320,48,120611,2,0,L|173:48,1,129.99998785019,0|8,0:0|3:0,0:0:0:0:
106,193,121071,2,0,L|249:193,1,129.99998785019,0|8,0:0|3:0,0:0:0:0:
232,48,121532,1,8,0:0:0:0:
366,193,121761,2,0,L|218:193,1,129.99998785019,0|8,0:0|0:0,0:0:0:0:
56,176,122222,5,8,3:0:0:0:
120,320,122452,1,0,0:0:0:0:
266,274,122682,2,0,B|317:204|386:186,1,129.99998785019,10|10,3:0|0:0,0:0:0:0:
480,112,123143,37,2,0:0:0:0:
320,40,123373,1,10,0:0:0:0:
365,192,123603,1,2,0:0:0:0:
266,274,123833,1,10,0:0:0:0:
400,312,124063,1,10,3:0:0:0:
272,176,124293,1,2,0:0:0:0:
424,112,124525,1,10,3:0:0:0:
280,24,124754,5,2,0:0:0:0:
224,128,124984,2,0,B|82:128,1,129.99998785019,10|8,3:0|0:0,0:0:0:0:
224,128,125445,2,0,L|224:258,1,129.99998785019,2|10,0:0|0:0,0:0:0:0:
350,256,125907,5,0,0:0:0:0:
462,334,126139,2,0,L|462:67,1,259.99997570038,8|8,0:0|0:0,0:0:0:0:
250,74,126833,1,8,3:0:0:0:
344,190,127065,1,0,0:0:0:0:
264,302,127296,1,8,3:0:0:0:
154,133,127528,2,0,B|249:134|249:71|249:71|419:71,1,259.99997570038,0|8,0:0|0:0,0:0:0:0:
250,74,128223,38,0,L|250:224,1,129.99998785019
376,200,128686,1,8,3:0:0:0:
120,200,128917,1,8,0:0:0:0:
249,74,129149,6,0,L|384:74,1,129.99998785019,2|8,0:0|0:0,0:0:0:0:
200,208,129607,1,10,3:0:0:0:
360,264,129834,1,2,0:0:0:0:
192,296,130061,1,10,3:0:0:0:
312,168,130289,1,2,0:0:0:0:
120,168,130516,2,0,L|120:306,1,129.99998785019,10|10,3:0|0:0,0:0:0:0:
256,336,130970,5,14,0:0:0:0:
256,24,131453,1,10,3:0:0:0:
408,24,131694,1,8,3:0:0:0:
393,204,131936,37,14,1:0:0:0:
104,56,132394,1,2,0:0:0:0:
216,184,132623,1,2,0:0:0:0:
48,160,132852,1,2,0:0:0:0:
136,264,133082,1,2,0:0:0:0:
176,104,133311,2,0,P|328:88|360:120,1,199.999990463257,2|14,0:0|0:0,0:0:0:0:
256,192,133883,12,14,135584,0:0:0:0:
369,178,136001,6,0,B|369:282,1,99.9999952316285,0|10,0:0|0:0,0:0:0:0:
224,280,136457,2,0,L|168:280,1,49.9999976158143
48,192,136685,1,2,0:0:0:0:
56,48,136913,5,8,3:0:0:0:
192,32,137141,2,0,B|320:32,1,99.9999952316285,10|0,0:0|0:0,0:0:0:0:
336,40,137484,1,0,0:0:0:0:
360,72,137598,38,0,L|360:176,1,99.9999952316285,2|8,0:0|3:0,0:0:0:0:
288,312,138019,1,10,0:0:0:0:
256,160,138230,1,2,0:0:0:0:
112,120,138441,5,0,0:0:0:0:
80,272,138663,1,8,3:0:0:0:
104,312,138774,1,0,0:0:0:0:
136,336,138886,1,8,0:0:0:0:
288,344,139108,1,4,0:0:0:0:
328,320,139220,1,4,0:0:0:0:
360,288,139331,5,0,0:0:0:0:
448,168,139551,1,12,3:0:0:0:
288,144,139771,2,4,L|184:144,1,99.9999952316285,12|4,0:0|0:0,0:0:0:0:
184,296,140211,1,4,0:0:0:0:
88,144,140431,2,0,B|188:144,1,99.9999952316285,12|12,3:0|0:0,0:0:0:0:
288,32,140880,1,2,0:0:0:0:
328,48,140995,1,2,0:0:0:0:
360,72,141111,37,2,0:0:0:0:
384,112,141217,1,2,0:0:0:0:
400,160,141323,1,10,3:0:0:0:
400,208,141430,1,2,0:0:0:0:
392,256,141536,5,10,0:0:0:0:
368,296,141643,1,2,0:0:0:0:
336,328,141749,1,2,0:0:0:0:
296,344,141856,1,2,0:0:0:0:
256,344,141962,6,0,L|200:344,1,49.9999976158143,10|10,0:0|0:0,0:0:0:0:
200,208,142175,2,0,L|257:208,1,49.9999976158143,2|10,0:0|0:0,0:0:0:0:
384,112,142388,1,10,3:0:0:0:
248,24,142601,37,14,0:0:0:0:
24,216,143090,2,0,P|32:264|64:304,1,99.9999952316285,0|10,0:0|0:0,0:0:0:0:
208,336,143537,1,0,0:0:0:0:
248,192,143760,5,2,0:0:0:0:
272,336,143983,2,0,L|372:336,1,99.9999952316285,8|10,3:0|0:0,0:0:0:0:
384,224,144428,2,0,L|439:223,2,49.9999976158143,0|0|2,0:0|0:0|0:0,0:0:0:0:
336,128,144874,2,0,P|383:85|420:84,2,99.9999952316285,0|10|2,0:0|0:0|0:0,0:0:0:0:
256,232,145543,5,0,0:0:0:0:
256,72,145752,2,0,L|200:48,1,49.9999976158143,8|0,3:0|0:0,0:0:0:0:
136,24,145961,1,8,0:0:0:0:
64,208,146198,2,0,L|64:288,1,49.9999976158143
64,344,146436,1,10,0:0:0:0:
200,344,146671,1,2,0:0:0:0:
200,208,146907,54,0,P|216:96|288:32,1,199.999990463257,12|12,3:0|3:0,0:0:0:0:
384,32,147362,1,2,0:0:0:0:
384,32,147590,1,2,0:0:0:0:
472,96,147818,6,0,P|488:224|448:280,1,199.999990463257,12|2,3:0|0:0,0:0:0:0:
344,336,148292,1,2,0:0:0:0:
344,336,148530,38,0,P|256:352|152:320,1,199.999990463257,12|2,3:0|0:0,0:0:0:0:
72,216,149025,1,2,0:0:0:0:
72,216,149274,6,0,P|78:136|206:88,1,199.999990463257,12|2,3:0|0:0,0:0:0:0:
341,95,149740,1,2,0:0:0:0:
341,95,149973,2,0,P|307:124|173:78,1,199.999990463257,12|14,3:0|0:0,0:0:0:0:
272,16,150452,53,2,0:0:0:0:
448,80,150675,1,10,0:0:0:0:
352,192,150897,2,0,P|256:224|160:192,1,199.999990463257,2|10,0:0|3:0,0:0:0:0:
152,160,151454,1,0,0:0:0:0:
160,120,151565,6,0,P|262:56|419:131,1,299.999985694885,10|10,0:0|3:0,0:0:0:0:
296,232,152455,1,8,0:0:0:0:
160,120,152678,2,0,P|144:176|160:224,1,99.9999952316285,2|2,0:0|0:0,0:0:0:0:
272,284,153123,5,8,3:0:0:0:
272,284,153234,1,0,0:0:0:0:
272,284,153345,1,8,0:0:0:0:
376,140,153568,1,0,0:0:0:0:
376,140,153679,1,0,0:0:0:0:
376,140,153790,37,0,0:0:0:0:
240,72,154014,1,10,3:0:0:0:
128,176,154239,1,10,0:0:0:0:
272,284,154463,2,0,L|344:284,2,49.9999976158143,2|0|2,0:0|0:0|0:0,0:0:0:0:
448,192,154913,6,0,L|344:192,1,99.9999952316285,8|8,3:0|0:0,0:0:0:0:
200,192,155362,2,0,L|200:248,1,49.9999976158143
200,352,155587,6,0,L|312:352,2,99.9999952316285,0|10|8,0:0|3:0|0:0,0:0:0:0:
200,192,156260,2,0,P|136:176|96:192,1,99.9999952316285,2|0,0:0|0:0,0:0:0:0:
8,272,156710,1,10,3:0:0:0:
120,344,156934,1,10,0:0:0:0:
256,240,157159,1,0,0:0:0:0:
256,240,157271,1,0,0:0:0:0:
256,240,157384,37,0,0:0:0:0:
256,88,157608,1,10,3:0:0:0:
384,216,157833,1,8,0:0:0:0:
268,346,158058,1,2,0:0:0:0:
144,224,158282,1,0,0:0:0:0:
256,88,158507,6,0,L|328:88,2,49.9999976158143,10|0|10,3:0|0:0|0:0,0:0:0:0:
48,160,158956,1,0,0:0:0:0:
48,160,159068,1,0,0:0:0:0:
48,160,159181,5,0,0:0:0:0:
216,264,159405,1,10,3:0:0:0:
72,344,159630,1,8,0:0:0:0:
336,320,159855,37,14,0:0:0:0:
336,320,160306,2,0,B|440:320,1,99.9999952316285,0|10,0:0|0:0,0:0:0:0:
440,168,160758,2,0,L|440:64,1,99.9999952316285,0|2,0:0|0:0,0:0:0:0:
297,164,161211,1,8,3:0:0:0:
224,48,161437,1,10,0:0:0:0:
108,140,161663,2,0,B|108:248,1,99.9999952316285,0|2,0:0|0:0,0:0:0:0:
248,280,162116,1,8,3:0:0:0:
248,112,162342,1,10,0:0:0:0:
384,120,162569,6,0,B|406:196|318:244|382:324,1,199.999990463257,2|10,0:0|0:0,0:0:0:0:
436,350,163247,1,8,0:0:0:0:
436,350,163361,1,8,0:0:0:0:
436,350,163474,1,10,0:0:0:0:
297,355,163701,6,0,L|247:355,1,49.9999976158143,14|0,1:0|0:0,0:0:0:0:
208,265,163946,2,0,L|158:265,1,49.9999976158143,2|0,0:0|0:0,0:0:0:0:
176,144,164192,2,0,L|118:145,1,49.9999976158143,2|0,0:0|0:0,0:0:0:0:
218,37,164438,2,0,L|160:37,1,49.9999976158143,2|0,0:0|0:0,0:0:0:0:
315,42,164683,38,0,L|316:91,1,49.9999976158143,14|0,1:0|0:0,0:0:0:0:
448,89,164929,2,0,L|448:145,1,49.9999976158143,2|0,0:0|0:0,0:0:0:0:
319,136,165175,2,0,L|319:196,1,49.9999976158143,2|0,0:0|0:0,0:0:0:0:
450,186,165420,2,0,L|450:244,1,49.9999976158143,2|0,0:0|0:0,0:0:0:0:
257,295,165666,6,0,L|257:348,1,49.9999976158143,14|0,1:0|0:0,0:0:0:0:
165,201,165912,2,0,L|110:201,1,49.9999976158143,2|0,0:0|0:0,0:0:0:0:
254,109,166158,2,0,L|254:54,1,49.9999976158143,2|0,0:0|0:0,0:0:0:0:
344,208,166403,1,2,0:0:0:0:
254,109,166649,6,0,B|142:109|142:109|86:184,1,199.999990463257,14|0,1:0|0:0,0:0:0:0:
248,352,168175,1,0,0:0:0:0:
472,176,168860,1,0,0:0:0:0:
256,88,169546,37,2,0:0:0:0:
80,136,169776,1,2,0:0:0:0:
112,296,170006,2,0,P|168:328|320:328,1,199.999990463257,2|10,0:0|0:0,0:0:0:0:
391,189,170699,22,0,P|400:128|352:80,1,99.9999952316285,0|10,0:0|0:0,0:0:0:0:
256,28,171163,1,0,0:0:0:0:
96,96,171395,38,0,L|96:200,1,99.9999952316285,8|8,0:0|3:0,0:0:0:0:
232,120,171859,1,0,0:0:0:0:
360,184,172091,2,0,P|376:240|336:296,1,99.9999952316285,8|0,3:0|0:0,0:0:0:0:
224,264,172555,2,0,L|126:280,1,99.9999952316285,8|8,3:0|0:0,0:0:0:0:
68,160,173019,5,0,0:0:0:0:
248,92,173251,1,2,0:0:0:0:
128,256,173483,1,10,3:0:0:0:
160,56,173715,1,2,0:0:0:0:
304,200,173947,5,10,3:0:0:0:
304,200,174179,2,0,L|304:304,1,99.9999952316285,0|2,0:0|0:0,0:0:0:0:
464,160,174643,2,0,L|464:264,1,99.9999952316285,10|2,0:0|0:0,0:0:0:0:
352,112,175107,37,0,0:0:0:0:
176,192,175339,1,10,3:0:0:0:
328,56,175571,1,10,0:0:0:0:
136,112,175803,5,2,0:0:0:0:
320,192,176035,1,8,0:0:0:0:
288,24,176267,1,10,3:0:0:0:
152,160,176499,1,0,0:0:0:0:
328,240,176731,1,8,3:0:0:0:
288,240,176847,1,0,0:0:0:0:
256,240,176963,6,0,L|180:240,3,64.9999939250949,0|0|8|0,0:0|0:0|3:0|0:0,0:0:0:0:
152,232,177425,2,0,L|96:184,3,64.9999939250949,8|0|0|0,0:0|0:0|0:0|0:0,0:0:0:0:
104,160,177888,38,0,L|104:96,3,64.9999939250949,8|0|8|0,0:0|0:0|3:0|0:0,0:0:0:0:
120,56,178351,2,0,L|200:56,3,64.9999939250949,0|0|8|0,0:0|0:0|3:0|0:0,0:0:0:0:
224,56,178814,6,0,L|288:56,3,64.9999939250949,0|0|8|0,0:0|0:0|3:0|0:0,0:0:0:0:
328,64,179277,2,0,L|328:136,3,64.9999939250949,8|0|0|0,0:0|0:0|0:0|0:0,0:0:0:0:
328,168,179740,6,0,L|328:240,4,64.9999939250949,0|0|8|0|8,0:0|0:0|3:0|0:0|0:0,0:0:0:0:
112,136,180435,38,0,P|88:208|96:296,1,149.999998569489,2|0,0:0|0:0,0:0:0:0:
240,304,180898,1,10,3:0:0:0:
104,312,181129,1,10,0:0:0:0:
216,184,181361,1,2,0:0:0:0:
216,44,181592,5,2,0:0:0:0:
396,48,181824,1,10,3:0:0:0:
224,144,182055,1,10,0:0:0:0:
392,152,182287,5,2,0:0:0:0:
264,216,182518,2,0,L|264:400,2,149.999998569489,2|10|8,0:0|3:0|0:0,0:0:0:0:
324,80,183206,1,2,0:0:0:0:
185,32,183444,38,0,L|97:32,3,69.9999945259097,2|0|8|0,0:0|0:0|3:0|0:0,0:0:0:0:
72,48,183903,2,0,L|72:144,3,69.9999945259097,8|0|0|0,0:0|0:0|0:0|0:0,0:0:0:0:
96,160,184362,6,0,L|200:160,3,69.9999945259097,8|0|8|0,0:0|0:0|3:0|0:0,0:0:0:0:
208,168,184822,2,0,P|200:195|212:244,3,69.9999945259097,0|0|8|0,0:0|0:0|3:0|0:0,0:0:0:0:
240,264,185281,6,0,P|288:264|336:232,3,69.9999945259097,0|0|8|0,0:0|0:0|3:0|0:0,0:0:0:0:
352,256,185740,2,0,B|352:336,3,69.9999945259097,8|0|0|0,0:0|0:0|0:0|0:0,0:0:0:0:
344,360,186200,38,0,L|256:360,1,69.9999945259097
256,320,186429,2,0,L|184:320,2,69.9999945259097,8|0|8,3:0|0:0|0:0,0:0:0:0:
144,192,186889,6,0,P|122:205|93:326,1,149.999998569489,2|0,0:0|0:0,0:0:0:0:
256,320,187348,2,0,L|394:255,1,149.999998569489,10|10,3:0|0:0,0:0:0:0:
224,240,187808,2,0,L|370:171,1,149.999998569489,2|2,0:0|0:0,0:0:0:0:
320,88,188267,2,0,L|176:152,1,149.999998569489,10|10,3:0|0:0,0:0:0:0:
56,152,188726,1,0,0:0:0:0:
144,320,188956,5,2,0:0:0:0:
288,216,189194,1,8,3:0:0:0:
96,232,189433,1,8,0:0:0:0:
256,144,189671,1,2,0:0:0:0:
400,72,189910,38,0,L|360:32,3,49.9999976158143,2|0|8|0,0:0|0:0|3:0|0:0,0:0:0:0:
312,24,190364,2,0,L|256:24,3,49.9999976158143,8|0|0|0,0:0|0:0|0:0|0:0,0:0:0:0:
216,32,190818,2,0,L|184:72,1,49.9999976158143,8|0,0:0|0:0,0:0:0:0:
104,176,191045,6,0,P|40:248|96:328,1,199.999990463257,10|10,3:0|3:0,0:0:0:0:
232,320,191726,2,0,L|336:320,1,99.9999952316285,0|10,0:0|3:0,0:0:0:0:
432,320,192188,2,0,L|328:320,1,99.9999952316285,8|0,0:0|0:0,0:0:0:0:
328,200,192650,2,0,L|256:120,1,99.9999952316285,0|8,0:0|3:0,0:0:0:0:
328,200,193113,2,0,L|400:120,1,99.9999952316285,8|2,0:0|0:0,0:0:0:0:
304,32,193576,6,0,L|200:32,1,99.9999952316285,2|10,0:0|3:0,0:0:0:0:
72,64,194036,1,10,0:0:0:0:
88,192,194266,1,2,0:0:0:0:
216,176,194496,1,2,0:0:0:0:
112,304,194726,1,8,3:0:0:0:
256,288,194956,1,10,0:0:0:0:
256,288,195188,38,0,P|348:308|344:200,1,199.999990463257,14|2,0:0|0:0,0:0:0:0:
316,88,195895,1,0,0:0:0:0:
208,112,196132,6,0,P|120:152|104:256,1,199.999990463257,14|2,1:0|0:0,0:0:0:0:
152,328,196823,2,0,L|48:328,2,99.9999952316285,2|2|0,0:0|0:0|0:0,0:0:0:0:
232,320,197514,2,0,P|294:311|312:184,1,199.999990463257,2|14,0:0|0:0,0:0:0:0:
256,192,198079,12,0,201572,0:0:0:0:
360,40,201849,53,2,0:0:0:0:
440,104,202090,1,2,0:0:0:0:
468,188,202332,22,0,P|397:263|300:277,1,199.999990463257,12|12,3:0|3:0,0:0:0:0:
200,304,202785,1,2,0:0:0:0:
120,288,203039,1,2,0:0:0:0:
95,198,203295,2,0,P|87:110|175:46,1,199.999990463257,12|2,3:0|0:0,0:0:0:0:
264,24,203789,1,2,0:0:0:0:
360,40,204036,2,0,P|432:72|424:184,1,199.999990463257,12|2,3:0|0:0,0:0:0:0:
352,240,204530,1,2,0:0:0:0:
264,272,204779,2,0,P|200:288|104:200,1,199.999990463257,12|2,3:0|0:0,0:0:0:0:
136,112,205222,1,2,0:0:0:0:
224,112,205444,2,0,P|304:128|384:52,1,199.999990463257,12|14,3:0|0:0,0:0:0:0:
208,368,212829,38,4,P|248:328|280:240,1,149.999992847443,12|4,3:0|0:0,0:0:0:0:
287,209,213270,1,8,0:0:0:0:
248,80,213491,2,4,P|305:74|354:95,1,99.9999952316285,4|12,0:0|3:0,0:0:0:0:
376,105,213823,1,0,0:0:0:0:
402,136,213933,1,0,0:0:0:0:
420,174,214044,1,0,0:0:0:0:
432,216,214154,2,0,L|432:272,1,49.9999976158143,8|0,0:0|0:0,0:0:0:0:
264,288,214375,2,0,L|204:288,1,49.9999976158143
96,176,214596,6,4,P|136:128|216:144,1,149.999992847443,12|4,3:0|0:0,0:0:0:0:
214,142,215039,1,8,0:0:0:0:
168,264,215261,1,4,0:0:0:0:
256,352,215482,6,0,L|312:352,1,49.9999976158143,12|0,3:0|0:0,0:0:0:0:
384,264,215704,2,0,L|440:264,1,49.9999976158143
448,160,215926,2,0,L|448:104,1,49.9999976158143,8|0,0:0|0:0,0:0:0:0:
328,112,216148,2,0,L|328:168,1,49.9999976158143
318,264,216369,38,4,L|166:264,1,149.999992847443,12|4,3:0|0:0,0:0:0:0:
144,264,216814,1,8,0:0:0:0:
212,128,217036,2,4,P|140:104|100:148,1,99.9999952316285,4|12,0:0|3:0,0:0:0:0:
48,204,217481,1,0,0:0:0:0:
36,236,217593,1,4,0:0:0:0:
32,272,217704,2,0,P|45:324|86:345,1,99.9999952316285,8|4,0:0|0:0,0:0:0:0:
208,280,218149,6,4,L|258:280,2,49.9999976158143,12|4|4,3:0|0:0|0:0,0:0:0:0:
127,183,218594,1,8,0:0:0:0:
142,67,218817,2,0,P|184:48|240:56,1,99.9999952316285,0|8,0:0|3:0,0:0:0:0:
232,176,219262,2,0,L|176:176,2,49.9999976158143,0|0|8,0:0|0:0|0:0,0:0:0:0:
240,224,219596,2,0,P|262:282|323:287,1,99.9999952316285
328,288,219929,6,0,P|374:234|351:121,1,149.999992847443,12|4,3:0|0:0,0:0:0:0:
360,120,220374,1,8,0:0:0:0:
260,48,220597,2,0,L|160:48,1,99.9999952316285,4|12,0:0|3:0,0:0:0:0:
208,184,221042,37,2,0:0:0:0:
368,184,221265,2,0,P|368:232|336:272,1,99.9999952316285,10|2,0:0|0:0,0:0:0:0:
192,304,221709,6,0,P|97:271|88:232,1,149.999992847443,14|4,3:0|0:0,0:0:0:0:
88,192,222147,2,0,P|96:136|136:104,1,99.9999952316285,8|2,0:0|0:0,0:0:0:0:
240,160,222585,5,12,3:0:0:0:
358,50,222805,2,0,L|462:50,2,99.9999952316285,2|10|2,0:0|0:0|0:0,0:0:0:0:
247,37,223462,38,0,P|179:48|122:137,1,149.999992847443,12|6,3:0|0:0,0:0:0:0:
120,144,223900,2,0,L|121:253,1,99.9999952316285,8|2,0:0|0:0,0:0:0:0:
234,299,224338,2,0,P|301:282|336:257,1,99.9999952316285,12|2,3:0|0:0,0:0:0:0:
346,141,224776,1,8,0:0:0:0:
346,141,224885,2,0,P|270:112|200:128,1,149.999992847443,6|14,0:0|3:0,0:0:0:0:
104,32,225433,6,0,L|104:136,1,99.9999952316285,4|8,0:0|0:0,0:0:0:0:
104,232,225871,1,0,0:0:0:0:
104,336,226091,1,8,3:0:0:0:
120,336,226193,1,8,3:0:0:0:
136,336,226295,1,8,3:0:0:0:
152,336,226397,1,8,3:0:0:0:
168,336,226499,2,0,L|224:336,1,49.9999976158143,8|8,3:0|3:0,0:0:0:0:
264,264,226722,1,8,3:0:0:0:
264,248,226833,1,8,3:0:0:0:
264,232,226945,5,14,0:0:0:0:
240,144,227165,1,0,0:0:0:0:
240,144,227276,1,4,0:0:0:0:
240,144,227386,2,0,P|272:128|336:144,1,99.9999952316285,8|4,0:0|0:0,0:0:0:0:
408,232,227828,37,12,3:0:0:0:
312,304,228048,1,2,0:0:0:0:
224,208,228269,1,10,0:0:0:0:
104,256,228490,1,2,0:0:0:0:
48,112,228711,5,14,3:0:0:0:
160,32,228931,2,0,L|180:92,1,49.9999976158143,0|6,0:0|0:0,0:0:0:0:
257,140,229152,2,0,B|288:240,1,99.9999952316285,10|4,0:0|0:0,0:0:0:0:
181,205,229594,6,0,L|257:141,1,99.9999952316285,14|2,3:0|0:0,0:0:0:0:
192,48,230035,2,0,L|112:112,1,99.9999952316285,10|2,0:0|0:0,0:0:0:0:
181,205,230477,38,0,P|231:247|319:239,1,149.999992847443,14|6,3:0|0:0,0:0:0:0:
336,232,230921,1,8,0:0:0:0:
256,144,231144,1,6,0:0:0:0:
360,112,231366,1,12,3:0:0:0:
240,64,231589,2,0,P|328:24|424:72,1,199.999990463257,6|6,0:0|0:0,0:0:0:0:
360,160,232256,5,14,3:0:0:0:
256,224,232471,2,0,L|256:280,3,49.9999976158143,12|12|12|0,3:0|3:0|0:0|0:0,0:0:0:0:
256,312,232903,2,0,L|256:366,2,49.9999976158143,8|8|8,3:0|3:0|0:0,0:0:0:0:
288,312,233233,1,8,3:0:0:0:
312,312,233347,2,0,L|364:312,3,49.9999976158143,8|8|8|0,3:0|3:0|0:0|0:0,0:0:0:0:
408,256,233805,2,0,L|408:200,1,49.9999976158143,8|8,3:0|3:0,0:0:0:0:
408,80,234034,5,14,3:0:0:0:
312,16,234257,1,0,0:0:0:0:
272,24,234368,1,4,0:0:0:0:
244,40,234479,2,4,P|228:108|276:152,1,99.9999952316285,8|4,0:0|0:0,0:0:0:0:
352,192,234923,37,12,3:0:0:0:
256,272,235145,2,0,P|171:303|96:232,1,199.999990463257,2|2,0:0|0:0,0:0:0:0:
96,96,235811,5,14,3:0:0:0:
228,88,236033,1,0,0:0:0:0:
228,88,236144,1,6,0:0:0:0:
228,88,236255,1,8,0:0:0:0:
336,18,236477,1,6,0:0:0:0:
392,136,236699,6,0,B|424:188|464:201,1,99.9999952316285,14|2,3:0|0:0,0:0:0:0:
472,240,237032,2,0,L|472:300,1,49.9999976158143,0|10,0:0|0:0,0:0:0:0:
364,344,237365,1,2,0:0:0:0:
264,264,237587,37,14,3:0:0:0:
112,320,237809,1,0,0:0:0:0:
84,296,237921,1,6,0:0:0:0:
66,263,238032,2,0,P|58:208|72:166,1,99.9999952316285,8|2,0:0|0:0,0:0:0:0:
178,85,238476,6,0,P|226:85|254:132,1,99.9999952316285,14|4,3:0|0:0,0:0:0:0:
256,264,238920,1,8,0:0:0:0:
256,304,239031,1,6,0:0:0:0:
256,344,239142,1,0,0:0:0:0:
128,256,239364,5,14,3:0:0:0:
231,140,239586,2,0,P|266:108|336:83,1,99.9999952316285,4|8,0:0|0:0,0:0:0:0:
320,244,240030,2,0,P|368:212|396:174,1,99.9999952316285,0|8,0:0|3:0,0:0:0:0:
416,144,240363,1,0,0:0:0:0:
432,112,240474,2,0,L|456:68,2,49.9999976158143,0|8|8,0:0|0:0|0:0,0:0:0:0:
313,72,240918,1,8,3:0:0:0:
144,70,241140,38,0,P|146:148|224:148,1,149.999992847443,14|0,3:0|0:0,0:0:0:0:
239,157,241585,2,0,P|310:199|311:229,1,99.9999952316285,8|0,0:0|0:0,0:0:0:0:
72,216,242030,6,0,L|16:216,1,49.9999976158143,8|0,3:0|0:0,0:0:0:0:
84,260,242252,2,0,P|120:318|172:324,1,99.9999952316285,2|8,0:0|0:0,0:0:0:0:
184,336,242586,1,2,0:0:0:0:
224,336,242697,1,0,0:0:0:0:
344,260,242920,6,0,P|408:204|372:124,1,149.999992847443,10|0,3:0|0:0,0:0:0:0:
376,112,243365,2,0,P|316:112|280:84,1,99.9999952316285,8|0,0:0|0:0,0:0:0:0:
344,260,243810,2,0,P|300:308|248:328,1,99.9999952316285,8|2,3:0|0:0,0:0:0:0:
232,336,244144,1,0,0:0:0:0:
192,336,244255,1,8,0:0:0:0:
152,328,244367,1,2,0:0:0:0:
120,304,244478,1,0,0:0:0:0:
88,144,244701,38,0,P|152:88|240:112,1,149.999992847443,10|0,3:0|0:0,0:0:0:0:
248,112,245154,2,0,P|329:149|363:145,1,99.9999952316285,8|2,0:0|0:0,0:0:0:0:
328,264,245607,2,0,P|260:255|194:296,1,149.999992847443,8|0,3:0|0:0,0:0:0:0:
160,312,246060,6,0,P|103:319|40:288,2,99.9999952316285,10|0|8,0:0|0:0|3:0,0:0:0:0:
193,296,246627,1,0,0:0:0:0:
224,272,246740,1,2,0:0:0:0:
248,240,246854,1,0,0:0:0:0:
272,208,246967,2,0,P|288:176|288:104,1,99.9999952316285,8|0,0:0|0:0,0:0:0:0:
288,72,247307,1,0,0:0:0:0:
280,24,247420,5,10,3:0:0:0:
93,23,247647,1,0,0:0:0:0:
61,47,247760,1,0,0:0:0:0:
45,79,247874,2,0,P|29:135|49:187,1,99.9999952316285,10|0,0:0|0:0,0:0:0:0:
61,199,248214,1,0,0:0:0:0:
85,223,248327,38,0,P|129:251|237:271,1,149.999992847443,10|0,3:0|0:0,0:0:0:0:
261,271,248774,1,8,0:0:0:0:
360,160,248998,1,0,0:0:0:0:
264,48,249222,5,8,3:0:0:0:
128,128,249446,2,0,P|133:208|142:228,1,99.9999952316285,2|8,0:0|0:0,0:0:0:0:
160,256,249781,1,2,0:0:0:0:
184,288,249893,1,0,0:0:0:0:
328,312,250117,5,10,3:0:0:0:
472,200,250341,1,0,0:0:0:0:
480,160,250453,1,0,0:0:0:0:
472,120,250565,1,8,0:0:0:0:
331,50,250788,2,0,L|231:50,1,99.9999952316285,0|8,0:0|3:0,0:0:0:0:
200,176,251236,1,2,0:0:0:0:
88,67,251460,1,8,0:0:0:0:
88,67,251572,38,0,P|178:40|243:56,1,149.999992847443,2|10,0:0|3:0,0:0:0:0:
264,64,252019,1,0,0:0:0:0:
296,80,252131,2,0,P|338:108|361:154,2,99.9999952316285,0|8|2,0:0|0:0|0:0,0:0:0:0:
152,168,252803,5,8,3:0:0:0:
136,200,252915,1,0,0:0:0:0:
128,232,253027,2,0,P|128:272|176:320,1,99.9999952316285,0|10,0:0|0:0,0:0:0:0:
328,320,253474,1,0,0:0:0:0:
328,176,253698,2,0,L|279:177,1,49.9999976158143,8|0,3:0|0:0,0:0:0:0:
232,248,253922,2,0,B|232:304,1,49.9999976158143,2|0,0:0|0:0,0:0:0:0:
328,320,254146,54,0,L|368:320,5,33.3333317438762,8|0|0|0|0|0,0:0|0:0|0:0|0:0|0:0|0:0,0:0:0:0:
400,304,254593,2,0,L|400:248,5,33.3333317438762,2|0|0|0|0|0,0:0|0:0|0:0|0:0|0:0|0:0,0:0:0:0:
424,240,255041,2,0,L|464:224,5,33.3333317438762,10|0|0|0|0|0,0:0|0:0|0:0|0:0|0:0|0:0,0:0:0:0:
480,192,255489,22,0,P|476:132|440:48,1,149.999992847443,14|0,3:0|0:0,0:0:0:0:
408,24,255938,1,8,0:0:0:0:
320,24,256163,2,0,L|264:24,1,49.9999976158143
168,64,256388,37,10,3:0:0:0:
168,176,256613,2,0,L|168:232,1,49.9999976158143
168,336,256838,1,10,0:0:0:0:
320,336,257063,2,0,L|360:288,1,49.9999976158143,2|0,0:0|0:0,0:0:0:0:
416,144,257288,6,0,P|400:80|344:56,1,99.9999952316285,10|0,3:0|0:0,0:0:0:0:
336,48,257625,1,2,0:0:0:0:
304,40,257737,1,8,0:0:0:0:
248,184,257962,1,2,0:0:0:0:
200,48,258187,5,10,3:0:0:0:
104,176,258412,2,0,L|104:232,1,49.9999976158143,2|0,0:0|0:0,0:0:0:0:
200,328,258637,1,10,0:0:0:0:
320,272,258862,1,2,0:0:0:0:
288,152,259087,37,8,3:0:0:0:
176,24,259315,1,0,0:0:0:0:
144,48,259428,1,2,0:0:0:0:
123,80,259542,2,0,B|95:128|104:177,1,99.9999952316285,8|2,0:0|0:0,0:0:0:0:
160,304,259996,2,0,P|200:328|256:312,1,99.9999952316285,8|2,3:0|0:0,0:0:0:0:
360,264,260450,1,8,0:0:0:0:
360,264,260564,2,0,P|400:208|396:124,1,149.999992847443,2|10,0:0|3:0,0:0:0:0:
168,162,261132,6,0,P|147:121|190:83,1,99.9999952316285,2|8,0:0|0:0,0:0:0:0:
328,120,261586,2,0,L|378:120,2,49.9999976158143,0|0|10,0:0|0:0|3:0,0:0:0:0:
168,162,262040,1,0,0:0:0:0:
152,272,262267,2,0,B|168:332|240:360,1,99.9999952316285,10|0,0:0|0:0,0:0:0:0:
328,360,262722,5,14,3:0:0:0:
376,224,262946,1,0,0:0:0:0:
328,112,263058,1,0,0:0:0:0:
328,112,263171,2,0,P|264:104|224:136,1,99.9999952316285,8|0,0:1|0:1,0:1:0:0:
144,200,263620,37,8,3:0:0:0:
24,136,263844,1,2,0:0:0:0:
96,24,264069,2,0,L|208:24,1,99.9999952316285,10|2,0:0|0:0,0:0:0:0:
376,32,264518,6,0,B|456:80|432:160,1,149.999992847443,10|2,3:0|0:0,0:0:0:0:
432,157,264967,1,8,0:0:0:0:
320,240,265191,1,2,0:0:0:0:
216,160,265416,5,10,3:0:0:0:
104,264,265640,1,2,0:0:0:0:
224,352,265865,1,10,0:0:0:0:
320,240,266090,1,2,0:0:0:0:
216,160,266316,37,10,3:0:0:0:
224,24,266548,1,0,0:0:0:0:
192,24,266664,1,2,0:0:0:0:
160,24,266780,2,0,P|96:52|84:100,1,99.9999952316285,8|2,0:0|0:0,0:0:0:0:
80,216,267244,1,8,3:0:0:0:
80,248,267360,1,0,0:0:0:0:
88,280,267475,5,2,0:0:0:0:
248,288,267708,1,8,0:0:0:0:
248,288,267825,2,0,L|398:288,1,149.999992847443,2|10,0:0|3:0,0:0:0:0:
400,64,268382,6,0,L|504:64,2,99.9999952316285,2|8|0,0:0|0:0|0:0,0:0:0:0:
360,72,268905,1,0,0:0:0:0:
328,88,269010,2,0,P|288:136|288:176,1,99.9999952316285,10|8,3:0|3:0,0:0:0:0:
296,208,269324,2,0,L|320:272,1,62.4999970197678,8|10,3:0|3:0,3:0:0:0:
224,296,269664,2,0,L|208:240,1,49.9999976158143,8|8,3:0|3:0,0:0:0:0:
192,184,269875,37,14,1:0:0:0:
136,32,270098,1,0,0:0:0:0:
120,64,270210,1,0,0:0:0:0:
104,96,270322,2,0,L|64:192,1,99.9999952316285,8|0,0:0|0:0,0:0:0:0:
56,216,270658,1,0,0:0:0:0:
44,248,270770,1,8,3:0:0:0:
120,368,270994,5,2,0:0:0:0:
232,304,271218,1,10,0:0:0:0:
208,168,271442,2,0,L|240:128,1,49.9999976158143,2|0,0:0|0:0,0:0:0:0:
328,32,271666,5,10,3:0:0:0:
408,152,271890,2,0,L|408:208,1,49.9999976158143
360,312,272114,2,0,P|316:322|256:308,1,99.9999952316285,8|2,0:0|0:0,0:0:0:0:
191,194,272562,37,8,3:0:0:0:
192,32,272786,1,2,0:0:0:0:
224,24,272897,1,0,0:0:0:0:
264,32,273009,1,10,0:0:0:0:
392,116,273234,1,2,0:0:0:0:
400,152,273346,1,0,0:0:0:0:
392,192,273458,5,10,3:0:0:0:
191,194,273682,1,2,0:0:0:0:
200,224,273794,1,0,0:0:0:0:
216,256,273906,2,0,B|244:304|304:312,1,99.9999952316285,8|2,0:0|0:0,0:0:0:0:
400,304,274354,1,8,3:0:0:0:
464,224,274578,2,0,P|480:160|468:116,1,99.9999952316285,2|8,0:0|0:0,0:0:0:0:
464,104,274914,1,2,0:0:0:0:
448,80,275026,1,0,0:0:0:0:
304,32,275249,5,10,3:0:0:0:
304,136,275474,2,0,B|304:192,1,49.9999976158143,2|0,0:0|0:0,0:0:0:0:
304,304,275698,2,0,L|248:304,1,49.9999976158143,8|0,0:0|0:0,0:0:0:0:
120,304,275922,2,0,L|64:304,1,49.9999976158143
40,216,276145,6,0,L|40:176,5,33.3333317438762,14|4|4|4|0|0,3:0|0:0|0:0|0:0|0:0|0:0,0:0:0:0:
40,144,276593,2,0,L|142:107,1,99.9999952316285,14|0,0:0|0:0,0:0:0:0:
256,56,277042,21,14,3:0:0:0:
256,168,277267,1,2,0:0:0:0:
384,168,277493,1,10,0:0:0:0:
280,272,277719,1,2,0:0:0:0:
139,249,277945,6,0,P|94:207|95:119,1,149.999992847443,10|0,3:0|0:0,0:0:0:0:
93,122,278397,2,0,P|139:144|187:118,1,99.9999952316285,8|0,0:0|0:0,0:0:0:0:
268,48,278848,6,0,P|336:36|404:88,1,149.999992847443,8|0,3:0|0:0,0:0:0:0:
416,108,279300,1,10,0:0:0:0:
312,216,279526,2,0,P|264:252|200:240,2,99.9999952316285,2|10|0,0:0|3:0|0:0,0:0:0:0:
416,108,280204,1,8,0:0:0:0:
416,108,280317,2,0,P|468:152|456:240,1,149.999992847443,0|8,0:0|3:0,0:0:0:0:
384,352,280878,37,2,0:0:0:0:
344,352,280990,1,0,0:0:0:0:
304,352,281102,1,10,0:0:0:0:
208,296,281326,1,2,0:0:0:0:
176,296,281438,1,0,0:0:0:0:
141,295,281550,2,0,P|52:257|46:208,1,149.999992847443,10|0,3:0|0:0,0:0:0:0:
48,184,281998,2,0,P|76:120|99:114,1,99.9999952316285,8|0,0:0|0:0,0:0:0:0:
360,88,282446,5,8,3:0:0:0:
380,112,282557,1,0,0:0:0:0:
393,143,282669,2,0,P|397:183|342:239,1,99.9999952316285,2|8,0:0|0:0,0:0:0:0:
228,268,283117,2,0,L|198:166,1,99.9999952316285,2|12,0:0|3:0,0:0:0:0:
200,136,283416,38,0,L|232:104,4,33.3333317438762,4|4|4|4|0,0:0|0:0|0:0|0:0|0:0,0:0:0:0:
168,144,283789,2,0,L|56:144,1,99.9999952316285,14|0,0:0|0:0,0:0:0:0:
8,224,284237,5,14,0:0:0:0:
104,304,284462,2,0,L|160:304,1,49.9999976158143,2|0,0:0|0:0,0:0:0:0:
240,232,284687,1,10,0:0:0:0:
368,200,284912,2,0,L|488:200,2,99.9999952316285,2|10|2,0:0|3:0|0:0,0:0:0:0:
304,80,285588,1,8,0:0:0:0:
304,80,285700,2,0,P|248:112|208:192,1,149.999992847443,0|8,0:0|3:0,0:0:0:0:
192,328,286261,5,0,0:0:0:0:
320,328,286485,2,0,P|356:320|420:280,1,99.9999952316285,10|2,0:0|0:0,0:0:0:0:
464,176,286933,1,10,3:0:0:0:
464,40,287157,1,0,0:0:0:0:
424,40,287269,1,0,0:0:0:0:
392,48,287381,2,0,P|341:66|320:112,1,99.9999952316285,8|0,0:0|0:0,0:0:0:0:
312,152,287717,1,0,0:0:0:0:
304,184,287829,6,0,P|280:240|240:248,1,99.9999952316285,12|2,3:0|0:0,0:0:0:0:
112,208,288279,2,0,L|0:208,2,99.9999952316285,10|14|10,0:0|3:0|3:0,0:0:0:0:
112,72,288955,1,0,0:0:0:0:
128,48,289068,1,0,0:0:0:0:
152,32,289180,38,0,B|204:12|268:28,1,99.9999952316285,14|0,0:0|0:0,0:0:0:0:
280,32,289518,1,0,0:0:0:0:
312,48,289631,1,10,3:0:0:0:
248,136,289856,21,6,0:0:0:0:
352,192,290082,1,8,0:0:0:0:
272,288,290307,2,0,P|232:312|176:304,2,99.9999952316285,2|12|2,0:0|3:0|0:0,0:0:0:0:
256,192,290983,53,14,0:0:0:0:
256,192,291086,12,0,297155,0:0:0:0:
392,112,298390,22,0,L|433:112,2,37.4999982118607,2|2|2,0:0|0:0|0:0,0:0:0:0:
325,204,301575,6,0,B|317:84|248:36,1,187.499991059303,2|2,0:0|0:0,0:0:0:0:
176,56,302147,2,0,L|128:56,2,33.3333317438762,2|2|2,0:0|0:0|0:0,0:0:0:0:
181,245,302647,2,0,P|316:332|472:264,1,333.333317438762,2|2,0:0|0:0,0:0:0:0:
255,261,307130,53,2,0:0:0:0:
256,176,308164,2,0,L|257:132,2,33.3333317438762,2|2|2,0:0|0:0|0:0,0:0:0:0:
242,267,310206,6,0,B|243:159|342:159,1,162.499992251396,2|2,0:0|0:0,0:0:0:0:
364,156,310656,2,0,L|364:100,1,49.9999976158143,2|2,0:0|0:0,0:0:0:0:
360,72,310853,2,0,L|239:72,1,112.499994635582,2|2,0:0|0:0,0:0:0:0:
256,152,312288,54,0,L|184:152,1,62.4999970197678,2|2,0:0|0:0,0:0:0:0:
168,152,312505,1,2,0:0:0:0:
256,240,312722,2,0,L|256:288,2,37.4999982118607,2|2|2,0:0|0:0|0:0,0:0:0:0:
256,80,313217,1,2,0:0:0:0:
256,192,319069,5,2,0:0:0:0:
257,168,320270,2,0,L|256:128,2,33.3333317438762,2|2|2,0:0|0:0|0:0,0:0:0:0:
112,312,323860,70,0,P|224:352|368:320,1,262.499987483025,2|2,0:0|0:0,0:0:0:0:
376,248,324443,2,0,L|376:192,1,49.9999976158143,2|2,0:0|0:0,0:0:0:0:
368,160,324610,2,0,P|298:122|127:157,1,249.999988079071,2|2,0:0|0:0,0:0:0:0:
56,264,325843,1,2,0:0:0:0:
120,120,327638,54,0,B|172:149|231:101|287:123,1,166.666658719381,2|2,0:0|0:0,0:0:0:0:
312,136,328126,2,0,L|368:136,2,49.9999976158143,2|2|2,0:0|0:0|0:0,0:0:0:0:
312,256,328614,1,2,0:0:0:0:
256,120,329581,5,2,0:0:0:0:
246,257,329875,2,0,B|222:305|200:320,1,74.9999964237214,2|2,0:0|0:0,0:0:0:0:
96,304,330318,1,2,0:0:0:0:
56,208,330583,2,0,B|40:144|96:96,1,124.999994039536,2|2,0:0|0:0,0:0:0:0:
240,24,331231,1,2,0:1:0:0:
256,192,341003,5,0,0:0:0:0:
97,317,341772,5,0,0:0:0:0:
392,323,342410,5,0,0:0:0:0:
136,120,343137,38,0,P|160:224|224:296,1,199.999990463257
432,208,344819,5,0,0:0:0:0:
255,31,345767,5,0,0:0:0:0:
313,219,346716,38,0,B|301:192|301:192|245:192,1,74.9999964237214
255,192,347411,5,6,0:0:0:0:
256,192,347532,12,0,351041,0:0:0:0:
256,184,351282,6,0,P|240:72|168:24,1,199.999990463257,14|8,0:0|0:0,0:0:0:0:
40,200,352200,2,0,L|40:333,1,99.9999952316285,0|8,0:0|3:0,0:0:0:0:
160,336,352660,2,0,L|271:327,1,99.9999952316285
203,217,353120,54,0,L|303:208,1,99.9999952316285,0|10,0:0|3:0,0:0:0:0:
440,192,353572,2,0,P|434:126|362:94,1,149.999992847443,10|2,0:0|0:0,0:0:0:0:
328,96,354024,2,0,P|280:96|232:56,1,99.9999952316285,2|10,0:0|3:0,0:0:0:0:
208,40,354363,1,2,0:0:0:0:
168,32,354476,1,10,0:0:0:0:
128,32,354589,1,2,0:0:0:0:
96,56,354702,1,2,0:0:0:0:
72,96,354815,1,2,0:0:0:0:
64,136,354929,54,0,B|56:192|80:240,1,99.9999952316285,2|10,0:0|3:0,0:0:0:0:
112,256,355266,2,0,L|168:256,1,49.9999976158143,2|10,0:0|0:0,0:0:0:0:
288,256,355604,2,0,L|288:200,2,49.9999976158143,2|2|10,0:0|0:0|0:0,0:0:0:0:
288,296,355942,2,0,L|288:376,2,49.9999976158143,2|10|2,0:0|3:0|0:0,0:0:0:0:
336,280,356279,1,2,0:0:0:0:
376,264,356392,1,2,0:0:0:0:
408,240,356504,22,0,P|442:180|408:88,1,149.999992847443,10|2,3:0|0:0,0:0:0:0:
392,88,356955,2,0,L|342:88,1,49.9999976158143,2|2,3:0|0:0,0:0:0:0:
128,88,357180,1,10,0:0:0:0:
104,120,357292,1,2,0:0:0:0:
96,160,357405,1,2,0:0:0:0:
112,200,357518,1,2,0:0:0:0:
152,216,357631,54,0,L|252:216,1,99.9999952316285,2|10,0:0|3:0,0:0:0:0:
440,216,358080,2,0,P|456:152|424:104,1,99.9999952316285,10|2,0:0|0:0,0:0:0:0:
424,88,358418,1,2,0:0:0:0:
392,56,358531,1,10,0:0:0:0:
352,40,358643,1,2,0:0:0:0:
312,32,358756,1,10,3:0:0:0:
272,32,358868,2,0,L|192:32,1,49.9999976158143,2|2,0:0|0:0,0:0:0:0:
80,112,359094,6,0,L|24:112,2,49.9999976158143,2|10|2,0:0|3:0|0:0,0:0:0:0:
96,144,359432,1,2,0:0:0:0:
128,176,359546,2,0,P|164:192|228:188,1,99.9999952316285,2|2,0:0|0:0,0:0:0:0:
264,176,359890,1,10,0:0:0:0:
484,211,360120,38,0,B|478:112|390:96,1,149.999992847443,2|2,0:0|0:0,0:0:0:0:
354,94,360579,1,10,3:0:0:0:
316,108,360693,1,2,0:0:0:0:
284,136,360808,1,10,0:0:0:0:
264,176,360923,1,2,0:0:0:0:
252,211,361038,1,2,0:0:0:0:
251,253,361152,1,2,0:0:0:0:
257,292,361267,5,2,0:0:0:0:
278,327,361381,1,2,0:0:0:0:
312,348,361494,2,0,L|360:372,2,49.9999976158143,10|2|10,3:0|0:0|0:0,0:0:0:0:
264,176,361949,5,2,0:0:0:0:
264,176,362062,2,0,L|192:176,1,49.9999976158143,10|10,0:0|0:0,0:0:0:0:
200,88,362290,2,0,L|200:24,3,49.9999976158143,2|10|2|14,0:0|3:0|0:0|0:0,0:0:0:0:
392,48,362858,54,0,B|488:48|488:296|392:296,1,299.999985694885,2|10,0:0|0:0,0:0:0:0:
288,328,363767,2,0,B|244:323|225:360|181:349,1,99.9999952316285,10|2,3:0|0:0,0:0:0:0:
94,256,364220,53,10,3:0:0:0:
94,256,364334,2,0,L|144:256,1,49.9999976158143,2|10,0:0|0:0,0:0:0:0:
232,168,364674,2,0,L|304:168,1,49.9999976158143,2|2,0:0|0:0,0:0:0:0:
408,232,364900,2,0,L|408:288,1,49.9999976158143,10|2,0:0|0:0,0:0:0:0:
288,328,365127,2,0,L|232:328,1,49.9999976158143,10|2,3:0|0:0,0:0:0:0:
132,168,365354,6,0,L|236:168,1,99.9999952316285,2|10,0:0|3:0,0:0:0:0:
282,168,365694,2,0,B|282:112,1,49.9999976158143,2|10,0:0|0:0,0:0:0:0:
296,32,365921,2,0,L|240:32,2,49.9999976158143,2|2|2,0:0|0:0|0:0,0:0:0:0:
344,32,366261,2,0,L|400:32,1,49.9999976158143,10|2,0:0|0:0,0:0:0:0:
472,96,366487,6,0,P|488:184|472:240,1,149.999992847443,8|2,0:0|0:0,0:0:0:0:
448,272,366941,1,10,0:0:0:0:
416,288,367054,2,0,L|360:288,1,49.9999976158143,2|10,0:0|0:0,0:0:0:0:
328,288,367281,2,8,L|328:348,2,49.9999976158143,2|10|2,0:0|3:0|0:0,0:0:0:0:
288,288,367621,37,14,0:0:0:0:
184,344,367847,2,0,L|146:344,3,33.3333317438762,2|2|2|10,0:0|0:0|0:0|0:0,0:0:0:0:
72,232,368300,2,0,L|107:232,3,33.3333317438762,10|2|2|2,3:0|0:0|0:0|0:0,0:0:0:0:
168,136,368753,2,0,L|125:136,3,33.3333317438762,10|2|2|10,3:0|0:0|0:0|0:0,0:0:0:0:
132,32,369206,38,0,B|248:32|248:32|248:40|248:40|256:32|256:32|256:40|256:40|264:32|264:32|264:40|264:40|272:32|272:32|272:40|272:40|280:32|280:32|280:40|280:40|288:32|288:32|288:40|288:40|296:32|296:32|296:40|296:40|304:32|304:32|304:40|304:40|312:32|312:32|312:40|312:40|320:32|320:32|320:40|320:40|328:32|328:32|328:40|328:40|336:32|336:32|336:40|336:40|344:32|344:32|344:40|344:40|352:32|352:32|352:40|352:40|360:32|360:32|360:40|360:40|368:32|368:32|368:40|368:40|376:32|376:32|376:40|376:40|384:32|384:32|384:40|384:40|392:32|392:32|392:40|392:40|400:32|400:32|400:40|400:40|408:32|408:32,1,499.999976158143,2|0,0:0|0:0,0:0:0:0:
472,156,370566,38,0,L|472:256,1,99.9999952316285,8|10,3:0|0:0,0:0:0:0:
336,312,371024,2,0,L|336:368,2,49.9999976158143,2|2|10,0:0|0:0|0:0,0:0:0:0:
200,312,371482,1,10,3:0:0:0:
272,200,371711,2,0,B|330:203|362:163,1,99.9999952316285,2|10,0:0|3:0,0:0:0:0:
384,136,372054,1,2,0:0:0:0:
392,104,372169,5,2,0:0:0:0:
384,72,372277,1,2,0:0:0:0:
368,48,372386,2,0,P|328:20|260:32,1,99.9999952316285,10|10,3:0|0:0,0:0:0:0:
128,80,372830,38,0,B|172:152|104:192|172:260,1,179.999985923768,2|2,0:0|0:0,0:0:0:0:
184,280,373285,1,10,3:0:0:0:
288,336,373511,2,8,B|394:380|373:278|484:321,1,199.999990463257,10|2,0:0|0:0,0:0:0:0:
445,131,374190,6,0,L|416:108,3,33.3333317438762,10|2|2|10,3:0|0:0|0:0|0:0,0:0:0:0:
280,112,374640,2,0,L|251:132,3,33.3333317438762,2|2|2|2,0:0|0:0|0:0|0:0,0:0:0:0:
150,224,375090,2,0,L|176:258,3,33.3333317438762,10|2|2|10,3:0|0:0|0:0|0:0,0:0:0:0:
288,282,375540,6,0,B|288:346|288:346|392:346|392:346|392:126|392:126|279:126,1,499.999976158142,2|0,0:0|3:0,0:0:0:0:
172,44,376884,37,2,0:0:0:0:
136,48,376994,1,2,0:0:0:0:
100,64,377103,1,10,0:0:0:0:
72,88,377213,1,2,0:0:0:0:
48,116,377322,1,2,0:0:0:0:
28,148,377432,6,0,P|-5:232|10:298,1,149.999992847443,2|2,0:0|0:0,0:0:0:0:
28,328,377870,1,2,0:0:0:0:
64,356,377979,1,10,0:0:0:0:
108,364,378089,1,2,0:0:0:0:
152,368,378198,1,2,0:0:0:0:
252,268,378417,5,8,3:0:0:0:
124,188,378636,1,2,0:0:0:0:
132,144,378746,1,2,0:0:0:0:
152,100,378855,1,10,0:0:0:0:
184,76,378965,1,2,0:0:0:0:
220,60,379074,1,2,0:0:0:0:
258,55,379184,54,0,P|334:52|402:103,1,149.999992847443,2|2,0:0|0:0,0:0:0:0:
418,121,379622,1,2,0:0:0:0:
440,160,379731,1,10,0:0:0:0:
448,200,379841,1,0,0:0:0:0:
448,248,379950,1,2,0:0:0:0:
352,344,380169,53,8,3:0:0:0:
304,208,380389,1,2,0:0:0:0:
260,208,380500,1,2,0:0:0:0:
220,208,380610,1,10,0:0:0:0:
184,208,380720,1,2,0:0:0:0:
144,204,380831,1,2,0:0:0:0:
112,196,380941,6,0,P|75:138|136:84,1,149.999992847443,2|2,0:0|0:0,0:0:0:0:
160,76,381382,1,2,0:0:0:0:
200,76,381493,1,10,0:0:0:0:
236,76,381603,1,2,0:0:0:0:
272,76,381713,1,2,0:0:0:0:
432,192,381934,5,8,3:0:0:0:
432,232,382044,1,2,0:0:0:0:
428,276,382155,1,2,0:0:0:0:
408,312,382265,1,2,0:0:0:0:
376,344,382375,1,10,0:0:0:0:
340,360,382486,1,2,0:0:0:0:
296,360,382596,1,2,0:0:0:0:
260,360,382706,1,2,0:0:0:0:
220,352,382817,37,10,3:0:0:0:
184,324,382927,1,2,0:0:0:0:
152,296,383037,2,0,L|44:296,2,99.9999952316285,2|10|2,0:0|0:0|0:0,0:0:0:0:
176,96,383699,6,0,B|240:80|268:136|328:120,1,149.999992847443,10|2,3:0|0:0,0:0:0:0:
354,116,384142,2,0,L|406:92,1,49.9999976158143,8|0,0:0|0:0,0:0:0:0:
432,81,384363,2,0,P|479:99|466:147,1,99.9999952316285,2|8,0:0|3:0,0:0:0:0:
445,163,384695,2,0,L|394:192,1,49.9999976158143,2|0,0:0|0:0,0:0:0:0:
256,116,385027,6,0,B|228:191|303:230|248:320,1,199.999990463257,10|10,0:0|3:0,0:0:0:0:
232,336,385580,2,0,P|195:351|136:340,1,99.9999952316285,2|2,0:0|0:0,0:0:0:0:
112,328,385912,38,0,P|50:280|28:208,1,149.999992847443,10|2,0:0|0:0,0:0:0:0:
32,180,386355,2,0,B|32:108|72:84|136:76,1,149.999992847443,8|0,3:0|0:0,0:0:0:0:
156,80,386797,1,10,0:0:0:0:
274,310,387019,1,2,0:0:0:0:
274,310,387129,6,0,B|274:158,1,149.999992847443,2|2,0:0|0:0,0:0:0:0:
274,310,387682,2,0,L|376:304,2,99.9999952316285,10|2|10,0:0|0:0|3:0,0:0:0:0:
168,264,388346,1,2,0:0:0:0:
52,308,388567,2,0,L|52:209,1,99.9999952316285,10|2,0:0|0:0,0:0:0:0:
78,60,389011,6,8,B|15:42,2,49.9999976158143,10|10|10,0:0|0:0|3:0,0:0:0:0:
119,68,389336,1,2,0:0:0:0:
161,59,389445,2,8,B|217:43,1,49.9999976158143,10|10,0:0|0:0,0:0:0:0:
325,43,389662,2,0,B|367:70,1,49.9999976158143,10|10,0:0|3:0,0:0:0:0:
428,161,389879,2,0,L|394:213,1,49.9999976158143,10|2,0:0|0:0,0:0:0:0:
312,152,390096,2,0,L|250:153,1,49.9999976158143,10|10,3:0|0:0,0:0:0:0:
208,239,390314,2,0,L|168:288,1,49.9999976158143,10|10,0:0|3:0,0:0:0:0:
72,264,390531,2,0,B|34:286|38:354,1,99.9999952316285,2|14,0:0|0:0,0:0:0:0:
208,289,390978,38,0,L|208:236,1,49.9999976158143,2|2,0:0|0:0,0:0:0:0:
208,104,391209,2,0,P|216:88|344:136,1,199.999990463257,10|10,0:0|3:0,0:0:0:0:
280,264,391898,5,2,0:0:0:0:
240,280,392011,1,2,0:0:0:0:
208,289,392125,2,0,P|130:289|48:177,1,199.999990463257,10|2,0:0|0:0,0:0:0:0:
48,168,392693,6,0,L|48:112,1,49.9999976158143,2|2,0:0|0:0,0:0:0:0:
184,48,393034,2,0,P|248:24|376:64,2,199.999990463257,10|10|10,0:0|3:0|0:0,0:0:0:0:
152,168,394171,37,2,0:0:0:0:
152,312,394398,2,0,L|48:312,2,99.9999952316285,10|2|10,3:0|0:0|0:0,0:0:0:0:
240,200,395080,1,0,0:0:0:0:
240,168,395193,1,0,0:0:0:0:
240,136,395307,6,0,P|248:88|280:40,1,99.9999952316285,10|2,0:0|0:0,0:0:0:0:
80,48,395761,2,0,B|109:99|85:151,1,99.9999952316285,10|2,0:0|0:0,0:0:0:0:
80,176,396102,1,2,0:0:0:0:
72,208,396216,2,0,B|51:267|104:320,1,99.9999952316285,10|2,3:0|0:0,0:0:0:0:
240,200,396671,2,0,B|256:272|240:308,1,99.9999952316285,10|2,0:0|0:0,0:0:0:0:
144,224,397125,5,10,3:0:0:0:
248,120,397351,1,2,0:0:0:0:
248,120,397464,1,2,0:0:0:0:
248,120,397578,1,10,0:0:0:0:
384,128,397804,37,2,0:0:0:0:
384,128,397918,1,2,0:0:0:0:
384,128,398031,2,0,L|440:128,2,49.9999976158143,10|2|2,3:0|0:0|0:0,0:0:0:0:
384,264,398484,2,0,B|288:280|288:336|184:308,1,199.999990463257,10|10,0:0|3:0,0:0:0:0:
88,271,399164,6,0,P|42:179|119:81,1,199.999990463257,2|2,0:0|0:0,0:0:0:0:
200,48,399844,6,0,B|307:78|307:78|428:223,1,299.999985694885,10|2,3:0|0:0,0:0:0:0:
133,271,400750,38,0,B|192:352,1,99.9999952316285,10|2,3:0|0:0,0:0:0:0:
173,108,401203,2,0,B|231:191,1,99.9999952316285,10|2,0:0|0:0,0:0:0:0:
333,201,401657,2,0,B|400:280,1,99.9999952316285,10|10,3:0|3:0,0:0:0:0:
256,304,402110,1,8,0:0:0:0:
440,176,402336,38,0,B|474:137|474:137|474:26|474:26|377:60|377:60|377:86|377:86|303:24|303:24|202:80,1,499.999976158143,2|8,0:0|3:0,0:0:0:0:
40,176,403697,53,2,0:0:0:0:
32,224,403811,1,2,0:0:0:0:
40,264,403925,1,10,0:0:0:0:
56,304,404039,1,2,0:0:0:0:
88,336,404153,1,2,0:0:0:0:
128,352,404267,2,0,P|200:368|288:344,1,149.999992847443,2|2,0:0|0:0,0:0:0:0:
312,336,404723,37,2,0:0:0:0:
344,304,404837,1,10,0:0:0:0:
360,256,404951,1,2,0:0:0:0:
368,216,405065,1,2,0:0:0:0:
224,216,405293,5,8,3:0:0:0:
64,216,405513,1,2,0:0:0:0:
48,176,405623,1,2,0:0:0:0:
48,128,405733,1,10,0:0:0:0:
64,88,405844,1,2,0:0:0:0:
96,56,405954,1,2,0:0:0:0:
136,48,406064,6,0,P|184:40|232:56,1,99.9999952316285,2|8,0:0|0:0,0:0:0:0:
272,64,406395,1,2,0:0:0:0:
312,40,406505,1,2,0:0:0:0:
360,24,406615,1,10,0:0:0:0:
400,48,406732,1,2,0:0:0:0:
432,80,406849,1,2,0:0:0:0:
356,200,407083,37,8,3:0:0:0:
128,104,407304,37,2,0:0:0:0:
80,152,407414,1,2,0:0:0:0:
72,216,407525,1,10,0:0:0:0:
112,272,407636,1,2,0:0:0:0:
176,280,407746,1,2,0:0:0:0:
232,240,407857,2,0,L|344:240,1,99.9999952316285,2|8,0:0|3:0,0:0:0:0:
448,72,408189,5,2,0:0:0:0:
392,32,408299,1,2,0:0:0:0:
328,64,408410,1,10,0:0:0:0:
272,32,408520,1,2,0:0:0:0:
208,64,408631,1,2,0:0:0:0:
144,32,408742,54,0,L|52:111,1,99.9999952316285,10|10,0:0|3:0,0:0:0:0:
96,216,408963,2,0,L|170:149,1,99.9999952316285,10|10,3:0|0:0,0:0:0:0:
192,272,409184,2,0,L|112:352,1,99.9999952316285,10|10,3:0|3:0,0:0:0:0:
276,364,409405,2,0,P|349:374|472:200,1,299.999985694885,10|10,0:0|0:0,0:0:0:0:
472,136,409848,5,2,0:0:0:0:
472,56,409958,1,10,3:0:0:0:
392,56,410069,1,10,0:0:0:0:
392,136,410179,1,10,3:0:0:0:
32,24,410401,1,8,3:0:0:0:
48,320,410622,6,0,B|112:308|112:308|128:332|128:332|144:300|144:300|168:324|168:324|176:308|176:308|256:292,1,259.99997570038,14|8,0:0|0:0,0:0:0:0:
256,80,411322,1,2,0:0:0:0:
412,188,411556,6,0,B|420:228|420:228|388:224|388:224|400:248|400:248|368:244|368:244|388:268|388:268|243:295,1,299.999997138977,14|10,0:0|0:0,0:0:0:0:
256,56,412234,1,2,0:0:0:0:
251,213,412461,6,0,B|167:261|167:261|196:172|196:172|176:184|176:184|100:128,1,299.999997138977,10|10,3:0|0:0,0:0:0:0:
176,16,413120,1,2,0:0:0:0:
358,66,413340,2,0,B|405:143|405:143|343:230,1,149.999998569489,10|2,3:0|0:0,0:0:0:0:
248,304,413780,1,8,0:0:0:0:
104,272,414000,1,0,0:0:0:0:
224,192,414220,38,0,B|281:180|344:224|344:224|392:168|392:168|344:76,1,299.999997138977,10|8,3:0|0:0,0:0:0:0:
180,62,414880,1,2,0:0:0:0:
346,80,415100,2,0,B|399:164|399:164|359:220|359:220|394:272|474:272,1,299.999997138977,10|8,3:0|0:0,0:0:0:0:
232,192,415760,1,0,0:0:0:0:
180,62,415980,6,0,L|157:134,1,74.9999992847443,10|2,3:0|0:0,0:0:0:0:
346,80,416200,2,0,L|323:165,1,74.9999992847443,2|2,0:0|0:0,0:0:0:0:
157,133,416420,6,0,L|131:210,1,74.9999992847443,10|2,0:0|0:0,0:0:0:0:
326,152,416640,2,0,L|301:236,1,74.9999992847443,2|2,0:0|0:0,0:0:0:0:
133,204,416860,38,0,L|104:282,1,74.9999992847443,10|2,3:0|0:0,0:0:0:0:
304,223,417080,2,0,L|278:306,1,74.9999992847443,2|2,0:0|0:0,0:0:0:0:
340,356,417300,2,0,P|446:308|437:139,1,299.999997138977,10|14,0:0|0:0,0:0:0:0:
256,32,418218,5,8,0:0:0:0:
256,328,418672,1,10,3:0:0:0:
256,224,418899,1,2,0:0:0:0:
128,224,419126,2,8,L|128:328,1,99.9999952316285,8|14,0:0|0:0,0:0:0:0:
504,192,420039,5,10,0:0:0:0:
0,192,420483,1,2,0:0:0:0:
128,192,420705,2,0,L|190:97,1,99.9999952316285,10|8,0:0|3:0,0:0:0:0:
240,16,421149,37,14,0:0:0:0:
424,128,421824,1,10,0:0:0:0:
258,252,422278,1,8,0:0:0:0:
258,252,422505,2,0,B|206:253|206:253|210:215|210:215|92:248,1,199.999990463257,2|14,0:0|0:0,0:0:0:0:
256,192,423077,12,0,426408,0:0:0:0:
0,0,426527,37,14,0:0:0:0:
272,100,436203,53,14,0:0:0:0:
272,100,436641,1,0,0:0:0:0:
408,216,436861,1,10,0:0:0:0:
468,40,437080,1,0,0:0:0:0:
468,40,437190,1,0,0:0:0:0:
468,40,437300,37,2,0:0:0:0:
280,188,437520,1,8,3:0:0:0:
472,160,437739,1,8,0:0:0:0:
336,304,437959,1,0,0:0:0:0:
336,304,438069,1,0,0:0:0:0:
336,304,438178,1,2,0:0:0:0:
160,256,438398,5,8,0:0:0:0:
144,232,438508,1,0,0:0:0:0:
136,200,438618,1,10,0:0:0:0:
144,160,438728,1,8,0:0:0:0:
160,128,438838,1,10,3:0:0:0:
184,104,438947,1,0,0:0:0:0:
216,96,439057,5,8,3:0:0:0:
432,180,439276,1,10,3:0:0:0:
244,212,439496,1,8,3:0:0:0:
336,88,439715,1,10,3:0:0:0:
168,64,439936,38,0,P|73:113|72:200,1,199.999990463257,14|2,1:0|0:0,0:0:0:0:
160,344,440891,5,14,1:0:0:0:
224,208,441130,1,2,0:0:0:0:
304,352,441369,1,2,0:0:0:0:
368,208,441607,1,2,0:0:0:0:
488,235,441846,5,14,1:0:0:0:
472,272,441966,1,0,0:0:0:0:
448,304,442085,1,2,0:0:0:0:
416,328,442205,1,0,0:0:0:0:
384,344,442324,1,2,0:0:0:0:
344,352,442443,1,0,0:0:0:0:
304,352,442563,1,2,0:0:0:0:
264,352,442682,1,0,0:0:0:0:
232,344,442802,38,0,B|120:296|96:208|114:128|143:70,1,324.999984502793,14|0,1:0|0:0,0:0:0:0:
416,192,444196,2,0,L|91:192,1,324.999984502793,2|0,0:0|0:0,0:0:0:0:
392,52,445591,5,2,0:0:0:0:
176,28,445823,1,2,0:0:0:0:
312,168,446056,1,2,0:0:0:0:
104,192,446288,1,2,0:0:0:0:
337,287,446521,6,0,L|142:353,1,199.999990463257,8|10,0:0|0:0,0:0:0:0:
152,192,447205,2,0,L|256:192,1,99.9999952316285,2|8,0:0|0:0,0:0:0:0:
264,32,447661,37,8,3:0:0:0:
424,24,447889,1,0,0:0:0:0:
424,160,448117,2,0,L|424:264,2,99.9999952316285,8|0|8,3:0|0:0|3:0,0:0:0:0:
288,176,448802,1,8,0:0:0:0:
240,40,449030,2,0,L|136:40,1,99.9999952316285,0|2,0:0|0:0,0:0:0:0:
120,192,449486,6,0,L|224:192,1,99.9999952316285,10|10,3:0|0:0,0:0:0:0:
368,136,449943,2,0,L|368:32,2,99.9999952316285,2|0|10,0:0|0:0|3:0,0:0:0:0:
272,208,450627,6,0,L|168:208,2,99.9999952316285,10|2|8,0:0|0:0|0:0,0:0:0:0:
275,345,451311,2,0,L|395:345,1,99.9999952316285,10|0,3:0|0:0,0:0:0:0:
377,174,451768,2,0,L|285:115,1,99.9999952316285,2|8,0:0|0:0,0:0:0:0:
192,291,452234,38,0,L|277:346,2,99.9999952316285,2|8|0,0:0|0:0|0:0,0:0:0:0:
40,296,452947,5,0,0:0:0:0:
40,260,453059,1,0,0:0:0:0:
40,228,453172,1,8,3:0:0:0:
44,200,453284,1,0,0:0:0:0:
52,168,453397,5,8,0:0:0:0:
72,144,453509,1,0,0:0:0:0:
100,128,453622,1,0,0:0:0:0:
132,124,453735,1,0,0:0:0:0:
164,128,453847,38,0,P|230:120|241:112,3,49.9999976158143,8|0|8|0,0:0|0:0|3:0|0:0,3:0:0:0:
244,120,454297,1,0,0:0:0:0:
272,100,454410,1,0,0:0:0:0:
292,84,454523,1,8,3:0:0:0:
312,68,454635,1,0,0:0:0:0:
340,56,454748,22,0,P|364:44|388:44,3,49.9999976158143,0|0|8|0,0:0|0:0|3:0|0:0,0:0:0:0:
420,52,455198,37,8,0:0:0:0:
480,176,455423,1,8,0:0:0:0:
456,304,455648,5,8,0:0:0:0:
424,328,455761,1,8,0:0:0:0:
400,336,455874,1,8,0:0:0:0:
368,336,455986,1,8,0:0:0:0:
336,320,456099,1,8,0:0:0:0:
392,216,456324,1,10,3:0:0:0:
448,96,456549,6,0,L|344:120,1,99.9999952316285,14|2,0:0|0:0,0:0:0:0:
216,152,457006,1,10,0:0:0:0:
144,32,457234,1,10,3:0:0:0:
128,208,457463,1,2,0:0:0:0:
256,80,457691,1,10,3:0:0:0:
256,256,457920,1,10,0:0:0:0:
392,192,458149,1,2,0:0:0:0:
384,40,458377,37,2,0:0:0:0:
256,120,458606,2,0,L|256:244,1,99.9999952316285,10|10,3:0|0:0,0:0:0:0:
328,320,459063,1,10,3:0:0:0:
460,352,459292,5,10,0:0:0:0:
484,320,459404,1,0,0:0:0:0:
492,280,459517,1,0,0:0:0:0:
496,240,459630,1,0,0:0:0:0:
492,200,459743,5,8,0:0:0:0:
484,168,459856,1,0,0:0:0:0:
468,136,459969,1,0,0:0:0:0:
444,108,460082,1,0,0:0:0:0:
416,92,460195,38,0,P|380:80|340:104,3,64.9999939250949,8|0|8|0,0:0|0:0|3:0|0:0,0:0:0:0:
320,104,460646,1,0,0:0:0:0:
296,128,460759,1,0,0:0:0:0:
288,160,460872,1,8,3:0:0:0:
288,200,460985,1,0,0:0:0:0:
280,240,461098,22,0,P|268:280|244:304,3,64.9999939250949,8|0|0|0,0:0|0:0|0:0|0:0,0:0:0:0:
232,320,461544,37,8,0:0:0:0:
196,340,461656,1,0,0:0:0:0:
164,343,461768,1,0,0:0:0:0:
127,333,461880,1,0,0:0:0:0:
96,320,461992,6,0,P|33:218|34:208,1,99.9999952316285,0|8,0:0|3:0,0:0:0:0:
40,96,462450,1,8,0:0:0:0:
152,184,462679,6,0,P|208:176|232:144,1,99.9999952316285,2|8,0:0|3:0,0:0:0:0:
320,64,463137,2,0,P|376:56|408:80,1,99.9999952316285,2|10,0:0|0:0,0:0:0:0:
480,160,463595,1,2,0:0:0:0:
360,248,463824,1,10,0:0:0:0:
440,112,464053,1,10,3:0:0:0:
304,176,464282,1,2,0:0:0:0:
440,224,464511,1,10,3:0:0:0:
288,320,464740,38,0,P|244:316|208:248,1,99.9999952316285,10|10,0:0|3:0,0:0:0:0:
208,144,465198,1,8,0:0:0:0:
336,144,465427,1,2,0:0:0:0:
200,48,465656,5,2,0:0:0:0:
336,48,465882,2,0,L|489:48,1,149.999998569489,8|8,3:0|0:0,0:0:0:0:
488,168,466333,2,0,L|488:320,1,149.999998569489,0|8,0:0|0:0,0:0:0:0:
368,344,466784,2,0,L|215:344,1,149.999998569489,8|0,3:0|0:0,0:0:0:0:
224,240,467235,2,0,L|327:125,1,149.999998569489,10|10,3:0|0:0,0:0:0:0:
189,61,467680,2,0,L|333:133,1,149.999998569489,0|8,0:0|0:0,0:0:0:0:
189,61,468118,2,0,L|189:213,1,149.999998569489
64,72,468567,5,8,3:0:0:0:
120,224,468797,1,8,0:0:0:0:
189,61,469028,2,0,L|339:61,1,149.999998569489,2|0,0:0|0:0,0:0:0:0:
448,120,469480,38,0,L|448:272,1,149.999998569489,10|8,3:0|0:0,0:0:0:0:
344,304,469924,2,0,L|194:304,1,149.999998569489,2|0,0:0|0:0,0:0:0:0:
64,280,470369,2,0,P|60:176|88:148,1,149.999998569489,10|10,3:0|0:0,0:0:0:0:
208,72,470815,5,14,0:0:0:0:
352,328,471277,1,2,0:0:0:0:
236,367,471508,1,8,0:0:0:0:
95,356,471739,5,14,1:0:0:0:
320,27,472182,1,2,0:0:0:0:
416,232,472404,1,0,0:0:0:0:
196,204,472625,1,2,0:0:0:0:
400,136,472847,1,0,0:0:0:0:
184,96,473069,1,2,0:0:0:0:
320,270,473291,1,0,0:0:0:0:
360,64,473512,1,2,0:0:0:0:
256,192,473734,37,0,0:0:0:0:
256,192,473849,12,0,476266,0:0:0:0:
262,28,476496,5,0,0:0:0:0:
378,88,476727,1,0,0:0:0:0:
318,224,476957,1,8,0:0:0:0:
182,185,477187,1,0,0:0:0:0:
80,72,477422,6,0,P|224:208|320:225,1,299.999985694885
310,324,478364,2,0,P|318:268|318:220,1,99.9999952316285
324,84,478835,1,8,0:0:0:0:
444,144,479070,2,0,L|444:40,1,99.9999952316285
260,24,479542,37,0,0:0:0:0:
252,200,479777,1,8,0:0:0:0:
372,120,480013,1,0,0:0:0:0:
188,96,480248,1,0,0:0:0:0:
401,242,480484,6,0,P|264:289|138:218,1,299.999985694885
416,144,481426,2,0,P|303:52|160:76,1,299.999985694885
96,200,482368,1,0,0:0:0:0:
144,312,482604,1,8,0:0:0:0:
280,272,482840,6,0,L|280:168,1,99.9999952316285
284,48,483311,2,0,P|372:48|420:152,2,199.999990463257,2|2|2,0:0|0:0|0:0,0:0:0:0:
200,112,484489,1,8,0:0:0:0:
224,224,484724,2,0,P|304:284|403:267,1,199.999990463257,0|2,0:0|0:0,0:0:0:0:
328,160,485431,37,8,0:0:0:0:
280,56,485666,2,0,P|328:44|384:64,2,99.9999952316285,2|0|2,0:0|0:0|0:0,0:0:0:0:
192,160,486373,2,0,L|88:160,2,99.9999952316285,8|0|0,0:0|0:0|0:0,0:0:0:0:
224,280,487080,5,2,0:0:0:0:
224,160,487315,2,0,L|328:160,1,99.9999952316285,8|2,0:0|0:0,0:0:0:0:
416,224,487787,2,0,L|416:328,2,99.9999952316285,0|2|8,0:0|0:0|0:0,0:0:0:0:
280,248,488496,2,0,L|176:273,1,99.9999952316285
112,160,488968,6,0,L|220:139,1,99.9999952316285,2|8,0:0|0:0,0:0:0:0:
320,240,489440,2,0,L|224:267,2,99.9999952316285,2|0|2,0:0|0:0|0:0,0:0:0:0:
208,144,490149,2,0,P|200:92|224:52,1,99.9999952316285,8|0,0:0|0:0,0:0:0:0:
352,24,490622,37,0,0:0:0:0:
368,144,490856,1,2,0:0:0:0:
464,64,491090,1,8,0:0:0:0:
472,192,491323,2,0,P|472:272|368:312,1,199.999990463257,2|2,0:0|0:0,0:0:0:0:
272,248,492025,5,8,0:0:0:0:
168,160,492259,2,0,P|200:88|240:80,1,99.9999952316285
272,192,492727,5,2,0:0:0:0:
372,56,492961,1,8,0:0:0:0:
232,80,493195,1,2,0:0:0:0:
360,160,493429,1,0,0:0:0:0:
288,16,493662,1,2,0:0:0:0:
216,144,493896,38,0,L|17:144,2,199.999990463257,8|0|8,0:0|0:0|0:0,0:0:0:0:
320,216,495066,1,2,0:0:0:0:
456,216,495300,2,0,L|456:320,1,99.9999952316285,0|2,0:0|0:0,0:0:0:0:
344,320,495768,1,8,0:0:0:0:
256,220,496002,6,0,L|189:140,1,99.9999952316285
256,220,496469,2,0,L|344:164,1,99.9999952316285,2|8,0:0|0:0,0:0:0:0:
256,220,496937,6,0,L|331:293,1,99.9999952316285,2|0,0:0|0:0,0:0:0:0:
405,227,497406,2,0,L|325:291,1,99.9999952316285,2|8,0:0|0:0,0:0:0:0:
248,168,497876,2,0,L|329:100,1,99.9999952316285
248,168,498346,38,0,L|187:83,1,99.9999952316285,2|8,0:0|0:0,0:0:0:0:
249,217,498816,2,0,L|249:317,1,99.9999952316285,2|0,0:0|0:0,0:0:0:0:
248,32,499286,5,2,0:0:0:0:
248,168,499521,1,8,0:0:0:0:
376,232,499756,1,0,0:0:0:0:
376,120,499991,1,0,0:0:0:0:
248,168,500226,6,0,B|248:272,1,99.9999952316285,2|8,0:0|0:0,0:0:0:0:
360,328,500696,1,2,0:0:0:0:
464,240,500931,1,0,0:0:0:0:
437,127,501166,2,0,B|357:135|345:199|245:167,1,199.999990463257,2|0,0:0|0:0,0:0:0:0:
247,167,501871,37,14,0:0:0:0:
256,172,502599,5,0,0:0:0:0:
256,172,502842,2,0,L|200:172,2,49.9999976158143
367,116,503327,6,0,P|414:122|427:168,1,99.9999952316285,2|0,0:0|0:0,0:0:0:0:
373,255,503770,2,0,P|418:242|428:196,1,99.9999952316285
256,288,504213,37,2,0:0:0:0:
256,88,504445,1,0,0:0:0:0:
256,88,504677,1,2,0:0:0:0:
256,288,504909,1,0,0:0:0:0:
256,88,505141,5,2,0:0:0:0:
112,192,505373,1,0,0:0:0:0:
256,288,505606,1,2,0:0:0:0:
256,192,506070,6,0,L|288:192,4,24.9999988079071,0|0|0|2|2,0:0|0:0|0:0|0:0|0:0,0:0:0:0:
256,192,506358,12,0,509762,0:0:0:0:
