osu file format v14

[General]
AudioFilename: audio.mp3
AudioLeadIn: 0
PreviewTime: 426527
Countdown: 0
SampleSet: Normal
StackLeniency: 0.7
Mode: 0
LetterboxInBreaks: 0
WidescreenStoryboard: 1

[Editor]
DistanceSpacing: 1
BeatDivisor: 4
GridSize: 8
TimelineZoom: 3.359999

[Metadata]
Title:Roundabout
TitleUnicode:Roundabout
Artist:YES
ArtistUnicode:YES
Creator:IwanWenChoong
Version:Hard
Source:ジョジョの奇妙な冒険
Tags:1971 JoJo's Bizarre Adventure Ending Anime To be Continued jojo Fragile Rock Progressive Jon Anderson Steve Howe Rick Wakeman Bill Bruford Chris Squire meme old song full version Marathon english british Los Santos Rock Radio Grand Theft Auto V GTA 5
BeatmapID:2046312
BeatmapSetID:456802

[Difficulty]
HPDrainRate:4
CircleSize:4
OverallDifficulty:6
ApproachRate:8
SliderMultiplier:1.79999990463257
SliderTickRate:2

[Events]
//Background and Video events
0,0,"cover.jpg",0,0
//Break Periods
2,8370,10420
2,13122,15957
2,18121,19050
2,30206,32734
2,35651,36504
2,37454,40444
2,106521,118480
2,205866,219179
2,298503,334554
2,426727,435453
//Storyboard Layer 0 (Background)
//Storyboard Layer 1 (Fail)
//Storyboard Layer 2 (Pass)
//Storyboard Layer 3 (Foreground)
//Storyboard Layer 4 (Overlay)
//Storyboard Sound Samples

[TimingPoints]
0,447.761194029851,4,2,2,5,1,0
7835,-100,4,2,4,5,0,0
8059,444.444444444444,4,2,2,71,1,0
11170,437.956204379562,4,2,2,71,1,0
12922,473.186119873817,4,2,2,71,1,0
16707,441.891294741494,4,2,2,71,1,0
19800,448.095593726662,4,2,2,71,1,0
21872,458.015267175573,4,2,2,71,1,0
22788,493.015612161052,4,2,2,71,1,0
28704,434.467776973208,4,2,2,71,1,0
33484,491.803278688525,4,2,2,71,1,0
37254,492.610837438424,4,2,2,71,1,0
41194,545.454545454546,4,2,2,71,1,0
42284,448.296654275093,4,2,2,71,1,0
43180,461.538461538462,4,2,2,71,1,0
44103,433.526011560694,4,2,2,71,1,0
44754,437.956204379562,4,1,2,71,1,0
45000,437.956204379562,4,1,1,71,1,0
46751,430.941607412196,4,1,1,71,1,0
48475,437.956204379562,4,1,1,71,1,0
49569,-100,4,3,1,61,0,0
49679,-100,4,1,1,71,0,0
50226,431.468430893139,4,1,1,71,1,0
51951,446.727719454992,4,1,1,71,1,0
53740,433.996383363472,4,1,1,71,1,0
54824,-100,4,3,1,61,0,0
54933,-100,4,1,1,71,0,0
56560,-100,4,3,1,61,0,0
56669,-100,4,1,1,71,0,0
57214,436.270032286469,4,1,1,71,1,0
57432,-100,4,3,1,61,0,0
57504,-100,4,1,1,71,0,0
58959,460.829493087558,4,1,2,71,1,0
59074,-100,4,1,1,71,0,0
59880,442.444444444444,4,1,1,71,1,0
60101,-100,4,3,1,61,0,0
60211,-100,4,1,1,71,0,0
61649,440.787540405525,4,1,1,71,1,0
63412,445.930880713489,4,1,1,71,1,0
63634,-100,4,3,1,61,0,0
63746,-100,4,1,1,71,0,0
68541,444.444444444444,4,1,2,71,1,0
68652,-100,4,1,1,71,0,0
68763,444.444444444444,4,1,1,71,1,0
71429,464.108910891089,4,1,1,71,1,0
72359,484.652665589661,4,2,2,71,1,0
75267,456.725279744234,4,1,2,71,1,0
78692,-100,4,1,2,71,0,0
78977,447.360572621533,4,1,1,71,1,0
80767,434.562178605055,4,1,1,71,1,0
80984,-100,4,3,1,61,0,0
81092,-100,4,1,1,71,0,0
82287,445.136879590474,4,1,1,71,1,0
82509,445.136879590474,4,1,1,71,1,0
83399,443.360673908224,4,1,1,71,1,0
84286,442.02151171357,4,1,1,71,1,0
84507,-100,4,3,1,61,0,0
84617,-100,4,1,1,71,0,0
85833,-100,4,1,2,71,0,0
86081,445.43429844098,4,1,1,71,1,0
87194,-100,4,3,1,61,0,0
87305,-100,4,1,1,71,0,0
90758,-100,4,3,1,61,0,0
90869,-100,4,1,1,71,0,0
91203,-100,4,3,1,61,0,0
91314,-100,4,1,1,71,0,0
94321,-100,4,3,1,61,0,0
94432,-100,4,1,1,71,0,0
95657,-100,4,1,2,71,0,0
95769,-100,4,1,1,71,0,0
95880,444.938820912125,4,1,1,71,1,0
99217,-100,4,3,1,61,0,0
99328,-100,4,1,1,71,0,0
99440,480,4,2,2,71,1,0
100400,492.206726825267,4,2,2,71,1,0
102368,845.427645484007,4,1,2,71,1,0
103213,737.100737100737,4,1,1,71,1,0
103950,705.882352941176,4,1,1,71,1,0
105361,480,4,1,1,71,1,0
106321,471.031559114461,4,1,1,71,1,0
107263,457.003579861376,4,1,1,71,1,0
108177,464.001237336633,4,1,1,71,1,0
112817,454.235748353395,4,2,2,43,1,0
116451,462.962962962963,4,2,2,43,1,0
119230,460.440488066917,4,1,1,71,1,1
119230,-83.3333333333333,4,1,1,71,0,1
120841,-83.3333333333333,4,3,1,61,0,1
120956,-83.3333333333333,4,1,1,71,0,1
125676,463.105896881754,4,1,1,71,1,1
125676,-83.3333333333333,4,1,1,71,0,1
126833,-83.3333333333333,4,3,1,61,0,1
126949,-83.3333333333333,4,1,1,71,0,1
127759,-83.3333333333333,4,3,1,61,0,1
127875,-83.3333333333333,4,1,1,71,0,1
128686,-83.3333333333333,4,3,1,61,0,1
128801,-100,4,1,1,71,0,1
129380,454.545454545455,4,1,1,71,1,1
129380,-83.3333333333333,4,1,1,71,0,1
130970,483.014007406215,4,1,2,71,1,0
131090,-100,4,1,1,71,0,0
131936,458.400183360073,4,2,2,71,1,0
133770,453.514739229025,4,1,2,71,1,0
135773,456.273764258555,4,1,1,71,1,0
137598,421.940928270042,4,1,1,71,1,0
137808,-100,4,3,1,71,0,0
137914,-100,4,1,1,71,0,0
138441,445.16990651432,4,1,1,71,1,0
139331,440.27003228647,4,1,1,71,1,0
140651,459.664444955183,4,1,1,71,1,0
141111,425.954848786029,4,1,1,71,1,0
142601,-100,4,1,2,71,0,0
142868,445.997175351223,4,1,1,71,1,0
145543,418.03107364314,4,1,1,71,1,0
145752,-100,4,3,1,71,0,0
145856,-100,4,1,1,71,0,0
145961,475.134621476085,4,1,1,71,1,0
146436,235.941801022415,4,1,1,71,1,0
146907,227.876946448918,4,1,1,71,1,0
146907,-200,3,1,1,71,0,0
147818,237.492083597213,7,1,1,71,1,0
148530,247.790534401585,7,1,1,71,1,0
149274,233.009708737864,7,1,1,71,1,0
149973,257.510729613734,7,1,1,71,1,0
149973,-200,7,1,1,71,0,0
150230,445.103857566766,4,1,2,71,1,0
150452,-100,4,1,1,71,0,0
153790,449.269936353426,4,1,1,71,1,0
159855,-100,4,1,2,71,0,0
160080,452.556946749133,4,1,1,71,1,0
163701,491.400491400491,4,2,2,71,1,0
166649,816.215480886954,4,2,2,71,1,0
167465,710.059171597633,4,2,2,71,1,0
168175,685.714285714286,4,2,2,71,1,0
169546,460.545454545455,4,1,1,71,1,0
170467,464.037122969838,4,1,1,71,1,1
172091,-100,4,3,1,61,0,1
172207,-100,4,1,1,71,0,1
176963,462.962962962963,4,1,1,71,1,1
180319,-83.3333333333333,4,1,1,71,0,1
182518,451.127819548872,4,1,1,71,1,1
182518,-83.3333333333333,4,1,1,71,0,1
182969,475.134621476085,4,1,1,71,1,1
182969,-83.3333333333333,4,1,1,71,0,1
183444,459.382895643519,4,1,1,71,1,1
186889,-76.9230769230769,4,1,1,71,0,1
188956,477.288998488585,4,1,1,71,1,1
188956,-76.9230769230769,4,1,1,71,0,1
189910,454.063871651279,4,1,1,71,1,1
191726,462.42774566474,4,1,1,71,1,1
193576,460.29919447641,4,1,1,71,1,1
195188,471.623958497092,4,1,2,71,1,1
195659,-100,4,1,1,71,0,1
196132,460.830591605033,4,2,2,71,1,0
196362,-100,4,2,2,71,0,0
197976,553.250345781466,4,1,2,71,1,0
198114,-100,4,1,1,5,0,0
201849,241.954996370675,3,2,2,71,1,0
202332,226.860254083484,3,1,1,71,1,0
202332,-181.818181818181,3,1,1,71,0,0
202785,254.798709019874,3,2,2,71,1,0
203295,247.167868177137,3,1,1,71,1,0
204779,221.81146025878,3,1,1,51,1,0
205444,222.469410456062,3,1,1,51,1,0
205444,-181.818181818181,3,1,1,51,0,0
205666,458.330150485066,4,1,2,71,1,0
207499,439.335139488907,4,1,1,71,1,0
209257,453.754821144975,4,1,1,71,1,0
211070,439.721509710516,4,1,1,71,1,0
211949,419.58041958042,4,1,1,71,1,0
212368,461.538461538462,4,1,1,71,1,0
212829,441.988950276243,4,1,1,71,1,0
214596,443.458980044346,4,1,1,71,1,0
216369,445.103857566766,4,1,1,71,1,0
221709,438.436244062843,4,1,1,71,1,0
223462,438.020148926851,4,1,1,71,1,0
226091,408.163265306122,4,1,1,71,1,0
226499,446.528242911364,4,1,1,71,1,0
226945,441.533593347561,4,1,2,71,1,0
227276,-100,4,1,1,71,0,0
230477,444.80687967974,4,1,1,71,1,0
232256,431.996544027649,4,1,1,71,1,0
233119,457.526307762697,4,1,1,71,1,0
234035,444.115470022206,4,1,1,71,1,0
241140,445.136879590474,4,1,1,71,1,0
244701,453.309156844968,4,1,1,71,1,0
248327,447.627017484625,4,1,1,71,1,0
255489,449.775112443778,4,1,1,71,1,0
259088,454.270139309509,4,1,1,71,1,0
262722,449.068183519198,4,1,1,71,1,0
266316,464.32440798638,4,1,1,71,1,0
268173,418.848167539267,4,1,1,71,1,0
269455,419.58041958042,4,1,1,71,1,0
269875,447.928331466965,4,1,2,71,1,0
269986,-100,4,1,1,71,0,0
277042,451.739195904231,4,1,1,71,1,0
280655,447.761194029851,4,1,1,71,1,0
284237,450.45045045045,4,1,2,71,1,0
284462,-100,4,1,1,71,0,0
286038,447.761194029851,4,1,1,71,1,0
287829,450.653447498873,4,1,1,71,1,0
290983,413.736036408771,4,1,2,71,1,0
292637,391.236036408771,4,2,2,71,1,0
293810,437.31778425656,4,2,2,71,1,0
295121,510.33426894616,4,2,2,71,1,0
295630,418.322526668061,4,2,2,71,1,0
296257,390.32006245121,4,2,2,71,1,0
296647,508.216161273928,4,2,2,71,1,0
297155,338.028169014084,4,3,1,71,1,0
297831,253.796370711899,4,2,2,7,1,0
298085,305.701329800785,4,2,2,7,1,0
298390,455.027819548872,4,2,2,37,1,0
298845,350.405886818899,4,2,2,7,1,0
299545,332.06043499917,4,2,2,7,1,0
300209,352.941176470588,4,2,2,7,1,0
300562,301.507537688442,4,2,2,7,1,0
300863,325.55615843733,4,2,2,7,1,0
301575,429.184549356223,4,2,2,37,1,0
302647,415.512465373961,4,2,2,7,1,0
303339,473.9336492891,4,2,2,37,1,0
303575,393.366311272916,4,2,2,7,1,0
303969,333.333333333333,4,2,2,7,1,0
304302,330.487473180393,4,2,2,7,1,0
304963,340.078651685393,4,2,2,7,1,0
307130,551.825623103099,4,2,2,37,1,0
307681,482.81966685443,4,2,2,7,1,0
308164,518.627366237359,4,2,2,37,1,0
308390,323.066982554383,4,2,2,7,1,0
309037,343.977526801582,4,2,2,7,1,0
309724,481.772924361651,4,2,2,7,1,0
310206,450.34902049088,4,2,2,37,1,0
312288,434.782608695652,4,2,2,37,1,0
312722,492.97510475721,4,2,2,37,1,0
313217,319.233838786911,4,2,2,37,1,0
314175,334.690690020639,4,2,2,7,1,0
314844,344.708721130645,4,2,2,7,1,0
315533,333.704115684093,4,2,2,7,1,0
316200,343.308348114665,4,2,2,7,1,0
316887,332.704890761894,4,2,2,7,1,0
317552,332.704890761894,4,2,2,7,1,0
319069,450.721153846154,4,2,2,37,1,0
320421,474.420811259587,4,2,2,37,1,0
321370,340.155337604173,4,2,2,7,1,0
322050,340.155337604173,4,2,2,7,1,0
322730,328.748936170212,4,2,2,7,1,0
323387,472.664250827162,4,2,2,7,1,0
323860,333.333333333333,4,2,2,37,1,0
324610,334.484596702032,4,2,2,7,1,0
325028,482.625482625483,4,2,2,7,1,0
325843,377.358490566038,4,2,2,37,1,0
326220,446.827524575514,4,2,2,7,1,0
326667,345.164816199735,4,2,2,7,1,0
327357,281.00412139378,4,2,2,7,1,0
327638,488.20179007323,4,2,2,37,1,0
328615,321.888412017167,4,2,2,37,1,0
329581,471.698113207547,4,2,2,37,1,0
331231,404.176490400809,4,2,2,37,1,0
331635,461.71604463255,4,2,2,7,1,0
332327,482.780817508851,4,2,2,7,1,0
335304,509.078567792296,4,2,2,7,1,0
335304,-133.333333333333,4,2,2,20,0,0
337340,441.176470588235,4,2,2,20,1,0
337340,-133.333333333333,4,2,2,20,0,0
339104,475.098754669988,4,2,2,20,1,0
339104,-133.333333333333,4,2,2,20,0,0
341004,769.230769230769,4,1,1,20,1,0
341772,638.297872340426,4,1,1,20,1,0
342410,727.625515401407,4,1,1,20,1,0
343137,659.340659340659,4,1,1,20,1,0
343796,1023.71608940454,4,1,1,20,1,0
344819,474.308300395257,4,1,1,37,1,0
346716,695.974944901984,4,1,1,37,1,0
347412,483.870967741935,4,1,1,71,1,0
347532,-100,4,2,4,5,0,0
351282,459.418070444105,4,1,1,71,1,1
351282,-93.4579439252336,4,1,1,71,0,1
351741,-100,4,1,2,61,0,1
351856,-100,4,1,1,71,0,1
352200,-100,4,1,2,61,0,1
352315,-100,4,1,1,71,0,1
352430,-100,4,3,1,61,0,1
352545,-100,4,1,1,71,0,1
352889,-100,4,3,1,61,0,1
353004,-100,4,1,1,71,0,1
353120,452.147701582517,4,1,1,71,1,1
354929,450.281425891182,4,1,1,71,1,1
359432,458.891013384322,4,1,1,71,1,1
361267,454.545454545455,4,1,1,71,1,1
362631,-100,4,1,2,71,0,1
362858,-100,4,1,1,71,0,1
363085,-100,4,1,2,61,0,1
363199,-100,4,1,1,71,0,1
363994,453.446191051995,4,1,1,71,1,1
367621,452.864367122047,4,1,2,71,1,1
367734,-100,4,1,1,71,0,1
370338,457.805786851012,4,1,1,71,1,1
372169,435.888122048674,4,1,1,71,1,1
372604,453.514739229025,4,1,1,71,1,1
373965,450.112528132033,4,1,1,71,1,1
376666,218.978102189781,4,1,1,71,1,1
376666,-200,4,1,1,71,0,1
377541,-200,4,3,1,61,0,1
377651,-200,4,1,1,71,0,1
379293,-200,4,3,1,61,0,1
379403,-200,4,1,1,71,0,1
380169,220.685596586729,4,1,1,71,1,1
380169,-200,4,1,1,71,0,1
381051,-200,4,3,1,61,0,1
381162,-200,4,1,1,71,0,1
383700,442.543147956926,4,1,1,71,1,1
387240,-100,4,3,1,61,0,1
387350,-100,4,1,1,71,0,1
389011,434.341971912553,4,1,1,71,1,1
390748,461.538461538462,4,1,2,71,1,1
390863,-100,4,1,1,71,0,1
391671,454.545454545455,4,1,1,71,1,1
397125,453.206435531385,4,1,1,71,1,1
399391,-100,4,1,2,61,0,1
399504,-100,4,1,1,71,0,1
400297,-100,4,1,2,61,0,1
400410,-100,4,1,1,71,0,1
402563,-100,4,3,1,61,0,1
402676,-100,4,1,1,71,0,1
403470,227.980849608633,4,1,1,71,1,1
403470,-200,4,1,1,71,0,1
404381,-200,4,3,1,61,0,1
404495,-200,4,1,1,71,0,1
405293,220.426157237325,4,1,1,71,1,1
405293,-200,4,1,1,71,0,1
406174,-200,4,3,1,61,0,1
406284,-200,4,1,1,71,0,1
406615,234.192037470726,4,1,1,71,1,1
406615,-200,4,1,1,71,0,1
407083,221.206311753429,4,1,1,71,1,1
407083,-200,4,1,1,71,0,1
407857,-125,4,1,1,71,0,1
407967,-200,4,3,1,61,0,1
408023,-200,4,1,1,71,0,1
408189,-200,4,1,1,71,0,1
410622,466.926070038911,4,1,2,71,1,1
410738,-100,4,1,1,71,0,1
411088,-66.6666666666667,4,1,2,61,0,1
411205,-66.6666666666667,4,1,1,71,0,1
411556,452.318130418394,4,1,1,71,1,1
411556,-66.6666666666667,4,1,2,71,0,1
411669,-66.6666666666667,4,1,1,71,0,1
412461,439.979467624844,4,1,1,71,1,1
412461,-66.6666666666667,4,1,1,71,0,1
414660,-66.6666666666667,4,1,2,61,0,1
414770,-66.6666666666667,4,1,1,71,0,1
415980,-76.9230769230769,4,1,1,71,0,1
417300,463.965357253325,4,1,1,71,1,1
417300,-66.6666666666667,4,1,1,71,0,1
417764,454.029511918275,4,1,2,71,1,0
417991,-100,4,1,1,71,0,0
419353,-100,4,1,2,71,0,0
419596,443.786982248521,4,1,1,71,1,0
421149,-100,4,1,2,71,0,0
421371,453.857791225416,4,1,1,71,1,0
422505,-100,4,1,2,61,0,0
422562,-100,4,1,1,71,0,0
422732,-100,4,3,1,61,0,0
422846,-100,4,1,1,71,0,0
422959,475.812846946868,4,1,2,71,1,0
423077,-100,4,1,1,5,0,0
426289,-100,4,2,4,5,0,0
426527,-100,4,1,2,71,0,0
426765,438.660622898085,4,1,1,71,1,0
432029,439.270810454645,4,1,1,71,1,0
436202,-100,4,1,2,71,0,0
436311,-100,4,1,1,71,0,0
436422,439.206500256204,4,1,1,71,1,0
439936,477.707006369427,4,2,2,71,1,0
442802,464.900046490005,4,2,2,71,1,0
446521,456.273764258555,4,1,1,71,1,1
451996,475.812846946868,4,1,1,71,1,1
452947,450.315220654458,4,1,1,71,1,1
456549,457.142857142857,4,1,2,71,1,1
456663,-100,4,1,1,71,0,1
458834,-100,4,1,2,61,0,1
458949,-100,4,1,1,71,0,1
459292,451.569202980357,4,1,1,71,1,1
461098,446.927374301676,4,1,1,71,1,1
461992,458.015267175573,4,1,1,71,1,1
465657,451.127819548873,4,1,1,71,1,1
465657,-66.6666666666667,4,1,1,71,0,1
467461,438.116100766703,4,1,1,71,1,1
467461,-66.6666666666667,4,1,1,71,0,1
468337,460.829493087558,4,1,1,71,1,1
468337,-66.6666666666667,4,1,1,71,0,1
469258,444.609114486847,4,1,1,71,1,1
469258,-66.6666666666667,4,1,1,71,0,1
470815,462.214005084354,4,1,2,71,1,0
471277,-100,4,1,1,71,0,0
471739,443.458980044346,4,2,2,71,1,0
473734,460.475825019186,4,2,2,71,1,0
476209,-100,4,2,2,71,0,0
477187,471.142520612485,4,2,2,71,1,0
477422,471.142520612485,7,2,2,71,1,0
477893,-100,4,1,3,61,0,0
477922,-100,4,2,2,71,0,0
480719,-100,4,1,3,61,0,0
480837,-100,4,2,2,71,0,0
481662,-100,4,1,3,61,0,0
481780,-100,4,2,2,71,0,0
483546,-100,4,1,3,61,0,0
483664,-100,4,2,2,71,0,0
487315,472.44094488189,7,2,2,71,1,0
490622,467.836257309942,7,2,2,71,1,0
497171,470.035252643948,7,2,2,71,1,0
501401,-100,4,1,3,61,0,0
501518,-100,4,2,2,71,0,0
501872,485.122897800776,4,1,2,71,1,0
502599,-100,4,2,2,71,0,0
503327,443.458980044346,4,2,2,71,1,0
504213,464.396284829721,4,2,2,71,1,0
506070,461.538461538462,4,2,2,71,1,0
506070,-66.6666666666667,4,2,2,71,0,0
506300,-100,4,2,2,41,0,0
509762,-100,4,2,4,5,0,0

[Colours]
Combo1 : 155,0,0
Combo2 : 20,41,129
Combo3 : 84,135,32
Combo4 : 28,104,192
Combo5 : 255,0,0

[HitObjects]
256,192,1119,12,0,7835,0:0:0:0:
248,184,8059,6,0,L|224:184,2,22.4999988079071
296,272,11170,5,0,0:0:0:0:
296,168,11580,2,0,L|200:168,1,89.9999952316285
96,48,12237,1,0,0:0:0:0:
38,259,12922,1,0,0:0:0:0:
362,257,16707,5,0,0:0:0:0:
248,192,17756,2,0,L|248:152,2,33.7499982118607
264,136,19800,37,0,0:0:0:0:
330,264,20164,2,0,L|251:264,1,78.7499958276749
216,264,20472,2,0,L|120:264,1,89.9999952316285
248,88,21872,6,0,L|288:88,2,33.7499982118607
240,168,22329,2,0,L|200:168,2,33.7499982118607
248,248,22788,1,0,0:0:0:0:
256,192,22911,12,0,28704,0:0:0:0:
256,192,29862,6,0,L|256:154,2,29.9999984105428
160,64,33484,37,0,0:0:0:0:
280,104,33914,2,0,L|279:177,1,67.4999964237214
73,222,34652,2,0,P|115:282|321:320,1,292.499984502793
256,193,37254,5,0,0:0:0:0:
128,27,41194,5,2,0:0:0:0:
315,28,41637,2,0,L|315:116,1,78.7499958276749
120,144,42284,38,0,P|72:144|33:165,1,89.9999952316285,2|0,0:0|0:0,0:0:0:0:
40,272,42732,2,0,P|80:280|128:264,1,89.9999952316285
187,212,43180,6,0,P|232:220|254:267,1,89.9999952316285,2|0,0:0|0:0,0:0:0:0:
314,357,43641,2,0,P|384:382|410:371,1,89.9999952316285,2|0,0:0|0:0,0:0:0:0:
334,248,44103,2,0,P|382:240|422:256,2,89.9999952316285,2|0|2,0:0|0:0|0:0,0:0:0:0:
334,248,44754,53,14,0:0:0:0:
144,96,45218,2,0,L|88:168,1,89.9999952316285,0|10,0:0|0:0,0:0:0:0:
40,264,45656,1,0,0:0:0:0:
72,344,45875,2,0,L|168:344,1,89.9999952316285,2|8,0:0|3:0,0:0:0:0:
248,312,46313,1,10,0:0:0:0:
264,224,46532,2,0,P|304:192|344:200,1,89.9999952316285,0|2,0:0|0:0,0:0:0:0:
424,168,46966,6,0,P|424:112|400:88,1,89.9999952316285,8|10,3:0|0:0,0:0:0:0:
320,56,47397,2,0,L|224:56,1,89.9999952316285,2|0,0:0|0:0,0:0:0:0:
144,80,47828,1,8,3:0:0:0:
120,176,48043,2,0,L|24:176,2,89.9999952316285,8|2|8,0:0|0:0|3:0,0:0:0:0:
220,184,48693,6,0,L|224:280,2,89.9999952316285,10|10|0,3:0|0:0|0:0,0:0:0:0:
261,97,49350,2,0,P|285:81|405:145,1,179.999990463257,2|8,0:0|0:0,0:0:0:0:
448,208,50007,2,0,L|448:304,1,89.9999952316285,2|8,0:0|3:0,0:0:0:0:
368,336,50442,2,0,P|304:336|280:328,1,89.9999952316285,8|8,3:0|0:0,0:0:0:0:
256,232,50873,1,0,0:0:0:0:
257,142,51088,38,0,L|205:142,2,44.9999976158143,4|4|12,0:0|0:0|3:0,0:0:0:0:
256,232,51520,2,0,L|208:232,1,44.9999976158143,12|4,0:0|0:0,0:0:0:0:
160,232,51736,6,0,P|128:224|112:152,1,89.9999952316285,6|8,0:0|3:0,0:0:0:0:
64,96,52174,2,0,P|24:152|28:190,1,89.9999952316285,10|10,3:0|0:0,0:0:0:0:
40,264,52621,1,0,0:0:0:0:
40,264,52844,2,0,P|48:312|88:336,2,89.9999952316285,10|8|10,3:0|3:0|0:0,0:0:0:0:
112,208,53514,2,0,P|160:216|216:200,1,89.9999952316285,0|2,0:0|0:0,0:0:0:0:
208,296,53956,5,8,3:0:0:0:
287,220,54173,2,0,P|228:217|167:188,1,89.9999952316285,10|2,0:0|0:0,0:0:0:0:
224,72,54607,2,0,P|152:40|64:96,1,179.999990463257,0|8,0:0|0:0,0:0:0:0:
32,176,55258,2,0,L|32:272,1,89.9999952316285,2|8,0:0|3:0,0:0:0:0:
120,264,55692,38,0,L|120:360,2,89.9999952316285,10|10|0,3:0|0:0|0:0,0:0:0:0:
192,224,56343,2,0,P|280:248|336:184,1,179.999990463257,2|10,0:0|0:0,0:0:0:0:
336,104,56994,1,2,0:0:0:0:
336,24,57214,6,0,P|392:40|416:160,1,179.999990463257,8|8,3:0|0:0,0:0:0:0:
256,320,58086,2,0,L|184:320,2,44.9999976158143,4|4|12,0:0|0:0|3:0,0:0:0:0:
256,232,58522,2,0,L|208:232,2,44.9999976158143,12|4|12,0:0|0:0|3:0,0:0:0:0:
352,184,58959,6,0,P|376:160|368:104,1,89.9999952316285,14|2,0:0|0:0,0:0:0:0:
304,32,59419,1,10,0:0:0:0:
224,80,59650,1,2,0:0:0:0:
128,48,59880,2,0,P|88:120|144:200,1,179.999990463257,2|8,0:0|0:0,0:0:0:0:
225,230,60543,1,0,0:0:0:0:
232,320,60764,38,0,B|328:320,1,89.9999952316285,0|2,0:0|0:0,0:0:0:0:
416,320,61207,1,8,0:0:0:0:
456,240,61428,2,0,L|472:152,1,89.9999952316285,2|2,0:0|0:0,0:0:0:0:
480,64,61869,2,0,L|384:64,1,89.9999952316285,8|8,3:0|0:0,0:0:0:0:
312,104,62310,6,0,L|184:104,1,89.9999952316285
144,48,62750,1,10,3:0:0:0:
80,112,62971,1,10,0:0:0:0:
128,184,63191,1,2,0:0:0:0:
216,200,63412,6,0,P|304:168|368:248,1,179.999990463257,2|8,0:0|0:0,0:0:0:0:
376,304,64080,1,0,0:0:0:0:
296,328,64303,2,0,P|248:336|200:320,1,89.9999952316285,0|10,0:0|3:0,0:0:0:0:
136,280,64749,53,8,0:0:0:0:
96,216,64972,2,0,P|88:152|112:128,1,89.9999952316285,2|0,0:0|0:0,0:0:0:0:
160,56,65418,2,0,L|280:56,1,89.9999952316285,10|10,3:0|0:0,0:0:0:0:
336,72,65864,2,0,P|376:96|392:136,1,89.9999952316285,0|8,0:0|3:0,0:0:0:0:
400,224,66310,54,0,P|360:240|296:232,1,89.9999952316285,10|10,3:0|0:0,0:0:0:0:
391,134,66756,2,0,P|359:118|303:134,1,89.9999952316285,2|2,0:0|0:0,0:0:0:0:
240,224,67202,1,8,3:0:0:0:
144,208,67425,1,8,0:0:0:0:
192,128,67648,1,8,3:0:0:0:
136,56,67871,2,0,P|168:32|224:24,2,89.9999952316285,0|10|8,0:0|3:0|0:0,0:0:0:0:
80,144,68542,6,0,P|56:224|208:336,1,269.999985694885,14|10,0:0|0:0,0:0:0:0:
264,304,69429,1,8,3:0:0:0:
304,200,69651,2,0,P|265:122|184:136,1,179.999990463257,2|10,0:0|0:0,0:0:0:0:
120,192,70318,1,8,3:0:0:0:
120,272,70540,54,0,P|144:320|264:320,1,179.999990463257,2|10,0:0|0:0,0:0:0:0:
336,256,71207,2,0,L|352:160,1,89.9999952316285,2|8,0:0|0:0,0:0:0:0:
360,64,71661,1,10,0:0:0:0:
264,64,71893,2,0,L|168:64,2,89.9999952316285,8|8|14,0:0|3:0|1:0,0:0:0:0:
256,176,72601,22,0,P|200:184|160:176,1,89.9999952316285,2|2,0:0|0:0,0:0:0:0:
56,208,73085,2,0,P|35:247|36:291,1,89.9999952316285,2|14,0:0|1:0,0:0:0:0:
112,344,73569,2,0,P|168:344|208:320,1,89.9999952316285,2|2,0:0|0:0,0:0:0:0:
288,264,74054,2,0,P|344:272|376:296,1,89.9999952316285,2|14,0:0|1:0,0:0:0:0:
424,360,74538,37,2,0:0:0:0:
464,272,74782,1,2,0:0:0:0:
464,176,75024,1,2,0:0:0:0:
416,104,75265,1,14,0:0:0:0:
256,192,75381,12,14,78692,0:0:0:0:
368,56,79200,6,0,L|248:56,1,89.9999952316285,0|10,0:0|0:0,0:0:0:0:
208,112,79648,1,0,0:0:0:0:
272,176,79871,2,0,P|336:168|376:192,1,89.9999952316285,10|8,3:0|3:0,0:0:0:0:
424,232,80319,2,0,P|400:304|368:320,1,89.9999952316285,10|0,0:0|0:0,0:0:0:0:
296,336,80767,6,0,P|208:336|128:272,1,179.999990463257,2|10,0:0|0:0,0:0:0:0:
104,200,81418,2,0,L|104:104,1,89.9999952316285,2|0,0:0|0:0,0:0:0:0:
168,40,81853,2,0,L|280:40,1,89.9999952316285,8|8,3:0|0:0,0:0:0:0:
352,64,82287,38,4,P|407:83|424:193,1,179.999990463257,4|12,0:0|3:0,0:0:0:0:
384,296,82954,2,0,L|288:296,1,89.9999952316285,12|4,0:0|0:0,0:0:0:0:
176,296,83399,2,0,L|80:296,2,89.9999952316285,4|12|12,0:0|3:0|0:0,0:0:0:0:
256,264,84064,6,0,P|376:176|320:96,1,269.999985694885,2|10,0:0|0:0,0:0:0:0:
224,96,84949,2,0,P|192:128|144:128,1,89.9999952316285,0|10,0:0|0:0,0:0:0:0:
56,72,85391,53,8,3:0:0:0:
32,176,85612,1,8,3:0:0:0:
110,244,85833,1,14,0:0:0:0:
440,192,86303,22,0,P|432:256|416:280,1,89.9999952316285,2|10,0:0|0:0,0:0:0:0:
344,336,86749,1,0,0:0:0:0:
256,336,86971,2,0,P|176:312|104:232,2,179.999990463257,2|8|0,0:0|0:0|0:0,0:0:0:0:
256,240,88085,2,0,L|256:120,1,89.9999952316285,10|8,3:0|0:0,0:0:0:0:
160,152,88530,2,0,P|112:104|110:78,1,89.9999952316285,2|0,0:0|0:0,0:0:0:0:
176,32,88976,1,10,3:0:0:0:
264,32,89199,38,0,P|324:59|380:163,1,179.999990463257,8|0,0:0|0:0,0:0:0:0:
400,248,89867,1,10,3:0:0:0:
336,328,90089,1,10,0:0:0:0:
304,240,90312,1,2,0:0:0:0:
264,160,90535,6,0,P|160:168|88:120,2,179.999990463257,2|8|0,0:0|0:0|0:0,0:0:0:0:
320,48,91648,2,0,P|272:32|232:40,1,89.9999952316285,10|8,3:0|0:0,0:0:0:0:
147,64,92094,2,0,P|112:104|104:144,1,89.9999952316285,2|0,0:0|0:0,0:0:0:0:
96,224,92539,2,0,L|96:328,1,89.9999952316285,10|10,3:0|0:0,0:0:0:0:
184,360,92985,1,8,3:0:0:0:
280,320,93207,54,0,P|384:320|400:328,1,89.9999952316285,0|10,0:0|3:0,0:0:0:0:
448,256,93653,2,0,P|480:216|480:144,1,89.9999952316285,10|2,0:0|0:0,0:0:0:0:
424,96,94098,2,0,P|312:48|224:72,1,179.999990463257,2|8,0:0|0:0,0:0:0:0:
160,96,94766,1,0,0:0:0:0:
136,184,94989,2,0,L|136:280,2,89.9999952316285,0|10|8,0:0|3:0|0:0,0:0:0:0:
160,96,95657,22,0,P|230:49|328:88,1,179.999990463257,14|0,0:0|0:0,0:0:0:0:
272,160,96324,2,0,P|272:216|392:264,1,179.999990463257,10|2,0:0|0:0,0:0:0:0:
432,192,96992,1,8,3:0:0:0:
440,96,97214,54,0,P|368:48|288:80,1,179.999990463257,10|2,0:0|0:0,0:0:0:0:
200,136,97882,1,8,3:0:0:0:
200,240,98104,2,0,L|200:352,1,89.9999952316285,10|2,0:0|0:0,0:0:0:0:
296,328,98549,2,0,L|296:232,1,89.9999952316285,8|8,0:0|0:0,0:0:0:0:
384,208,98994,2,0,P|416:144|336:72,1,179.999990463257,8|14,0:0|1:0,0:0:0:0:
304,144,99680,54,0,P|256:192|248:224,1,89.9999952316285,2|2,0:0|0:0,0:0:0:0:
216,296,100160,2,0,P|200:328|136:344,1,89.9999952316285,2|14,0:0|1:0,0:0:0:0:
64,352,100646,2,0,P|32:304|32:256,1,89.9999952316285,2|2,0:0|0:0,0:0:0:0:
104,224,101138,2,0,P|120:160|96:112,1,89.9999952316285,2|14,0:0|1:0,0:0:0:0:
80,48,101630,2,0,B|152:32|208:56,1,89.9999952316285,2|2,0:0|0:0,0:0:0:0:
272,64,102122,1,2,0:0:0:0:
272,64,102368,1,14,0:0:0:0:
256,192,102473,12,10,106321,3:0:0:0:
344,40,119230,70,0,L|128:40,2,215.999981964112,10|8|8,0:0|0:0|0:0,0:0:0:0:
456,40,120381,1,8,3:0:0:0:
455,133,120611,2,0,P|447:189|313:273,1,215.999981964112
320,128,121301,5,8,3:0:0:0:
153,164,121531,2,0,P|200:231|344:271,1,215.999981964112,8|8,0:0|0:0,0:0:0:0:
320,152,122222,1,8,3:0:0:0:
443,158,122452,2,0,P|436:216|379:254,1,107.999990982056,0|10,0:0|3:0,0:0:0:0:
304,280,122912,6,0,P|240:272|224:200,1,107.999990982056,10|2,0:0|0:0,0:0:0:0:
320,152,123373,2,0,P|352:106|330:58,1,107.999990982056,10|2,0:0|0:0,0:0:0:0:
224,32,123833,2,0,P|176:40|138:97,1,107.999990982056,10|10,0:0|3:0,0:0:0:0:
131,192,124294,2,0,P|203:240|235:232,1,107.999990982056,2|10,0:0|3:0,0:0:0:0:
304,200,124755,37,2,0:0:0:0:
352,120,124985,1,10,3:0:0:0:
432,176,125215,2,0,P|480:136|471:73,1,107.999990982056,10|2,0:0|0:0,0:0:0:0:
384,80,125676,6,0,P|328:32|224:136,1,215.999981964112,10|8,0:0|0:0,0:0:0:0:
190,208,126370,1,0,0:0:0:0:
190,208,126602,2,0,P|149:299|30:264,1,215.999981964112,8|0,0:0|0:0,0:0:0:0:
0,200,127296,1,8,3:0:0:0:
48,112,127528,2,0,P|153:117|192:212,1,215.999981964112,0|8,0:0|0:0,0:0:0:0:
200,304,128223,1,0,0:0:0:0:
304,296,128454,2,0,P|376:232|368:120,1,215.999981964112,0|8,0:0|0:0,0:0:0:0:
280,48,129149,1,2,0:0:0:0:
192,112,129380,6,0,P|203:172|248:176,1,107.999990982056,10|10,0:0|3:0,0:0:0:0:
360,152,129834,2,0,P|416:160|432:208,1,107.999990982056,2|10,0:0|3:0,0:0:0:0:
400,296,130289,2,0,P|360:336|304:336,1,107.999990982056,2|10,0:0|3:0,0:0:0:0:
232,288,130743,1,10,0:0:0:0:
168,176,130970,38,0,P|167:120|280:74,1,179.999990463257,14|10,0:0|3:0,0:0:0:0:
416,72,131694,1,8,3:0:0:0:
348,176,131936,6,0,L|168:176,2,179.999990463257,14|2|2,1:0|0:0|0:0,0:0:0:0:
459,220,133311,2,0,P|472:286|387:351,1,179.999990463257,2|14,0:0|0:0,0:0:0:0:
256,192,133883,12,14,135584,0:0:0:0:
256,192,136001,5,0,0:0:0:0:
229,81,136229,2,0,P|187:66|62:110,1,179.999990463257,10|2,0:0|0:0,0:0:0:0:
24,184,136913,1,8,3:0:0:0:
64,280,137141,2,0,L|160:280,1,89.9999952316285,10|0,0:0|0:0,0:0:0:0:
229,316,137598,38,0,P|325:308|389:244,1,179.999990463257,2|10,0:0|0:0,0:0:0:0:
401,160,138230,1,2,0:0:0:0:
320,112,138441,2,0,L|225:111,1,89.9999952316285,0|8,0:0|3:0,0:0:0:0:
168,48,138886,1,8,0:0:0:0:
112,120,139108,6,0,P|88:152|104:232,1,89.9999952316285,4|8,0:0|3:0,0:0:0:0:
128,288,139551,1,4,0:0:0:0:
224,320,139771,2,0,L|320:320,1,89.9999952316285,12|4,0:0|0:0,0:0:0:0:
360,248,140211,5,4,0:0:0:0:
288,176,140431,1,12,3:0:0:0:
189,217,140651,1,12,0:0:0:0:
137,136,140880,2,0,L|176:80,1,44.9999976158143,2|2,0:0|0:0,0:0:0:0:
200,64,141111,38,0,L|248:64,3,44.9999976158143,2|2|10|2,0:0|0:0|3:0|0:0,0:0:0:0:
288,64,141536,2,0,L|336:64,3,44.9999976158143,8|2|2|2,0:0|0:0|0:0|0:0,0:0:0:0:
376,64,141962,2,0,L|424:72,3,44.9999976158143,10|10|2|10,0:0|0:0|0:0|0:0,0:0:0:0:
464,88,142388,2,0,P|488:136|464:176,1,89.9999952316285,10|14,3:0|0:0,0:0:0:0:
104,280,143313,22,0,P|96:192|136:112,1,179.999990463257,10|2,0:0|0:0,0:0:0:0:
221,60,143982,1,8,3:0:0:0:
224,152,144205,2,0,P|256:216|360:232,1,179.999990463257,10|2,0:0|0:0,0:0:0:0:
343,143,144873,1,0,0:0:0:0:
391,72,145096,1,10,0:0:0:0:
464,136,145320,2,0,P|488:200|392:352,1,258.749986290932,2|8,0:0|0:0,0:0:0:0:
288,352,146198,2,0,L|190:332,1,89.9999952316285,0|8,0:0|0:0,0:0:0:0:
74,260,146907,54,0,P|70:198|86:159,1,89.9999952316285,12|12,3:0|3:0,0:0:0:0:
395,220,147818,1,12,3:0:0:0:
104,88,148530,1,12,3:0:0:0:
96,328,149273,1,12,3:0:0:0:
440,296,149973,2,0,P|415:240|387:214,1,89.9999952316285,12|12,3:0|0:0,0:0:0:0:
316,175,150452,53,2,0:0:0:0:
268,246,150675,1,10,0:0:0:0:
200,192,150897,2,0,P|112:208|37:152,1,179.999990463257,2|10,0:0|3:0,0:0:0:0:
41,79,151565,2,0,P|152:40|290:98,1,269.999985694885,10|10,0:0|3:0,0:0:0:0:
352,160,152455,1,8,0:0:0:0:
456,160,152678,6,0,P|448:224|432:248,1,89.9999952316285,2|2,0:0|0:0,0:0:0:0:
344,304,153123,2,0,B|296:312|248:296,1,89.9999952316285,8|8,3:0|0:0,0:0:0:0:
144,264,153568,1,0,0:0:0:0:
112,176,153790,6,0,P|152:136|184:136,1,89.9999952316285,0|10,0:0|3:0,0:0:0:0:
280,128,154239,2,0,P|331:119|376:88,2,89.9999952316285,10|2|2,0:0|0:0|0:0,0:0:0:0:
192,192,154913,1,8,3:0:0:0:
291,219,155137,2,0,P|355:203|387:211,1,89.9999952316285,8|0,0:0|0:0,0:0:0:0:
376,304,155587,38,0,P|336:320|288:312,1,89.9999952316285,0|10,0:0|3:0,0:0:0:0:
194,318,156036,1,8,0:0:0:0:
120,262,156260,2,0,P|72:190|132:132,1,179.999990463257,2|10,0:0|3:0,0:0:0:0:
224,128,156934,2,0,L|224:224,2,89.9999952316285,10|0|0,0:0|0:0|0:0,0:0:0:0:
312,104,157608,6,0,P|352:152|344:168,1,89.9999952316285,10|8,3:0|0:0,0:0:0:0:
284,249,158058,2,0,P|260:297|284:321,2,89.9999952316285,2|0|10,0:0|0:0|3:0,0:0:0:0:
386,243,158731,54,0,P|410:203|354:91,1,179.999990463257,10|0,0:0|0:0,0:0:0:0:
271,77,159405,2,0,L|175:93,1,89.9999952316285,10|10,3:0|0:0,0:0:0:0:
182,91,159855,1,14,0:0:0:0:
448,320,160306,22,0,L|448:200,1,89.9999952316285,0|10,0:0|0:0,0:0:0:0:
448,128,160758,2,0,L|352:64,1,89.9999952316285,0|2,0:0|0:0,0:0:0:0:
248,48,161211,1,8,3:0:0:0:
248,152,161437,2,0,L|248:264,1,89.9999952316285,10|0,0:0|0:0,0:0:0:0:
192,344,161890,54,0,L|96:320,1,89.9999952316285,2|8,0:0|3:0,0:0:0:0:
56,224,162342,1,10,0:0:0:0:
88,120,162569,2,0,P|136:48|248:48,1,179.999990463257,2|10,0:0|0:0,0:0:0:0:
352,40,163247,2,0,L|400:40,2,44.9999976158143,10|10|10,0:0|0:0|0:0,0:0:0:0:
256,128,163701,53,14,1:0:0:0:
256,240,163946,2,0,L|160:240,1,89.9999952316285,2|2,0:0|0:0,0:0:0:0:
80,288,164438,1,2,0:0:0:0:
160,352,164683,5,14,1:0:0:0:
272,304,164929,2,0,L|362:304,2,89.9999952316285,2|2|0,0:0|0:0|0:0,0:0:0:0:
256,208,165666,5,14,1:0:0:0:
224,96,165912,1,2,0:0:0:0:
152,200,166158,1,2,0:0:0:0:
112,96,166403,1,2,0:0:0:0:
32,176,166649,53,14,1:0:0:0:
256,192,166955,12,14,170467,0:0:0:0:
256,192,170699,53,0,0:0:0:0:
208,104,170931,2,0,P|136:88|56:152,1,179.999990463257,10|8,0:0|0:0,0:0:0:0:
32,256,171627,1,8,3:0:0:0:
112,336,171859,6,0,P|208:344|288:288,1,179.999990463257
336,224,172555,1,8,3:0:0:0:
336,120,172787,2,0,P|320:88|264:64,1,89.9999952316285,8|0,0:0|0:0,0:0:0:0:
168,64,173251,2,0,L|72:64,2,89.9999952316285,10|10|2,0:0|3:0|0:0,0:0:0:0:
256,136,173947,6,0,P|248:192|136:232,1,179.999990463257,10|0,3:0|0:0,0:0:0:0:
160,144,174643,2,0,P|96:152|80:168,1,89.9999952316285,10|2,0:0|0:0,0:0:0:0:
64,256,175107,2,0,P|88:312|112:328,1,89.9999952316285,2|8,0:0|3:0,0:0:0:0:
200,336,175571,38,0,L|296:328,1,89.9999952316285,10|2,0:0|0:0,0:0:0:0:
376,296,176035,2,0,L|392:200,1,89.9999952316285,8|10,0:0|3:0,0:0:0:0:
408,104,176499,1,0,0:0:0:0:
320,120,176731,1,8,3:0:0:0:
248,48,176963,6,0,L|200:48,1,44.9999976158143,2|0,0:0|0:0,0:0:0:0:
160,56,177194,2,0,L|112:72,1,44.9999976158143,8|0,3:0|0:0,0:0:0:0:
80,96,177425,2,0,L|72:152,1,44.9999976158143,8|0,0:0|0:0,0:0:0:0:
72,192,177657,2,0,L|88:240,1,44.9999976158143
128,256,177888,6,0,L|176:256,1,44.9999976158143,8|0,0:0|0:0,0:0:0:0:
216,256,178120,2,0,L|272:256,1,44.9999976158143,8|0,3:0|0:0,0:0:0:0:
304,256,178351,2,0,L|360:256,1,44.9999976158143
392,256,178583,2,0,L|442:243,1,44.9999976158143
472,216,178814,38,0,L|488:168,1,44.9999976158143
472,128,179046,2,0,L|440:80,1,44.9999976158143,8|0,3:0|0:0,0:0:0:0:
400,80,179277,2,0,L|352:80,1,44.9999976158143,8|0,0:0|0:0,0:0:0:0:
312,80,179509,2,0,L|264:80,1,44.9999976158143
224,80,179740,6,0,L|176:80,1,44.9999976158143,8|0,0:0|0:0,0:0:0:0:
136,80,179972,2,0,L|88:80,2,44.9999976158143,8|0|8,3:0|0:0|0:0,0:0:0:0:
168,160,180435,1,2,0:0:0:0:
88,176,180666,6,0,P|48:184|16:240,1,107.999990982056,2|10,0:0|3:0,0:0:0:0:
40,320,181129,1,10,0:0:0:0:
128,336,181361,2,0,P|168:328|200:264,1,107.999990982056,2|2,0:0|0:0,0:0:0:0:
264,192,181824,1,10,3:0:0:0:
344,144,182055,2,0,P|376:120|432:160,1,107.999990982056,10|2,0:0|0:0,0:0:0:0:
432,248,182518,38,0,P|392:296|352:288,1,107.999990982056,2|10,0:0|3:0,0:0:0:0:
328,216,182969,2,0,P|288:224|240:280,1,107.999990982056,8|2,0:0|0:0,0:0:0:0:
172,359,183444,6,0,L|116:359,1,44.9999976158143,2|0,0:0|0:0,0:0:0:0:
88,344,183673,2,0,L|48:304,1,44.9999976158143,8|0,3:0|0:0,0:0:0:0:
48,272,183903,2,0,L|48:200,1,44.9999976158143,8|0,0:0|0:0,0:0:0:0:
48,184,184133,2,0,L|48:120,1,44.9999976158143
56,104,184362,6,0,L|96:80,1,44.9999976158143,8|0,0:0|0:0,0:0:0:0:
128,72,184592,2,0,L|192:72,1,44.9999976158143,8|0,3:0|0:0,0:0:0:0:
208,88,184822,2,0,L|240:120,1,44.9999976158143
272,136,185051,2,0,L|320:136,1,44.9999976158143,8|0,3:0|0:0,0:0:0:0:
352,136,185281,38,0,L|400:136,1,44.9999976158143
440,136,185511,2,0,L|464:176,1,44.9999976158143,8|0,3:0|0:0,0:0:0:0:
472,216,185740,2,0,L|472:264,1,44.9999976158143,8|0,0:0|0:0,0:0:0:0:
472,296,185970,2,0,L|424:320,1,44.9999976158143
368,344,186200,5,0,0:0:0:0:
368,344,186315,1,0,0:0:0:0:
368,344,186429,1,8,3:0:0:0:
368,344,186544,1,0,0:0:0:0:
368,344,186659,2,0,P|296:352|272:344,1,89.9999952316285,8|2,0:0|0:0,0:0:0:0:
264,216,187119,6,0,L|144:216,1,116.999988445283,0|10,0:0|3:0,0:0:0:0:
144,352,187578,2,0,L|16:352,1,116.999988445283,10|2,0:0|0:0,0:0:0:0:
24,256,188037,2,0,L|24:128,1,116.999988445283,2|10,0:0|3:0,0:0:0:0:
120,136,188497,2,0,L|240:136,1,116.999988445283,10|0,0:0|0:0,0:0:0:0:
240,240,188956,2,0,L|120:240,2,116.999988445283,2|10|10,0:0|3:0|0:0,0:0:0:0:
344,256,189671,2,0,L|344:136,1,116.999988445283,2|2,0:0|0:0,0:0:0:0:
344,88,190023,38,0,L|280:72,3,44.9999976158143,0|8|0|8,0:0|3:0|0:0|0:0,0:0:0:0:
264,64,190477,2,0,L|208:80,3,44.9999976158143,0|0|0|8,0:0|0:0|0:0|0:0,0:0:0:0:
160,96,190931,1,0,0:0:0:0:
160,96,191045,1,10,3:0:0:0:
160,96,191158,1,0,0:0:0:0:
160,96,191272,6,0,L|64:96,2,89.9999952316285,0|10|0,0:0|3:0|0:0,0:0:0:0:
216,160,191957,1,10,3:0:0:0:
160,224,192188,2,0,L|64:224,1,89.9999952316285,8|0,0:0|0:0,0:0:0:0:
72,312,192650,2,0,L|168:312,1,89.9999952316285,0|8,0:0|3:0,0:0:0:0:
232,264,193113,2,0,L|336:264,1,89.9999952316285,8|2,0:0|0:0,0:0:0:0:
416,288,193576,5,2,0:0:0:0:
416,288,193806,2,0,L|432:192,1,89.9999952316285,10|10,3:0|0:0,0:0:0:0:
456,120,194266,1,2,0:0:0:0:
456,120,194496,1,2,0:0:0:0:
368,104,194726,1,10,3:0:0:0:
368,104,194956,2,0,L|272:104,1,89.9999952316285,10|14,0:0|0:0,0:0:0:0:
112,96,195659,54,0,L|112:192,2,89.9999952316285,2|8|14,0:0|0:0|1:0,0:0:0:0:
256,24,196592,1,2,0:0:0:0:
352,40,196823,1,0,0:0:0:0:
352,128,197053,1,2,0:0:0:0:
288,184,197284,1,0,0:0:0:0:
200,192,197514,2,0,P|144:256|160:344,1,179.999990463257,2|14,0:0|0:0,0:0:0:0:
256,192,198114,12,0,201849,0:0:0:0:
264,192,202332,6,0,P|290:147|284:99,1,98.9999977760315,12|12,3:0|3:0,0:0:0:0:
40,320,203294,1,12,3:0:0:0:
456,320,204036,1,12,3:0:0:0:
32,160,204778,1,12,3:0:0:0:
336,96,205444,2,0,L|435:96,1,98.9999977760315,12|14,3:0|0:0,0:0:0:0:
168,280,219929,38,0,L|32:280,2,134.999992847443
240,336,220820,2,0,L|336:336,1,89.9999952316285,0|2,0:0|0:0,0:0:0:0:
416,312,221265,1,2,0:0:0:0:
464,240,221487,1,2,0:0:0:0:
471,153,221709,6,0,P|439:73|391:49,1,134.999992847443,0|2,0:0|0:0,0:0:0:0:
320,232,222366,1,2,0:0:0:0:
160,216,222805,2,0,L|64:216,1,89.9999952316285,2|2,0:0|0:0,0:0:0:0:
72,112,223243,2,0,L|168:112,1,89.9999952316285,2|2,0:0|0:0,0:0:0:0:
360,56,223790,6,0,P|384:72|424:168,1,134.999992847443,2|2,0:0|0:0,0:0:0:0:
168,168,224557,1,2,0:0:0:0:
168,264,224885,2,0,L|304:264,1,134.999992847443,2|2,0:0|0:0,0:0:0:0:
256,192,225433,12,14,226945,0:0:0:0:
360,40,227277,38,0,P|432:96|432:136,1,134.999992847443
344,136,227828,2,0,L|344:232,3,89.9999952316285,0|2|2|2,0:0|0:0|0:0|0:0,0:0:0:0:
332,325,228711,6,0,P|278:352|198:352,1,134.999992847443,2|2,0:0|0:0,0:0:0:0:
32,232,229373,2,0,P|40:160|59:137,1,89.9999952316285,2|2,0:0|0:0,0:0:0:0:
104,88,229814,1,0,0:0:0:0:
184,104,230035,2,0,L|280:104,1,89.9999952316285,2|2,0:0|0:0,0:0:0:0:
296,16,230477,6,0,P|392:48|400:72,1,134.999992847443,2|2,0:0|0:0,0:0:0:0:
400,264,231144,2,0,P|371:308|328:322,1,89.9999952316285,2|0,0:0|0:0,0:0:0:0:
260,305,231589,2,0,L|116:289,2,134.999992847443,2|2|2,0:0|0:0|0:0,0:0:0:0:
256,192,232471,12,14,234035,0:0:0:0:
176,48,234368,38,0,P|112:80|88:136,1,134.999992847443
88,224,234923,1,0,0:0:0:0:
160,272,235145,2,0,P|248:240|296:168,1,179.999990463257,2|2,0:0|0:0,0:0:0:0:
344,96,235811,6,0,P|400:88|456:184,1,179.999990463257,2|2,0:0|0:0,0:0:0:0:
416,256,236477,2,0,P|368:272|320:272,1,89.9999952316285,2|0,0:0|0:0,0:0:0:0:
248,304,236921,2,0,L|152:304,1,89.9999952316285,2|2,0:0|0:0,0:0:0:0:
72,304,237365,2,0,L|72:208,1,89.9999952316285,2|2,0:0|0:0,0:0:0:0:
168,56,237921,6,0,L|312:56,1,134.999992847443,2|2,0:0|0:0,0:0:0:0:
384,80,238476,2,0,P|416:112|424:176,1,89.9999952316285,0|2,0:0|0:0,0:0:0:0:
424,328,239031,1,2,0:0:0:0:
272,360,239364,1,2,0:0:0:0:
256,192,239586,12,0,240918,0:0:0:0:
166,75,241140,54,0,P|314:66|253:303,1,449.999976158143,14|2,0:0|0:0,0:0:0:0:
72,192,242586,1,2,0:0:0:0:
222,50,242920,6,0,P|354:104|205:294,1,449.999976158143,2|2,0:0|0:0,0:0:0:0:
104,120,244367,1,2,0:0:0:0:
352,27,244701,38,0,P|402:50|449:262,1,269.999985694885,2|2,0:0|0:0,0:0:0:0:
253,359,246060,2,0,L|254:88,1,269.999985694885,2|2,0:0|0:0,0:0:0:0:
99,101,247420,2,0,P|58:175|79:267,1,179.999990463257,2|2,0:0|0:0,0:0:0:0:
325,367,248327,6,0,P|480:222|352:61,1,449.999976158143,6|2,0:0|0:0,0:0:0:0:
248,200,249781,1,2,0:0:0:0:
296,48,250117,2,0,P|72:144|88:320,1,449.999976158143,2|2,0:0|0:0,0:0:0:0:
248,200,251572,1,2,0:0:0:0:
408,336,251908,54,0,P|455:244|378:84,1,269.999985694885,2|2,0:0|0:0,0:0:0:0:
104,104,253250,2,0,P|62:179|162:352,1,269.999985694885,2|2,0:0|0:0,0:0:0:0:
256,48,254593,1,2,0:0:0:0:
256,224,255041,1,2,0:0:0:0:
376,176,255489,6,0,L|512:176,2,134.999992847443,14|0|0,0:0|0:0|0:0,0:0:0:0:
290,124,256388,5,0,0:0:0:0:
240,192,256613,2,0,L|144:192,1,89.9999952316285,2|2,0:0|0:0,0:0:0:0:
72,216,257063,1,2,0:0:0:0:
36,140,257288,38,0,P|40:89|128:45,1,134.999992847443,2|2,0:0|0:0,0:0:0:0:
272,40,257962,2,0,P|352:110|424:128,1,179.999990463257,2|2,0:0|0:0,0:0:0:0:
496,168,258637,1,2,0:0:0:0:
432,224,258862,1,2,0:0:0:0:
408,312,259088,6,0,P|360:352|288:352,2,134.999992847443,2|2|2,0:0|0:0|0:0,0:0:0:0:
432,224,259996,1,0,0:0:0:0:
360,168,260223,2,0,P|288:136|237:186,2,134.999992847443,2|2|2,0:0|0:0|0:0,0:0:0:0:
360,256,261132,2,0,B|288:312|232:248|232:248|104:272,1,269.999985694885,4|4,0:0|0:0,0:0:0:0:
32,112,262267,2,0,P|64:40|152:64,1,179.999990463257,4|14,0:0|0:0,0:0:0:0:
136,216,263058,6,0,L|136:352,1,134.999992847443,0|0,0:1|0:1,0:1:0:0:
224,344,263620,2,0,P|272:352|312:336,1,89.9999952316285,0|2,0:0|0:0,0:0:0:0:
304,232,264069,2,0,P|256:216|232:144,1,89.9999952316285,2|2,0:0|0:0,0:0:0:0:
288,88,264518,38,0,P|384:120|392:144,2,134.999992847443,2|2|2,0:0|0:0|0:0,0:0:0:0:
384,256,265640,2,0,L|360:344,2,89.9999952316285,2|2|2,0:0|0:0|0:0,0:0:0:0:
320,184,266316,6,0,P|240:216|178:179,2,134.999992847443,2|2|2,0:0|0:0|0:0,0:0:0:0:
392,120,267243,1,0,0:0:0:0:
344,48,267476,2,0,P|288:32|208:48,2,134.999992847443,2|2|2,0:0|0:0|0:0,0:0:0:0:
336,136,268382,6,0,P|231:230|294:356,1,269.999985694885,4|4,0:0|0:0,0:0:0:0:
362,362,269455,6,0,P|445:337|463:234,1,179.999990463257,4|14,0:0|0:0,0:0:0:0:
416,104,270210,22,0,L|280:104,1,134.999992847443
216,112,270770,2,0,L|124:125,1,89.9999952316285,0|2,0:0|0:0,0:0:0:0:
40,128,271218,2,0,L|40:32,2,89.9999952316285,2|2|2,0:0|0:0|0:0,0:0:0:0:
48,224,271890,6,0,P|112:280|192:240,1,179.999990463257,2|2,0:0|0:0,0:0:0:0:
248,168,272562,1,0,0:0:0:0:
328,136,272786,2,0,L|424:136,2,89.9999952316285,2|2|2,0:0|0:0|0:0,0:0:0:0:
312,224,273458,6,0,P|328:280|272:320,2,134.999992847443,2|2|2,0:0|0:0|0:0,0:0:0:0:
216,248,274354,2,0,P|128:247|77:298,1,134.999992847443,0|2,0:0|0:0,0:0:0:0:
152,48,275026,1,2,0:0:0:0:
200,112,275250,1,2,0:0:0:0:
256,56,275474,38,0,P|304:48|368:152,1,179.999990463257,4|0,0:0|0:0,0:0:0:0:
312,232,276145,2,0,P|360:256|400:248,1,89.9999952316285,4|4,0:0|0:0,0:0:0:0:
472,208,276593,2,0,P|484:280|412:352,1,179.999990463257,4|14,0:0|0:0,0:0:0:0:
312,352,277267,6,0,L|216:352,1,89.9999952316285,2|2,0:0|0:0,0:0:0:0:
104,352,277719,1,2,0:0:0:0:
32,256,277945,2,0,B|136:160|208:336|384:232,1,359.999980926514,2|2,0:0|0:0,0:0:0:0:
381,51,279300,53,2,0:0:0:0:
381,51,279526,2,0,L|285:27,1,89.9999952316285,2|2,0:0|0:0,0:0:0:0:
192,24,279978,2,0,L|56:24,2,134.999992847443
248,144,280878,6,0,L|248:240,1,89.9999952316285,2|2,0:0|0:0,0:0:0:0:
152,232,281326,1,2,0:0:0:0:
82,194,281550,6,0,B|-8:269|48:376|48:376,2,179.999990463257,2|0|0,0:0|0:0|0:0,0:0:0:0:
200,168,282669,2,0,L|304:168,2,89.9999952316285,2|0|2,0:0|0:0|0:0,0:0:0:0:
104,152,283341,38,0,P|104:120|152:64,1,89.9999952316285,4|4,0:0|0:0,0:0:0:0:
208,32,283789,2,0,P|304:24|360:104,1,179.999990463257,6|14,0:0|0:0,0:0:0:0:
360,176,284462,6,0,L|264:176,1,89.9999952316285,2|2,0:0|0:0,0:0:0:0:
152,176,284912,1,2,0:0:0:0:
120,280,285137,2,0,B|248:408|318:249|467:285,1,359.999980926514,2|0,0:0|0:0,0:0:0:0:
480,184,286261,1,0,0:0:0:0:
456,80,286485,2,0,L|360:80,1,89.9999952316285,2|0,0:0|0:0,0:0:0:0:
304,176,286933,6,0,P|235:180|188:131,2,134.999992847443,2|0|0,0:0|0:0|0:0,0:0:0:0:
379,237,287829,38,0,L|476:294,1,89.9999952316285,0|2,0:0|0:0,0:0:0:0:
488,176,288279,2,0,L|408:128,1,89.9999952316285,2|0,0:0|0:0,0:0:0:0:
312,64,288730,6,0,P|186:24|57:74,1,269.999985694885,2|0,0:0|0:0,0:0:0:0:
24,176,289631,1,0,0:0:0:0:
96,264,289856,2,0,L|200:263,1,89.9999952316285,2|0,0:0|0:0,0:0:0:0:
272,144,290307,2,0,L|368:136,2,89.9999952316285,2|0|2,0:0|0:0|0:0,0:0:0:0:
256,192,290982,5,14,0:0:0:0:
256,192,291086,12,8,297155,0:0:0:0:
473,46,335304,38,0,B|319:38|313:178|479:202|494:329|272:328,1,472.499992990494,2|0,0:0|0:0,0:0:0:0:
163,256,337340,2,0,B|-13:200|-13:43|-13:43|76:72|159:47,1,472.499992990494,2|0,0:0|0:0,0:0:0:0:
256,48,339104,2,0,B|372:17|327:189|327:189|407:125|407:125|432:288,1,472.499992990494,2|0,0:0|0:0,0:0:0:0:
347,339,341004,5,2,0:0:0:0:
130,339,341772,1,0,0:0:0:0:
22,200,342410,1,0,0:0:0:0:
138,58,343137,1,0,0:0:0:0:
317,58,343796,1,0,0:0:0:0:
448,320,344819,5,0,0:0:0:0:
208,320,345767,1,0,0:0:0:0:
140,148,346716,2,0,B|144:80,1,67.4999964237214
143,80,347412,1,6,0:0:0:0:
256,192,347532,12,0,351041,0:0:0:0:
120,40,351282,38,0,B|275:40|275:40|275:176|275:176|128:120|128:120|128:288|128:288|307:288,1,770.399935672,14|0,0:0|0:0,0:0:0:0:
282,288,353346,1,10,3:0:0:0:
376,336,353572,2,0,L|462:313,1,89.9999952316285,10|2,0:0|0:0,0:0:0:0:
480,272,353911,2,0,L|481:212,1,44.9999976158143,2|2,0:0|0:0,0:0:0:0:
480,144,354250,6,0,L|480:96,1,44.9999976158143,10|2,3:0|0:0,0:0:0:0:
440,72,354476,2,0,L|388:72,1,44.9999976158143,10|2,0:0|0:0,0:0:0:0:
368,112,354702,2,0,L|317:113,1,44.9999976158143,2|2,0:0|0:0,0:0:0:0:
304,72,354928,6,0,L|209:72,1,89.9999952316285,2|10,0:0|3:0,0:0:0:0:
200,120,355266,2,0,L|147:119,1,44.9999976158143,2|10,0:0|0:0,0:0:0:0:
44,131,355604,2,0,L|2:160,2,44.9999976158143,2|2|10,0:0|0:0|0:0,0:0:0:0:
80,104,355942,2,0,L|118:77,2,44.9999976158143,2|10|2,0:0|3:0|0:0,0:0:0:0:
80,152,356279,2,0,P|123:163|144:152,1,44.9999976158143,2|2,0:0|0:0,0:0:0:0:
160,168,356504,38,0,L|160:310,1,134.999992847443,10|2,3:0|0:0,0:0:0:0:
168,344,356955,2,0,L|212:344,1,44.9999976158143,10|2,3:0|0:0,0:0:0:0:
232,312,357180,2,0,L|281:312,3,44.9999976158143,10|2|2|2,0:0|0:0|0:0|0:0,0:0:0:0:
304,336,357631,6,0,L|394:336,1,89.9999952316285,2|10,0:0|3:0,0:0:0:0:
392,232,358081,2,0,L|296:232,1,89.9999952316285,10|2,0:0|0:0,0:0:0:0:
264,232,358418,2,0,L|229:197,1,44.9999976158143,2|10,0:0|0:0,0:0:0:0:
208,176,358644,2,0,L|208:128,1,44.9999976158143,2|10,0:0|3:0,0:0:0:0:
215,85,358869,2,0,L|263:69,1,44.9999976158143,2|2,0:0|0:0,0:0:0:0:
288,56,359094,6,0,L|337:56,2,44.9999976158143,2|10|2,0:0|3:0|0:0,0:0:0:0:
248,24,359432,1,2,0:0:0:0:
248,24,359546,2,0,L|152:24,1,89.9999952316285,2|2,0:0|0:0,0:0:0:0:
120,24,359890,1,10,0:0:0:0:
32,32,360120,38,0,P|48:80|16:168,1,134.999992847443,2|2,0:0|0:0,0:0:0:0:
16,200,360579,2,0,L|16:252,1,44.9999976158143,10|2,3:0|0:0,0:0:0:0:
24,280,360808,2,0,L|56:314,1,44.9999976158143,10|2,0:0|0:0,0:0:0:0:
88,328,361038,2,0,L|144:328,1,44.9999976158143,2|2,0:0|0:0,0:0:0:0:
168,328,361267,6,0,L|223:328,1,44.9999976158143,2|2,0:0|0:0,0:0:0:0:
248,328,361494,2,8,L|352:328,1,89.9999952316285,10|10,3:0|0:0,0:0:0:0:
336,216,361949,6,0,L|288:216,2,44.9999976158143,2|10|10,0:0|0:0|0:0,0:0:0:0:
376,216,362290,2,0,L|424:216,3,44.9999976158143,2|10|2|14,0:0|3:0|3:0|0:0,0:0:0:0:
443,120,362858,2,0,P|413:61|226:71,1,269.999985694885,2|10,0:0|0:0,0:0:0:0:
176,126,363767,2,0,L|104:200,1,89.9999952316285,10|2,3:0|0:0,0:0:0:0:
64,256,364220,38,0,L|16:256,2,44.9999976158143,10|2|10,3:0|0:0|0:0,0:0:0:0:
176,256,364674,2,0,L|232:256,1,44.9999976158143,2|2,0:0|0:0,0:0:0:0:
264,264,364900,2,0,L|283:306,1,44.9999976158143,10|2,0:0|0:0,0:0:0:0:
312,336,365127,2,0,L|376:336,1,44.9999976158143,10|2,3:0|0:0,0:0:0:0:
400,328,365354,6,0,P|448:297|456:265,1,89.9999952316285,2|10,0:0|3:0,0:0:0:0:
472,208,365694,1,2,0:0:0:0:
472,208,365807,1,10,0:0:0:0:
472,208,365921,2,0,L|472:144,1,44.9999976158143,2|2,0:0|0:0,0:0:0:0:
440,112,366147,1,2,0:0:0:0:
440,112,366261,5,10,0:0:0:0:
440,112,366374,1,0,0:0:0:0:
440,112,366487,2,0,P|376:152|328:120,1,134.999992847443,10|2,0:0|0:0,0:0:0:0:
272,112,366941,2,0,L|224:112,1,44.9999976158143,10|2,0:0|0:0,0:0:0:0:
184,128,367168,2,0,L|184:176,1,44.9999976158143,10|2,0:0|3:0,0:0:0:0:
184,208,367394,2,0,L|184:256,1,44.9999976158143,10|2,3:0|0:0,0:0:0:0:
185,295,367621,37,14,0:0:0:0:
272,360,367847,2,0,B|320:360|320:360|328:368|328:368|400:368,1,89.9999952316285,2|10,0:0|0:0,0:0:0:0:
352,264,368300,2,0,B|400:264|400:264|408:256|408:256|456:256,1,89.9999952316285,10|2,3:0|0:0,0:0:0:0:
448,160,368753,2,0,B|448:120|448:120|440:112|440:112|440:48,1,89.9999952316285,10|10,3:0|0:0,0:0:0:0:
352,56,369206,22,0,B|326:71|326:71|298:50|298:50|280:73|280:73|259:56|259:56|208:88,1,179.999990463257,2|8,0:0|3:0,0:0:0:0:
136,32,369885,2,0,B|83:72|83:72|53:63|53:63|37:151,1,179.999990463257,8|0,0:0|0:0,0:0:0:0:
40,232,370566,54,0,L|40:334,1,89.9999952316285,8|10,3:0|0:0,0:0:0:0:
160,320,371024,2,0,L|160:256,2,44.9999976158143,2|2|10,0:0|0:0|0:0,0:0:0:0:
256,344,371482,1,10,3:0:0:0:
344,320,371711,2,0,B|393:322|424:286,1,89.9999952316285,2|10,0:0|3:0,0:0:0:0:
456,256,372054,2,0,L|487:217,1,44.9999976158143,2|2,0:0|0:0,0:0:0:0:
488,152,372277,1,2,0:0:0:0:
488,152,372386,2,0,P|456:120|376:120,1,89.9999952316285,10|10,3:0|0:0,0:0:0:0:
224,112,372830,6,0,B|171:130|143:114|91:144,1,134.999992847443,2|2,0:0|0:0,0:0:0:0:
56,160,373284,1,10,3:0:0:0:
48,256,373512,2,0,B|228:256,1,179.999990463257,10|2,0:0|0:0,0:0:0:0:
352,128,374190,38,0,B|395:114|395:114|403:122|403:122|448:112,1,89.9999952316285,10|10,3:0|0:0,0:0:0:0:
448,216,374640,2,0,B|408:224|408:224|400:240|400:240|355:250,1,89.9999952316285,2|2,0:0|0:0,0:0:0:0:
360,344,375090,2,0,B|320:344|320:344|312:360|312:360|256:360,1,89.9999952316285,10|10,3:0|0:0,0:0:0:0:
256,272,375540,22,0,P|209:243|280:165,1,179.999990463257,10|8,3:0|3:0,0:0:0:0:
273,48,376215,2,0,P|211:99|265:160,1,179.999990463257,10|8,0:0|3:0,0:0:0:0:
368,120,376884,53,2,0:0:0:0:
368,120,376994,1,2,0:0:0:0:
368,120,377103,1,10,0:0:0:0:
368,120,377213,1,2,0:0:0:0:
368,120,377322,1,2,0:0:0:0:
368,120,377432,2,0,L|368:256,1,134.999992847443,2|2,0:0|0:0,0:0:0:0:
360,296,377870,2,0,L|336:344,3,44.9999976158143,2|10|2|2,0:0|0:0|0:0|0:0,0:0:0:0:
232,304,378417,5,8,3:0:0:0:
184,240,378636,1,2,0:0:0:0:
184,240,378746,1,2,0:0:0:0:
184,240,378855,1,10,0:0:0:0:
184,240,378965,1,2,0:0:0:0:
184,240,379074,1,2,0:0:0:0:
184,240,379184,2,0,L|311:170,1,134.999992847443,2|2,0:0|0:0,0:0:0:0:
336,160,379622,2,0,L|403:160,3,44.9999976158143,2|10|2|2,0:0|0:0|0:0|0:0,0:0:0:0:
464,200,380169,1,8,3:0:0:0:
388,255,380389,37,2,0:0:0:0:
388,255,380500,1,2,0:0:0:0:
388,255,380610,1,10,0:0:0:0:
388,255,380720,1,2,0:0:0:0:
388,255,380831,1,2,0:0:0:0:
388,255,380941,2,0,L|267:325,1,134.999992847443,2|2,0:0|0:0,0:0:0:0:
232,328,381382,2,0,L|176:328,3,44.9999976158143,2|10|2|2,0:0|0:0|0:0|0:0,0:0:0:0:
184,240,381934,6,0,L|136:240,1,44.9999976158143,10|2,3:0|0:0,0:0:0:0:
104,232,382155,2,0,L|49:209,1,44.9999976158143,2|2,0:0|0:0,0:0:0:0:
32,184,382375,2,0,L|32:136,1,44.9999976158143,10|2,0:0|0:0,0:0:0:0:
48,96,382596,2,0,L|89:76,1,44.9999976158143,2|2,0:0|0:0,0:0:0:0:
136,72,382817,2,0,L|184:72,1,44.9999976158143,10|2,3:0|0:0,0:0:0:0:
216,72,383037,2,0,L|312:72,2,89.9999952316285,2|10|2,0:0|0:0|0:0,0:0:0:0:
208,184,383700,6,0,P|256:208|312:176,1,89.9999952316285,10|2,3:0|0:0,0:0:0:0:
320,168,384031,1,2,0:0:0:0:
320,168,384142,2,0,L|352:112,1,44.9999976158143,10|2,0:0|0:0,0:0:0:0:
368,96,384363,2,0,B|432:96,1,44.9999976158143,2|2,0:0|0:0,0:0:0:0:
456,104,384584,1,10,3:0:0:0:
456,104,384695,2,0,L|456:152,1,44.9999976158143,2|2,0:0|0:0,0:0:0:0:
456,288,385027,38,0,B|384:288|359:371|282:342,1,179.999990463257,10|10,0:0|3:0,0:0:0:0:
248,344,385580,2,0,B|208:362|153:337,1,89.9999952316285,2|0,0:1|0:0,0:0:0:0:
120,336,385912,6,0,B|56:338|56:338|16:280,1,134.999992847443,10|2,0:0|0:0,0:0:0:0:
16,232,386355,2,0,B|34:168|34:168|112:136,1,134.999992847443,8|2,3:0|0:0,0:0:0:0:
144,136,386797,2,0,P|152:184|192:212,1,89.9999952316285,10|2,0:0|0:0,0:0:0:0:
224,208,387129,6,0,B|224:72,1,134.999992847443,0|2,0:0|0:0,0:0:0:0:
328,24,387682,2,0,L|424:24,2,89.9999952316285,10|2|10,0:0|0:0|3:0,0:0:0:0:
280,104,388345,1,2,0:0:0:0:
216,32,388567,2,0,L|120:32,1,89.9999952316285,10|2,0:0|0:0,0:0:0:0:
48,88,389011,38,0,L|0:88,2,44.9999976158143,10|10|0,0:0|0:0|0:0,0:0:0:0:
56,128,389336,2,0,L|56:192,1,44.9999976158143,2|10,0:0|0:0,0:0:0:0:
56,208,389553,2,0,L|56:256,1,44.9999976158143,2|2,0:0|0:0,0:0:0:0:
64,288,389771,2,0,L|112:312,1,44.9999976158143,10|10,3:0|0:0,0:0:0:0:
144,320,389988,2,0,L|200:320,1,44.9999976158143,2|10,0:0|3:0,0:0:0:0:
232,320,390205,1,8,3:0:0:0:
232,320,390314,2,0,P|272:296|280:256,1,89.9999952316285,10|2,0:0|0:0,0:0:0:0:
216,192,390748,5,14,0:0:0:0:
104,232,390978,2,0,L|103:185,1,44.9999976158143,2|2,0:0|0:0,0:0:0:0:
104,152,391209,2,0,P|120:88|232:88,1,179.999990463257,10|10,0:0|3:0,0:0:0:0:
304,136,391898,6,0,L|352:136,1,44.9999976158143,2|2,0:0|0:0,0:0:0:0:
384,144,392125,2,0,P|450:217|416:278,1,179.999990463257,10|2,0:0|0:0,0:0:0:0:
376,288,392693,38,0,L|328:288,1,44.9999976158143,2|2,0:0|0:0,0:0:0:0:
200,296,393034,2,0,P|96:288|24:232,2,179.999990463257,10|10|10,0:0|3:0|0:0,0:0:0:0:
280,232,394171,5,0,0:0:0:0:
192,168,394398,2,0,L|96:168,2,89.9999952316285,8|2|10,3:0|0:0|0:0,0:0:0:0:
224,64,395080,1,0,0:0:0:0:
336,88,395307,6,0,P|336:136|318:176,1,89.9999952316285,10|2,0:0|0:0,0:0:0:0:
192,168,395761,2,0,B|170:220|191:263,1,89.9999952316285,10|2,0:0|0:0,0:0:0:0:
224,312,396102,1,2,0:0:0:0:
224,312,396216,38,0,P|280:344|336:328,1,89.9999952316285,10|2,3:0|0:0,0:0:0:0:
296,208,396671,2,0,B|296:112,1,89.9999952316285,10|2,0:0|0:0,0:0:0:0:
384,48,397125,5,10,3:0:0:0:
480,144,397351,2,0,L|528:128,2,44.9999976158143,2|2|10,0:0|0:0|0:0,0:0:0:0:
392,192,397804,1,2,0:0:0:0:
392,192,397918,1,2,0:0:0:0:
392,192,398031,1,10,3:0:0:0:
392,192,398144,2,0,L|392:256,1,44.9999976158143,2|2,0:0|0:0,0:0:0:0:
288,288,398484,6,0,B|217:302|185:270|110:275,1,179.999990463257,10|10,0:0|3:0,0:0:0:0:
40,184,399164,2,0,B|40:88|40:88|120:48,1,179.999990463257,2|2,0:0|0:0,0:0:0:0:
240,48,399844,2,0,B|352:48|352:48|456:200,1,269.999985694885,10|2,3:0|0:0,0:0:0:0:
328,248,400750,38,0,B|275:169,1,89.9999952316285,10|2,3:0|0:0,0:0:0:0:
176,240,401203,2,0,B|221:322,1,89.9999952316285,10|2,0:0|0:0,0:0:0:0:
123,384,401657,2,0,B|82:302,1,89.9999952316285,10|10,3:0|3:0,0:0:0:0:
80,192,402110,1,10,0:0:0:0:
152,96,402336,6,0,P|248:32|312:40,1,179.999990463257,2|0,0:0|0:0,0:0:0:0:
360,176,403016,2,0,P|296:232|176:224,1,179.999990463257,10|8,0:0|3:0,0:0:0:0:
256,136,403697,5,2,0:0:0:0:
256,136,403811,1,2,0:0:0:0:
256,136,403925,1,10,0:0:0:0:
256,136,404039,1,2,0:0:0:0:
256,136,404153,1,2,0:0:0:0:
256,136,404267,2,0,B|243:195|298:258,1,134.999992847443,2|2,0:0|0:0,0:0:0:0:
328,288,404723,2,0,L|376:336,3,44.9999976158143,2|10|2|2,0:0|0:0|0:0|0:0,0:0:0:0:
272,352,405293,37,8,3:0:0:0:
184,352,405513,1,2,0:0:0:0:
184,352,405623,1,2,0:0:0:0:
184,352,405733,1,10,0:0:0:0:
184,352,405844,1,2,0:0:0:0:
184,352,405954,1,2,0:0:0:0:
184,352,406064,2,0,P|138:337|112:295,1,89.9999952316285,2|10,0:0|0:0,0:0:0:0:
96,272,406395,2,0,L|63:206,2,44.9999976158143,2|2|10,0:0|0:0|0:0,0:0:0:0:
136,272,406732,2,0,L|193:242,1,44.9999976158143,2|2,0:0|0:0,0:0:0:0:
199,132,407082,37,8,3:0:0:0:
72,96,407304,1,2,0:0:0:0:
96,48,407414,1,2,0:0:0:0:
144,48,407525,1,10,0:0:0:0:
184,88,407636,1,2,0:0:0:0:
199,132,407746,1,2,0:0:0:0:
208,176,407857,6,0,P|256:248|327:162,1,215.999988555908,2|2,0:0|0:0,0:0:0:0:
344,136,408299,1,2,0:0:0:0:
360,88,408410,1,10,0:0:0:0:
400,56,408520,1,2,0:0:0:0:
448,80,408631,1,2,0:0:0:0:
458,210,408852,5,10,3:0:0:0:
352,288,409073,2,0,L|304:288,1,44.9999976158143,10|10,0:0|3:0,0:0:0:0:
193,233,409405,2,0,L|136:233,1,44.9999976158143,10|10,0:0|3:0,0:0:0:0:
24,152,409737,53,10,0:0:0:0:
32,104,409847,1,10,3:0:0:0:
48,56,409958,1,2,0:0:0:0:
88,32,410069,1,10,0:0:0:0:
136,24,410179,1,10,3:0:0:0:
136,344,410401,1,8,3:0:0:0:
176,192,410622,6,0,B|217:171|217:171|217:195|217:195|248:168|248:168|265:195|265:195|304:144|392:144,1,269.999985694885,14|2,0:0|0:0,0:0:0:0:
416,240,411556,6,0,B|440:264|440:264|368:272|368:272|424:312|424:312|312:328,1,269.999995994568,14|10,0:0|0:0,0:0:0:0:
224,288,412234,1,2,0:0:0:0:
160,192,412461,6,0,B|164:170|164:170|100:218|100:218|120:128|120:128|24:128,1,269.999995994568,10|10,3:0|0:0,0:0:0:0:
80,32,413120,1,2,0:0:0:0:
184,40,413340,2,0,B|223:40|223:40|240:96|240:96|280:96,2,134.999997997284,10|0|10,3:0|0:0|0:0,0:0:0:0:
0,184,414220,6,0,B|142:173|142:173|94:317|94:317|78:285|78:285|284:195,1,539.999991989136,10|10,3:0|3:0,0:0:0:0:
270,200,415540,21,8,0:0:0:0:
104,32,415980,6,0,L|168:32,1,58.4999942226413,10|2,3:0|0:0,0:0:0:0:
208,40,416200,2,0,L|208:112,1,58.4999942226413,2|2,0:0|0:0,0:0:0:0:
208,152,416420,6,0,L|280:152,1,58.4999942226413,10|2,0:0|0:0,0:0:0:0:
312,160,416640,2,0,L|312:224,1,58.4999942226413,2|2,0:0|0:0,0:0:0:0:
320,256,416860,38,0,L|384:256,1,58.4999942226413,10|2,3:0|0:0,0:0:0:0:
416,272,417080,2,0,L|416:336,1,58.4999942226413,2|2,0:0|0:0,0:0:0:0:
392,360,417300,2,0,P|272:352|176:232,1,269.999995994568,10|14,0:0|0:0,0:0:0:0:
288,32,418218,5,10,0:0:0:0:
488,144,418672,1,10,3:0:0:0:
488,224,418899,1,2,0:0:0:0:
459,299,419126,2,0,L|392:359,1,89.9999952316285,8|14,0:0|0:0,0:0:0:0:
208,32,420039,5,10,0:0:0:0:
16,96,420483,1,2,0:0:0:0:
32,184,420705,2,0,L|64:280,1,89.9999952316285,10|8,0:0|3:0,0:0:0:0:
96,344,421149,37,14,0:0:0:0:
480,184,421824,1,10,0:0:0:0:
280,112,422278,2,0,B|192:112|192:112|136:64|136:64|24:64,1,269.999985694885,10|14,0:0|0:0,0:0:0:0:
256,192,423077,12,0,426289,0:0:0:0:
256,192,426527,21,14,0:0:0:0:
88,136,436203,54,0,P|129:185|161:199,1,89.9999952316285,14|0,0:0|0:0,0:0:0:0:
205,123,436641,2,0,L|304:121,1,89.9999952316285,2|10,0:0|0:0,0:0:0:0:
360,56,437080,2,0,L|440:104,1,89.9999952316285,0|2,0:0|0:0,0:0:0:0:
480,184,437520,1,8,3:0:0:0:
464,280,437739,1,10,0:0:0:0:
384,336,437959,1,0,0:0:0:0:
288,336,438178,5,2,0:0:0:0:
184,272,438398,2,0,L|136:272,1,44.9999976158143,8|0,0:0|0:0,0:0:0:0:
112,232,438618,2,0,L|102:180,1,44.9999976158143,10|0,0:0|0:0,0:0:0:0:
96,144,438837,2,0,L|120:105,1,44.9999976158143,10|0,3:0|0:0,0:0:0:0:
144,72,439057,53,8,3:0:0:0:
224,136,439276,1,10,3:0:0:0:
304,80,439496,1,8,3:0:0:0:
360,160,439716,2,0,L|360:256,1,89.9999952316285,10|14,3:0|1:0,0:0:0:0:
256,320,440174,54,0,L|173:366,1,89.9999952316285,2|2,0:0|0:0,0:0:0:0:
256,320,440652,2,0,L|176:253,1,89.9999952316285,2|14,0:0|1:0,0:0:0:0:
280,184,441130,5,2,0:0:0:0:
192,104,441369,1,2,0:0:0:0:
280,48,441607,1,2,0:0:0:0:
364,91,441846,5,14,1:0:0:0:
385,98,441965,1,2,0:0:0:0:
403,110,442084,1,2,0:0:0:0:
420,122,442204,1,2,0:0:0:0:
439,142,442324,2,0,L|472:181,3,44.9999976158143,2|0|2|0,0:0|0:0|0:0|0:0,0:0:0:0:
488,200,442801,37,14,1:0:0:0:
244,145,443556,1,0,0:0:0:0:
64,320,444196,2,0,L|360:320,1,292.499984502793,2|0,0:0|0:0,0:0:0:0:
368,157,445591,5,2,0:0:0:0:
280,88,445823,1,2,0:0:0:0:
254,197,446056,1,2,0:0:0:0:
168,112,446288,1,2,0:0:0:0:
80,184,446521,6,0,P|39:220|104:304,1,179.999990463257,10|10,0:0|0:0,0:0:0:0:
176,248,447205,2,0,L|272:248,1,89.9999952316285,2|8,0:0|0:0,0:0:0:0:
264,160,447661,37,8,3:0:0:0:
320,80,447889,1,0,0:0:0:0:
376,160,448117,2,0,L|440:224,2,89.9999952316285,8|0|8,3:0|0:0|3:0,0:0:0:0:
264,160,448802,1,8,0:0:0:0:
168,160,449030,6,0,L|80:176,1,89.9999952316285,0|2,0:0|0:0,0:0:0:0:
88,272,449486,2,0,L|184:256,1,89.9999952316285,10|10,3:0|0:0,0:0:0:0:
256,216,449943,6,0,L|256:312,2,89.9999952316285,2|0|10,0:0|0:0|3:0,0:0:0:0:
216,144,450627,2,0,L|216:45,2,89.9999952316285,10|2|8,0:0|0:0|0:0,0:0:0:0:
256,216,451311,2,0,L|352:216,1,89.9999952316285,10|10,3:0|0:0,0:0:0:0:
376,112,451768,38,0,L|296:48,1,89.9999952316285,2|8,0:0|0:0,0:0:0:0:
192,56,452234,2,0,L|86:56,2,89.9999952316285,2|8|0,0:0|0:0|0:0,0:0:0:0:
192,152,452947,6,0,L|192:200,1,44.9999976158143
208,240,453172,2,0,L|264:240,1,44.9999976158143,8|0,3:0|0:0,0:0:0:0:
296,240,453397,2,0,L|352:240,1,44.9999976158143,8|0,0:0|0:0,0:0:0:0:
384,240,453622,2,0,L|432:240,1,44.9999976158143
464,256,453847,6,0,L|464:312,1,44.9999976158143,8|0,0:0|0:0,0:0:0:0:
440,328,454072,2,0,L|384:328,1,44.9999976158143,8|0,3:0|0:0,0:0:0:0:
352,328,454297,2,0,L|296:328,1,44.9999976158143
264,328,454523,2,0,L|206:328,1,44.9999976158143,8|0,3:0|0:0,0:0:0:0:
184,320,454748,38,0,L|126:309,1,44.9999976158143
112,304,454973,2,0,L|56:304,1,44.9999976158143,8|0,3:0|0:0,0:0:0:0:
24,296,455198,1,8,0:0:0:0:
80,200,455423,1,8,0:0:0:0:
80,88,455648,5,8,0:0:0:0:
104,88,455761,1,8,0:0:0:0:
128,88,455874,1,8,0:0:0:0:
152,88,455986,1,8,0:0:0:0:
184,88,456099,2,0,L|296:88,1,89.9999952316285,8|2,0:0|0:0,0:0:0:0:
360,56,456549,6,0,L|456:56,1,89.9999952316285,14|2,0:0|0:0,0:0:0:0:
488,136,457006,1,10,0:0:0:0:
392,192,457234,1,10,3:0:0:0:
472,256,457463,1,2,0:0:0:0:
391,330,457691,1,10,3:0:0:0:
298,307,457920,1,10,0:0:0:0:
207,342,458149,1,2,0:0:0:0:
176,256,458377,37,2,0:0:0:0:
81,206,458606,2,0,P|46:102|86:43,1,179.999990463257,10|10,3:0|3:0,0:0:0:0:
176,40,459292,5,10,0:0:0:0:
176,40,459404,1,0,0:0:0:0:
176,40,459517,1,0,0:0:0:0:
176,40,459630,1,0,0:0:0:0:
176,40,459743,6,0,L|248:40,1,44.9999976158143,8|0,0:0|0:0,0:0:0:0:
264,40,459969,2,0,L|336:40,1,44.9999976158143
352,40,460195,38,0,L|408:40,3,44.9999976158143,8|0|8|0,0:0|0:0|3:0|0:0,0:0:0:0:
352,96,460646,2,0,L|416:96,3,44.9999976158143,0|0|8|0,0:0|0:0|3:0|0:0,0:0:0:0:
448,96,461098,6,0,L|475:141,3,44.9999976158143,8|0|0|0,0:0|0:0|0:0|0:0,0:0:0:0:
488,184,461544,2,0,L|448:216,3,44.9999976158143,8|0|0|0,0:0|0:0|0:0|0:0,0:0:0:0:
408,240,461991,5,0,0:0:0:0:
272,296,462221,2,0,L|168:296,1,89.9999952316285,8|8,3:0|0:0,0:0:0:0:
80,240,462679,38,0,L|56:152,1,89.9999952316285,2|8,0:0|3:0,0:0:0:0:
112,80,463137,2,0,L|205:64,1,89.9999952316285,2|10,0:0|0:0,0:0:0:0:
304,64,463595,1,2,0:0:0:0:
408,96,463824,1,10,0:0:0:0:
456,184,464053,1,10,3:0:0:0:
401,282,464282,1,2,0:0:0:0:
304,304,464511,1,10,3:0:0:0:
288,192,464740,6,0,L|192:192,1,89.9999952316285,10|10,0:0|3:0,0:0:0:0:
80,160,465198,1,8,0:0:0:0:
24,248,465427,1,2,0:0:0:0:
88,336,465656,5,2,0:0:0:0:
208,336,465882,2,0,L|355:336,1,134.999997997284,8|8,3:0|0:0,0:0:0:0:
464,336,466333,2,0,L|464:193,1,134.999997997284,0|8,0:0|0:0,0:0:0:0:
464,88,466784,2,0,L|324:88,1,134.999997997284,8|0,3:0|0:0,0:0:0:0:
232,32,467235,2,0,L|120:114,1,134.999997997284,10|10,3:0|0:0,0:0:0:0:
32,200,467680,2,0,L|136:296,1,134.999997997284,0|8,0:0|0:0,0:0:0:0:
240,296,468118,38,0,L|240:156,1,134.999997997284
304,48,468567,2,0,L|444:48,1,134.999997997284,8|8,3:0|0:0,0:0:0:0:
440,160,469028,2,0,L|304:160,1,134.999997997284,2|0,0:0|0:0,0:0:0:0:
152,160,469480,2,0,L|151:296,1,134.999997997284,10|10,3:0|0:0,0:0:0:0:
264,296,469924,2,0,L|400:296,1,134.999997997284,2|2,0:0|0:0,0:0:0:0:
456,208,470369,2,0,L|456:72,1,134.999997997284,10|10,3:0|0:0,0:0:0:0:
314,30,470815,5,14,0:0:0:0:
144,256,471277,2,0,P|112:288|72:280,1,89.9999952316285,2|8,0:0|0:0,0:0:0:0:
32,200,471739,6,0,P|34:134|148:44,1,179.999990463257,14|2,1:0|0:0,0:0:0:0:
224,40,472404,1,0,0:0:0:0:
216,144,472625,1,2,0:0:0:0:
296,200,472847,1,0,0:0:0:0:
392,160,473069,1,2,0:0:0:0:
392,56,473291,1,0,0:0:0:0:
304,104,473512,1,2,0:0:0:0:
256,192,473734,12,0,476266,0:0:0:0:
480,245,476496,37,0,0:0:0:0:
403,305,476727,1,0,0:0:0:0:
399,209,476957,1,8,0:0:0:0:
304,184,477187,1,0,0:0:0:0:
288,272,477422,6,0,P|144:272|96:144,1,269.999985694885
144,64,478364,2,0,L|248:64,1,89.9999952316285
336,64,478835,1,8,0:0:0:0:
491,200,479542,5,0,0:0:0:0:
401,200,479777,1,8,0:0:0:0:
452,126,480013,1,0,0:0:0:0:
362,127,480248,1,0,0:0:0:0:
301,200,480484,38,0,P|168:256|72:176,1,269.999985694885
83,128,481426,2,0,P|186:65|306:138,1,269.999985694885
344,216,482368,1,0,0:0:0:0:
272,280,482604,1,8,0:0:0:0:
320,344,482840,6,0,L|416:344,1,89.9999952316285
472,264,483311,2,0,P|439:185|344:144,2,179.999990463257,2|2|2,0:0|0:0|0:0,0:0:0:0:
368,272,484489,1,8,0:0:0:0:
264,240,484724,2,0,P|152:264|79:215,1,179.999990463257,0|2,0:0|0:0,0:0:0:0:
64,144,485431,5,8,0:0:0:0:
144,80,485666,2,0,B|248:80,1,89.9999952316285,2|0,0:0|0:0,0:0:0:0:
328,80,486138,1,2,0:0:0:0:
424,96,486373,1,8,0:0:0:0:
448,179,486609,1,0,0:0:0:0:
402,265,486844,2,0,P|368:303|327:314,1,89.9999952316285,0|2,0:0|0:0,0:0:0:0:
240,320,487315,38,0,L|143:320,1,89.9999952316285,8|2,0:0|0:0,0:0:0:0:
152,224,487787,2,0,L|56:224,2,89.9999952316285,0|2|8,0:0|0:0|0:0,0:0:0:0:
152,136,488496,1,0,0:0:0:0:
56,96,488732,1,0,0:0:0:0:
128,24,488968,6,0,L|224:24,1,89.9999952316285,2|8,0:0|0:0,0:0:0:0:
312,56,489440,2,0,L|424:56,2,89.9999952316285,2|0|2,0:0|0:0|0:0,0:0:0:0:
312,144,490149,2,0,L|312:240,1,89.9999952316285,8|2,0:0|0:0,0:0:0:0:
320,336,490622,5,0,0:0:0:0:
232,336,490855,1,2,0:0:0:0:
240,248,491089,1,8,0:0:0:0:
203,175,491323,2,0,P|144:104|56:136,1,179.999990463257,2|2,0:0|0:0,0:0:0:0:
24,200,492025,37,8,0:0:0:0:
64,280,492259,2,0,L|146:315,1,89.9999952316285
232,344,492727,5,2,0:0:0:0:
320,328,492961,1,8,0:0:0:0:
384,240,493195,1,2,0:0:0:0:
464,296,493429,1,0,0:0:0:0:
471,199,493662,6,0,L|472:104,2,89.9999952316285,2|8|0,0:0|0:0|0:0,0:0:0:0:
368,200,494364,2,0,L|272:200,1,89.9999952316285,0|2,0:0|0:0,0:0:0:0:
192,136,494832,1,8,0:0:0:0:
192,48,495066,1,2,0:0:0:0:
96,48,495300,2,0,L|56:140,1,89.9999952316285,0|2,0:0|0:0,0:0:0:0:
24,208,495768,1,8,0:0:0:0:
96,280,496002,38,0,L|176:336,1,89.9999952316285
280,336,496469,2,0,L|368:304,1,89.9999952316285,2|8,0:0|0:0,0:0:0:0:
408,208,496937,6,0,L|392:120,1,89.9999952316285,2|0,0:0|0:0,0:0:0:0:
296,72,497406,2,0,L|200:80,1,89.9999952316285,2|8,0:0|0:0,0:0:0:0:
104,112,497876,2,0,L|103:208,1,89.9999952316285
112,288,498346,6,0,L|222:288,1,89.9999952316285,2|8,0:0|0:0,0:0:0:0:
280,248,498816,2,0,L|279:159,1,89.9999952316285,2|0,0:0|0:0,0:0:0:0:
272,64,499286,37,2,0:0:0:0:
352,32,499521,1,8,0:0:0:0:
320,136,499756,1,0,0:0:0:0:
408,88,499991,1,0,0:0:0:0:
400,176,500226,6,0,B|424:264,1,89.9999952316285,2|8,0:0|0:0,0:0:0:0:
384,344,500696,1,2,0:0:0:0:
296,320,500931,1,0,0:0:0:0:
216,344,501166,2,0,B|129:286|113:183,1,179.999990463257,2|0,0:0|0:0,0:0:0:0:
112,120,501872,5,14,0:0:0:0:
256,192,502599,37,0,0:0:0:0:
256,192,502842,2,0,L|300:177,2,44.9999976158143
416,176,503327,6,0,L|432:272,1,89.9999952316285,2|0,0:0|0:0,0:0:0:0:
366,314,503770,2,0,L|272:328,1,89.9999952316285
194,297,504213,5,2,0:0:0:0:
104,344,504445,1,0,0:0:0:0:
48,264,504677,1,2,0:0:0:0:
46,168,504909,1,0,0:0:0:0:
121,108,505141,1,2,0:0:0:0:
64,32,505373,1,0,0:0:0:0:
192,32,505606,1,2,0:0:0:0:
256,192,506070,38,0,B|256:224|256:224|272:224|272:224|272:240|272:240|264:248|264:248|256:256|256:256|256:304,1,134.999997997284,0|2,0:0|0:0,0:0:0:0:
256,192,506358,12,0,509762,0:0:0:0:
