osu file format v14

[General]
AudioFilename: audio.mp3
AudioLeadIn: 0
PreviewTime: 426527
Countdown: 0
SampleSet: Normal
StackLeniency: 0.2
Mode: 0
LetterboxInBreaks: 0
WidescreenStoryboard: 1

[Editor]
DistanceSpacing: 0.5
BeatDivisor: 16
GridSize: 4
TimelineZoom: 6.759995

[Metadata]
Title:Roundabout
TitleUnicode:Roundabout
Artist:YES
ArtistUnicode:YES
Creator:IwanWenChoong
Version:Extreme
Source:ジョジョの奇妙な冒険
Tags:1971 JoJo's Bizarre Adventure Ending Anime To be Continued jojo Fragile Rock Progressive Jon Anderson Steve Howe Rick Wakeman Bill Bruford Chris Squire meme old song full version Marathon english british Los Santos Rock Radio Grand Theft Auto V GTA 5
BeatmapID:1842817
BeatmapSetID:456802

[Difficulty]
HPDrainRate:8
CircleSize:5
OverallDifficulty:9
ApproachRate:10
SliderMultiplier:2.39999990463257
SliderTickRate:1

[Events]
//Background and Video events
0,0,"cover.jpg",0,0
//Break Periods
//Storyboard Layer 0 (Background)
//Storyboard Layer 1 (Fail)
//Storyboard Layer 2 (Pass)
//Storyboard Layer 3 (Foreground)
//Storyboard Layer 4 (Overlay)
//Storyboard Sound Samples

[TimingPoints]
0,447.761194029851,4,2,2,7,1,0
1119,-1000,4,2,2,7,0,0
8059,444.444444444444,4,2,2,71,1,0
11170,437.956204379562,4,2,2,71,1,0
12922,473.186119873817,4,2,2,71,1,0
16707,441.891294741494,4,2,2,71,1,0
19800,448.095593726662,4,2,2,71,1,0
21872,458.015267175573,4,2,2,71,1,0
22788,493.015612161052,4,2,2,71,1,0
22788,-333.333333333333,4,2,2,71,0,0
22818,-333.333333333333,4,2,4,5,0,0
28704,434.467776973208,4,2,2,71,1,0
33484,491.803278688525,4,2,2,71,1,0
37254,492.610837438424,4,2,2,71,1,0
41194,545.454545454546,4,2,2,71,1,0
42284,448.296654275093,4,2,2,71,1,0
43180,461.538461538462,4,2,2,71,1,0
44103,433.526011560694,4,2,2,71,1,0
44754,437.956204379562,4,1,3,71,1,1
44781,-100,4,2,3,71,0,1
44808,-100,4,1,1,71,0,1
45000,437.956204379562,4,1,1,71,1,1
45437,-100,4,1,1,71,0,1
45465,-100,4,2,2,71,0,1
45656,-100,4,1,1,71,0,1
45903,-100,4,2,2,71,0,1
46094,-100,4,1,1,71,0,1
46341,-100,4,2,2,71,0,1
46423,-100,4,1,1,71,0,1
46751,430.941607412196,4,1,1,71,1,1
46777,-100,4,2,2,71,0,1
46966,-100,4,1,1,71,0,1
47208,-100,4,2,2,71,0,1
47397,-100,4,1,1,71,0,1
47424,-100,4,2,2,71,0,1
47505,-100,4,1,1,71,0,1
48286,-100,4,2,2,71,0,1
48367,-100,4,1,1,71,0,1
48475,437.956204379562,4,1,1,71,1,1
48721,-100,4,2,2,71,0,1
48803,-100,4,1,1,71,0,1
48912,-100,4,1,1,71,0,1
48940,-100,4,2,2,71,0,1
49131,-100,4,1,1,71,0,1
49378,-100,4,2,2,71,0,1
49569,-100,4,1,1,71,0,1
49816,-100,4,2,2,71,0,1
49898,-100,4,1,1,71,0,1
50035,-100,4,2,2,71,0,1
50117,-100,4,1,1,71,0,1
50226,431.468430893139,4,1,1,71,1,1
51763,-100,4,2,2,71,0,1
51844,-100,4,1,1,71,0,1
51951,446.727719454992,4,1,1,71,1,1
52202,-100,4,2,2,71,0,1
52286,-100,4,1,1,71,0,1
52425,-100,4,2,2,71,0,1
52621,-100,4,1,1,71,0,1
52872,-100,4,2,2,71,0,1
53067,-100,4,1,1,71,0,1
53319,-100,4,2,2,71,0,1
53402,-100,4,1,1,71,0,1
53740,433.996383363472,4,1,1,71,1,1
53767,-100,4,2,2,71,0,1
53956,-100,4,1,1,71,0,1
54201,-100,4,2,2,71,0,1
54390,-100,4,1,1,71,0,1
54418,-100,4,2,2,71,0,1
54499,-100,4,1,1,71,0,1
55286,-100,4,2,2,71,0,1
55367,-100,4,1,1,71,0,1
55720,-100,4,2,2,71,0,1
55801,-100,4,1,1,71,0,1
55937,-100,4,2,2,71,0,1
56126,-100,4,1,1,71,0,1
56371,-100,4,2,2,71,0,1
56560,-100,4,1,1,71,0,1
56805,-100,4,2,2,71,0,1
56886,-100,4,1,1,71,0,1
57022,-100,4,2,2,71,0,1
57104,-100,4,1,1,71,0,1
57214,436.270032286469,4,1,1,71,1,1
57432,-100,4,1,1,30,0,1
57541,-100,4,1,1,71,0,1
58959,460.829493087558,4,1,3,71,1,0
58987,-100,4,2,3,71,0,0
59189,-100,4,1,1,71,0,0
59880,442.444444444444,4,1,1,71,1,0
59880,-66.6666666666667,4,1,1,71,0,0
60045,-66.6666666666667,4,2,4,5,0,0
60101,-66.6666666666667,4,1,1,71,0,0
60156,-66.6666666666667,4,2,4,5,0,0
60211,-66.6666666666667,4,1,1,71,0,0
60267,-66.6666666666667,4,2,4,5,0,0
60322,-66.6666666666667,4,1,1,71,0,0
60488,-66.6666666666667,4,2,4,5,0,0
60543,-66.6666666666667,4,1,1,71,0,0
60598,-66.6666666666667,4,2,4,5,0,0
60654,-66.6666666666667,4,1,1,71,0,0
60709,-66.6666666666667,4,2,4,5,0,0
60764,-66.6666666666667,4,1,1,71,0,0
60930,-66.6666666666667,4,2,4,5,0,0
60986,-100,4,1,1,71,0,0
61649,440.787540405525,4,1,1,71,1,0
63412,445.930880713489,4,1,1,71,1,0
63412,-66.6666666666667,4,1,1,71,0,0
63579,-66.6666666666667,4,2,4,5,0,0
63634,-66.6666666666667,4,1,1,71,0,0
63690,-66.6666666666667,4,2,4,5,0,0
63746,-66.6666666666667,4,1,1,71,0,0
63802,-66.6666666666667,4,2,4,5,0,0
63857,-66.6666666666667,4,1,1,71,0,0
63913,-66.6666666666667,4,2,4,5,0,0
63969,-66.6666666666667,4,1,1,71,0,0
64025,-66.6666666666667,4,2,4,5,0,0
64080,-66.6666666666667,4,1,1,71,0,0
64136,-66.6666666666667,4,2,4,5,0,0
64192,-66.6666666666667,4,1,1,71,0,0
64248,-66.6666666666667,4,2,4,5,0,0
64303,-66.6666666666667,4,1,1,71,0,0
64471,-66.6666666666667,4,2,4,5,0,0
64526,-100,4,1,1,71,0,0
66979,-66.6666666666667,4,1,1,71,0,0
67146,-66.6666666666667,4,2,4,5,0,0
67202,-66.6666666666667,4,1,1,71,0,0
67258,-66.6666666666667,4,2,4,5,0,0
67313,-66.6666666666667,4,1,1,71,0,0
67369,-66.6666666666667,4,2,4,5,0,0
67425,-66.6666666666667,4,1,1,71,0,0
67481,-66.6666666666667,4,2,4,5,0,0
67536,-66.6666666666667,4,1,1,71,0,0
67592,-66.6666666666667,4,2,4,5,0,0
67648,-66.6666666666667,4,1,1,71,0,0
67704,-66.6666666666667,4,2,4,5,0,0
67759,-66.6666666666667,4,1,1,71,0,0
67815,-66.6666666666667,4,2,4,5,0,0
67871,-66.6666666666667,4,1,1,71,0,0
68038,-66.6666666666667,4,2,4,5,0,0
68094,-100,4,1,1,71,0,0
68541,444.444444444444,4,1,3,71,1,0
68568,-100,4,2,3,71,0,0
68596,-100,4,1,1,71,0,0
68763,444.444444444444,4,1,1,71,1,0
69235,-100,4,2,2,71,0,0
69429,-100,4,1,1,71,0,0
69679,-100,4,2,2,71,0,0
69874,-100,4,1,1,71,0,0
70124,-100,4,2,2,71,0,0
70318,-100,4,1,1,71,0,0
70568,-100,4,2,2,71,0,0
70763,-100,4,1,1,71,0,0
71013,-100,4,2,2,71,0,0
71207,-100,4,1,1,71,0,0
71235,-100,4,2,2,71,0,0
71429,464.108910891089,4,1,1,71,1,0
71458,-100,4,3,2,71,0,0
72359,484.652665589661,4,2,2,71,1,0
75267,456.725279744234,4,2,2,71,1,0
75267,-500,4,2,2,71,0,0
77778,-100,4,2,4,5,0,0
78007,-100,4,3,2,71,0,0
78464,-50,4,3,2,71,0,0
78692,-50,4,1,3,71,0,0
78720,-50,4,2,3,71,0,0
78977,447.360572621533,4,1,1,71,1,0
80767,434.562178605055,4,1,1,71,1,0
82287,445.136879590474,4,1,1,71,1,0
82509,445.136879590474,4,1,1,71,1,0
83399,443.360673908224,4,1,1,71,1,0
84286,442.02151171357,4,1,1,71,1,0
85833,-100,4,1,3,71,0,0
85860,-100,4,2,3,71,0,0
86081,445.43429844098,4,1,1,71,1,0
95657,-100,4,1,3,71,0,0
95685,-100,4,2,3,71,0,0
95713,-100,4,1,1,71,0,0
95880,444.938820912125,4,1,1,71,1,0
99440,480,4,2,2,71,1,0
100400,492.206726825267,4,2,2,71,1,0
102368,845.427645484007,4,2,2,71,1,0
103213,737.100737100737,4,2,2,71,1,0
103950,705.882352941176,4,2,2,71,1,0
105361,480,4,2,2,71,1,0
105841,-50,4,2,2,71,0,0
106321,471.031559114461,4,1,1,71,1,0
106350,-100,4,2,2,71,0,0
107263,457.003579861376,4,2,2,71,1,0
108177,464.001237336633,4,2,2,71,1,0
112817,454.235748353395,4,2,2,43,1,0
116451,462.962962962963,4,2,2,43,1,0
119230,460.440488066917,4,1,1,71,1,1
125676,463.105896881754,4,1,1,71,1,1
129380,454.545454545455,4,1,1,71,1,1
130970,483.014007406215,4,1,3,71,1,0
131000,-100,4,2,3,71,0,0
131181,-100,4,1,1,71,0,0
131936,458.400183360073,4,1,3,71,1,0
131964,-200,4,2,3,71,0,0
132394,-100,4,2,2,71,0,0
133770,453.514739229025,4,1,3,71,1,0
133770,-200,4,1,3,71,0,0
133798,-200,4,2,3,71,0,0
133826,-200,4,2,4,5,0,0
135357,-50,4,2,4,5,0,0
135584,-100,4,1,3,71,0,0
135612,-100,4,2,3,71,0,0
135773,456.273764258555,4,1,1,71,1,0
137598,421.940928270042,4,1,1,71,1,0
138441,445.16990651432,4,1,1,71,1,0
139331,440.27003228647,4,1,1,71,1,0
140651,459.664444955183,4,1,1,71,1,0
141111,425.954848786029,4,1,1,71,1,0
142601,-100,4,1,3,71,0,0
142628,-100,4,2,3,71,0,0
142868,445.997175351223,4,1,1,71,1,0
145543,418.03107364314,4,1,1,71,1,0
145961,475.134621476085,4,1,1,71,1,0
146436,235.941801022415,4,1,1,71,1,0
146492,-133.333333333333,4,2,2,71,0,0
146907,227.876946448918,4,1,1,71,1,0
147362,-133.333333333333,4,2,2,71,0,0
147818,237.492083597213,7,1,1,71,1,0
148055,-133.333333333333,7,2,2,71,0,0
148530,247.790534401585,7,1,1,71,1,0
148778,-133.333333333333,7,2,2,71,0,0
149274,233.009708737864,7,1,1,71,1,0
149508,-133.333333333333,7,2,2,71,0,0
149973,257.510729613734,7,1,1,71,1,0
150230,445.103857566766,4,1,3,71,1,0
150257,-100,4,2,3,71,0,0
150452,-100,4,1,1,71,0,0
153790,449.269936353426,4,1,1,71,1,0
159855,-100,4,1,3,71,0,0
159883,-100,4,2,3,71,0,0
159911,-100,4,1,1,71,0,0
160080,452.556946749133,4,1,1,71,1,0
163021,-100,4,3,2,71,0,0
163701,491.400491400491,4,2,2,71,1,0
166649,816.215480886954,4,2,2,71,1,0
167465,710.059171597633,4,2,2,71,1,0
168175,685.714285714286,4,2,2,71,1,0
169546,460.545454545455,4,2,2,71,1,0
170467,464.037122969838,4,1,1,71,1,1
170467,-66.6666666666667,4,1,1,71,0,1
176963,462.962962962963,4,1,1,71,1,1
176963,-38.4615384615385,4,1,1,71,0,1
180319,-66.6666666666667,4,1,1,71,0,1
182518,451.127819548872,4,1,1,71,1,1
182518,-66.6666666666667,4,1,1,71,0,1
182969,475.134621476085,4,1,1,71,1,1
182969,-66.6666666666667,4,1,1,71,0,1
183444,459.382895643519,4,1,1,71,1,0
183444,-38.4615384615385,4,1,1,71,0,1
186774,-66.6666666666667,4,1,1,71,0,1
187119,-64.5161290322581,4,1,1,71,0,1
187348,-62.5,4,1,1,71,0,1
187578,-60.6060606060606,4,1,1,71,0,1
187808,-58.8235294117647,4,1,1,71,0,1
188037,-66.6666666666667,4,1,1,71,0,1
188956,477.288998488585,4,1,1,71,1,1
189910,454.063871651279,4,1,1,71,1,1
189910,-37.037037037037,4,1,1,71,0,1
191726,462.42774566474,4,1,1,71,1,1
191726,-37.037037037037,4,1,1,71,0,1
193576,460.29919447641,4,1,1,71,1,1
195188,471.623958497092,4,1,3,71,1,1
195217,-100,4,2,3,71,0,1
195423,-100,4,1,1,71,0,1
196132,460.830591605033,4,1,3,71,1,0
196160,-100,4,2,3,71,0,0
196592,-100,4,2,2,71,0,0
197976,553.250345781466,4,1,1,71,1,0
197976,-200,4,1,3,71,0,0
198010,-200,4,2,3,71,0,0
198045,-200,4,2,4,5,0,0
201849,241.954996370675,3,2,2,71,1,0
202332,226.860254083484,3,1,1,71,1,0
202785,254.798709019874,3,2,2,71,1,0
203295,247.167868177137,3,1,1,71,1,0
203542,-100,3,2,2,71,0,0
204036,-100,3,1,1,31,0,0
204098,-100,3,2,2,71,0,0
204283,-100,3,2,2,31,0,0
204779,221.81146025878,3,1,1,51,1,0
204852,-100,3,2,2,31,0,0
205000,-100,3,2,2,51,0,0
205444,222.469410456062,3,1,1,51,1,0
205518,-100,3,2,2,51,0,0
205666,458.330150485066,4,1,2,71,1,0
205895,-100,4,1,1,71,0,0
207499,439.335139488907,4,1,1,71,1,0
209257,453.754821144975,4,1,1,71,1,0
211070,439.721509710516,4,1,1,71,1,0
211949,419.58041958042,4,1,1,71,1,0
212368,461.538461538462,4,1,1,71,1,0
212829,441.988950276243,4,1,1,71,1,0
214596,443.458980044346,4,1,1,71,1,0
216369,445.103857566766,4,1,1,71,1,0
221709,438.436244062843,4,1,1,71,1,0
223462,438.020148926851,4,1,1,71,1,0
226091,408.163265306122,4,3,2,71,1,0
226499,446.528242911364,4,3,2,71,1,0
226945,441.533593347561,4,1,2,71,1,0
227055,-100,4,1,1,71,0,0
230477,444.80687967974,4,1,1,71,1,0
232256,431.996544027649,4,1,1,71,1,0
232687,-100,4,3,2,71,0,0
233119,457.526307762697,4,3,2,71,1,0
234035,444.115470022206,4,1,1,71,1,0
240585,-100,4,3,2,71,0,0
241140,445.136879590474,4,1,1,71,1,0
244701,453.309156844968,4,1,1,71,1,0
248327,447.627017484625,4,1,1,71,1,0
254146,-100,4,3,2,71,0,0
255489,449.775112443778,4,1,1,71,1,0
259088,454.270139309509,4,1,1,71,1,0
262116,-100,4,3,2,71,0,0
262343,-100,4,1,1,71,0,0
262419,-100,4,3,2,71,0,0
262722,449.068183519198,4,1,1,71,1,0
266316,464.32440798638,4,1,1,71,1,0
267089,-100,4,3,2,71,0,0
267244,-100,4,1,1,71,0,0
267322,-100,4,3,2,71,0,0
267476,-100,4,1,1,71,0,0
267554,-100,4,3,2,71,0,0
267708,-100,4,1,1,71,0,0
268173,418.848167539267,4,1,1,71,1,0
269220,-100,4,3,2,71,0,0
269455,419.58041958042,4,3,1,71,1,0
269664,-100,4,3,2,71,0,0
269875,447.928331466965,4,1,2,71,1,0
270098,-100,4,1,1,71,0,0
274130,-100,4,3,2,71,0,0
274802,-100,4,1,1,71,0,0
277042,451.739195904231,4,1,1,71,1,0
280279,-100,4,3,2,71,0,0
280655,447.761194029851,4,1,1,71,1,0
283416,-100,4,3,1,71,0,0
283789,-100,4,1,1,71,0,0
283863,-100,4,3,2,71,0,0
284237,450.45045045045,4,1,2,71,1,0
284462,-100,4,1,1,71,0,0
286038,447.761194029851,4,1,1,71,1,0
287829,450.653447498873,4,1,1,71,1,0
290983,413.736036408771,4,1,3,71,1,0
291008,-100,4,2,3,71,0,0
291060,-100,4,3,2,71,0,0
292637,391.236036408771,4,3,2,71,1,0
293810,437.31778425656,4,3,2,71,1,0
294137,-100,4,3,2,71,0,0
294210,-100,4,2,2,7,0,0
294283,-100,4,3,2,71,0,0
294393,-100,4,3,2,71,0,0
294465,-100,4,2,2,7,0,0
294538,-100,4,3,2,71,0,0
294611,-100,4,2,2,7,0,0
294721,-100,4,3,2,71,0,0
294793,-100,4,2,2,7,0,0
294903,-100,4,3,2,71,0,0
294976,-100,4,2,2,7,0,0
295121,510.33426894616,4,2,2,71,1,0
295122,-100,4,3,2,71,0,0
295206,-100,4,2,2,7,0,0
295376,-100,4,3,2,71,0,0
295461,-100,4,2,2,7,0,0
295630,418.322526668061,4,3,2,71,1,0
295699,-100,4,2,2,7,0,0
295908,-100,4,3,2,71,0,0
295978,-100,4,2,2,7,0,0
296257,390.32006245121,4,3,2,71,1,0
296354,-100,4,2,2,7,0,0
296647,508.216161273928,4,3,2,71,1,0
296731,-100,4,2,2,7,0,0
297155,338.028169014084,4,3,2,71,1,0
297239,-100,4,2,2,7,0,0
297831,253.796370711899,4,2,2,7,1,0
298085,305.701329800785,4,2,2,7,1,0
298390,455.027819548872,4,2,2,37,1,0
298693,-100,4,2,2,7,0,1
298845,350.405886818899,4,2,2,7,1,1
299545,332.06043499917,4,2,2,7,1,1
300209,352.941176470588,4,2,2,7,1,1
300562,301.507537688442,4,2,2,7,1,1
300863,325.55615843733,4,2,2,7,1,1
301575,429.184549356223,4,2,2,37,1,1
302361,-100,4,2,2,7,0,1
302647,415.512465373961,4,2,2,37,1,1
302750,-100,4,2,2,7,0,1
303339,473.9336492891,4,2,2,37,1,1
303417,-100,4,2,2,7,0,1
303575,393.366311272916,4,2,2,7,1,1
303969,333.333333333333,4,2,2,7,1,1
304302,330.487473180393,4,2,2,7,1,1
304963,340.078651685393,4,2,2,7,1,1
307130,551.825623103099,4,2,2,37,1,1
307175,-100,4,2,2,7,0,1
307681,482.81966685443,4,2,2,7,1,1
308164,518.627366237359,4,2,2,37,1,1
308390,323.066982554383,4,2,2,7,1,1
309037,343.977526801582,4,2,2,7,1,1
309724,481.772924361651,4,2,2,7,1,1
310206,450.34902049088,4,2,2,37,1,1
310919,-100,4,2,2,7,0,1
311106,-100,4,2,2,37,0,1
311219,-100,4,2,2,7,0,1
312288,434.782608695652,4,2,2,37,1,1
312559,-100,4,2,2,7,0,1
312722,492.97510475721,4,2,2,37,1,1
312968,-100,4,2,2,7,0,1
313217,319.233838786911,4,2,2,37,1,1
313278,-100,4,2,2,7,0,1
314175,334.690690020639,4,2,2,7,1,1
314844,344.708721130645,4,2,2,7,1,1
315533,333.704115684093,4,2,2,7,1,1
316200,343.308348114665,4,2,2,7,1,1
316887,332.704890761894,4,2,2,7,1,1
317552,332.704890761894,4,2,2,7,1,1
319069,450.721153846154,4,2,2,37,1,1
319106,-100,4,2,2,7,0,1
320233,-100,4,2,2,37,0,1
320421,474.420811259587,4,2,2,37,1,1
320500,-100,4,2,2,7,0,1
321370,340.155337604173,4,2,2,7,1,1
322050,340.155337604173,4,2,2,7,1,1
322730,328.748936170212,4,2,2,7,1,1
323387,472.664250827162,4,2,2,7,1,1
323860,333.333333333333,4,2,2,37,1,1
324610,334.484596702032,4,2,2,37,1,1
324693,-100,4,2,2,7,0,1
325028,482.625482625483,4,2,2,37,1,1
325108,-100,4,2,2,7,0,1
325843,377.358490566038,4,2,2,37,1,1
325937,-100,4,2,2,7,0,1
326220,446.827524575514,4,2,2,7,1,1
326667,345.164816199735,4,2,2,7,1,1
327357,281.00412139378,4,2,2,7,1,1
327638,488.20179007323,4,2,2,37,1,1
328451,-100,4,2,2,7,0,1
328615,321.888412017167,4,2,2,37,1,1
328695,-100,4,2,2,7,0,1
329581,471.698113207547,4,2,2,37,1,1
329659,-100,4,2,2,7,0,1
329875,-100,4,2,2,37,0,1
329934,-100,4,2,2,7,0,1
330082,-100,4,2,2,37,0,1
330170,-100,4,2,2,7,0,1
330318,-100,4,2,2,37,0,1
330367,-100,4,2,2,7,0,1
330583,-100,4,2,2,37,0,1
330642,-100,4,2,2,7,0,1
330878,-100,4,2,2,37,0,1
330956,-100,4,2,2,7,0,1
331231,404.176490400809,4,2,2,37,1,1
331365,-100,4,2,2,7,0,1
331635,461.71604463255,4,2,2,7,1,1
332327,482.780817508851,4,2,2,7,1,1
334258,-100,4,2,2,37,0,1
334338,-100,4,2,2,7,0,1
334499,-100,4,2,2,37,0,1
334579,-100,4,2,2,7,0,1
334740,-100,4,2,2,37,0,1
334821,-100,4,2,2,7,0,1
334982,-100,4,2,2,37,0,1
335062,-100,4,2,2,7,0,1
335304,509.078567792296,4,2,2,7,1,0
335304,-100,4,2,2,7,0,0
335897,-100,4,2,2,37,0,0
335982,-100,4,2,2,7,0,0
336152,-100,4,2,2,37,0,0
336237,-100,4,2,2,7,0,0
337340,441.176470588235,4,2,2,7,1,0
338148,-100,4,2,2,37,0,0
338222,-100,4,2,2,7,0,0
338406,-100,4,2,2,37,0,0
338516,-100,4,2,2,7,0,0
338663,-100,4,2,2,37,0,0
338737,-100,4,2,2,7,0,0
338884,-100,4,2,2,37,0,0
339104,475.098754669988,4,2,2,7,1,0
339341,-133.333333333333,4,2,2,37,0,0
339420,-133.333333333333,4,2,2,5,0,0
339579,-133.333333333333,4,2,2,37,0,0
339658,-133.333333333333,4,2,2,5,0,0
339816,-133.333333333333,4,2,2,37,0,0
339895,-133.333333333333,4,2,2,5,0,0
339975,-100,4,2,2,5,0,0
340529,-100,4,2,2,37,0,0
340608,-100,4,2,2,5,0,0
341004,769.230769230769,4,1,1,20,1,0
341677,-100,4,2,4,5,0,0
341772,638.297872340426,4,1,1,20,1,0
342330,-100,4,2,4,5,0,0
342410,727.625515401407,4,1,1,20,1,0
343046,-100,4,2,4,20,0,0
343137,659.340659340659,4,1,1,20,1,0
343713,-100,4,2,4,20,0,0
343796,1023.71608940454,4,1,1,20,1,0
344819,474.308300395257,4,2,2,37,1,0
344898,-100,4,2,2,5,0,0
345058,-100,4,2,2,37,0,0
345451,-100,4,2,2,7,0,0
345530,-100,4,2,2,37,0,0
345609,-100,4,2,2,7,0,0
345767,-100,4,2,2,37,0,0
345846,-100,4,2,2,7,0,0
346004,-100,4,2,2,37,0,0
346083,-100,4,2,2,7,0,0
346241,-100,4,2,2,37,0,0
346320,-100,4,2,2,7,0,0
346479,-100,4,2,2,37,0,0
346558,-100,4,2,2,7,0,0
346716,695.974944901984,4,2,2,37,1,0
347412,483.870967741935,4,1,1,71,1,0
347412,-200,4,1,1,71,0,0
347442,-200,4,2,4,5,0,0
349589,-100,4,2,4,5,0,0
351282,459.418070444105,4,1,1,71,1,1
351282,-50,4,1,1,71,0,1
351454,-50,4,2,4,5,0,1
351511,-50,4,1,1,71,0,1
351683,-50,4,2,4,5,0,1
351741,-50,4,1,1,71,0,1
351913,-50,4,2,4,5,0,1
351971,-50,4,1,1,71,0,1
352143,-50,4,2,4,5,0,1
352200,-50,4,1,1,71,0,1
352373,-50,4,2,4,5,0,1
352430,-50,4,1,1,71,0,1
352602,-50,4,2,4,5,0,1
352660,-50,4,1,1,71,0,1
352832,-50,4,2,4,5,0,1
352889,-50,4,1,1,71,0,1
353062,-50,4,2,4,5,0,1
353120,452.147701582517,4,1,1,71,1,1
353120,-50,4,1,1,71,0,1
353289,-50,4,2,4,5,0,1
353346,-100,4,1,1,71,0,1
354929,450.281425891182,4,1,1,71,1,1
359432,458.891013384322,4,1,1,71,1,1
361267,454.545454545455,4,1,1,71,1,1
362631,-100,4,1,3,71,0,1
362659,-100,4,2,3,71,0,1
362858,-66.6666666666667,4,1,1,71,0,1
363028,-66.6666666666667,4,2,4,5,0,1
363085,-66.6666666666667,4,1,1,71,0,1
363256,-66.6666666666667,4,2,4,5,0,1
363309,-66.6666666666667,4,1,1,71,0,1
363540,-66.6666666666667,4,1,1,71,0,1
363710,-66.6666666666667,4,2,4,5,0,1
363767,-66.6666666666667,4,1,1,71,0,1
363994,453.446191051995,4,1,1,71,1,1
367508,-100,4,1,1,71,0,0
367621,452.864367122047,4,1,3,71,1,1
367649,-100,4,2,3,71,0,1
367677,-100,4,1,1,71,0,1
369206,-66.6666666666667,4,1,1,71,0,1
369375,-66.6666666666667,4,2,4,5,0,1
369432,-66.6666666666667,4,1,1,71,0,1
369602,-66.6666666666667,4,2,4,5,0,1
369658,-66.6666666666667,4,1,1,71,0,1
369828,-66.6666666666667,4,2,4,5,0,1
369885,-66.6666666666667,4,1,1,71,0,1
370055,-66.6666666666667,4,2,4,5,0,1
370111,-66.6666666666667,4,1,1,71,0,1
370281,-66.6666666666667,4,2,4,5,0,1
370338,457.805786851012,4,1,1,71,1,1
372169,435.888122048674,4,1,1,71,1,1
372604,453.514739229025,4,1,1,71,1,1
373965,450.112528132033,4,1,1,71,1,1
375540,-50,4,1,1,71,0,1
375709,-50,4,2,4,5,0,1
375765,-50,4,1,1,71,0,1
375934,-50,4,2,4,5,0,1
375990,-50,4,1,1,71,0,1
376159,-50,4,2,4,5,0,1
376215,-50,4,1,1,71,0,1
376271,-50,4,2,4,5,0,1
376440,-50,4,1,1,71,0,1
376496,-50,4,2,4,5,0,1
376553,-50,4,1,1,71,0,1
376609,-50,4,2,4,5,0,1
376666,218.978102189781,4,1,1,71,1,1
376884,-200,4,1,3,71,0,1
376898,-200,4,2,3,71,0,1
376994,-200,4,1,3,71,0,1
377008,-200,4,2,3,71,0,1
377103,-200,4,1,3,71,0,1
377117,-200,4,2,3,71,0,1
377213,-200,4,1,3,71,0,1
377227,-200,4,2,3,71,0,1
377322,-200,4,1,3,71,0,1
377336,-200,4,2,3,71,0,1
377432,-200,4,1,3,71,0,1
377446,-200,4,2,3,71,0,1
377541,-100,4,1,1,71,0,1
377760,-200,4,1,3,71,0,1
377774,-200,4,2,3,71,0,1
377870,-200,4,1,3,71,0,1
377884,-200,4,2,3,71,0,1
377979,-200,4,1,3,71,0,1
377993,-200,4,2,3,71,0,1
378089,-200,4,1,3,71,0,1
378103,-200,4,2,3,71,0,1
378198,-200,4,1,3,71,0,1
378212,-200,4,2,3,71,0,1
378308,-200,4,1,1,71,0,1
378636,-200,4,1,3,71,0,1
378650,-200,4,2,3,71,0,1
378746,-200,4,1,3,71,0,1
378759,-200,4,2,3,71,0,1
378855,-200,4,1,3,71,0,1
378869,-200,4,2,3,71,0,1
378965,-200,4,1,3,71,0,1
378978,-200,4,2,3,71,0,1
379074,-200,4,1,3,71,0,1
379088,-200,4,2,3,71,0,1
379184,-200,4,1,3,71,0,1
379197,-200,4,2,3,71,0,1
379293,-200,4,1,1,71,0,1
379512,-200,4,1,3,71,0,1
379526,-200,4,2,3,71,0,1
379622,-200,4,1,3,71,0,1
379635,-200,4,2,3,71,0,1
379731,-200,4,1,3,71,0,1
379745,-200,4,2,3,71,0,1
379841,-200,4,1,3,71,0,1
379854,-200,4,2,3,71,0,1
379950,-200,4,1,3,71,0,1
379964,-200,4,2,3,71,0,1
380060,-200,4,1,1,71,0,1
380169,220.685596586729,4,1,1,71,1,1
380389,-200,4,1,3,71,0,1
380403,-200,4,2,3,71,0,1
380500,-200,4,1,3,71,0,1
380513,-200,4,2,3,71,0,1
380610,-200,4,1,3,71,0,1
380624,-200,4,2,3,71,0,1
380720,-200,4,1,3,71,0,1
380734,-200,4,2,3,71,0,1
380831,-200,4,1,3,71,0,1
380844,-200,4,2,3,71,0,1
380941,-200,4,1,3,71,0,1
380955,-200,4,2,3,71,0,1
381051,-200,4,1,1,71,0,1
381272,-200,4,1,3,71,0,1
381286,-200,4,2,3,71,0,1
381382,-200,4,1,3,71,0,1
381396,-200,4,2,3,71,0,1
381493,-200,4,1,3,71,0,1
381506,-200,4,2,3,71,0,1
381603,-200,4,1,3,71,0,1
381617,-200,4,2,3,71,0,1
381713,-200,4,1,3,71,0,1
381727,-200,4,2,3,71,0,1
381824,-200,4,1,1,71,0,1
381934,-200,4,1,3,71,0,1
381948,-200,4,2,3,71,0,1
382044,-200,4,1,3,71,0,1
382058,-200,4,2,3,71,0,1
382155,-200,4,1,3,71,0,1
382168,-200,4,2,3,71,0,1
382265,-200,4,1,3,71,0,1
382279,-200,4,2,3,71,0,1
382375,-200,4,1,3,71,0,1
382389,-200,4,2,3,71,0,1
382486,-200,4,1,3,71,0,1
382499,-200,4,2,3,71,0,1
382596,-200,4,1,3,71,0,1
382610,-200,4,2,3,71,0,1
382706,-200,4,1,3,71,0,1
382720,-200,4,2,3,71,0,1
382817,-200,4,1,3,71,0,1
382831,-200,4,2,3,71,0,1
382927,-200,4,1,3,71,0,1
382941,-200,4,2,3,71,0,1
383037,-200,4,1,3,71,0,1
383051,-200,4,2,3,71,0,1
383148,-200,4,1,1,71,0,1
383258,-200,4,1,3,71,0,1
383272,-200,4,2,3,71,0,1
383368,-200,4,1,1,71,0,1
383479,-200,4,1,3,71,0,1
383493,-200,4,2,3,71,0,1
383589,-200,4,1,1,71,0,1
383700,442.543147956926,4,1,1,71,1,1
388899,-100,4,1,1,17,0,1
389011,434.341971912553,4,1,1,71,1,1
390639,-100,4,1,1,71,0,0
390748,461.538461538462,4,1,3,71,1,1
390776,-100,4,2,3,71,0,1
390805,-100,4,1,1,71,0,1
391671,454.545454545455,4,1,1,71,1,1
397125,453.206435531385,4,1,1,71,1,1
398484,-66.6666666666667,4,1,1,71,0,1
398824,-100,4,1,1,71,0,1
400920,-100,4,2,4,5,0,1
400977,-100,4,1,1,71,0,1
401373,-100,4,2,4,5,0,1
401430,-100,4,1,1,71,0,1
401827,-100,4,2,4,5,0,1
401883,-100,4,1,1,71,0,1
402336,-66.6666666666667,4,1,1,71,0,1
402393,-66.6666666666667,4,2,4,5,0,1
402450,-66.6666666666667,4,1,1,71,0,1
402506,-66.6666666666667,4,2,4,5,0,1
402563,-100,4,1,1,71,0,1
402733,-100,4,2,4,5,0,1
402790,-66.6666666666667,4,1,1,71,0,1
403016,-40,4,1,1,71,0,1
403073,-40,4,2,4,5,0,1
403186,-40,4,2,4,5,0,1
403243,-40,4,1,1,71,0,1
403299,-40,4,2,4,5,0,1
403356,-40,4,1,1,71,0,1
403413,-40,4,2,4,5,0,1
403469,-200,4,1,1,71,0,1
403470,227.980849608633,4,1,1,71,1,1
403470,-200,4,1,1,71,0,1
403697,-200,4,1,3,71,0,1
403712,-200,4,2,3,71,0,1
403811,-200,4,1,3,71,0,1
403826,-200,4,2,3,71,0,1
403925,-200,4,1,3,71,0,1
403940,-200,4,2,3,71,0,1
404039,-200,4,1,3,71,0,1
404054,-200,4,2,3,71,0,1
404153,-200,4,1,3,71,0,1
404168,-200,4,2,3,71,0,1
404267,-200,4,1,3,71,0,1
404282,-200,4,2,3,71,0,1
404381,-200,4,1,1,71,0,1
404609,-200,4,1,3,71,0,1
404624,-200,4,2,3,71,0,1
404723,-200,4,1,3,71,0,1
404738,-200,4,2,3,71,0,1
404837,-200,4,1,3,71,0,1
404852,-200,4,2,3,71,0,1
404951,-200,4,1,3,71,0,1
404966,-200,4,2,3,71,0,1
405065,-200,4,1,3,71,0,1
405080,-200,4,2,3,71,0,1
405179,-200,4,1,1,71,0,1
405293,220.426157237325,4,1,1,71,1,1
405513,-200,4,1,3,71,0,1
405527,-200,4,2,3,71,0,1
405623,-200,4,1,3,71,0,1
405637,-200,4,2,3,71,0,1
405733,-200,4,1,3,71,0,1
405747,-200,4,2,3,71,0,1
405844,-200,4,1,3,71,0,1
405857,-200,4,2,3,71,0,1
405954,-200,4,1,3,71,0,1
405968,-200,4,2,3,71,0,1
406064,-200,4,1,3,71,0,1
406078,-200,4,2,3,71,0,1
406174,-200,4,1,1,71,0,1
406395,-200,4,1,3,71,0,1
406408,-200,4,2,3,71,0,1
406505,-200,4,1,3,71,0,1
406519,-200,4,2,3,71,0,1
406615,234.192037470726,4,1,3,71,1,1
406615,-200,4,1,3,71,0,1
406629,-200,4,2,3,71,0,1
406732,-200,4,1,3,71,0,1
406746,-200,4,2,3,71,0,1
406849,-200,4,1,3,71,0,1
406863,-200,4,2,3,71,0,1
406966,-100,4,1,1,71,0,1
407083,221.206311753429,4,1,1,71,1,1
407083,-200,4,1,1,71,0,1
407304,-200,4,1,3,71,0,1
407318,-200,4,2,3,71,0,1
407414,-200,4,1,3,71,0,1
407428,-200,4,2,3,71,0,1
407525,-200,4,1,3,71,0,1
407539,-200,4,2,3,71,0,1
407636,-200,4,1,3,71,0,1
407649,-200,4,2,3,71,0,1
407746,-200,4,1,3,71,0,1
407760,-200,4,2,3,71,0,1
407857,-200,4,1,3,71,0,1
407871,-200,4,2,3,71,0,1
407967,-142.857142857143,4,1,1,71,0,1
408189,-200,4,1,3,71,0,1
408202,-200,4,2,3,71,0,1
408299,-200,4,1,3,71,0,1
408313,-200,4,2,3,71,0,1
408410,-200,4,1,3,71,0,1
408424,-200,4,2,3,71,0,1
408520,-200,4,1,3,71,0,1
408534,-200,4,2,3,71,0,1
408631,-200,4,1,3,71,0,1
408645,-142.857142857143,4,2,3,71,0,1
408742,-200,4,1,1,71,0,1
408852,-200,4,1,3,71,0,1
408866,-200,4,2,3,71,0,1
408963,-200,4,1,3,71,0,1
408977,-200,4,2,3,71,0,1
409073,-200,4,1,3,71,0,1
409087,-200,4,2,3,71,0,1
409184,-200,4,1,3,71,0,1
409198,-200,4,2,3,71,0,1
409295,-200,4,1,3,71,0,1
409308,-200,4,2,3,71,0,1
409405,-200,4,1,3,71,0,1
409419,-200,4,2,3,71,0,1
409516,-142.857142857143,4,1,1,71,0,1
409737,-200,4,1,3,71,0,1
409751,-200,4,2,3,71,0,1
409848,-200,4,1,3,71,0,1
409861,-200,4,2,3,71,0,1
409958,-200,4,1,3,71,0,1
409972,-200,4,2,3,71,0,1
410069,-200,4,1,3,71,0,1
410083,-200,4,2,3,71,0,1
410179,-200,4,1,3,71,0,1
410193,-200,4,2,3,71,0,1
410290,-200,4,1,1,71,0,1
410511,-200,4,1,1,71,0,0
410622,466.926070038911,4,1,3,71,1,1
410622,-50,4,1,3,71,0,1
410651,-50,4,2,3,71,0,1
410681,-50,4,1,1,71,0,1
410972,-66.6666666666667,4,1,1,71,0,1
411439,-66.6666666666667,4,1,1,71,0,0
411556,452.318130418394,4,1,3,71,1,1
411556,-66.6666666666667,4,1,3,71,0,1
411585,-66.6666666666667,4,2,3,71,0,1
411669,-66.6666666666667,4,1,1,71,0,1
412461,439.979467624844,4,1,1,71,1,1
412461,-66.6666666666667,4,1,1,71,0,1
413285,-66.6666666666667,4,1,1,51,0,1
413340,-66.6666666666667,4,1,1,71,0,1
413835,-66.6666666666667,4,2,4,5,0,1
413890,-66.6666666666667,4,1,1,71,0,1
413945,-66.6666666666667,4,2,4,5,0,1
414000,-66.6666666666667,4,1,1,71,0,1
414055,-66.6666666666667,4,2,4,5,0,1
414110,-66.6666666666667,4,1,1,71,0,1
414165,-66.6666666666667,4,2,4,5,0,1
414220,-66.6666666666667,4,1,1,71,0,1
414770,-50,4,1,1,71,0,1
415100,-66.6666666666667,4,1,1,71,0,1
417300,463.965357253325,4,1,1,71,1,1
417300,-66.6666666666667,4,1,1,71,0,1
417647,-66.6666666666667,4,1,1,71,0,0
417764,454.029511918275,4,1,1,71,1,1
417764,-50,4,1,3,71,0,1
417792,-50,4,2,3,71,0,1
418218,-50,4,1,1,71,0,1
419239,-50,4,1,1,71,0,0
419353,-50,4,1,3,71,0,1
419381,-50,4,2,3,71,0,1
419596,443.786982248521,4,1,1,71,1,1
420039,-50,4,1,1,71,0,1
420927,-100,4,1,1,71,0,0
421149,-100,4,1,3,71,0,1
421176,-100,4,2,3,71,0,1
421371,453.857791225416,4,1,1,71,1,1
421401,-50,4,1,1,71,0,1
422959,475.812846946868,4,2,2,71,1,0
426527,-100,4,1,3,71,0,1
426557,-100,4,2,3,71,0,1
426765,438.660622898085,4,1,1,71,1,1
426765,-58.8235294117647,4,1,1,71,0,1
432029,439.270810454645,4,1,1,71,1,1
432029,-58.8235294117647,4,1,1,71,0,1
435982,-100,4,1,1,71,0,0
436202,-100,4,1,3,71,0,1
436229,-50,4,2,3,71,0,1
436422,439.206500256204,4,1,1,71,1,1
439716,-100,4,1,1,71,0,0
439936,477.707006369427,4,1,3,71,1,1
439965,-100,4,2,3,71,0,1
440055,-100,4,2,2,71,0,0
440891,-100,4,1,3,71,0,1
440921,-100,4,2,3,71,0,1
441010,-100,4,2,2,71,0,0
441846,-100,4,1,3,71,0,1
441876,-100,4,2,3,71,0,1
441966,-100,4,2,2,71,0,0
442802,464.900046490005,4,1,3,71,1,1
442831,-100,4,2,3,71,0,1
442860,-66.6666666666667,4,2,2,71,0,0
443499,-66.6666666666667,4,2,4,5,0,0
443557,-66.6666666666667,4,2,2,71,0,0
444894,-66.6666666666667,4,2,4,5,0,0
444952,-66.6666666666667,4,2,2,71,0,0
445475,-66.6666666666667,4,2,4,5,0,0
445591,-40,4,2,2,71,0,0
445765,-40,4,2,4,5,0,0
445823,-35.7142857142857,4,2,2,71,0,0
445998,-35.7142857142857,4,2,4,5,0,0
446056,-33.3333333333333,4,2,2,71,0,0
446230,-33.3333333333333,4,2,4,5,0,0
446288,-30.3030303030303,4,2,2,71,0,0
446463,-30.3030303030303,4,2,4,5,0,0
446521,456.273764258555,4,1,1,71,1,1
446521,-50,4,1,1,71,0,1
451996,475.812846946868,4,1,1,71,1,1
451996,-50,4,1,1,71,0,1
452947,450.315220654458,4,1,1,71,1,1
456436,-100,4,1,1,71,0,0
456549,457.142857142857,4,1,3,71,1,1
456577,-100,4,2,3,71,0,1
456663,-100,4,1,1,71,0,1
459292,451.569202980357,4,1,1,71,1,1
461098,446.927374301676,4,1,1,71,1,1
461992,458.015267175573,4,1,1,71,1,1
465657,451.127819548873,4,1,1,71,1,1
465657,-50,4,1,1,71,0,1
467461,438.116100766703,4,1,1,71,1,1
467461,-50,4,1,1,71,0,1
468337,460.829493087558,4,1,1,71,1,1
468337,-50,4,1,1,71,0,1
469258,444.609114486847,4,1,1,71,1,1
469258,-50,4,1,1,71,0,1
470702,-66.6666666666667,4,1,1,71,0,0
470815,462.214005084354,4,1,3,71,1,1
470844,-100,4,2,3,71,0,1
470930,-100,4,1,1,71,0,0
471739,443.458980044346,4,1,3,71,1,1
471766,-100,4,2,3,71,0,1
472182,-66.6666666666667,4,2,2,71,0,1
472293,-66.6666666666667,4,2,4,5,0,1
472404,-66.6666666666667,4,2,2,71,0,1
472515,-66.6666666666667,4,2,4,5,0,1
472625,-66.6666666666667,4,2,2,71,0,1
472736,-66.6666666666667,4,2,4,5,0,1
472847,-66.6666666666667,4,2,2,71,0,1
472958,-66.6666666666667,4,2,4,5,0,1
473069,-66.6666666666667,4,2,2,71,0,1
473180,-66.6666666666667,4,2,4,5,0,1
473291,-66.6666666666667,4,2,2,71,0,1
473401,-66.6666666666667,4,2,4,5,0,1
473512,-25,4,2,2,71,0,1
473623,-66.6666666666667,4,2,4,71,0,1
473734,460.475825019186,4,2,2,71,1,0
473734,-100,4,2,2,45,0,0
477187,471.142520612485,4,2,2,71,1,0
477422,471.142520612485,7,2,2,71,1,0
487315,472.44094488189,7,2,2,71,1,0
490622,467.836257309942,7,2,2,71,1,1
490622,-25,7,2,2,71,0,1
492727,-50,7,2,2,71,0,1
493896,-25,7,2,2,71,0,1
496002,-40,7,2,2,71,0,1
497171,470.035252643948,7,2,2,71,1,1
497171,-33.3333333333333,7,2,2,71,0,1
499286,-25.6410256410256,7,2,2,71,0,1
500226,-25.6410256410256,7,2,2,71,0,1
500461,-25,7,2,2,71,0,1
501872,485.122897800776,4,1,3,71,1,0
501902,-100,4,2,3,71,0,0
501993,-100,4,2,2,71,0,0
503327,443.458980044346,4,2,2,71,1,0
504213,464.396284829721,4,2,2,71,1,0
506070,461.538461538462,4,2,2,61,1,0
506243,-100,4,2,2,41,0,0
510223,-100,4,2,4,5,0,0

[Colours]
Combo1 : 155,0,0
Combo2 : 20,41,129
Combo3 : 84,135,32
Combo4 : 28,104,192
Combo5 : 255,0,0

[HitObjects]
121,203,1119,6,0,P|143:126|376:156,1,371.999985218048
381,175,8114,1,0,0:0:0:0:
386,204,8170,1,0,0:0:0:0:
256,268,11170,5,0,0:0:0:0:
75,201,11580,5,0,0:0:0:0:
77,138,11717,37,0,0:0:0:0:
86,113,11799,1,0,0:0:0:0:
106,90,11881,1,0,0:0:0:0:
256,194,12237,5,0,0:0:0:0:
449,341,12921,1,0,0:0:0:0:
55,192,16707,5,0,0:0:0:0:
256,112,17756,37,0,0:0:0:0:
256,152,17839,1,0,0:0:0:0:
256,192,17922,1,0,0:0:0:0:
254,193,19800,5,0,0:0:0:0:
88,248,20164,5,0,0:0:0:0:
120,296,20276,53,0,0:0:0:0:
142,315,20360,1,0,0:0:0:0:
190,342,20472,5,0,0:0:0:0:
312,272,20696,1,0,0:0:0:0:
71,216,21872,37,0,0:0:0:0:
72,165,21957,1,0,0:0:0:0:
91,123,22043,1,0,0:0:0:0:
424,193,22329,1,0,0:0:0:0:
422,148,22415,1,0,0:0:0:0:
399,103,22501,1,0,0:0:0:0:
102,208,22788,54,0,P|197:338|110:153,1,859.499939616683
110,151,28704,1,0,0:0:0:0:
256,288,29862,53,0,0:0:0:0:
336,287,29934,1,0,0:0:0:0:
429,285,30007,1,0,0:0:0:0:
56,64,33484,21,0,0:0:0:0:
335,68,33914,5,0,0:0:0:0:
390,101,34037,5,0,0:0:0:0:
410,134,34129,1,0,0:0:0:0:
415,171,34221,1,0,0:0:0:0:
34,354,34652,37,0,0:0:0:0:
482,33,35451,1,0,0:0:0:0:
38,349,37254,1,0,0:0:0:0:
112,56,41194,5,2,0:0:0:0:
440,56,41637,1,0,0:0:0:0:
199,178,41875,5,0,0:0:0:0:
230,178,41944,1,0,0:0:0:0:
287,177,42046,37,0,0:0:0:0:
160,344,42284,5,2,0:0:0:0:
336,344,42509,1,0,0:0:0:0:
128,304,42732,1,0,0:0:0:0:
360,304,42956,1,0,0:0:0:0:
40,192,43180,5,2,0:0:0:0:
472,192,43410,1,0,0:0:0:0:
40,144,43641,1,2,0:0:0:0:
472,152,43872,1,0,0:0:0:0:
26,14,44103,37,2,0:0:0:0:
486,17,44319,1,0,0:0:0:0:
26,14,44536,1,2,0:0:0:0:
248,368,44754,37,14,0:0:0:0:
248,368,44781,2,0,B|256:344|256:344|248:344|248:344|256:328|256:328|248:328|248:328|256:312|256:312|248:312|248:312|256:296|256:296|248:296|248:296|256:280|256:280|248:280|248:280|256:264|256:264|248:264|248:264|256:248|256:248|248:248|248:248|256:232|256:232|248:232|248:232|255:206|255:206,1,239.999990463257,4|0,0:0|0:0,0:0:0:0:
472,272,45437,22,0,L|488:264,1,14.9999994039536,10|0,0:0|0:0,0:0:0:0:
32,256,45656,1,0,0:0:0:0:
32,330,45766,1,0,0:0:0:0:
104,328,45875,2,0,L|112:344,1,14.9999994039536,2|0,0:0|0:0,0:0:0:0:
120,80,46094,2,0,L|72:40,1,59.9999976158143,8|0,3:0|0:0,0:0:0:0:
256,214,46313,2,0,L|267:223,1,14.9999994039536,10|0,0:0|0:0,0:0:0:0:
280,145,46423,1,0,0:0:0:0:
350,112,46532,1,0,0:0:0:0:
424,125,46642,1,0,0:0:0:0:
480,176,46751,6,0,L|493:182,1,14.9999994039536,2|0,0:0|0:0,0:0:0:0:
142,183,46966,1,8,3:0:0:0:
156,102,47074,1,0,0:0:0:0:
232,64,47181,2,0,L|214:64,1,14.9999994039536,10|0,0:0|0:0,0:0:0:0:
352,296,47397,2,0,L|373:307,1,14.9999994039536,2|0,0:0|0:0,0:0:0:0:
385,206,47505,1,0,0:0:0:0:
395,131,47612,5,0,3:0:0:0:
344,74,47720,1,0,0:0:0:0:
277,102,47828,1,8,3:0:0:0:
270,174,47936,1,0,0:0:0:0:
325,213,48043,2,0,L|390:205,1,59.9999976158143,8|0,0:0|0:0,0:0:0:0:
431,333,48259,2,0,L|418:340,1,14.9999994039536,2|0,0:0|0:0,0:0:0:0:
360,362,48367,1,0,0:0:0:0:
289,345,48475,37,8,3:0:0:0:
160,183,48693,2,0,L|147:177,1,14.9999994039536,10|0,3:0|0:0,0:0:0:0:
197,247,48803,1,0,0:0:0:0:
268,216,48912,2,0,L|252:208,1,14.9999994039536,10|0,0:0|0:0,0:0:0:0:
240,32,49131,2,0,L|176:32,1,59.9999976158143
48,120,49350,2,0,L|48:136,1,14.9999994039536,2|0,0:0|0:0,0:0:0:0:
268,156,49569,2,0,L|268:220,1,59.9999976158143,8|0,3:0|0:0,0:0:0:0:
40,280,49788,2,0,L|40:300,1,14.9999994039536,10|0,0:0|0:0,0:0:0:0:
106,333,49898,1,0,0:0:0:0:
170,286,50007,2,0,L|154:286,1,14.9999994039536,2|0,0:0|0:0,0:0:0:0:
188,357,50117,1,0,0:0:0:0:
266,361,50226,5,8,3:0:0:0:
268,156,50441,2,0,L|300:212,1,59.9999976158143,8|0,3:0|0:0,0:0:0:0:
188,32,50657,1,8,0:0:0:0:
448,48,50873,2,0,L|392:88,1,59.9999976158143
160,192,51088,5,4,0:0:0:0:
74,191,51196,1,4,0:0:0:0:
160,192,51304,2,0,L|216:168,1,59.9999976158143,12|0,3:0|0:0,0:0:0:0:
455,261,51520,37,12,0:0:0:0:
474,181,51628,1,4,0:0:0:0:
385,214,51736,2,0,L|369:214,1,14.9999994039536,6|0,0:0|0:0,0:0:0:0:
426,135,51844,1,0,0:0:0:0:
331,93,51951,5,8,3:0:0:0:
258,230,52174,2,0,L|267:211,1,14.9999994039536,10|0,3:0|0:0,0:0:0:0:
256,288,52286,1,0,0:0:0:0:
256,344,52397,2,0,L|283:348,1,14.9999994039536,10|0,0:0|0:0,0:0:0:0:
37,275,52621,2,0,L|-5:217,1,59.9999976158143
189,153,52844,6,0,L|173:153,1,14.9999994039536,10|0,3:0|0:0,0:0:0:0:
37,275,53067,1,8,3:0:0:0:
42,347,53179,1,0,0:0:0:0:
113,337,53291,2,0,L|129:337,1,14.9999994039536,10|0,0:0|0:0,0:0:0:0:
197,348,53402,1,0,0:0:0:0:
269,313,53514,1,0,0:0:0:0:
275,237,53626,1,0,0:0:0:0:
330,192,53740,38,0,L|322:176,1,14.9999994039536,2|0,0:0|0:0,0:0:0:0:
148,48,53956,2,0,L|89:62,1,59.9999976158143,8|0,3:0|0:0,0:0:0:0:
24,216,54173,2,0,L|-2:216,1,14.9999994039536,10|0,0:0|0:0,0:0:0:0:
152,48,54390,6,0,L|152:32,1,14.9999994039536,2|0,0:0|0:0,0:0:0:0:
228,24,54499,1,0,0:0:0:0:
292,48,54607,1,0,0:0:0:0:
114,219,54824,2,0,L|42:219,2,59.9999976158143,8|0|8,3:0|0:0|0:0,0:0:0:0:
167,167,55150,1,0,0:0:0:0:
226,134,55258,2,0,L|242:134,1,14.9999994039536,2|0,0:0|0:0,0:0:0:0:
307,153,55367,1,0,0:0:0:0:
328,216,55475,5,8,3:0:0:0:
176,320,55692,2,0,L|189:334,1,14.9999994039536,10|0,3:0|0:0,0:0:0:0:
144,272,55801,1,0,0:0:0:0:
111,217,55909,2,0,L|101:192,1,14.9999994039536,10|0,0:0|0:0,0:0:0:0:
307,153,56126,1,0,0:0:0:0:
328,216,56235,1,0,0:0:0:0:
336,280,56343,38,0,L|320:291,1,14.9999994039536,2|0,0:0|0:0,0:0:0:0:
114,219,56560,1,8,3:0:0:0:
64,176,56669,1,0,0:0:0:0:
40,112,56777,2,0,L|23:112,1,14.9999994039536,10|0,0:0|0:0,0:0:0:0:
80,56,56886,1,0,0:0:0:0:
144,24,56994,2,0,L|130:4,1,14.9999994039536,2|0,0:0|0:0,0:0:0:0:
208,24,57103,1,0,0:0:0:0:
264,72,57214,5,8,3:0:0:0:
344,56,57323,21,0,0:0:0:0:
348,60,57377,1,0,0:0:0:0:
348,60,57432,1,8,3:0:0:0:
364,128,57541,54,0,L|380:190,1,59.9999976158143,8|8,3:0|0:0,0:0:0:0:
148,239,57868,2,0,L|139:172,1,59.9999976158143
425,40,58086,37,4,0:0:0:0:
499,47,58195,1,4,0:0:0:0:
477,117,58304,2,0,L|477:185,1,59.9999976158143,4|0,0:0|0:0,0:0:0:0:
148,239,58522,1,12,0:0:0:0:
114,305,58631,1,4,0:0:0:0:
186,332,58740,2,0,L|244:363,1,59.9999976158143,8|4,3:0|0:0,0:0:0:0:
485,177,58959,37,14,0:0:0:0:
485,177,58987,1,4,0:0:0:0:
278,41,59189,37,2,0:0:0:0:
280,216,59419,1,10,0:0:0:0:
468,288,59650,2,0,L|480:216,1,59.9999976158143,2|0,0:0|0:0,0:0:0:0:
292,356,59880,22,0,P|192:352|128:312,1,134.999999785423,2|0,0:0|0:0,0:0:0:0:
161,337,60101,2,0,P|135:325|118:308,1,44.9999999284745,8|0,3:0|0:0,0:0:0:0:
123,314,60211,2,0,B|137:325|76:281,1,44.9999999284745
91,292,60322,2,0,P|66:214|80:148,1,134.999999785423,8|0,0:0|0:0,0:0:0:0:
73,162,60543,2,0,L|98:118,1,44.9999999284745
95,122,60654,2,0,L|136:73,1,44.9999999284745
123,87,60764,2,0,P|179:44|251:38,1,134.999999785423
285,40,60986,22,0,L|405:40,1,119.999995231629,10|8,3:0|0:0,0:0:0:0:
246,176,61428,2,0,L|184:176,1,59.9999976158143,2|0,0:0|0:0,0:0:0:0:
264,301,61649,6,0,L|316:353,1,59.9999976158143,10|0,3:0|0:0,0:0:0:0:
448,240,61869,2,0,L|488:192,1,59.9999976158143,8|0,3:0|0:0,0:0:0:0:
186,165,62089,2,0,L|248:176,1,59.9999976158143,8|0,0:0|0:0,0:0:0:0:
32,144,62310,2,0,L|32:216,1,59.9999976158143
248,16,62530,5,0,0:0:0:0:
246,176,62750,1,10,3:0:0:0:
246,216,62861,1,0,0:0:0:0:
246,255,62971,1,10,0:0:0:0:
447,220,63191,1,2,0:0:0:0:
448,179,63301,1,0,0:0:0:0:
440,142,63412,22,0,P|369:47|305:39,1,134.999999785423,2|0,0:0|0:0,0:0:0:0:
358,43,63634,2,0,L|301:27,1,44.9999999284745,8|0,3:0|0:0,0:0:0:0:
314,30,63746,2,0,L|258:28,1,44.9999999284745
269,28,63857,2,0,L|219:30,1,44.9999999284745,8|0,0:0|0:0,0:0:0:0:
224,29,63969,2,0,L|171:48,1,44.9999999284745
181,44,64080,2,0,L|128:67,1,44.9999999284745
139,61,64192,2,0,L|96:100,1,44.9999999284745
105,91,64303,2,0,P|69:157|69:236,1,134.999999785423,8|0,3:0|3:0,0:0:0:0:
72,248,64526,6,0,L|99:321,1,59.9999976158143,10|0,3:0|0:0,0:0:0:0:
333,338,64749,1,8,0:0:0:0:
358,43,64972,1,2,0:0:0:0:
401,40,65084,1,0,0:0:0:0:
446,54,65195,5,0,0:0:0:0:
312,288,65418,2,0,L|280:236,1,59.9999976158143,10|0,3:0|0:0,0:0:0:0:
167,84,65641,2,0,L|184:24,1,59.9999976158143,10|0,0:0|0:0,0:0:0:0:
104,333,65864,1,0,0:0:0:0:
79,295,65976,1,0,0:0:0:0:
76,248,66087,5,8,3:0:0:0:
408,276,66310,1,10,3:0:0:0:
76,144,66533,1,10,0:0:0:0:
430,179,66756,2,0,P|431:208|422:243,1,59.9999976158143,2|0,0:0|0:0,0:0:0:0:
359,106,66979,6,0,P|316:84|227:73,1,134.999999785423,2|0,0:0|0:0,0:0:0:0:
230,72,67202,2,0,L|178:85,1,44.9999999284745,8|0,3:0|0:0,0:0:0:0:
186,82,67313,2,0,L|148:110,1,44.9999999284745
149,108,67425,2,0,L|126:153,1,44.9999999284745,8|0,0:0|0:0,0:0:0:0:
128,148,67536,2,0,L|116:197,1,44.9999999284745
117,191,67648,2,0,L|118:243,1,44.9999999284745
117,235,67759,2,0,L|136:283,1,44.9999999284745
133,276,67871,2,0,P|170:322|240:344,1,134.999999785423
272,344,68094,38,0,P|332:319|391:323,1,119.999995231629,10|8,3:0|0:0,0:0:0:0:
382,23,68541,21,14,0:0:0:0:
382,23,68568,2,0,P|407:74|412:131,1,104.999995827675,4|0,0:0|0:0,0:0:0:0:
64,216,68985,21,0,0:0:0:0:
272,48,69207,2,0,L|288:48,1,14.9999994039536,10|0,0:0|0:0,0:0:0:0:
352,288,69429,2,0,L|296:320,1,59.9999976158143
56,144,69651,2,0,L|80:144,1,14.9999994039536,2|0,0:0|0:0,0:0:0:0:
256,336,69874,1,8,3:0:0:0:
456,192,70096,2,0,L|480:192,1,14.9999994039536,10|0,0:0|0:0,0:0:0:0:
224,72,70318,2,0,L|273:26,1,59.9999976158143
88,344,70540,2,0,L|72:352,1,14.9999994039536,2|0,0:0|0:0,0:0:0:0:
400,260,70763,1,8,3:0:0:0:
128,88,70985,2,8,L|112:88,1,14.9999994039536,10|0,0:0|0:0,0:0:0:0:
224,352,71207,2,0,L|201:352,1,14.9999994039536,2|0,0:0|0:0,0:0:0:0:
456,280,71429,1,8,0:0:0:0:
440,48,71661,5,10,0:0:0:0:
408,104,71777,1,8,0:0:0:0:
368,48,71893,1,10,0:0:0:0:
328,104,72009,1,8,0:0:0:0:
296,48,72125,1,2,3:0:0:0:
216,146,72359,54,0,L|176:194,1,59.9999976158143,14|0,1:0|0:0,0:0:0:0:
296,48,72601,2,0,L|240:16,1,59.9999976158143,2|0,0:0|0:0,0:0:0:0:
408,128,72843,2,0,L|398:188,1,59.9999976158143,2|0,0:0|0:0,0:0:0:0:
221,267,73085,2,0,L|293:267,1,59.9999976158143,2|0,0:0|0:0,0:0:0:0:
16,80,73328,6,0,L|16:16,1,59.9999976158143,14|0,1:0|0:0,0:0:0:0:
106,122,73570,2,0,L|106:186,1,59.9999976158143,2|0,0:0|0:0,0:0:0:0:
183,73,73812,2,0,L|183:1,1,59.9999976158143,2|0,0:0|0:0,0:0:0:0:
263,108,74055,2,0,L|263:172,1,59.9999976158143,2|0,0:0|0:0,0:0:0:0:
16,368,74297,6,0,L|88:368,1,59.9999976158143,14|0,1:0|0:0,0:0:0:0:
118,202,74539,2,0,L|118:274,1,59.9999976158143,2|0,0:0|0:0,0:0:0:0:
203,108,74782,2,0,L|267:108,1,59.9999976158143,2|0,0:0|0:0,0:0:0:0:
448,128,75024,37,2,0:0:0:0:
456,168,75105,1,0,0:0:0:0:
456,208,75186,1,0,0:0:0:0:
446,249,75267,5,14,1:0:0:0:
56,160,75552,2,0,P|72:128|195:199,1,233.999990701676,2|0,0:0|0:0,0:0:0:0:
180,246,78007,5,8,0:0:0:0:
312,269,78121,1,8,0:0:0:0:
354,147,78349,5,8,3:0:0:0:
219,116,78464,2,0,B|173:74|173:74|146:86|146:86|99:59|99:59|65:73|65:73|10:18,1,239.999990463257,0|14,3:0|0:0,0:0:0:0:
25,33,78720,1,4,0:0:0:0:
421,100,79200,22,0,P|446:167|433:225,1,119.999995231629,0|10,0:0|0:0,0:0:0:0:
232,120,79648,1,0,0:0:0:0:
208,176,79759,1,0,0:0:0:0:
224,232,79871,2,0,B|266:283|266:283|325:287,1,119.999995231629,10|8,3:0|3:0,0:0:0:0:
373,253,80207,1,0,0:0:0:0:
384,192,80319,2,0,B|339:148|339:148|282:127,1,119.999995231629,10|0,0:0|0:0,0:0:0:0:
232,120,80654,1,0,0:0:0:0:
208,176,80766,5,2,0:0:0:0:
312,304,80984,2,0,L|260:352,1,59.9999976158143,8|0,3:0|0:0,0:0:0:0:
120,272,81201,2,0,B|57:254|57:254|19:204,1,119.999995231629,10|2,0:0|0:0,0:0:0:0:
8,156,81527,1,0,0:0:0:0:
32,100,81635,5,0,0:0:0:0:
353,35,81852,1,8,3:0:0:0:
395,77,81962,1,0,0:0:0:0:
417,129,82070,1,8,0:0:0:0:
148,168,82287,1,4,0:0:0:0:
102,205,82398,1,4,0:0:0:0:
120,264,82509,37,4,0:0:0:0:
264,156,82731,2,0,L|264:84,1,59.9999976158143,12|0,3:0|0:0,0:0:0:0:
320,304,82954,2,4,B|384:319|384:319|438:281,1,119.999995231629,12|4,0:0|0:0,0:0:0:0:
464,240,83287,1,0,0:0:0:0:
472,184,83399,1,4,0:0:0:0:
422,31,83620,1,12,3:0:0:0:
366,12,83730,1,0,0:0:0:0:
308,24,83841,1,12,0:0:0:0:
74,115,84064,6,0,L|59:115,1,14.9999994039536,2|0,0:0|2:0,0:0:0:0:
104,64,84174,2,0,L|82:48,1,14.9999994039536,2|0,0:0|2:0,0:0:0:0:
160,48,84286,2,0,L|169:27,1,14.9999994039536,2|0,0:0|2:0,0:0:0:0:
216,64,84396,2,0,L|224:45,1,14.9999994039536,2|0,0:0|2:0,0:0:0:0:
264,96,84507,2,0,L|281:74,1,14.9999994039536,10|0,3:0|2:0,0:0:0:0:
304,136,84617,2,0,L|328:121,1,14.9999994039536,2|0,0:0|2:0,0:0:0:0:
320,192,84728,2,0,L|336:192,1,14.9999994039536,10|0,0:0|2:0,0:0:0:0:
296,248,84838,2,0,L|320:248,1,14.9999994039536,2|0,0:0|2:0,0:0:0:0:
248,287,84949,2,0,L|264:304,1,14.9999994039536,2|0,0:0|2:0,0:0:0:0:
192,264,85059,2,0,L|178:281,1,14.9999994039536,2|0,0:0|2:0,0:0:0:0:
152,216,85170,6,0,L|152:201,1,14.9999994039536,10|0,0:0|2:0,0:0:0:0:
203,146,85280,2,0,L|187:130,1,14.9999994039536,2|0,0:0|2:0,0:0:0:0:
130,102,85391,2,0,L|114:102,1,14.9999994039536,10|0,3:0|2:0,0:0:0:0:
46,126,85501,2,0,L|30:134,1,14.9999994039536,2|0,0:0|2:0,0:0:0:0:
23,201,85612,2,0,L|23:225,1,14.9999994039536,10|0,3:0|2:0,0:0:0:0:
512,365,85833,5,14,0:0:0:0:
512,365,85860,1,4,0:0:0:0:
207,36,86303,22,0,P|265:35|336:49,1,119.999995231629,2|10,0:0|0:0,0:0:0:0:
323,369,86749,1,2,0:0:0:0:
376,345,86860,1,0,0:0:0:0:
415,305,86971,1,2,0:0:0:0:
248,240,87194,6,0,L|184:240,2,59.9999976158143,8|0|8,3:0|0:0|0:0,0:0:0:0:
308,234,87528,1,0,0:0:0:0:
367,214,87640,1,0,0:0:0:0:
400,166,87751,1,0,0:0:0:0:
410,110,87862,5,0,0:0:0:0:
236,16,88085,1,10,3:0:0:0:
80,160,88308,2,0,P|40:147|48:80,1,119.999995231629,8|2,0:0|0:0,0:0:0:0:
100,36,88642,1,0,0:0:0:0:
168,32,88753,38,0,P|211:46|233:114,1,119.999995231629,0|10,0:0|3:0,0:0:0:0:
252,172,89087,1,0,0:0:0:0:
296,216,89199,1,8,0:0:0:0:
340,264,89310,1,0,0:0:0:0:
356,208,89421,1,0,0:0:0:0:
340,148,89533,1,0,0:0:0:0:
328,88,89644,5,0,0:0:0:0:
284,276,89867,2,0,P|218:309|170:309,1,119.999995231629,10|10,3:0|0:0,0:0:0:0:
168,104,90312,2,0,L|168:40,1,59.9999976158143,2|0,0:0|0:0,0:0:0:0:
276,352,90535,5,2,0:0:0:0:
420,120,90758,1,8,3:0:0:0:
420,120,90869,2,0,L|420:56,1,59.9999976158143,0|8,0:0|0:0,0:0:0:0:
240,216,91092,2,0,L|240:276,1,59.9999976158143,0|8,0:0|3:0,0:0:0:0:
64,116,91314,2,0,L|64:49,1,59.9999976158143
48,296,91648,37,10,3:0:0:0:
416,264,91871,1,8,0:0:0:0:
56,168,92094,1,2,0:0:0:0:
56,108,92205,1,0,0:0:0:0:
92,60,92317,1,0,0:0:0:0:
432,64,92539,1,10,3:0:0:0:
460,120,92651,1,0,0:0:0:0:
468,180,92762,2,8,L|439:238,1,59.9999976158143,10|0,0:0|0:0,0:0:0:0:
108,320,92985,1,8,3:0:0:0:
80,268,93096,1,0,0:0:0:0:
76,208,93207,5,0,0:0:0:0:
376,68,93430,1,10,3:0:0:0:
276,352,93653,2,0,P|216:364|160:344,1,119.999995231629,10|2,0:0|0:0,0:0:0:0:
368,184,94098,6,0,L|368:252,2,59.9999976158143,2|0|0,0:0|3:0|0:0,0:0:0:0:
372,128,94405,1,0,0:0:0:0:
376,68,94544,1,8,0:0:0:0:
336,28,94655,1,0,0:0:0:0:
280,24,94766,1,0,0:0:0:0:
248,68,94878,1,0,0:0:0:0:
248,120,94989,1,0,0:0:0:0:
128,352,95212,2,0,L|192:240,1,119.999995231629,10|8,3:0|0:0,0:0:0:0:
0,32,95657,21,14,0:0:0:0:
0,32,95685,2,0,P|105:102|207:81,1,224.999991059303,4|0,0:0|0:0,0:0:0:0:
312,280,96324,6,0,B|393:253|392:192,1,119.999995231629,10|0,0:0|0:0,0:0:0:0:
391,200,96658,1,0,0:0:0:0:
391,200,96769,1,2,0:0:0:0:
248,16,96991,1,8,3:0:0:0:
88,264,97214,2,0,P|140:296|208:300,1,119.999995231629,10|0,0:0|0:0,0:0:0:0:
197,301,97548,1,0,0:0:0:0:
197,301,97659,1,2,0:0:0:0:
148,64,97881,1,8,3:0:0:0:
392,208,98104,2,0,B|425:160|425:160|408:88,1,119.999995231629,10|2,0:0|0:0,0:0:0:0:
231,253,98549,6,8,B|175:213|175:213|169:158,1,119.999995231629,8|10,0:0|0:0,0:0:0:0:
234,119,98882,1,8,0:0:0:0:
184,72,98993,1,8,0:0:0:0:
256,56,99104,1,8,0:0:0:0:
208,8,99217,1,10,3:0:0:0:
392,208,99440,6,0,L|440:156,3,59.9999976158143,14|0|2|0,1:0|0:0|0:0|0:0,0:0:0:0:
432,52,99920,2,0,L|360:52,3,59.9999976158143,2|0|2|0,0:0|0:0|0:0|0:0,0:0:0:0:
120,28,100400,38,0,L|120:92,3,59.9999976158143,14|0|2|0,1:0|0:0|0:0|0:0,0:0:0:0:
120,208,100892,2,0,L|120:272,3,59.9999976158143,2|0|2|0,0:0|0:0|0:0|0:0,0:0:0:0:
340,344,101384,6,0,L|408:344,3,59.9999976158143,14|0|2|0,1:0|0:0|0:0|0:0,0:0:0:0:
400,192,101876,2,0,L|340:192,3,59.9999976158143,2|0|2|0,0:0|0:0|0:0|0:0,0:0:0:0:
248,196,102368,5,14,1:0:0:0:
284,86,102684,38,0,B|336:20|429:61,1,149.999994039536,2|0,0:0|0:0,0:0:0:0:
120,224,103950,6,0,P|194:332|304:332,1,239.999990463257
472,192,105361,5,2,0:0:0:0:
256,352,105601,1,2,0:0:0:0:
32,192,105841,2,0,B|32:168|32:168|72:144|72:144|112:120|112:120|56:104|56:104|128:48,1,239.999990463257,2|2,0:0|0:0,0:0:0:0:
256,192,106321,38,0,B|328:192|328:192|384:216,2,119.999995231629,10|0|2,3:0|0:0|0:0,0:0:0:0:
256,284,107027,2,0,B|188:281|188:281|144:248,1,119.999995231629,2|8,0:0|0:0,0:0:0:0:
97,141,107720,5,8,0:0:0:0:
256,184,108177,1,8,0:0:0:0:
256,24,108641,2,0,L|128:24,1,119.999995231629,8|0,0:0|0:0,0:0:0:0:
47,80,109105,5,10,0:0:0:0:
21,180,109337,1,2,0:0:0:0:
70,263,109569,1,10,0:0:0:0:
144,320,109801,38,0,P|195:352|260:347,2,119.999995231629,2|8|2,0:0|0:0|0:0,0:0:0:0:
216,212,110497,1,10,0:0:0:0:
342,237,110729,1,2,0:0:0:0:
432,152,110961,1,8,0:0:0:0:
368,56,111193,1,2,0:0:0:0:
256,104,111425,1,10,0:0:0:0:
254,203,111657,6,0,B|254:330,2,119.999995231629,2|8|2,0:0|0:0|0:0,0:0:0:0:
141,191,112353,1,8,0:0:0:0:
33,105,112585,1,0,0:0:0:0:
64,104,112701,1,0,0:0:0:0:
96,104,112817,6,0,L|160:96,1,59.9999976158143,8|0,0:0|0:0,0:0:0:0:
96,152,113044,2,0,L|152:200,1,59.9999976158143,0|0,0:0|0:0,0:0:0:0:
155,96,113271,38,0,L|216:88,1,59.9999976158143,8|0,0:0|0:0,0:0:0:0:
141,191,113498,2,0,L|200:232,1,59.9999976158143,0|0,0:0|0:0,0:0:0:0:
214,88,113725,6,0,L|280:80,1,59.9999976158143,8|0,0:0|0:0,0:0:0:0:
190,225,113952,2,0,L|248:272,1,59.9999976158143,0|0,0:0|0:0,0:0:0:0:
273,80,114179,6,0,L|344:72,1,59.9999976158143,8|0,0:0|0:0,0:0:0:0:
236,262,114406,2,0,L|288:304,1,59.9999976158143,0|0,0:0|0:0,0:0:0:0:
273,80,114633,38,0,L|344:72,1,59.9999976158143,8|0,0:0|0:0,0:0:0:0:
236,262,114861,2,0,L|288:304,1,59.9999976158143,0|0,0:0|0:0,0:0:0:0:
336,72,115088,6,0,L|408:64,1,59.9999976158143,8|0,0:0|0:0,0:0:0:0:
282,299,115315,2,0,L|344:344,1,59.9999976158143,0|0,0:0|0:0,0:0:0:0:
440,160,115542,6,0,L|384:120,1,59.9999976158143,8|0,0:0|0:0,0:0:0:0:
440,256,115769,2,0,L|384:304,1,59.9999976158143,0|0,0:0|0:0,0:0:0:0:
440,160,115996,38,0,L|384:120,1,59.9999976158143,8|0,0:0|0:0,0:0:0:0:
440,256,116223,2,0,L|392:296,1,59.9999976158143,2|0,0:0|0:0,0:0:0:0:
264,192,116451,6,0,L|192:192,1,59.9999976158143,8|0,0:0|0:0,0:0:0:0:
272,80,116682,2,0,L|208:80,1,59.9999976158143,2|0,0:0|0:0,0:0:0:0:
232,192,116913,6,0,L|160:192,1,59.9999976158143,10|0,0:0|0:0,0:0:0:0:
232,80,117145,2,0,L|168:80,1,59.9999976158143,2|0,0:0|0:0,0:0:0:0:
208,192,117376,38,0,L|144:192,1,59.9999976158143,10|0,0:0|0:0,0:0:0:0:
216,80,117608,2,0,L|152:80,1,59.9999976158143,2|0,0:0|0:0,0:0:0:0:
32,196,117839,6,0,L|32:264,1,59.9999976158143,10|0,0:0|0:0,0:0:0:0:
148,192,118071,2,0,L|148:264,1,59.9999976158143,2|0,0:0|0:0,0:0:0:0:
415,326,118302,5,10,0:0:0:0:
464,292,118418,1,0,0:0:0:0:
481,234,118534,1,2,0:0:0:0:
489,176,118650,1,0,0:0:0:0:
482,118,118765,1,8,0:0:0:0:
447,70,118881,1,0,0:0:0:0:
394,41,118997,1,2,0:0:0:0:
336,38,119113,1,0,0:0:0:0:
278,50,119230,38,0,L|214:74,1,59.9999976158143,14|0,0:0|0:0,0:0:0:0:
336,136,119460,1,0,0:0:0:0:
312,184,119575,1,0,0:0:0:0:
280,232,119690,2,0,P|248:248|208:256,3,59.9999976158143,8|0|0|0,0:0|0:0|0:0|0:0,0:0:0:0:
168,248,120150,1,8,0:0:0:0:
112,224,120265,1,0,0:0:0:0:
88,168,120380,1,8,3:0:0:0:
112,112,120496,1,0,0:0:0:0:
160,72,120611,6,0,P|191:56|225:55,2,59.9999976158143,0|0|8,0:0|0:0|3:0,0:0:0:0:
172,136,120956,1,0,0:0:0:0:
224,172,121071,2,0,P|259:168|292:152,3,59.9999976158143,0|0|8|0,0:0|0:0|3:0|0:0,0:0:0:0:
324,116,121531,1,8,0:0:0:0:
376,88,121647,1,0,0:0:0:0:
436,96,121762,1,0,0:0:0:0:
472,140,121877,6,0,L|472:212,1,59.9999976158143,0|8,0:0|0:0,0:0:0:0:
472,344,122107,1,0,0:0:0:0:
412,348,122222,1,8,3:0:0:0:
372,304,122337,1,0,0:0:0:0:
344,256,122452,1,0,0:0:0:0:
288,248,122568,1,0,0:0:0:0:
232,256,122683,2,0,B|200:200,1,59.9999976158143,10|0,3:0|0:0,0:0:0:0:
162,31,122913,37,8,0:0:0:0:
109,41,123028,1,0,0:0:0:0:
64,71,123142,1,2,0:0:0:0:
45,120,123258,1,0,0:0:0:0:
38,174,123373,1,10,0:0:0:0:
54,227,123489,1,0,0:0:0:0:
96,263,123603,1,2,0:0:0:0:
145,286,123719,1,0,0:0:0:0:
194,308,123834,6,0,L|251:333,3,59.9999976158143,10|0|10|0,0:0|0:0|3:0|0:0,0:0:0:0:
300,349,124293,1,2,0:0:0:0:
354,355,124409,1,0,0:0:0:0:
408,344,124525,2,0,L|453:289,1,59.9999976158143,10|0,3:0|0:0,0:0:0:0:
465,207,124755,5,2,0:0:0:0:
458,176,124832,1,0,0:0:0:0:
450,155,124908,1,0,0:0:0:0:
446,120,124985,2,0,L|475:70,2,39.9999984105428,10|0|0,3:0|0:0|0:0,0:0:0:0:
418,138,125215,2,0,L|370:120,3,39.9999984105428,8|0|0|2,0:0|0:0|0:0|0:0,0:0:0:0:
350,110,125522,1,0,0:0:0:0:
322,92,125599,1,0,0:0:0:0:
290,80,125676,38,0,L|220:78,1,59.9999976158143,10|0,0:0|0:0,0:0:0:0:
133,58,125907,1,0,0:0:0:0:
120,115,126023,1,0,0:0:0:0:
116,168,126139,6,0,L|116:232,1,59.9999976158143,8|0,0:0|0:0,0:0:0:0:
200,360,126370,2,0,L|198:298,1,59.9999976158143
260,160,126602,2,0,L|260:228,1,59.9999976158143,8|0,0:0|0:0,0:0:0:0:
120,115,126833,2,0,L|50:115,2,59.9999976158143,8|0|8,3:0|0:0|0:0,0:0:0:0:
176,92,127181,5,0,0:0:0:0:
204,144,127296,1,8,3:0:0:0:
260,160,127412,1,0,0:0:0:0:
320,172,127528,2,8,P|335:197|328:228,1,59.9999976158143,8|0,0:0|0:0,0:0:0:0:
180,216,127759,2,0,P|164:232|172:268,1,59.9999976158143,8|0,3:0|0:0,0:0:0:0:
264,272,127991,2,0,P|264:312|248:328,1,59.9999976158143,8|0,0:0|0:0,0:0:0:0:
170,266,128223,38,0,L|130:242,1,39.9999984105428
88,216,128377,1,0,0:0:0:0:
80,208,128454,1,0,0:0:0:0:
72,192,128531,1,0,0:0:0:0:
71,175,128609,1,0,0:0:0:0:
72,164,128686,1,8,3:0:0:0:
76,152,128763,1,0,0:0:0:0:
84,140,128840,1,0,0:0:0:0:
92,128,128917,1,8,0:0:0:0:
100,116,128994,1,0,0:0:0:0:
108,108,129072,1,0,0:0:0:0:
116,100,129149,2,0,L|172:52,1,59.9999976158143,2|0,0:0|0:0,0:0:0:0:
344,72,129380,6,0,L|408:96,3,59.9999976158143,8|0|10|0,0:0|0:0|3:0|0:0,0:0:0:0:
368,200,129834,2,0,L|304:176,3,59.9999976158143,2|0|10|0,0:0|0:0|3:0|0:0,0:0:0:0:
320,312,130289,2,0,L|256:296,3,59.9999976158143,2|0|10|0,0:0|3:0|3:0|0:0,0:0:0:0:
160,304,130743,2,0,L|96:328,1,59.9999976158143,10|0,0:0|0:0,0:0:0:0:
56,112,130970,21,14,0:0:0:0:
56,112,131000,2,0,P|64:72|120:48,1,104.999995827675,4|0,0:0|0:0,0:0:0:0:
154,55,131292,21,0,0:0:0:0:
178,65,131372,1,0,0:0:0:0:
198,75,131453,1,10,3:0:0:0:
218,85,131533,1,0,0:0:0:0:
232,92,131614,1,0,0:0:0:0:
248,101,131694,1,8,3:0:0:0:
477,334,131936,37,14,0:0:0:0:
477,334,131964,1,4,0:0:0:0:
206,295,132394,21,2,0:0:0:0:
365,64,132623,1,2,0:0:0:0:
88,232,132852,1,2,0:0:0:0:
472,192,133082,1,2,0:0:0:0:
92,85,133311,1,2,0:0:0:0:
288,344,133540,1,0,0:0:0:0:
292,109,133770,37,14,0:0:0:0:
292,109,133798,2,0,P|146:67|231:199,1,397.499984204769,4|0,0:0|0:0,0:0:0:0:
228,199,135357,6,0,P|290:181|359:317,1,239.999990463257,0|14,0:0|0:0,0:0:0:0:
366,311,135612,1,4,0:0:0:0:
61,260,136001,6,0,B|117:316|173:284,1,119.999995231629,0|10,0:0|0:0,0:0:0:0:
248,96,136457,2,0,L|224:152,2,59.9999976158143,0|0|2,0:0|0:0|0:0,0:0:0:0:
41,103,136913,1,8,3:0:0:0:
14,155,137027,1,0,0:0:0:0:
33,211,137141,2,0,B|65:267,1,59.9999976158143,10|0,0:0|0:0,0:0:0:0:
168,363,137369,1,0,0:0:0:0:
230,366,137484,1,0,0:0:0:0:
289,348,137598,6,0,P|312:320|332:240,1,119.999995231629,2|8,0:0|3:0,0:0:0:0:
328,184,137914,1,0,0:0:0:0:
316,128,138019,1,10,0:0:0:0:
33,211,138230,1,2,0:0:0:0:
24,160,138336,1,0,0:0:0:0:
48,112,138441,5,0,0:0:0:0:
272,88,138663,1,8,3:0:0:0:
316,128,138774,1,0,0:0:0:0:
328,184,138886,1,8,0:0:0:0:
376,208,138997,1,0,0:0:0:0:
432,216,139108,2,0,L|496:216,1,59.9999976158143,4|0,0:0|0:0,0:0:0:0:
344,360,139331,38,0,P|292:363|236:318,1,119.999995231629,0|12,0:0|3:0,0:0:0:0:
208,184,139771,2,4,L|334:184,1,119.999995231629,12|4,0:0|0:0,0:0:0:0:
385,179,140101,2,0,L|441:155,1,59.9999976158143,0|4,0:0|0:0,0:0:0:0:
243,74,140431,1,12,3:0:0:0:
187,87,140541,2,0,B|125:105,1,59.9999976158143,0|12,0:0|0:0,0:0:0:0:
128,288,140880,2,0,L|128:312,1,14.9999994039536,2|0,0:0|2:0,0:0:0:0:
168,224,140995,2,0,L|168:200,1,14.9999994039536,2|0,0:0|2:0,0:0:0:0:
208,288,141111,6,0,L|208:304,1,14.9999994039536,2|0,0:0|2:0,0:0:0:0:
240,224,141217,2,0,L|240:200,1,14.9999994039536,2|0,0:0|2:0,0:0:0:0:
280,288,141323,2,0,L|280:312,1,14.9999994039536,10|0,3:0|2:0,0:0:0:0:
320,224,141430,2,0,L|320:200,1,14.9999994039536,2|0,0:0|2:0,0:0:0:0:
352,288,141536,2,0,L|352:304,1,14.9999994039536,10|0,0:0|2:0,0:0:0:0:
400,224,141643,2,0,L|400:208,1,14.9999994039536,2|0,0:0|2:0,0:0:0:0:
440,288,141749,2,0,L|440:304,1,14.9999994039536,2|0,0:0|2:0,0:0:0:0:
472,224,141856,2,0,L|488:240,1,14.9999994039536,2|0,0:0|2:0,0:0:0:0:
439,156,141962,6,0,L|455:164,1,14.9999994039536,10|0,0:0|2:0,0:0:0:0:
400,72,142069,2,0,L|416:64,1,14.9999994039536,10|0,0:0|2:0,0:0:0:0:
288,64,142175,2,0,L|264:48,1,14.9999994039536,2|0,0:0|2:0,0:0:0:0:
240,160,142282,2,0,L|224:168,1,14.9999994039536,2|0,0:0|2:0,0:0:0:0:
328,232,142388,2,0,L|336:248,1,14.9999994039536,10|0,3:0|2:0,0:0:0:0:
24,24,142601,21,14,0:0:0:0:
28,27,142628,1,4,0:0:0:0:
24,24,143090,22,0,L|151:47,1,119.999995231629,0|10,0:0|0:0,0:0:0:0:
444,52,143537,1,0,0:0:0:0:
460,112,143648,1,0,0:0:0:0:
448,172,143759,1,2,0:0:0:0:
296,308,143982,2,0,L|224:308,2,59.9999976158143,8|0|10,3:0|0:0|0:0,0:0:0:0:
352,288,144317,1,0,0:0:0:0:
392,244,144428,2,0,L|464:244,2,59.9999976158143,0|0|2,0:0|0:0|0:0,0:0:0:0:
176,48,144874,5,8,3:0:0:0:
136,96,144986,1,0,0:0:0:0:
120,152,145097,1,10,0:0:0:0:
344,56,145320,1,2,0:0:0:0:
384,96,145432,1,0,0:0:0:0:
408,152,145543,37,0,0:0:0:0:
120,152,145753,1,8,3:0:0:0:
120,208,145856,2,0,L|120:272,1,59.9999976158143,0|8,0:0|0:0,0:0:0:0:
409,215,146198,2,0,L|409:280,1,59.9999976158143
272,340,146436,5,10,0:0:0:0:
272,340,146494,1,2,0:0:0:0:
272,340,146553,1,2,0:0:0:0:
120,348,146671,1,2,0:0:0:0:
120,348,146730,1,2,0:0:0:0:
120,348,146789,1,0,0:0:0:0:
68,228,146907,5,12,3:0:0:0:
136,48,147134,1,12,3:0:0:0:
266,197,147362,37,2,0:0:0:0:
266,197,147419,1,2,0:0:0:0:
266,197,147476,1,2,0:0:0:0:
336,120,147590,1,2,0:0:0:0:
336,120,147647,1,2,0:0:0:0:
336,120,147704,1,2,0:0:0:0:
456,152,147818,5,12,3:0:0:0:
200,336,148055,5,2,0:0:0:0:
200,336,148114,1,2,0:0:0:0:
200,336,148174,1,2,0:0:0:0:
208,224,148292,1,2,0:0:0:0:
208,224,148352,1,2,0:0:0:0:
208,224,148411,1,2,0:0:0:0:
344,228,148530,37,12,3:0:0:0:
72,272,148778,5,2,0:0:0:0:
72,272,148840,1,2,0:0:0:0:
72,272,148902,1,2,0:0:0:0:
176,168,149026,1,2,0:0:0:0:
176,168,149088,1,2,0:0:0:0:
176,168,149150,1,2,0:0:0:0:
172,24,149274,5,12,3:0:0:0:
400,72,149506,37,2,0:0:0:0:
400,72,149565,1,2,0:0:0:0:
400,72,149623,1,2,0:0:0:0:
448,200,149740,1,2,0:0:0:0:
448,200,149798,1,2,0:0:0:0:
448,200,149856,1,2,0:0:0:0:
408,320,149973,5,12,3:0:0:0:
28,296,150230,37,14,0:0:0:0:
28,296,150257,1,4,0:0:0:0:
184,184,150452,5,2,0:0:0:0:
245,366,150675,1,8,0:0:0:0:
440,280,150897,2,0,L|480:336,1,59.9999976158143,2|0,0:0|0:0,0:0:0:0:
302,80,151120,2,0,L|364:58,1,59.9999976158143
80,168,151342,2,0,L|6:194,1,59.9999976158143,10|0,3:0|0:0,0:0:0:0:
113,299,151565,6,0,P|176:280|184:224,1,119.999995231629,10|0,0:0|0:0,0:0:0:0:
184,184,151899,1,0,0:0:0:0:
224,144,152010,1,0,0:0:0:0:
432,144,152232,2,0,L|375:75,1,59.9999976158143,10|0,3:0|0:0,0:0:0:0:
200,328,152455,1,8,0:0:0:0:
436,327,152678,2,0,L|504:335,1,59.9999976158143,2|0,0:0|0:0,0:0:0:0:
255,171,152900,5,2,1:0:0:0:
64,136,153123,1,8,3:0:0:0:
64,200,153234,1,0,0:0:0:0:
64,264,153345,2,0,L|64:336,1,59.9999976158143,8|0,0:0|0:0,0:0:0:0:
436,327,153568,1,0,0:0:0:0:
434,263,153679,1,0,0:0:0:0:
435,198,153790,37,0,3:0:0:0:
192,24,154014,1,10,3:0:0:0:
435,198,154239,1,10,0:0:0:0:
208,312,154463,1,2,0:0:0:0:
144,296,154576,1,0,0:0:0:0:
124,236,154688,5,2,0:0:0:0:
160,28,154913,2,0,L|96:28,2,59.9999976158143,8|0|8,3:0|0:0|0:0,0:0:0:0:
394,67,155250,1,0,0:0:0:0:
450,107,155362,1,0,0:0:0:0:
474,171,155474,1,0,0:0:0:0:
464,240,155587,6,0,L|376:328,1,119.999995231629,0|10,0:0|3:0,0:0:0:0:
322,356,155924,1,0,0:0:0:0:
283,299,156036,1,8,0:0:0:0:
258,126,156260,2,0,P|270:153|268:183,1,59.9999976158143,2|0,0:0|0:0,0:0:0:0:
110,10,156485,1,0,0:0:0:0:
44,186,156710,2,0,B|36:226|60:250,1,59.9999976158143,10|0,3:0|0:0,0:0:0:0:
227,335,156934,2,0,P|199:353|147:357,1,74.9999970197678,10|0,0:0|0:0,0:0:0:0:
253,10,157159,1,0,0:0:0:0:
320,16,157271,1,0,0:0:0:0:
356,71,157384,37,0,0:0:0:0:
196,306,157608,2,0,L|156:360,1,59.9999976158143,10|0,3:0|0:0,0:0:0:0:
259,184,157833,1,8,0:0:0:0:
403,356,158058,2,0,L|364:308,1,59.9999976158143,2|0,0:0|0:0,0:0:0:0:
259,184,158282,1,0,0:0:0:0:
156,44,158507,2,0,L|84:44,2,59.9999976158143,10|0|10,3:0|0:0|0:0,0:0:0:0:
224,48,158844,1,0,0:0:0:0:
292,64,158956,5,0,0:0:0:0:
348,100,159068,1,0,0:0:0:0:
376,160,159181,1,0,0:0:0:0:
71,218,159405,2,0,L|136:249,1,59.9999976158143,10|0,3:0|0:0,0:0:0:0:
232,294,159630,1,8,0:0:0:0:
488,24,159855,37,14,0:0:0:0:
488,24,159883,2,0,P|479:118|475:136,1,104.999995827675,4|0,0:0|0:0,0:0:0:0:
237,81,160306,6,0,P|236:136|253:204,1,119.999995231629,0|10,0:0|0:0,0:0:0:0:
468,304,160758,1,0,0:0:0:0:
468,304,160871,1,0,0:0:0:0:
468,304,160985,1,2,0:0:0:0:
237,81,161211,1,8,3:0:0:0:
304,352,161437,1,10,0:0:0:0:
64,192,161663,1,0,0:0:0:0:
64,192,161777,1,0,0:0:0:0:
64,192,161890,1,2,0:0:0:0:
436,192,162116,1,8,3:0:0:0:
92,308,162342,1,10,0:0:0:0:
272,112,162569,6,0,B|333:204|221:220|280:352,1,239.999990463257,2|10,0:0|0:0,0:0:0:0:
272,40,163247,1,8,0:0:0:0:
328,40,163361,1,8,0:0:0:0:
384,40,163474,1,10,0:0:0:0:
480,200,163701,6,0,L|408:200,1,59.9999976158143,14|0,1:0|0:0,0:0:0:0:
488,88,163946,2,0,L|424:88,1,59.9999976158143,2|0,0:0|0:0,0:0:0:0:
488,328,164192,2,0,L|424:328,1,59.9999976158143,2|0,0:0|0:0,0:0:0:0:
480,200,164438,2,0,L|408:200,1,59.9999976158143,2|0,0:0|0:0,0:0:0:0:
205,224,164683,37,14,1:0:0:0:
185,177,164806,1,0,0:0:0:0:
197,125,164929,1,2,0:0:0:0:
216,78,165052,1,0,0:0:0:0:
256,48,165175,1,2,0:0:0:0:
304,40,165298,1,0,0:0:0:0:
352,48,165420,1,2,0:0:0:0:
392,80,165543,1,0,0:0:0:0:
416,120,165666,6,0,L|432:184,1,59.9999976158143,14|0,1:0|0:0,0:0:0:0:
184,179,165912,2,0,L|112:179,1,59.9999976158143,2|0,0:0|0:0,0:0:0:0:
288,280,166158,2,0,L|288:344,1,59.9999976158143,2|0,0:0|0:0,0:0:0:0:
392,192,166403,2,0,L|464:192,1,59.9999976158143,2|0,0:0|0:0,0:0:0:0:
83,175,166649,5,14,1:0:0:0:
83,175,166955,2,0,P|136:128|224:160,1,149.999994039536,2|0,0:0|0:0,0:0:0:0:
208,143,168175,1,0,0:0:0:0:
208,143,168860,1,0,0:0:0:0:
208,143,169546,37,2,0:0:0:0:
376,272,169776,1,2,0:0:0:0:
400,80,170006,1,2,0:0:0:0:
232,272,170236,1,2,0:0:0:0:
118,345,170467,6,0,P|130:258|200:205,2,179.999999713898,8|0|10,0:0|0:0|0:0,0:0:0:0:
384,249,171163,1,2,0:0:0:0:
208,72,171395,6,0,P|229:36|336:80,1,179.999999713898,8|8,0:0|3:0,0:0:0:0:
202,277,171859,1,0,0:0:0:0:
448,184,172091,38,0,P|378:169|280:208,1,179.999999713898,8|0,3:0|0:0,0:0:0:0:
457,296,172555,2,0,P|380:339|292:332,1,179.999999713898,8|8,3:0|0:0,0:0:0:0:
362,125,173019,5,0,0:0:0:0:
104,320,173251,1,10,0:0:0:0:
276,48,173483,1,10,3:0:0:0:
472,280,173715,1,2,0:0:0:0:
120,227,173947,5,10,3:0:0:0:
472,280,174179,2,0,P|393:256|296:248,1,179.999999713898,0|10,0:0|3:0,0:0:0:0:
320,352,174643,38,0,P|368:296|400:184,1,179.999999713898,10|2,0:0|0:0,0:0:0:0:
400,136,174991,1,0,0:0:0:0:
399,195,175107,1,0,0:0:0:0:
39,138,175339,1,10,3:0:0:0:
400,136,175571,1,10,0:0:0:0:
115,95,175803,5,2,0:0:0:0:
256,328,176035,1,8,0:0:0:0:
404,76,176267,1,10,3:0:0:0:
128,208,176499,1,0,0:0:0:0:
456,232,176731,1,8,3:0:0:0:
424,280,176847,1,0,0:0:0:0:
384,312,176963,22,0,B|320:328|320:328|228:284,3,155.999986660004,0|0|8|0,0:0|0:0|3:0|0:0,0:0:0:0:
247,218,177425,2,0,B|191:178|191:178|91:168,3,155.999986660004,8|0|0|0,0:0|0:0|0:0|0:0,0:0:0:0:
39,194,177888,2,0,B|3:137|3:137|68:50,3,155.999986660004,8|0|8|0,0:0|0:0|3:0|0:0,0:0:0:0:
127,38,178351,2,0,B|199:38|199:38|279:94,3,155.999986660004,0|0|8|0,0:0|0:0|3:0|0:0,0:0:0:0:
235,152,178814,2,0,B|166:165|166:165|137:278,3,155.999986660004,0|0|8|0,0:0|0:0|3:0|0:0,0:0:0:0:
214,285,179277,2,0,B|254:269|254:269|279:205|279:205|339:203,3,155.999986660004,8|0|0|0,0:0|0:0|0:0|0:0,0:0:0:0:
398,206,179740,2,0,B|376:261|376:261|385:365,3,155.999986660004,8|0|8|0,0:0|0:0|3:0|0:0,0:0:0:0:
320,361,180203,2,0,B|247:371|247:371|161:347,1,155.999986660004,8|0,0:0|0:0,0:0:0:0:
168,282,180435,38,0,L|111:213,1,89.9999998569489,2|0,0:0|0:0,0:0:0:0:
143,109,180666,1,0,0:0:0:0:
138,43,180782,1,0,0:0:0:0:
200,16,180898,1,10,3:0:0:0:
256,48,181013,1,0,0:0:0:0:
320,24,181129,1,10,0:0:0:0:
368,72,181245,1,0,0:0:0:0:
432,80,181361,2,0,P|459:98|480:152,1,89.9999998569489,2|0,0:0|0:0,0:0:0:0:
240,200,181592,6,0,P|208:176|208:128,1,89.9999998569489,2|0,0:0|0:0,0:0:0:0:
360,272,181824,2,0,P|344:304|352:368,1,89.9999998569489,10|0,3:0|0:0,0:0:0:0:
240,200,182055,2,0,P|241:234|208:288,1,89.9999998569489,10|0,0:0|0:0,0:0:0:0:
432,208,182287,1,2,0:0:0:0:
400,168,182402,1,0,0:0:0:0:
368,144,182518,38,0,L|288:144,2,59.9999999046326,2|0|0,0:0|0:0|0:0,0:0:0:0:
288,104,182743,2,0,L|216:88,1,59.9999999046326,10|0,3:0|0:0,0:0:0:0:
184,104,182893,2,0,L|112:112,1,59.9999999046326,0|8,0:0|0:0,0:0:0:0:
112,160,183048,2,0,L|48:184,1,59.9999999046326
56,240,183206,2,0,L|0:288,2,59.9999999046326,2|0|0,0:0|0:0|0:0,0:0:0:0:
88,232,183444,38,0,B|160:224|160:224|247:284,3,155.999986660004,2|0|8|0,0:0|0:0|3:0|0:0,0:0:0:0:
317,247,183904,2,0,B|369:303|369:303|456:303,3,155.999986660004,8|0|0|0,0:0|0:0|0:0|0:0,0:0:0:0:
378,203,184362,2,0,B|444:160|444:160|530:211,3,155.999986660004,8|0|8|0,0:0|0:0|3:0|0:0,0:0:0:0:
504,84,184822,2,0,B|442:37|442:37|371:82,3,155.999986660004,0|0|8|0,0:0|0:0|3:0|0:0,0:0:0:0:
326,143,185281,2,0,B|265:145|265:145|190:87,3,155.999986660004,0|0|8|0,0:0|0:0|3:0|0:0,0:0:0:0:
130,25,185740,2,0,B|115:93|115:93|10:129,3,155.999986660004,8|0|0|0,0:0|0:0|0:0|0:0,0:0:0:0:
4,199,186200,2,0,B|-17:274|-17:274|50:349,1,155.999986660004
115,299,186429,2,0,B|184:312|184:312|298:272,3,155.999986660004,8|0|8|0,3:0|0:0|0:0|0:0,0:0:0:0:
256,208,186889,22,0,P|286:192|360:192,1,89.9999998569489,2|0,0:0|0:0,0:0:0:0:
248,168,187119,2,0,P|304:144|329:103,1,92.9999970140458
258,222,187348,2,0,P|306:214|366:232,1,95.9999961853028,10|0,3:0|0:0,0:0:0:0:
297,68,187578,2,0,P|278:113|240:144,1,98.9999970102311,10|0,0:0|0:0,0:0:0:0:
340,290,187808,2,0,P|308:252|260:241,1,101.99999789238,2|0,0:0|0:0,0:0:0:0:
96,216,188037,5,2,0:0:0:0:
104,176,188152,1,0,0:0:0:0:
112,136,188267,2,0,P|120:80|104:48,1,89.9999998569489,10|0,3:0|0:0,0:0:0:0:
256,224,188497,1,10,0:0:0:0:
240,184,188612,1,0,0:0:0:0:
232,144,188726,2,0,P|232:96|264:48,1,89.9999998569489,2|0,0:0|0:0,0:0:0:0:
404,156,188956,5,2,0:0:0:0:
404,192,189035,1,0,0:0:0:0:
404,228,189115,1,0,0:0:0:0:
400,260,189194,1,10,3:0:0:0:
384,292,189274,1,0,0:0:0:0:
356,316,189353,1,0,0:0:0:0:
320,328,189433,1,8,0:0:0:0:
284,328,189512,1,0,0:0:0:0:
248,328,189592,2,0,L|200:328,1,39.9999984105428,0|2,0:0|0:0,0:0:0:0:
204,240,189751,2,0,L|160:240,1,39.9999984105428
232,144,189910,6,0,B|273:119|273:119|420:121,3,161.999994180679,2|0|8|0,0:0|0:0|3:0|0:0,0:0:0:0:
223,59,190364,2,0,B|175:27|175:27|52:27,3,161.999994180679,8|0|0|0,0:0|0:0|0:0|0:0,0:0:0:0:
64,162,190818,2,0,B|128:202|128:202|247:202,3,161.999994180679,8|0|10|0,0:0|0:0|3:0|0:0,0:0:0:0:
226,303,191272,2,0,B|161:312|161:312|55:382,3,161.999994180679,0|0|10|0,0:0|0:0|3:0|0:0,0:0:0:0:
214,202,191726,2,0,B|254:234|254:234|388:234,3,161.999994180679,0|0|10|0,0:0|0:0|3:0|0:0,0:0:0:0:
149,215,192188,2,0,B|109:239|109:239|46:343,3,161.999994180679,8|0|0|0,0:0|0:0|0:0|0:0,0:0:0:0:
99,354,192650,21,0,0:0:0:0:
133,323,192727,1,0,0:0:0:0:
167,314,192804,1,0,0:0:0:0:
200,331,192882,1,8,3:0:0:0:
233,351,192959,1,0,0:0:0:0:
267,348,193036,1,0,0:0:0:0:
297,322,193113,2,0,B|345:290|345:290|403:238,3,107.999996120453,8|0|0|2,0:0|0:0|0:0|0:0,0:0:0:0:
404,232,193421,1,0,0:0:0:0:
416,200,193498,1,0,0:0:0:0:
411,164,193576,22,0,L|347:164,1,59.9999976158143
111,164,193806,2,0,L|183:164,1,59.9999976158143,10|0,3:0|0:0,0:0:0:0:
171,281,194036,1,10,0:0:0:0:
229,319,194151,1,0,0:0:0:0:
296,324,194266,1,2,0:0:0:0:
367,315,194381,1,0,0:0:0:0:
430,284,194496,37,2,0:0:0:0:
465,217,194611,1,0,0:0:0:0:
440,143,194726,1,8,3:0:0:0:
392,92,194841,1,0,0:0:0:0:
440,44,194956,2,0,L|488:-4,1,59.9999976158143,10|0,0:0|0:0,0:0:0:0:
352,32,195188,37,14,0:0:0:0:
352,32,195217,2,0,L|240:32,1,104.999995827675,4|0,0:0|0:0,0:0:0:0:
207,37,195502,21,0,0:0:0:0:
174,59,195581,1,0,0:0:0:0:
148,81,195659,1,2,0:0:0:0:
133,111,195738,1,0,0:0:0:0:
124,143,195816,1,0,0:0:0:0:
116,171,195895,1,8,0:0:0:0:
474,349,196132,37,14,0:0:0:0:
474,349,196160,1,4,0:0:0:0:
148,81,196592,21,2,0:0:0:0:
159,310,196823,1,2,0:0:0:0:
264,80,197053,1,2,0:0:0:0:
320,336,197284,1,2,0:0:0:0:
400,80,197514,1,2,0:0:0:0:
452,344,197744,1,2,0:0:0:0:
256,224,197976,37,14,0:0:0:0:
256,224,198010,2,0,B|272:272|320:256|344:208|336:168|304:144|248:128|208:136|176:160|152:208|160:240|168:280|200:320|248:352|312:360|360:344|392:288|416:240|408:192|400:144|344:112|304:96|256:88|212:107,1,772.499969303609,4|0,0:0|0:0,0:0:0:0:
128,152,201849,21,2,0:0:0:0:
128,152,201909,1,2,0:0:0:0:
128,152,201969,1,2,0:0:0:0:
162,268,202090,5,2,0:0:0:0:
162,268,202151,1,2,0:0:0:0:
162,268,202211,1,2,0:0:0:0:
281,279,202332,5,12,3:0:0:0:
488,119,202558,1,12,3:0:0:0:
305,41,202785,37,2,0:0:0:0:
305,41,202848,1,2,0:0:0:0:
305,41,202912,1,2,0:0:0:0:
232,176,203039,5,2,0:0:0:0:
232,176,203103,1,2,0:0:0:0:
232,176,203167,1,2,0:0:0:0:
94,268,203294,5,12,3:0:0:0:
38,137,203542,37,0,0:0:0:0:
38,137,203603,1,2,0:0:0:0:
38,137,203665,1,2,0:0:0:0:
110,34,203789,21,2,0:0:0:0:
142,22,203851,1,2,0:0:0:0:
176,16,203912,1,2,0:0:0:0:
208,24,203974,1,0,0:0:0:0:
280,44,204036,53,12,3:0:0:0:
328,56,204098,1,0,0:0:0:0:
352,96,204160,1,0,0:0:0:0:
356,144,204221,1,0,0:0:0:0:
328,180,204283,1,2,0:0:0:0:
284,196,204345,1,2,0:0:0:0:
240,208,204407,1,2,0:0:0:0:
212,240,204469,1,0,0:0:0:0:
208,284,204530,1,2,0:0:0:0:
224,328,204592,1,2,0:0:0:0:
256,360,204654,1,0,0:0:0:0:
300,364,204716,1,0,0:0:0:0:
380,360,204779,5,12,3:0:0:0:
428,332,204852,1,0,0:0:0:0:
448,280,204926,1,0,0:0:0:0:
460,224,205000,1,2,0:0:0:0:
456,164,205074,1,2,0:0:0:0:
440,108,205148,1,0,0:0:0:0:
408,60,205222,1,2,0:0:0:0:
352,36,205296,1,2,0:0:0:0:
292,36,205370,1,2,0:0:0:0:
220,68,205444,37,12,3:0:0:0:
168,92,205518,1,0,0:0:0:0:
112,80,205592,1,0,0:0:0:0:
12,44,205666,5,14,0:0:0:0:
96,292,205895,5,8,3:0:0:0:
40,268,206009,1,12,0:0:0:0:
12,216,206124,1,8,0:0:0:0:
0,160,206238,1,0,0:0:0:0:
5,103,206353,2,0,L|13:31,1,59.9999976158143,12|8,3:0|3:0,0:0:0:0:
136,208,206582,37,12,0:0:0:0:
136,176,206697,1,0,0:0:0:0:
195,212,206811,1,8,3:0:0:0:
192,176,206926,1,8,0:0:0:0:
248,212,207040,1,8,0:0:0:0:
248,176,207155,1,0,0:0:0:0:
304,212,207270,1,8,3:0:0:0:
304,176,207384,1,8,3:0:0:0:
304,140,207499,6,0,L|432:140,1,119.999995231629,12|8,0:0|3:0,0:0:0:0:
468,148,207828,1,12,0:0:0:0:
492,188,207938,1,8,0:0:0:0:
492,236,208048,1,0,0:0:0:0:
484,284,208157,1,12,3:0:0:0:
452,316,208267,1,8,3:0:0:0:
404,324,208376,5,12,0:0:0:0:
356,332,208487,1,0,0:0:0:0:
308,324,208596,1,8,3:0:0:0:
268,300,208707,2,0,L|228:252,1,59.9999976158143,8|8,0:0|0:0,0:0:0:0:
408,96,208926,1,0,0:0:0:0:
400,40,209036,1,8,3:0:0:0:
352,24,209145,1,8,3:0:0:0:
296,40,209257,38,0,L|239:74,1,59.9999976158143,12|0,0:0|0:0,0:0:0:0:
40,208,209483,1,8,3:0:0:0:
48,264,209596,1,12,0:0:0:0:
88,304,209710,2,0,L|160:336,1,59.9999976158143,8|0,0:0|0:0,0:0:0:0:
244,12,209937,1,12,3:0:0:0:
296,40,210051,1,8,3:0:0:0:
352,24,210164,6,0,L|416:40,1,59.9999976158143,12|0,0:0|0:0,0:0:0:0:
480,184,210391,1,8,3:0:0:0:
448,232,210504,1,12,0:0:0:0:
400,256,210618,1,8,0:0:0:0:
344,272,210731,1,0,0:0:0:0:
288,272,210845,2,0,L|216:272,1,59.9999976158143,12|8,3:0|3:0,0:0:0:0:
52,77,211070,5,12,0:0:0:0:
101,40,211179,1,4,0:0:0:0:
160,48,211289,2,0,L|205:92,1,59.9999976158143,12|8,3:0|0:0,0:0:0:0:
336,30,211509,37,8,0:0:0:0:
336,30,211619,1,0,0:0:0:0:
394,57,211729,1,8,3:0:0:0:
394,57,211839,1,8,3:0:0:0:
427,108,211949,1,8,0:0:0:0:
427,108,212053,1,0,0:0:0:0:
430,170,212158,1,8,3:0:0:0:
430,170,212263,1,8,0:0:0:0:
420,229,212368,1,8,0:0:0:0:
420,229,212483,1,0,0:0:0:0:
380,272,212598,1,8,3:0:0:0:
380,272,212714,1,8,3:0:0:0:
336,312,212829,6,4,P|292:342|210:355,1,119.999995231629,12|8,0:0|3:0,0:0:0:0:
172,352,213160,1,12,0:0:0:0:
112,352,213270,1,8,0:0:0:0:
76,304,213381,1,0,0:0:0:0:
56,244,213491,2,4,L|39:169,1,59.9999976158143,12|8,3:0|3:0,0:0:0:0:
104,72,213712,5,12,0:0:0:0:
54,107,213823,1,0,0:0:0:0:
104,72,213933,1,8,3:0:0:0:
110,123,214044,1,8,0:0:0:0:
104,72,214154,1,8,0:0:0:0:
155,81,214265,1,0,0:0:0:0:
104,72,214375,1,8,3:0:0:0:
140,28,214486,1,8,3:0:0:0:
196,26,214596,38,0,P|284:24|336:34,1,119.999995231629,12|8,0:0|3:0,0:0:0:0:
368,45,214928,2,0,L|432:69,1,59.9999976158143,12|8,0:0|0:0,0:0:0:0:
308,328,215150,1,0,0:0:0:0:
244,328,215261,1,12,3:0:0:0:
180,304,215372,1,8,3:0:0:0:
152,240,215482,6,0,L|128:172,1,59.9999976158143,12|0,0:0|0:0,0:0:0:0:
88,44,215704,2,0,L|112:112,1,59.9999976158143,8|8,3:0|0:0,0:0:0:0:
264,164,215926,2,0,L|200:180,1,59.9999976158143,8|0,0:0|0:0,0:0:0:0:
284,16,216148,2,0,L|300:84,1,59.9999976158143,8|8,3:0|3:0,3:0:0:0:
336,356,216369,6,4,P|389:363|460:341,1,119.999995231629,12|8,0:0|3:0,0:0:0:0:
496,292,216702,1,12,0:0:0:0:
512,224,216814,1,8,0:0:0:0:
504,156,216925,1,0,0:0:0:0:
452,112,217036,2,4,L|384:112,1,59.9999976158143,12|8,3:0|3:0,0:0:0:0:
188,151,217259,37,12,0:0:0:0:
143,199,217370,1,0,0:0:0:0:
101,248,217481,2,0,L|53:296,1,59.9999976158143,8|12,3:0|0:0,0:0:0:0:
224,328,217704,2,0,L|296:328,1,59.9999976158143,8|0,0:0|0:0,0:0:0:0:
234,189,217926,2,0,L|186:149,1,59.9999976158143,12|8,3:0|3:0,0:0:0:0:
372,104,218149,6,4,L|432:56,2,59.9999976158143,12|4|12,0:0|0:0|3:0,0:0:0:0:
285,158,218483,2,0,L|225:194,1,59.9999976158143,8|8,0:0|0:0,0:0:0:0:
118,68,218705,1,0,0:0:0:0:
159,26,218817,1,8,3:0:0:0:
216,32,218928,2,0,L|288:40,1,59.9999976158143,8|8,3:0|0:0,0:0:0:0:
424,168,219150,2,0,L|367:206,1,59.9999976158143,0|8,0:0|3:0,0:0:0:0:
176,200,219373,1,8,0:0:0:0:
129,234,219484,1,8,0:0:0:0:
72,224,219596,2,0,P|32:192|32:168,2,59.9999976158143,0|8|8,0:0|3:0|3:0,0:0:0:0:
176,200,219929,5,12,0:0:0:0:
289,327,220152,1,8,3:0:0:0:
343,292,220263,1,12,0:0:0:0:
384,240,220374,1,8,0:0:0:0:
392,176,220486,1,0,0:0:0:0:
400,112,220597,2,0,L|464:80,2,59.9999976158143,12|8|12,3:0|3:0|0:0,0:0:0:0:
40,88,221042,38,0,L|104:88,1,59.9999976158143,10|8,3:0|0:0,0:0:0:0:
234,173,221265,2,0,L|174:173,1,59.9999976158143,10|0,0:0|0:0,0:0:0:0:
268,52,221487,1,0,0:0:0:0:
364,60,221598,37,0,0:0:0:0:
364,60,221654,1,0,0:0:0:0:
364,60,221709,1,14,0:0:0:0:
140,324,221928,21,8,3:0:0:0:
196,280,222037,1,14,0:0:0:0:
252,326,222147,2,0,L|316:326,1,59.9999976158143,8|0,0:0|0:0,0:0:0:0:
212,116,222366,2,0,L|140:116,1,59.9999976158143,14|8,3:0|3:0,0:0:0:0:
60,312,222585,2,0,L|20:256,1,59.9999976158143,12|0,0:0|0:0,0:0:0:0:
336,336,222805,5,10,3:0:0:0:
400,336,222914,1,8,0:0:0:0:
404,264,223024,2,0,L|452:208,2,59.9999976158143,10|0|10,0:0|0:0|3:0,0:0:0:0:
336,264,223353,2,0,L|288:212,1,59.9999976158143,8|14,3:0|0:0,0:0:0:0:
64,128,223681,5,8,3:0:0:0:
78,63,223790,1,14,0:0:0:0:
128,104,223900,1,8,0:0:0:0:
139,37,224009,1,0,0:0:0:0:
192,80,224119,1,14,3:0:0:0:
206,17,224228,1,8,3:0:0:0:
256,64,224338,37,12,0:0:0:0:
104,328,224557,1,8,3:0:0:0:
56,280,224666,1,14,0:0:0:0:
104,232,224776,1,8,0:0:0:0:
256,64,224995,1,14,3:0:0:0:
328,53,225104,1,8,3:0:0:0:
392,84,225214,6,0,L|448:124,1,59.9999976158143,14|4,0:0|0:0,0:0:0:0:
398,325,225433,1,12,3:0:0:0:
357,264,225542,1,12,0:0:0:0:
311,322,225652,1,8,0:0:0:0:
262,267,225761,1,0,0:0:0:0:
199,313,225871,1,8,3:0:0:0:
186,235,225980,1,8,3:0:0:0:
86,274,226091,5,8,0:0:0:0:
55,200,226193,1,0,0:0:0:0:
66,124,226295,1,0,0:0:0:0:
138,92,226397,1,0,0:0:0:0:
198,40,226499,1,0,0:0:0:0:
260,86,226610,1,0,0:0:0:0:
317,36,226722,1,0,0:0:0:0:
371,91,226833,1,0,0:0:0:0:
512,16,226945,37,14,0:0:0:0:
120,250,227166,1,8,3:0:0:0:
186,225,227277,1,12,0:0:0:0:
192,296,227386,2,0,P|224:344|288:336,1,119.999995231629,8|12,0:0|3:0,0:0:0:0:
344,296,227717,1,8,3:0:0:0:
332,216,227828,6,0,L|260:216,1,59.9999976158143,12|0,0:0|0:0,0:0:0:0:
48,216,228048,1,10,3:0:0:0:
16,151,228159,1,8,0:0:0:0:
76,115,228269,1,10,0:0:0:0:
89,42,228379,1,0,0:0:0:0:
162,64,228490,1,10,3:0:0:0:
219,10,228600,1,8,3:0:0:0:
292,45,228711,5,14,0:0:0:0:
483,125,228931,1,8,3:0:0:0:
511,211,229042,1,14,0:0:0:0:
468,282,229152,2,0,B|452:314|428:330,1,59.9999976158143,8|0,0:0|0:0,0:0:0:0:
229,270,229373,2,0,L|164:296,1,59.9999976158143,10|8,3:0|3:0,0:0:0:0:
257,76,229594,38,0,P|200:104|174:156,1,119.999995231629,12|10,0:0|3:0,0:0:0:0:
181,226,229925,1,8,0:0:0:0:
174,293,230035,2,0,P|138:344|80:324,1,119.999995231629,10|14,0:0|3:0,0:0:0:0:
16,307,230366,1,8,3:0:0:0:
0,228,230477,6,0,P|8:148|48:116,1,119.999995231629,14|8,0:0|3:0,0:0:0:0:
108,81,230810,1,14,0:0:0:0:
191,116,230921,1,8,0:0:0:0:
259,68,231033,1,0,0:0:0:0:
312,136,231144,2,0,P|310:163|280:192,1,59.9999976158143,14|8,3:0|3:0,0:0:0:0:
168,164,231366,6,0,P|176:188|216:204,1,59.9999976158143,12|0,0:0|0:0,0:0:0:0:
259,68,231589,1,10,3:0:0:0:
336,42,231700,1,12,0:0:0:0:
412,80,231811,2,0,L|476:128,1,59.9999976158143,8|2,0:0|0:0,0:0:0:0:
419,307,232033,2,0,L|358:350,1,59.9999976158143,12|8,3:0|3:0,0:0:0:0:
282,158,232256,37,14,0:0:0:0:
382,131,232363,1,0,0:0:0:0:
447,189,232471,2,0,L|521:188,1,59.9999976158143,8|8,3:0|0:0,0:0:0:0:
392,178,232687,1,8,0:0:0:0:
333,194,232795,1,0,0:0:0:0:
294,270,232903,1,0,0:0:0:0:
403,236,233011,1,0,0:0:0:0:
274,216,233119,1,8,0:0:0:0:
358,279,233233,1,0,0:0:0:0:
247,320,233347,37,0,0:0:0:0:
247,320,233404,1,0,0:0:0:0:
247,320,233462,1,0,0:0:0:0:
171,333,233576,37,8,0:0:0:0:
104,288,233690,2,0,L|40:304,2,59.9999976158143
160,216,234035,54,0,L|175:148,1,59.9999976158143,14|0,0:0|0:0,0:0:0:0:
194,59,234257,1,8,3:0:0:0:
252,22,234368,1,12,0:0:0:0:
304,64,234479,2,4,P|336:56|376:72,2,59.9999976158143,8|0|12,0:0|0:0|3:0,0:0:0:0:
246,107,234812,1,8,3:0:0:0:
194,59,234923,5,12,0:0:0:0:
91,195,235145,2,0,L|43:241,1,59.9999976158143,10|8,3:0|0:0,0:0:0:0:
214,341,235367,2,0,B|162:309,1,59.9999976158143,10|0,0:0|0:0,0:0:0:0:
280,192,235589,2,0,L|340:229,1,59.9999976158143,10|8,3:0|3:0,0:0:0:0:
368,72,235811,5,14,0:0:0:0:
491,151,236033,1,8,3:0:0:0:
467,226,236144,1,14,0:0:0:0:
421,287,236255,1,8,0:0:0:0:
96,168,236477,1,14,3:0:0:0:
74,235,236588,1,8,3:0:0:0:
135,286,236699,38,0,L|246:349,1,119.999995231629,12|10,0:0|3:0,0:0:0:0:
310,364,237032,1,8,0:0:0:0:
338,298,237143,2,0,L|408:189,1,119.999995231629,10|10,0:0|3:0,0:0:0:0:
446,117,237476,1,8,3:0:0:0:
455,37,237587,5,14,0:0:0:0:
367,2,237698,1,0,0:0:0:0:
280,7,237809,1,8,3:0:0:0:
209,52,237921,1,14,0:0:0:0:
149,115,238032,2,0,L|104:162,3,59.9999976158143,8|0|14|0,0:0|0:0|3:0|0:0,0:0:0:0:
73,220,238476,6,0,P|57:276|113:316,1,119.999995231629,14|14,0:0|3:0,0:0:0:0:
216,313,238809,2,0,L|257:258,1,59.9999976158143,8|8,0:0|0:0,0:0:0:0:
328,152,239031,1,2,0:0:0:0:
328,152,239142,2,0,L|400:152,2,59.9999976158143,12|8|14,3:0|3:0|0:0,0:0:0:0:
460,159,239587,37,12,3:0:0:0:
409,210,239698,2,0,L|357:245,1,59.9999976158143,8|8,0:0|0:0,0:0:0:0:
217,177,239920,2,0,L|149:177,1,59.9999976158143,0|8,0:0|3:0,0:0:0:0:
484,90,240141,1,8,3:0:0:0:
392,88,240253,2,0,L|328:116,2,59.9999976158143,8|0|0,0:0|0:0|0:0,0:0:0:0:
463,155,240585,5,8,0:0:0:0:
328,292,240696,2,0,L|328:360,1,59.9999976158143,8|0,0:0|0:0,0:0:0:0:
71,72,240918,5,0,0:0:0:0:
176,48,241029,1,0,0:0:0:0:
278,52,241140,38,0,B|356:57|404:97,1,119.999995231629,10|8,0:0|3:0,0:0:0:0:
424,108,241473,1,8,0:0:0:0:
395,159,241585,1,8,0:0:0:0:
448,160,241696,1,0,0:0:0:0:
417,208,241807,2,0,L|401:272,1,59.9999976158143,8|8,3:0|3:0,0:0:0:0:
264,192,242030,5,8,0:0:0:0:
328,352,242252,2,0,L|258:352,1,59.9999976158143,10|8,3:0|0:0,0:0:0:0:
264,192,242475,2,0,L|192:192,1,59.9999976158143,8|2,0:0|0:0,0:0:0:0:
208,352,242697,2,0,L|144:352,1,59.9999976158143,8|8,3:0|3:0,0:0:0:0:
64,48,242920,6,0,B|112:88|112:88|176:72,1,119.999995231629,10|8,0:0|3:0,0:0:0:0:
234,23,243254,2,0,L|314:23,1,59.9999976158143,8|8,0:0|0:0,0:0:0:0:
294,174,243588,2,0,L|294:242,1,59.9999976158143,8|8,3:0|3:0,0:0:0:0:
450,124,243810,37,8,0:0:0:0:
486,179,243922,1,0,0:0:0:0:
469,240,244033,2,0,L|399:271,1,59.9999976158143,10|8,3:0|0:0,0:0:0:0:
256,336,244255,2,0,L|200:312,1,59.9999976158143,8|2,0:0|0:0,0:0:0:0:
196,88,244478,2,0,L|244:48,1,59.9999976158143,8|8,3:0|3:0,0:0:0:0:
224,192,244701,6,0,B|264:152|304:208|344:160,1,119.999995231629,10|8,0:0|3:0,0:0:0:0:
380,113,245040,1,8,0:0:0:0:
336,168,245154,1,8,0:0:0:0:
380,113,245267,1,0,0:0:0:0:
450,124,245380,1,10,3:0:0:0:
460,196,245494,6,0,L|408:240,1,59.9999976158143,8|8,3:0|0:0,0:0:0:0:
316,305,245720,1,0,0:0:0:0:
189,277,245834,2,0,L|133:309,1,59.9999976158143,8|8,3:0|0:0,0:0:0:0:
194,167,246060,1,10,0:0:0:0:
163,44,246174,2,0,L|107:12,2,59.9999976158143,0|8|8,0:0|3:0|3:0,0:0:0:0:
252,70,246514,38,0,L|315:70,1,59.9999976158143,8|0,0:0|0:0,0:0:0:0:
409,190,246740,2,0,L|476:189,2,59.9999976158143,10|8|8,3:0|0:0|0:0,0:0:0:0:
256,272,247080,2,0,L|320:272,1,59.9999976158143,0|8,0:0|3:0,0:0:0:0:
407,107,247307,1,8,3:0:0:0:
409,190,247420,6,0,L|479:206,1,59.9999976158143,10|0,0:0|0:0,0:0:0:0:
201,132,247647,1,8,3:0:0:0:
157,167,247760,1,8,0:0:0:0:
137,223,247874,1,10,0:0:0:0:
178,273,247987,1,0,0:0:0:0:
239,271,248100,1,8,3:0:0:0:
288,224,248214,1,8,3:0:0:0:
319,156,248327,5,10,0:0:0:0:
395,163,248438,1,0,0:0:0:0:
429,229,248550,1,8,3:0:0:0:
411,299,248662,1,8,0:0:0:0:
350,337,248774,1,8,0:0:0:0:
279,322,248886,1,0,0:0:0:0:
239,271,248998,2,0,L|175:271,1,59.9999976158143,8|8,3:0|3:0,0:0:0:0:
288,90,249222,37,8,0:0:0:0:
220,37,249334,1,0,0:0:0:0:
163,112,249446,2,0,L|106:128,1,59.9999976158143,10|8,3:0|0:0,0:0:0:0:
360,47,249669,1,8,0:0:0:0:
419,77,249781,1,2,0:0:0:0:
449,136,249893,2,0,L|465:216,1,59.9999976158143,8|8,3:0|3:0,0:0:0:0:
136,200,250117,6,0,P|80:232|48:288,1,119.999995231629,10|8,0:0|3:0,0:0:0:0:
30,346,250453,1,8,0:0:0:0:
92,374,250565,2,0,L|166:374,1,59.9999976158143,8|0,0:0|0:0,0:0:0:0:
396,301,250788,2,0,L|461:325,2,59.9999976158143,8|8|8,3:0|3:0|0:0,0:0:0:0:
322,274,251124,1,0,0:0:0:0:
252,244,251236,2,0,L|188:220,1,59.9999976158143,10|8,3:0|0:0,0:0:0:0:
4,125,251460,1,8,0:0:0:0:
72,96,251572,2,0,L|128:72,1,59.9999976158143,2|8,0:0|3:0,0:0:0:0:
260,99,251796,6,0,L|324:99,1,59.9999976158143,8|10,3:0|0:0,0:0:0:0:
479,125,252131,1,8,3:0:0:0:
480,192,252243,2,0,L|456:256,2,59.9999976158143,8|8|0,0:0|0:0|0:0,0:0:0:0:
424,160,252579,2,0,L|364:211,1,59.9999976158143,10|8,3:0|3:0,0:0:0:0:
392,104,252803,38,0,P|328:136|320:191,1,119.999995231629,8|8,0:0|3:0,0:0:0:0:
320,256,253138,1,8,0:0:0:0:
368,304,253250,2,0,L|432:312,1,59.9999976158143,10|0,0:0|0:0,0:0:0:0:
248,336,253474,5,8,3:0:0:0:
200,288,253586,2,0,L|216:224,1,59.9999976158143,8|8,3:0|0:0,0:0:0:0:
264,40,253810,1,0,0:0:0:0:
320,88,253922,1,10,3:0:0:0:
376,40,254034,1,0,0:0:0:0:
436,88,254146,5,8,0:0:0:0:
468,108,254220,1,0,0:0:0:0:
488,140,254295,1,0,0:0:0:0:
496,176,254369,1,0,0:0:0:0:
500,212,254444,2,0,L|500:264,3,39.9999984105428,0|0|10|0,0:0|0:0|0:0|0:0,0:0:0:0:
464,320,254742,2,0,L|440:360,1,39.9999984105428
356,280,254892,2,0,L|388:244,1,39.9999984105428,0|0,0:0|0:0,0:0:0:0:
304,168,255041,2,0,L|272:204,1,39.9999984105428,10|0,0:0|0:0,0:0:0:0:
272,72,255190,1,0,0:0:0:0:
236,51,255265,1,0,0:0:0:0:
194,43,255339,1,0,0:0:0:0:
155,60,255414,1,0,0:0:0:0:
132,96,255489,38,0,P|106:144|100:208,1,119.999995231629,14|8,0:0|3:0,0:0:0:0:
112,280,255826,1,8,0:0:0:0:
180,308,255938,1,8,0:0:0:0:
379,80,256163,1,8,3:0:0:0:
440,124,256276,1,8,3:0:0:0:
431,199,256388,5,8,0:0:0:0:
256,288,256613,2,0,L|256:352,1,59.9999976158143,10|8,3:0|0:0,0:0:0:0:
120,192,256838,2,0,L|48:192,1,59.9999976158143,10|0,0:0|0:0,0:0:0:0:
256,88,257063,2,0,L|256:12,1,59.9999976158143,10|8,3:0|3:0,0:0:0:0:
416,208,257288,6,0,P|466:158|441:129,1,119.999995231629,10|10,0:0|3:0,0:0:0:0:
391,95,257625,1,10,0:0:0:0:
316,88,257737,2,0,L|252:88,1,59.9999976158143,8|0,0:0|0:0,0:0:0:0:
256,256,257962,2,0,L|324:256,1,59.9999976158143,10|8,3:0|3:0,0:0:0:0:
120,96,258187,38,0,L|48:96,1,59.9999976158143,8|0,0:0|0:0,0:0:0:0:
256,256,258412,2,0,L|189:288,1,59.9999976158143,10|8,3:0|0:0,0:0:0:0:
392,292,258637,2,0,L|464:308,1,59.9999976158143,10|0,0:0|0:0,0:0:0:0:
340,164,258862,2,0,L|352:96,1,59.9999976158143,10|8,3:0|3:0,0:0:0:0:
178,129,259088,6,0,B|128:176|128:176|128:240,1,119.999995231629,10|10,0:0|3:0,0:0:0:0:
128,288,259428,2,0,L|128:352,1,59.9999976158143,10|8,0:0|0:0,0:0:0:0:
356,216,259655,1,0,0:0:0:0:
302,240,259769,2,0,L|238:264,1,59.9999976158143,10|8,3:0|3:0,0:0:0:0:
128,348,259996,6,0,L|264:348,1,119.999995231629,8|10,0:0|3:0,0:0:0:0:
356,216,260337,2,8,L|356:144,1,59.9999976158143
216,72,260564,2,0,B|281:38,1,59.9999976158143,2|8,0:0|3:0,0:0:0:0:
256,182,260791,1,8,3:0:0:0:
137,146,260905,38,0,L|70:145,1,59.9999976158143,10|0,0:0|0:0,0:0:0:0:
132,252,261132,2,0,B|98:320,1,59.9999976158143,14|8,3:0|0:0,0:0:0:0:
81,30,261359,2,0,L|124:84,1,59.9999976158143,8|0,0:0|0:0,0:0:0:0:
255,268,261586,1,8,3:0:0:0:
256,182,261700,2,0,L|256:106,1,59.9999976158143,8|14,3:0|0:0,0:0:0:0:
445,148,261927,1,0,0:0:0:0:
448,224,262040,6,0,L|488:208,1,39.9999984105428
501,269,262192,2,0,L|440:294,1,39.9999984105428,0|14,0:0|0:0,0:0:0:0:
376,320,262343,1,0,0:0:0:0:
344,328,262419,1,0,0:0:0:0:
312,336,262495,1,0,0:0:0:0:
280,336,262570,1,0,0:0:0:0:
248,336,262646,1,0,0:0:0:0:
216,336,262722,6,0,L|156:336,1,59.9999976158143,14|0,0:0|0:0,0:0:0:0:
40,171,262946,1,8,3:0:0:0:
36,125,263058,1,8,0:0:0:0:
56,80,263171,2,0,P|113:46|168:56,1,119.999995231629,8|8,0:0|3:0,0:0:0:0:
200,78,263507,1,8,3:0:0:0:
232,111,263620,37,8,0:0:0:0:
60,224,263732,1,0,0:0:0:0:
100,264,263844,2,0,L|166:298,1,59.9999976158143,10|8,3:0|0:0,0:0:0:0:
340,291,264069,2,0,L|395:240,1,59.9999976158143,10|0,0:0|0:0,0:0:0:0:
278,73,264293,2,0,L|219:121,1,59.9999976158143,10|8,3:0|3:0,0:0:0:0:
213,291,264518,6,0,L|136:291,1,59.9999976158143,10|0,0:0|0:0,0:0:0:0:
33,164,264742,1,8,3:0:0:0:
17,107,264855,1,10,0:0:0:0:
65,74,264967,2,0,L|134:74,1,59.9999976158143
275,150,265191,1,10,3:0:0:0:
300,205,265304,1,8,3:0:0:0:
248,235,265416,6,0,L|248:303,1,59.9999976158143,8|0,0:0|0:0,0:0:0:0:
243,37,265640,2,0,L|307:37,1,59.9999976158143,10|8,3:0|0:0,0:0:0:0:
80,194,265865,2,0,L|7:194,1,59.9999976158143,10|0,0:0|0:0,0:0:0:0:
423,186,266090,2,0,L|487:186,1,59.9999976158143,10|8,3:0|3:0,0:0:0:0:
248,362,266316,38,0,L|248:292,1,59.9999976158143,10|0,0:0|0:0,0:0:0:0:
248,80,266548,1,8,3:0:0:0:
248,16,266663,1,10,0:0:0:0:
248,80,266780,2,0,L|317:79,1,59.9999976158143,8|0,0:0|0:0,0:0:0:0:
48,208,267011,5,10,3:0:0:0:
48,168,267089,1,0,0:0:0:0:
56,128,267167,1,0,0:0:0:0:
88,104,267243,1,8,0:0:0:0:
128,104,267322,1,0,0:0:0:0:
160,128,267399,1,0,0:0:0:0:
168,168,267476,1,2,0:0:0:0:
168,208,267554,1,0,0:0:0:0:
168,248,267631,2,0,L|168:296,1,39.9999984105428,0|8,0:0|0:0,0:0:0:0:
320,304,267825,5,2,0:0:0:0:
388,336,267941,1,8,3:0:0:0:
452,300,268057,1,8,0:0:0:0:
440,224,268173,2,0,L|440:154,1,59.9999976158143,10|0,0:0|0:0,0:0:0:0:
376,36,268382,54,0,L|376:97,1,59.9999976158143,14|8,3:0|0:0,0:0:0:0:
228,168,268591,2,0,L|161:168,1,59.9999976158143,8|0,0:0|0:0,0:0:0:0:
446,226,268801,2,0,L|519:224,2,59.9999976158143,8|8|14,3:0|3:0|0:0,0:0:0:0:
329,197,269219,53,0,0:0:0:0:
233,304,269324,1,0,0:0:0:0:
104,200,269455,21,14,0:0:0:0:
348,360,269664,53,0,0:0:0:0:
232,292,269769,1,0,0:0:0:0:
328,180,269875,1,14,0:0:0:0:
277,33,270098,5,8,3:0:0:0:
339,53,270210,1,8,0:0:0:0:
277,33,270322,2,0,B|215:17|215:17|143:33,1,119.999995231629,8|8,0:0|3:0,0:0:0:0:
106,60,270658,1,8,3:0:0:0:
88,120,270770,37,8,0:0:0:0:
165,173,270882,1,0,0:0:0:0:
256,192,270994,2,0,L|328:192,1,59.9999976158143,10|8,3:0|0:0,0:0:0:0:
317,374,271218,2,0,L|253:374,1,59.9999976158143,10|0,0:0|0:0,0:0:0:0:
134,282,271442,2,0,L|62:282,1,59.9999976158143,10|8,3:0|3:0,0:0:0:0:
417,120,271666,5,10,0:0:0:0:
316,192,271741,1,0,0:0:0:0:
184,144,271890,2,0,L|120:120,1,59.9999976158143,10|8,3:0|0:0,0:0:0:0:
222,24,272114,2,0,L|291:24,1,59.9999976158143,8|0,0:0|0:0,0:0:0:0:
326,145,272338,2,0,L|390:129,1,59.9999976158143,10|8,3:0|3:0,0:0:0:0:
180,176,272562,6,0,L|108:192,2,59.9999976158143,8|0|10,0:0|0:0|3:0,0:0:0:0:
261,186,272898,1,8,0:0:0:0:
332,178,273010,2,0,L|407:191,1,59.9999976158143,10|0,0:0|0:0,0:0:0:0:
299,276,273234,2,0,L|227:276,1,59.9999976158143,10|8,3:0|3:0,0:0:0:0:
296,40,273458,53,10,0:0:0:0:
440,192,273682,1,8,3:0:0:0:
440,256,273794,2,0,L|440:328,1,59.9999976158143,8|8,0:0|0:0,0:0:0:0:
92,292,274130,53,2,0:0:0:0:
68,264,274204,1,0,0:0:0:0:
56,228,274279,1,0,0:0:0:0:
56,192,274354,1,8,0:0:0:0:
64,156,274428,1,0,0:0:0:0:
80,120,274503,1,0,0:0:0:0:
108,96,274578,1,2,0:0:0:0:
144,80,274652,1,0,0:0:0:0:
180,80,274727,1,0,0:0:0:0:
216,80,274802,2,0,L|288:80,1,59.9999976158143,8|2,0:0|0:0,0:0:0:0:
188,300,275026,2,0,L|124:300,1,59.9999976158143,8|8,3:0|3:0,0:0:0:0:
280,304,275250,5,10,0:0:0:0:
276,80,275474,2,0,L|340:80,1,59.9999976158143,12|8,3:0|0:0,0:0:0:0:
452,172,275698,2,0,P|452:236|404:276,1,119.999995231629,10|8,0:0|3:0,0:0:0:0:
384,204,276034,1,8,3:0:0:0:
336,264,276145,5,14,0:0:0:0:
316,296,276220,1,4,0:0:0:0:
280,304,276295,1,4,0:0:0:0:
244,296,276369,1,12,3:0:0:0:
216,268,276444,1,0,0:0:0:0:
216,232,276519,1,4,0:0:0:0:
240,204,276594,37,14,0:0:0:0:
228,132,276706,1,0,0:0:0:0:
164,96,276818,1,8,3:0:0:0:
100,124,276930,1,8,3:0:0:0:
88,192,277042,6,0,L|88:264,1,59.9999976158143,14|0,0:0|0:0,0:0:0:0:
282,156,277267,2,0,L|217:127,1,59.9999976158143,10|8,3:0|0:0,0:0:0:0:
464,256,277493,1,10,0:0:0:0:
400,256,277606,2,0,L|328:256,1,59.9999976158143,0|10,0:0|3:0,0:0:0:0:
282,156,277832,1,8,3:0:0:0:
227,131,277945,6,0,P|164:108|108:140,1,119.999995231629,10|8,0:0|3:0,0:0:0:0:
88,192,278284,1,8,0:0:0:0:
104,264,278397,2,0,P|140:288|168:292,1,59.9999976158143,8|0,0:0|0:0,0:0:0:0:
228,308,278623,1,8,3:0:0:0:
296,320,278736,1,8,3:0:0:0:
364,304,278848,37,8,0:0:0:0:
428,276,278961,1,0,0:0:0:0:
472,220,279074,1,8,3:0:0:0:
488,152,279187,1,8,0:0:0:0:
476,84,279300,2,0,L|404:84,1,59.9999976158143,10|0,0:0|0:0,0:0:0:0:
365,116,279526,2,0,L|420:80,1,59.9999976158143,10|8,3:0|3:0,0:0:0:0:
276,64,279752,6,0,L|332:28,2,59.9999976158143,10|0|8,0:0|0:0|3:0,0:0:0:0:
224,108,280091,1,8,0:0:0:0:
204,176,280204,5,8,0:0:0:0:
204,216,280279,1,0,0:0:0:0:
212,256,280354,1,0,0:0:0:0:
240,288,280430,1,0,0:0:0:0:
276,304,280505,1,0,0:0:0:0:
316,312,280580,1,0,0:0:0:0:
352,312,280655,38,0,L|424:312,1,59.9999976158143,10|0,0:0|0:0,0:0:0:0:
408,132,280878,2,0,L|408:68,1,59.9999976158143,10|8,3:0|0:0,0:0:0:0:
204,176,281102,1,10,0:0:0:0:
136,160,281214,1,0,0:0:0:0:
72,188,281326,2,0,L|16:236,1,59.9999976158143,10|8,3:0|3:0,0:0:0:0:
256,24,281550,6,0,B|256:88,1,59.9999976158143,10|0,0:0|0:0,0:0:0:0:
400,176,281774,1,8,3:0:0:0:
392,232,281886,1,8,0:0:0:0:
374,276,281998,2,0,P|360:296|320:304,1,59.9999976158143,8|0,0:0|0:0,0:0:0:0:
136,160,282222,1,8,3:0:0:0:
136,216,282334,1,8,3:0:0:0:
148,272,282446,5,8,0:0:0:0:
200,296,282557,1,0,0:0:0:0:
256,280,282669,1,14,3:0:0:0:
272,224,282781,1,8,0:0:0:0:
272,164,282893,1,8,0:0:0:0:
256,108,283005,1,0,0:0:0:0:
200,96,283117,2,0,L|136:96,1,59.9999976158143,10|8,3:0|3:0,0:0:0:0:
364,96,283341,37,12,0:0:0:0:
364,132,283416,1,12,0:0:0:0:
364,168,283490,1,12,0:0:0:0:
364,204,283565,1,14,0:0:0:0:
364,240,283640,1,8,0:0:0:0:
384,272,283714,1,12,0:0:0:0:
416,284,283789,1,14,0:0:0:0:
452,276,283863,1,0,0:0:0:0:
476,248,283938,1,0,0:0:0:0:
480,208,284013,1,0,0:0:0:0:
480,172,284087,1,0,0:0:0:0:
480,136,284162,1,0,0:0:0:0:
480,96,284237,5,14,0:0:0:0:
300,40,284462,2,0,L|376:40,2,59.9999976158143,10|8|10,3:0|0:0|0:0,0:0:0:0:
240,80,284800,1,0,0:0:0:0:
180,40,284912,2,0,L|112:40,1,59.9999976158143,10|8,3:0|3:0,0:0:0:0:
184,124,285137,5,10,0:0:0:0:
164,188,285250,1,0,0:0:0:0:
180,256,285363,1,8,3:0:0:0:
232,300,285475,2,0,L|304:300,1,59.9999976158143,8|8,0:0|0:0,0:0:0:0:
443,217,285700,2,0,L|396:168,1,59.9999976158143,0|8,0:0|3:0,0:0:0:0:
249,13,285926,1,8,3:0:0:0:
248,72,286038,38,0,L|176:72,1,59.9999976158143,8|0,0:0|0:0,0:0:0:0:
248,128,286261,1,8,3:0:0:0:
248,184,286373,1,8,0:0:0:0:
248,240,286485,2,0,L|312:240,3,59.9999976158143,10|0|10|8,0:0|0:0|3:0|3:0,0:0:0:0:
368,240,286933,5,8,0:0:0:0:
408,288,287045,1,0,0:0:0:0:
384,344,287157,1,8,3:0:0:0:
328,360,287269,1,8,0:0:0:0:
264,368,287381,1,8,0:0:0:0:
208,344,287493,2,0,L|144:368,1,59.9999976158143,0|8,0:0|3:0,0:0:0:0:
184,168,287717,2,0,L|124:188,1,59.9999976158143,8|12,3:0|0:0,0:0:0:0:
24,256,287941,5,0,0:0:0:0:
112,112,288054,2,0,L|72:56,1,59.9999976158143,10|8,3:0|0:0,0:0:0:0:
280,144,288279,2,0,L|352:112,2,59.9999976158143,10|0|14,0:0|0:0|3:0,0:1:0:0:
199,261,288617,2,0,L|135:285,2,59.9999976158143,8|10|0,3:0|0:0|0:0,0:0:0:0:
391,179,288955,2,0,L|459:152,1,59.9999976158143,8|8,3:0|0:0,0:0:0:0:
280,144,289180,38,0,L|280:80,2,59.9999976158143,12|0|8,0:0|0:0|3:0,0:0:0:0:
199,261,289518,2,0,L|137:240,1,59.9999976158143,8|8,3:0|0:0,0:0:0:0:
437,274,289744,1,0,0:0:0:0:
448,201,289856,6,0,L|384:177,1,59.9999976158143,14|8,3:0|0:0,0:0:0:0:
288,360,290082,2,0,L|225:336,1,59.9999976158143,8|0,0:0|0:0,0:0:0:0:
56,280,290307,2,0,L|120:296,3,59.9999976158143,10|8|12|0,3:0|3:0|0:0|0:0,0:0:0:0:
168,216,290758,2,0,L|139:147,1,59.9999976158143,10|8,3:0|0:0,0:0:0:0:
496,348,290983,37,14,0:0:0:0:
496,348,291008,1,4,0:0:0:0:
464,24,291396,5,0,0:0:0:0:
432,16,291465,1,0,0:0:0:0:
392,16,291534,1,0,0:0:0:0:
344,16,291603,1,0,0:0:0:0:
304,16,291672,1,0,0:0:0:0:
264,16,291741,1,0,0:0:0:0:
224,24,291810,1,0,0:0:0:0:
184,40,291879,1,0,0:0:0:0:
152,64,291948,1,0,0:0:0:0:
128,96,292017,1,0,0:0:0:0:
120,136,292086,1,0,0:0:0:0:
112,176,292155,1,0,0:0:0:0:
112,216,292224,1,0,0:0:0:0:
128,256,292293,1,0,0:0:0:0:
152,288,292362,1,0,0:0:0:0:
192,296,292431,1,0,0:0:0:0:
232,280,292500,1,0,0:0:0:0:
264,256,292568,1,0,0:0:0:0:
288,224,292637,5,0,0:0:0:0:
304,184,292701,1,0,0:0:0:0:
312,144,292766,1,0,0:0:0:0:
320,104,292831,1,0,0:0:0:0:
344,72,292896,1,0,0:0:0:0:
384,64,292963,1,0,0:0:0:0:
424,72,293028,1,0,0:0:0:0:
456,96,293093,1,0,0:0:0:0:
472,136,293158,1,0,0:0:0:0:
472,176,293223,1,0,0:0:0:0:
472,216,293289,1,0,0:0:0:0:
464,256,293354,1,0,0:0:0:0:
440,288,293419,1,0,0:0:0:0:
408,312,293484,1,0,0:0:0:0:
368,320,293549,1,0,0:0:0:0:
328,328,293615,1,0,0:0:0:0:
288,328,293680,1,0,0:0:0:0:
248,320,293745,1,0,0:0:0:0:
208,304,293810,1,0,0:0:0:0:
176,280,293919,5,0,0:0:0:0:
128,312,294028,1,0,0:0:0:0:
71,300,294137,38,0,L|36:337,1,39.9999984105428
49,236,294283,1,0,0:0:0:0:
50,172,294393,6,0,L|2:153,1,39.9999984105428
95,107,294538,2,0,L|53:72,1,39.9999984105428
164,65,294721,6,0,L|127:31,1,39.9999984105428
256,48,294903,37,0,0:0:0:0:
304,48,294976,2,0,L|336:16,1,39.9999984105428
344,80,295121,5,0,0:0:0:0:
384,120,295206,2,0,L|424:96,1,39.9999984105428
416,160,295376,5,0,0:0:0:0:
440,208,295461,2,0,L|488:208,1,39.9999984105428
416,256,295631,37,0,0:0:0:0:
408,312,295699,2,0,L|446:346,2,39.9999984105428
352,328,295908,5,0,0:0:0:0:
304,336,295978,2,0,L|296:296,3,39.9999984105428
248,352,296257,5,0,0:0:0:0:
192,336,296354,2,0,L|152:352,3,39.9999984105428
176,280,296647,37,0,0:0:0:0:
128,248,296731,2,0,L|72:256,4,39.9999984105428
151,195,297155,5,0,0:0:0:0:
175,146,297239,5,0,0:0:0:0:
200,128,297324,1,0,0:0:0:0:
228,120,297408,1,0,0:0:0:0:
260,120,297493,1,0,0:0:0:0:
288,128,297577,1,0,0:0:0:0:
312,144,297662,1,0,0:0:0:0:
334,166,297746,1,0,0:0:0:0:
335,234,297831,37,2,0:0:0:0:
335,262,297915,1,0,0:0:0:0:
323,290,298000,1,0,0:0:0:0:
307,314,298085,1,0,0:0:0:0:
283,326,298160,1,0,0:0:0:0:
251,330,298236,1,0,0:0:0:0:
223,330,298314,1,0,0:0:0:0:
176,280,298390,54,0,L|120:280,2,44.9999982118607,2|2|2,0:0|0:0|0:0,0:0:0:0:
184,219,298693,5,0,0:0:0:0:
184,184,298769,1,0,0:0:0:0:
188,124,298845,5,2,0:0:0:0:
196,92,298932,1,0,0:0:0:0:
216,60,299020,1,0,0:0:0:0:
244,40,299107,1,0,0:0:0:0:
280,32,299195,1,0,0:0:0:0:
316,32,299283,1,0,0:0:0:0:
352,44,299370,1,0,0:0:0:0:
376,68,299458,1,0,0:0:0:0:
425,117,299545,5,2,0:0:0:0:
430,150,299628,1,0,0:0:0:0:
435,188,299711,1,0,0:0:0:0:
435,224,299794,1,0,0:0:0:0:
435,260,299877,1,0,0:0:0:0:
426,298,299960,1,0,0:0:0:0:
410,327,300043,1,0,0:0:0:0:
384,348,300126,1,0,0:0:0:0:
316,348,300210,37,2,0:0:0:0:
284,332,300297,1,0,0:0:0:0:
268,300,300385,1,0,0:0:0:0:
260,264,300473,1,0,0:0:0:0:
260,232,300562,1,0,0:0:0:0:
260,196,300638,1,0,0:0:0:0:
260,160,300713,1,0,0:0:0:0:
252,124,300788,1,0,0:0:0:0:
220,60,300863,5,2,0:0:0:0:
188,48,300944,1,0,0:0:0:0:
156,44,301025,1,0,0:0:0:0:
124,44,301107,1,0,0:0:0:0:
92,56,301188,1,0,0:0:0:0:
68,80,301269,1,0,0:0:0:0:
60,116,301351,1,0,0:0:0:0:
60,152,301432,1,0,0:0:0:0:
76,232,301575,22,0,P|167:294|267:249,1,224.999991059303,2|2,0:0|0:0,0:0:0:0:
312,204,302147,1,2,0:0:0:0:
312,204,302218,1,2,0:0:0:0:
312,204,302290,1,2,0:0:0:0:
308,132,302397,22,0,L|308:84,2,39.9999984105428
324,28,302647,37,2,0:0:0:0:
401,22,302785,53,0,0:0:0:0:
431,29,302854,1,2,0:0:0:0:
492,88,302993,53,0,0:0:0:0:
492,88,303062,1,0,0:0:0:0:
492,88,303131,2,0,L|496:169,1,79.9999968210857
505,244,303339,37,2,0:0:0:0:
484,324,303417,5,0,0:0:0:0:
460,348,303496,1,0,0:0:0:0:
424,356,303575,1,2,0:0:0:0:
364,340,303673,5,0,0:0:0:0:
332,292,303738,1,0,0:0:0:0:
316,240,303837,5,0,0:0:0:0:
264,144,303969,37,0,0:0:0:0:
232,152,304052,1,0,0:0:0:0:
204,176,304135,1,0,0:0:0:0:
184,196,304219,1,0,0:0:0:0:
128,236,304302,5,2,0:0:0:0:
100,256,304384,1,0,0:0:0:0:
68,260,304467,1,0,0:0:0:0:
32,248,304549,1,0,0:0:0:0:
8,220,304632,1,0,0:0:0:0:
8,180,304714,1,0,0:0:0:0:
16,144,304797,1,0,0:0:0:0:
44,124,304879,1,0,0:0:0:0:
112,136,304962,5,2,0:0:0:0:
144,160,305048,1,0,0:0:0:0:
184,164,305133,1,0,0:0:0:0:
212,136,305218,1,0,0:0:0:0:
224,96,305303,1,0,0:0:0:0:
220,56,305388,1,0,0:0:0:0:
184,40,305473,1,0,0:0:0:0:
148,40,305558,1,0,0:0:0:0:
76,60,305643,37,2,0:0:0:0:
48,88,305728,1,0,0:0:0:0:
44,120,305813,1,0,0:0:0:0:
56,156,305898,1,0,0:0:0:0:
84,172,305983,1,0,0:0:0:0:
120,180,306068,1,0,0:0:0:0:
160,188,306153,1,0,0:0:0:0:
172,220,306238,1,0,0:0:0:0:
168,296,306323,5,2,0:0:0:0:
192,324,306408,1,0,0:0:0:0:
224,340,306493,1,0,0:0:0:0:
260,336,306578,1,0,0:0:0:0:
296,320,306663,1,0,0:0:0:0:
304,284,306748,1,0,0:0:0:0:
304,244,306833,1,0,0:0:0:0:
304,208,306918,1,0,0:0:0:0:
304,168,307003,1,2,0:0:0:0:
300,72,307130,37,2,0:0:0:0:
220,16,307313,5,0,0:0:0:0:
184,16,307405,1,0,0:0:0:0:
152,16,307497,1,0,0:0:0:0:
116,16,307589,1,0,0:0:0:0:
48,56,307681,5,2,0:0:0:0:
24,88,307761,1,0,0:0:0:0:
16,128,307841,1,0,0:0:0:0:
28,160,307922,1,0,0:0:0:0:
52,184,308002,1,0,0:0:0:0:
88,192,308083,1,0,0:0:0:0:
164,200,308164,22,0,L|164:246,2,39.9999984105428,2|2|2,0:0|0:0|0:0,0:0:0:0:
236,192,308470,53,0,0:0:0:0:
272,184,308551,1,0,0:0:0:0:
296,152,308632,1,0,0:0:0:0:
296,116,308713,1,0,0:0:0:0:
304,76,308794,1,0,0:0:0:0:
320,44,308875,1,0,0:0:0:0:
352,28,308956,1,0,0:0:0:0:
416,28,309037,37,2,0:0:0:0:
452,36,309122,1,0,0:0:0:0:
480,60,309208,1,0,0:0:0:0:
496,96,309294,1,0,0:0:0:0:
500,136,309380,1,0,0:0:0:0:
500,176,309466,1,0,0:0:0:0:
492,212,309552,1,0,0:0:0:0:
472,248,309638,1,0,0:0:0:0:
424,292,309724,5,2,0:0:0:0:
392,304,309804,1,0,0:0:0:0:
360,308,309884,1,0,0:0:0:0:
324,308,309964,1,0,0:0:0:0:
288,308,310045,1,0,0:0:0:0:
252,296,310125,1,0,0:0:0:0:
200,252,310206,38,0,P|168:168|248:104,1,194.999992251396,2|2,0:0|0:0,0:0:0:0:
296,96,310656,2,0,L|368:96,1,59.9999976158143,2|2,0:0|0:0,0:0:0:0:
416,96,310853,1,2,0:0:0:0:
428,24,310956,22,0,L|476:24,1,39.9999984105428
336,12,311106,21,2,0:0:0:0:
252,16,311256,21,0,0:0:0:0:
216,16,311331,1,0,0:0:0:0:
180,16,311406,1,0,0:0:0:0:
144,20,311481,1,0,0:0:0:0:
108,32,311557,1,0,0:0:0:0:
80,56,311632,1,0,0:0:0:0:
64,92,311707,1,0,0:0:0:0:
52,156,311782,5,2,0:0:0:0:
52,188,311857,1,0,0:0:0:0:
52,220,311932,1,0,0:0:0:0:
53,251,312007,1,0,0:0:0:0:
53,279,312082,1,0,0:0:0:0:
56,312,312157,1,0,0:0:0:0:
104,356,312288,21,2,0:0:0:0:
176,356,312423,1,2,0:0:0:0:
208,356,312505,1,2,0:0:0:0:
220,280,312577,54,0,L|264:280,1,39.9999984105428
324,276,312722,22,0,L|348:321,2,44.9999982118607,2|2|2,0:0|0:0|0:0,0:0:0:0:
324,216,312968,5,0,0:0:0:0:
320,176,313050,1,0,0:0:0:0:
352,152,313132,1,0,0:0:0:0:
408,140,313215,37,2,0:0:0:0:
396,74,313296,37,0,0:0:0:0:
368,50,313376,1,0,0:0:0:0:
336,38,313456,1,2,0:0:0:0:
272,32,313536,5,0,0:0:0:0:
236,32,313616,1,0,0:0:0:0:
200,32,313695,1,0,0:0:0:0:
168,32,313775,1,0,0:0:0:0:
136,32,313855,1,0,0:0:0:0:
100,32,313935,1,0,0:0:0:0:
65,44,314015,1,0,0:0:0:0:
42,68,314094,1,0,0:0:0:0:
33,137,314173,37,2,0:0:0:0:
29,169,314258,1,0,0:0:0:0:
33,205,314342,1,0,0:0:0:0:
57,233,314426,1,0,0:0:0:0:
89,249,314509,1,0,0:0:0:0:
125,245,314593,1,0,0:0:0:0:
153,225,314677,1,0,0:0:0:0:
168,198,314760,1,0,0:0:0:0:
184,126,314844,5,2,0:0:0:0:
187,91,314930,1,0,0:0:0:0:
204,65,315016,1,0,0:0:0:0:
233,49,315102,1,0,0:0:0:0:
267,42,315188,1,0,0:0:0:0:
301,64,315274,1,0,0:0:0:0:
315,93,315361,1,0,0:0:0:0:
331,121,315447,1,0,0:0:0:0:
348,196,315533,5,2,0:0:0:0:
348,228,315616,1,0,0:0:0:0:
348,260,315699,1,0,0:0:0:0:
348,292,315783,1,0,0:0:0:0:
344,328,315866,1,0,0:0:0:0:
320,352,315950,1,0,0:0:0:0:
284,360,316033,1,0,0:0:0:0:
248,356,316116,1,0,0:0:0:0:
221,289,316200,37,2,0:0:0:0:
221,256,316285,1,0,0:0:0:0:
222,224,316371,1,0,0:0:0:0:
220,192,316457,1,0,0:0:0:0:
209,158,316543,1,0,0:0:0:0:
179,137,316629,1,0,0:0:0:0:
150,156,316714,1,0,0:0:0:0:
145,192,316800,1,0,0:0:0:0:
128,264,316886,5,2,0:0:0:0:
104,292,316970,1,0,0:0:0:0:
68,300,317053,1,0,0:0:0:0:
32,292,317136,1,0,0:0:0:0:
8,264,317219,1,0,0:0:0:0:
0,228,317302,1,0,0:0:0:0:
0,192,317386,1,0,0:0:0:0:
0,156,317469,1,0,0:0:0:0:
12,84,317552,5,2,0:0:0:0:
20,48,317635,1,0,0:0:0:0:
44,24,317718,1,0,0:0:0:0:
76,16,317801,1,0,0:0:0:0:
112,24,317884,1,0,0:0:0:0:
140,40,317967,1,0,0:0:0:0:
174,53,318051,1,0,0:0:0:0:
214,52,318134,1,0,0:0:0:0:
269,97,318217,37,2,0:0:0:0:
300,91,318300,1,0,0:0:0:0:
332,81,318383,1,0,0:0:0:0:
363,68,318466,1,0,0:0:0:0:
388,44,318550,1,0,0:0:0:0:
411,18,318633,1,0,0:0:0:0:
444,19,318716,1,0,0:0:0:0:
472,28,318799,1,0,0:0:0:0:
484,57,318882,1,2,0:0:0:0:
484,90,318965,1,0,0:0:0:0:
485,170,319069,53,2,0:0:0:0:
424,228,319181,21,0,0:0:0:0:
388,244,319266,1,0,0:0:0:0:
344,248,319350,1,0,0:0:0:0:
308,232,319435,1,0,0:0:0:0:
284,200,319519,1,0,0:0:0:0:
276,168,319604,1,0,0:0:0:0:
264,132,319688,1,0,0:0:0:0:
228,120,319745,5,0,0:0:0:0:
192,120,319820,1,0,0:0:0:0:
156,132,319895,1,0,0:0:0:0:
132,160,319970,1,0,0:0:0:0:
120,196,320045,1,2,0:0:0:0:
116,236,320120,2,0,L|116:282,1,39.9999984105428
216,336,320270,5,2,0:0:0:0:
216,336,320346,1,2,0:0:0:0:
216,336,320421,1,2,0:0:0:0:
296,348,320500,21,0,0:0:0:0:
332,344,320579,1,0,0:0:0:0:
368,336,320658,1,0,0:0:0:0:
400,320,320737,1,2,0:0:0:0:
424,292,320816,1,0,0:0:0:0:
448,264,320895,1,0,0:0:0:0:
460,228,320974,1,0,0:0:0:0:
464,192,321053,1,0,0:0:0:0:
464,152,321132,1,0,0:0:0:0:
460,112,321211,1,0,0:0:0:0:
444,76,321290,1,0,0:0:0:0:
392,16,321369,5,2,0:0:0:0:
356,16,321455,1,0,0:0:0:0:
320,16,321540,1,0,0:0:0:0:
284,16,321625,1,0,0:0:0:0:
248,16,321710,1,0,0:0:0:0:
212,16,321795,1,0,0:0:0:0:
176,16,321880,1,0,0:0:0:0:
140,16,321965,1,0,0:0:0:0:
68,24,322050,5,2,0:0:0:0:
32,40,322135,1,0,0:0:0:0:
8,72,322220,1,0,0:0:0:0:
0,112,322305,1,0,0:0:0:0:
0,156,322390,1,0,0:0:0:0:
12,196,322475,1,0,0:0:0:0:
36,224,322560,1,0,0:0:0:0:
72,244,322645,1,0,0:0:0:0:
140,248,322730,37,2,0:0:0:0:
176,248,322812,1,0,0:0:0:0:
212,240,322894,1,0,0:0:0:0:
232,208,322976,1,0,0:0:0:0:
236,168,323058,1,0,0:0:0:0:
244,132,323140,1,0,0:0:0:0:
268,104,323223,1,0,0:0:0:0:
308,96,323305,1,0,0:0:0:0:
376,96,323387,5,2,0:0:0:0:
412,116,323465,1,0,0:0:0:0:
424,152,323544,1,0,0:0:0:0:
424,192,323623,1,0,0:0:0:0:
424,228,323702,1,0,0:0:0:0:
407,261,323780,1,0,0:0:0:0:
342,311,323860,22,0,B|163:367|118:157,1,314.999987483025,2|2,0:0|0:0,0:0:0:0:
232,112,324443,2,0,L|200:48,1,59.9999976158143,2|2,0:0|0:0,0:0:0:0:
192,32,324610,1,2,0:0:0:0:
152,32,324693,22,0,L|93:41,3,59.9999976158143
32,52,325028,37,2,0:0:0:0:
8,120,325108,37,0,0:0:0:0:
8,160,325188,1,0,0:0:0:0:
32,192,325269,1,0,0:0:0:0:
88,156,325349,5,2,0:0:0:0:
128,156,325430,1,0,0:0:0:0:
168,156,325510,1,0,0:0:0:0:
204,156,325591,1,0,0:0:0:0:
240,156,325671,2,0,L|296:156,1,39.9999984105428
240,217,325843,5,2,0:0:0:0:
248,280,325937,21,0,0:0:0:0:
272,308,326031,1,2,0:0:0:0:
308,320,326126,1,0,0:0:0:0:
380,332,326220,5,0,0:0:0:0:
420,328,326294,1,0,0:0:0:0:
452,316,326368,1,0,0:0:0:0:
480,292,326443,1,0,0:0:0:0:
496,256,326517,1,0,0:0:0:0:
500,216,326592,1,0,0:0:0:0:
492,144,326667,5,2,0:0:0:0:
476,112,326753,1,0,0:0:0:0:
443,91,326839,1,0,0:0:0:0:
408,81,326925,1,0,0:0:0:0:
372,79,327012,1,0,0:0:0:0:
337,82,327098,1,0,0:0:0:0:
301,83,327184,1,0,0:0:0:0:
265,82,327271,1,0,0:0:0:0:
192,96,327357,37,2,0:0:0:0:
168,116,327427,1,0,0:0:0:0:
160,152,327497,1,0,0:0:0:0:
153,184,327567,1,0,0:0:0:0:
173,265,327638,38,0,B|188:350|345:320,1,199.999992052714,2|2,0:0|0:0,0:0:0:0:
433,304,328126,2,0,L|449:368,2,59.9999976158143,2|2|2,0:0|0:0|0:0,0:0:0:0:
470,228,328451,22,0,L|518:220,1,39.9999984105428
440,160,328615,37,2,0:0:0:0:
420,100,328695,37,0,0:0:0:0:
412,64,328775,1,0,0:0:0:0:
388,36,328855,1,0,0:0:0:0:
356,20,328935,1,0,0:0:0:0:
320,12,329016,1,0,0:0:0:0:
284,8,329096,1,0,0:0:0:0:
248,8,329178,1,0,0:0:0:0:
212,12,329258,1,2,0:0:0:0:
176,24,329339,1,0,0:0:0:0:
144,44,329419,2,0,L|91:81,1,59.9999976158143
10,141,329581,21,2,0:0:0:0:
40,184,329659,22,0,L|13:233,2,39.9999984105428
96,199,329875,37,2,0:0:0:0:
153,208,329934,38,0,L|141:259,1,39.9999984105428
213,201,330082,21,2,0:0:0:0:
258,168,330170,54,0,L|314:156,1,39.9999984105428
232,115,330318,5,2,0:0:0:0:
258,64,330367,22,0,L|229:20,2,39.9999984105428
318,68,330583,53,2,0:0:0:0:
379,74,330642,22,0,L|409:47,2,39.9999984105428
409,120,330878,37,2,0:0:0:0:
455,154,330956,38,0,L|502:153,2,39.9999984105428
432,208,331231,5,2,0:0:0:0:
390,312,331365,21,0,0:0:0:0:
368,342,331433,1,0,0:0:0:0:
343,360,331500,1,0,0:0:0:0:
314,362,331567,1,0,0:0:0:0:
250,319,331635,5,2,0:0:0:0:
234,291,331711,1,0,0:0:0:0:
230,255,331788,1,0,0:0:0:0:
228,222,331865,1,0,0:0:0:0:
228,105,332019,5,0,0:0:0:0:
220,73,332096,1,0,0:0:0:0:
193,52,332173,1,0,0:0:0:0:
160,54,332250,1,0,0:0:0:0:
79,67,332327,37,2,0:0:0:0:
47,87,332407,1,0,0:0:0:0:
27,115,332487,1,0,0:0:0:0:
15,151,332568,1,0,0:0:0:0:
15,187,332648,1,0,0:0:0:0:
15,223,332729,1,0,0:0:0:0:
19,259,332809,1,0,0:0:0:0:
33,286,332890,1,0,0:0:0:0:
57,306,332970,1,0,0:0:0:0:
136,332,333051,5,2,0:0:0:0:
172,336,333131,1,0,0:0:0:0:
204,336,333212,1,0,0:0:0:0:
241,333,333292,1,0,0:0:0:0:
272,324,333373,1,0,0:0:0:0:
304,308,333453,1,0,0:0:0:0:
336,288,333533,1,0,0:0:0:0:
364,264,333614,1,0,0:0:0:0:
392,192,333694,5,2,0:0:0:0:
396,156,333775,1,0,0:0:0:0:
392,116,333855,1,0,0:0:0:0:
392,84,333936,1,0,0:0:0:0:
392,52,334016,2,0,L|336:52,1,39.9999984105428
296,164,334177,38,0,L|272:209,1,39.9999984105428,0|2,0:0|0:0,0:0:0:0:
236,252,334338,1,0,0:0:0:0:
180,280,334419,1,0,0:0:0:0:
124,264,334499,1,2,0:0:0:0:
88,216,334579,1,0,0:0:0:0:
84,156,334660,1,0,0:0:0:0:
111,101,334740,1,2,0:0:0:0:
157,61,334821,1,0,0:0:0:0:
216,45,334901,1,0,0:0:0:0:
275,48,334982,1,2,0:0:0:0:
328,81,335062,1,0,0:0:0:0:
360,136,335143,1,0,0:0:0:0:
248,200,335304,6,0,L|212:278,1,59.9999976158143
232,312,335558,2,0,L|274:347,1,39.9999984105428
316,329,335728,2,0,L|348:306,1,39.9999984105428
392,272,335897,2,0,L|372:230,1,39.9999984105428,2|0,0:0|0:0,0:0:0:0:
420,180,336067,6,0,L|468:164,2,39.9999984105428,0|2|0,0:0|0:0|0:0,0:0:0:0:
356,180,336322,2,0,L|328:132,1,39.9999984105428
300,96,336491,38,0,L|272:48,1,39.9999984105428
256,128,336661,2,0,L|232:80,1,39.9999984105428
192,56,336831,6,0,L|139:38,1,39.9999984105428
184,116,337000,2,0,L|142:132,3,39.9999984105428
120,176,337340,6,0,L|120:220,1,39.9999984105428
120,272,337487,2,0,L|120:336,2,59.9999976158143
168,244,337781,2,0,L|208:244,1,29.9999988079071
244,208,337928,2,0,L|276:172,1,39.9999984105428
308,132,338075,2,0,L|356:132,1,39.9999984105428,0|2,0:0|0:0,0:0:0:0:
304,72,338222,38,0,P|272:20|228:20,1,99.9999960263571,0|2,0:0|0:0,0:0:0:0:
204,20,338516,1,0,0:0:0:0:
176,24,338590,1,0,0:0:0:0:
152,32,338663,1,2,0:0:0:0:
128,40,338737,2,0,L|81:52,1,39.9999984105428
40,68,338884,6,0,L|40:192,1,119.999995231629,2|2,0:0|0:0,0:0:0:0:
44,224,339183,1,0,0:0:0:0:
51,253,339262,1,0,0:0:0:0:
68,272,339341,1,2,0:0:0:0:
93,292,339420,1,0,0:0:0:0:
120,302,339499,2,0,L|120:344,1,29.9999999523163
152,296,339658,1,0,0:0:0:0:
192,288,339737,6,0,L|192:328,1,29.9999999523163,0|2,0:0|0:0,0:0:0:0:
224,280,339895,1,0,0:0:0:0:
260,248,339975,2,0,L|306:276,6,39.9999984105428
268,200,340529,37,2,0:0:0:0:
272,168,340608,1,0,0:0:0:0:
284,132,340687,1,0,0:0:0:0:
304,104,340766,1,0,0:0:0:0:
336,88,340846,1,0,0:0:0:0:
368,88,340925,1,0,0:0:0:0:
424,105,341004,38,0,P|450:143|383:286,1,209.99999165535,6|0,0:0|0:0,0:0:0:0:
395,280,341772,2,0,P|378:247|219:233,1,209.99999165535,2|0,0:0|0:0,0:0:0:0:
224,228,342410,2,0,P|189:225|188:88,1,209.99999165535
183,89,343137,2,0,B|256:112|292:30|369:139,1,209.99999165535
376,192,343796,5,0,0:0:0:0:
376,192,343881,2,0,B|335:182|335:182|319:198|319:198|319:182|319:182|311:198|311:198|308:181|308:181|264:168|264:168|200:189,1,219.999991257986,0|2,0:0|0:0,0:0:0:0:
184,200,344898,5,2,0:0:0:0:
152,208,344977,1,2,0:0:0:0:
125,211,345056,2,0,P|84:196|77:118,1,119.999995231629,2|2,0:0|0:0,0:0:0:0:
128,112,345451,5,0,0:0:0:0:
128,112,345530,1,2,0:0:0:0:
128,112,345609,1,0,0:0:0:0:
128,112,345688,1,0,0:0:0:0:
128,112,345767,1,2,0:0:0:0:
128,112,345846,1,0,0:0:0:0:
128,112,345925,1,0,0:0:0:0:
128,112,346004,1,2,0:0:0:0:
128,112,346083,1,0,0:0:0:0:
128,112,346162,1,0,0:0:0:0:
128,112,346241,1,2,0:0:0:0:
128,112,346320,1,0,0:0:0:0:
128,112,346400,1,0,0:0:0:0:
128,112,346479,1,2,0:0:0:0:
128,112,346558,1,0,0:0:0:0:
128,112,346637,1,0,0:0:0:0:
128,112,346716,5,2,0:0:0:0:
216,97,346976,1,2,0:0:0:0:
216,97,347412,38,0,B|264:33|366:47|438:103|440:193|430:263|344:321|272:305,1,479.999980926514,6|0,0:0|0:0,0:0:0:0:
208,304,349468,1,0,0:0:0:0:
144,272,349589,2,0,B|56:200|56:200|104:200|104:200|72:168|72:168|120:168|120:168|88:136|88:136|136:144|136:144|104:104|104:104|152:120|152:120|120:80|120:80|168:96|168:96|136:56|136:56|192:64|192:64|152:32|152:32|224:32,1,779.999969005585
311,65,351282,38,0,B|352:42|352:42|384:65|384:65|426:40|426:40|480:71,1,179.999992847443,14|0,0:0|0:0,0:0:0:0:
464,62,351511,2,0,B|427:95|427:95|442:129|442:129|415:149|415:149|427:219,1,179.999992847443
425,208,351741,2,0,B|399:249|399:249|411:287|411:287|381:313|381:313|371:371,1,179.999992847443,8|0,0:0|0:0,0:0:0:0:
372,364,351971,2,0,B|327:323|327:323|296:345|296:345|268:321|268:321|215:349,1,179.999992847443
228,341,352200,2,0,B|181:348|181:348|152:316|152:316|105:334|105:334|74:282,1,179.999992847443,8|0,0:0|0:0,0:0:0:0:
85,300,352430,2,0,B|91:250|91:250|75:210|75:210|99:178|99:178|75:114,1,179.999992847443,8|0,3:0|0:0,0:0:0:0:
82,134,352660,2,0,B|116:88|116:88|148:104|148:104|174:74|174:74|241:92,1,179.999992847443
219,86,352889,2,0,B|270:74|270:74|270:106|270:106|302:114|302:114|286:178,1,179.999992847443,8|0,3:0|0:0,0:0:0:0:
286,174,353120,2,0,B|246:222|246:222|197:216|197:216|165:280,1,179.999992847443
152,304,353346,21,10,3:0:0:0:
66,33,353572,2,0,P|65:99|122:113,1,119.999995231629,10|0,0:0|0:0,0:0:0:0:
219,86,353911,5,2,0:0:0:0:
366,63,354024,2,0,B|358:103|404:143|387:187,1,119.999995231629,2|10,0:0|3:0,0:0:0:0:
312,176,354363,1,2,0:0:0:0:
384,248,354476,1,10,0:0:0:0:
248,240,354589,1,2,0:0:0:0:
321,299,354702,1,2,0:0:0:0:
312,176,354815,1,2,0:0:0:0:
256,315,354928,6,0,B|181:323|144:264,1,119.999995231629,2|10,0:0|3:0,0:0:0:0:
96,176,355266,1,2,0:0:0:0:
56,104,355378,5,10,0:0:0:0:
36,104,355435,2,0,L|4:104,1,29.9999988079071,2|0,0:0|0:0,0:0:0:0:
248,160,355604,21,2,0:0:0:0:
232,48,355717,1,2,0:0:0:0:
160,144,355830,1,10,0:0:0:0:
232,44,355942,1,2,0:0:0:0:
312,120,356055,1,10,3:0:0:0:
232,48,356168,1,2,0:0:0:0:
112,72,356280,1,2,0:0:0:0:
231,39,356393,1,2,0:0:0:0:
336,65,356504,6,0,P|400:137|384:168,1,119.999995231629,10|0,3:0|0:0,0:0:0:0:
376,232,356842,1,2,0:0:0:0:
275,254,356955,1,10,3:0:0:0:
360,368,357067,1,2,0:0:0:0:
432,296,357180,1,10,0:0:0:0:
272,328,357292,1,2,0:0:0:0:
376,228,357405,1,2,0:0:0:0:
360,368,357518,1,2,0:0:0:0:
272,328,357630,6,0,P|200:288|188:244,1,119.999995231629,2|10,0:0|3:0,0:0:0:0:
312,140,358080,2,0,P|304:88|240:56,1,119.999995231629,10|2,0:0|0:0,0:0:0:0:
104,56,358418,1,2,0:0:0:0:
208,192,358531,1,10,0:0:0:0:
32,144,358643,1,2,0:0:0:0:
208,88,358756,1,10,3:0:0:0:
96,236,358868,1,2,0:0:0:0:
104,52,358981,1,2,0:0:0:0:
212,192,359094,1,2,0:0:0:0:
28,144,359206,1,10,3:0:0:0:
208,88,359319,1,2,0:0:0:0:
96,240,359432,37,2,0:0:0:0:
208,288,359546,2,0,L|264:312,1,59.9999976158143,2|8,0:0|3:0,0:0:0:0:
304,320,359718,1,2,0:0:0:0:
344,320,359777,1,2,0:0:0:0:
460,296,359890,1,10,0:0:0:0:
392,76,360120,6,0,L|456:44,2,59.9999976158143,2|0|0,0:0|0:0|0:0,0:0:0:0:
304,120,360464,1,2,0:0:0:0:
256,200,360579,1,10,3:0:0:0:
208,120,360693,1,2,0:0:0:0:
335,123,360808,53,10,0:0:0:0:
256,232,360923,1,2,0:0:0:0:
205,94,361038,1,2,0:0:0:0:
326,156,361152,1,2,0:0:0:0:
223,234,361267,5,2,0:0:0:0:
224,80,361381,1,2,0:0:0:0:
348,179,361494,1,8,3:0:0:0:
376,216,361579,1,2,0:0:0:0:
392,264,361665,2,0,L|392:304,1,29.9999988079071,2|8,0:0|0:0,0:0:0:0:
248,360,361949,21,2,0:0:0:0:
248,360,362006,1,2,0:0:0:0:
248,360,362062,1,10,0:0:0:0:
128,296,362176,53,10,0:0:0:0:
240,144,362290,1,2,0:0:0:0:
240,320,362403,1,10,3:0:0:0:
139,186,362517,1,2,0:0:0:0:
336,252,362631,21,14,0:0:0:0:
336,252,362659,1,4,0:0:0:0:
220,64,362858,54,0,B|245:57|245:57|245:63|245:63|253:57|253:57|253:63|253:63|261:57|261:57|261:63|261:63|269:57|269:57|269:63|269:63|277:57|277:57|277:63|277:63|285:57|285:57|309:57,1,134.999999785423,2|0,0:0|0:0,0:0:0:0:
315,57,363085,2,0,B|331:52|331:52|329:59|329:59|338:53|338:53|337:61|337:61|346:55|346:55|344:63|344:63|354:57|354:57|352:65|352:65|362:59|362:59|360:67|360:67|370:61|370:61|393:66,1,134.999999785423,8|0,0:0|0:0,0:0:0:0:
391,65,363312,2,0,P|453:117|455:134,1,89.9999998569489
475,221,363540,6,0,P|431:257|383:206,1,134.999999785423,10|0,0:0|0:0,0:0:0:0:
383,212,363767,2,0,P|311:212|207:268,1,179.999999713898,10|2,3:0|0:0,0:0:0:0:
396,278,364220,37,10,3:0:0:0:
348,358,364334,1,2,0:0:0:0:
300,286,364447,1,10,0:0:0:0:
135,225,364674,37,2,0:0:0:0:
112,88,364787,1,2,0:0:0:0:
208,160,364900,1,10,0:0:0:0:
111,83,365014,1,2,0:0:0:0:
40,192,365127,1,10,3:0:0:0:
109,78,365240,1,2,0:0:0:0:
208,160,365354,6,0,L|328:160,1,119.999995231629,2|10,0:0|3:0,0:0:0:0:
459,160,365694,1,2,0:0:0:0:
396,76,365807,1,10,0:0:0:0:
328,160,365921,1,2,0:0:0:0:
460,226,366034,1,2,0:0:0:0:
328,295,366147,1,2,0:0:0:0:
461,296,366261,1,10,0:0:0:0:
329,227,366374,1,2,0:0:0:0:
459,160,366487,1,10,0:0:0:0:
328,160,366601,2,0,L|262:160,1,59.9999976158143,8|0,0:0|0:0,0:0:0:0:
315,76,366828,21,2,0:0:0:0:
315,76,366884,1,2,0:0:0:0:
315,76,366941,1,10,0:0:0:0:
192,176,367054,21,2,0:0:0:0:
128,24,367168,1,10,0:0:0:0:
268,160,367281,1,2,0:0:0:0:
263,3,367394,1,10,3:0:0:0:
103,131,367508,1,2,0:0:0:0:
48,328,367621,37,14,0:0:0:0:
48,328,367649,1,4,0:0:0:0:
302,339,367847,53,2,0:0:0:0:
334,342,367922,1,2,0:0:0:0:
362,333,367998,1,2,0:0:0:0:
396,316,368073,1,10,0:0:0:0:
328,88,368300,37,10,3:0:0:0:
304,56,368375,1,2,0:0:0:0:
266,42,368451,1,2,0:0:0:0:
229,47,368526,1,2,0:0:0:0:
168,272,368753,5,10,3:0:0:0:
128,280,368828,1,2,0:0:0:0:
88,272,368904,1,2,0:0:0:0:
52,256,368979,1,10,0:0:0:0:
145,70,369206,38,0,B|170:50|170:50|205:58|205:58|227:42|227:42|269:42,1,134.999999785423,2|0,0:0|0:0,0:0:0:0:
268,43,369432,2,0,B|283:68|283:68|267:92|267:92|291:124|291:124|267:156,1,134.999999785423
268,153,369658,2,0,B|315:168|315:168|334:155|334:155|355:168|355:168|395:160,1,134.999999785423,8|0,3:0|0:0,0:0:0:0:
392,160,369885,2,0,B|422:194|422:194|406:218|406:218|422:242|422:242|390:266,1,134.999999785423,8|0,0:0|0:0,0:0:0:0:
396,261,370111,2,0,B|342:289|342:289|310:273|310:273|270:289,1,134.999999785423
228,296,370338,21,0,0:0:0:0:
160,24,370566,1,8,3:0:0:0:
32,312,370795,1,10,0:0:0:0:
128,24,371024,1,2,0:0:0:0:
16,24,371139,1,2,0:0:0:0:
128,24,371253,1,10,0:0:0:0:
359,69,371482,1,10,3:0:0:0:
432,192,371558,1,2,0:0:0:0:
441,225,371635,1,2,0:0:0:0:
443,253,371711,6,0,P|431:295|364:335,1,119.999995231629,2|10,0:0|3:0,0:0:0:0:
300,278,372054,1,2,0:0:0:0:
236,192,372169,1,2,0:0:0:0:
167,276,372277,1,2,0:0:0:0:
300,278,372386,2,0,P|268:342|228:342,1,119.999995231629,10|10,3:0|0:0,0:0:0:0:
146,91,372830,38,0,B|81:91,2,59.9999976158143,2|0|0,0:0|0:0|0:0,0:0:0:0:
205,212,373170,1,2,0:0:0:0:
244,89,373284,1,10,3:0:0:0:
408,88,373511,2,8,B|473:138|445:200,1,119.999995231629,10|0,0:0|0:0,0:0:0:0:
400,264,373851,2,0,L|360:312,1,59.9999976158143,0|2,0:0|0:0,0:0:0:0:
217,113,374190,5,10,3:0:0:0:
203,144,374265,1,2,0:0:0:0:
200,176,374340,1,2,0:0:0:0:
200,216,374415,1,10,0:0:0:0:
132,88,374640,5,2,0:0:0:0:
116,130,374715,1,2,0:0:0:0:
110,173,374790,1,2,0:0:0:0:
112,216,374865,1,2,0:0:0:0:
48,67,375090,37,10,3:0:0:0:
26,117,375165,1,2,0:0:0:0:
18,169,375240,1,2,0:0:0:0:
26,224,375315,1,10,0:0:0:0:
477,57,375540,38,0,B|421:43|421:43|395:67|395:67|366:52|366:52|329:100,1,179.999992847443,2|0,0:0|0:0,0:0:0:0:
332,94,375765,2,0,B|334:140|334:140|373:162|373:162|341:246,1,179.999992847443
341,245,375990,2,0,B|285:244|285:244|261:275|261:275|149:275,1,179.999992847443,8|0,3:0|0:0,0:0:0:0:
177,276,376215,6,0,B|151:289|151:289|118:282,1,59.9999976158143,8|0,0:0|0:0,0:0:0:0:
120,282,376328,2,0,B|89:283|89:283|46:272,1,59.9999976158143
61,275,376440,2,0,B|56:235|56:235|59:202,1,59.9999976158143
57,215,376553,2,0,B|74:175|74:175|74:135,1,59.9999976158143
96,108,376665,5,8,3:0:0:0:
156,48,376775,1,0,0:0:0:0:
248,76,376884,6,0,L|256:76,1,7.49999970197678,2|0,0:0|0:0,0:0:0:0:
332,20,376994,2,0,L|344:20,1,7.49999970197678,2|0,0:0|0:0,0:0:0:0:
448,48,377103,2,0,L|448:56,1,7.49999970197678,10|0,0:0|0:0,0:0:0:0:
392,136,377213,2,0,L|400:140,1,7.49999970197678,2|0,0:0|0:0,0:0:0:0:
480,176,377322,2,0,L|480:184,1,7.49999970197678,2|0,0:0|0:0,0:0:0:0:
396,240,377432,2,0,L|396:248,1,7.49999970197678,2|0,0:0|0:0,0:0:0:0:
404,324,377541,5,8,3:0:0:0:
324,336,377651,1,0,0:0:0:0:
264,288,377760,38,0,L|256:288,1,7.49999970197678,2|0,0:0|0:0,0:0:0:0:
176,328,377870,2,0,L|172:320,1,7.49999970197678,2|0,0:0|0:0,0:0:0:0:
136,244,377979,2,0,L|140:236,1,7.49999970197678,10|0,0:0|0:0,0:0:0:0:
196,172,378089,2,0,L|188:168,1,7.49999970197678,2|0,0:0|0:0,0:0:0:0:
116,120,378198,2,0,L|116:112,1,7.49999970197678,2|0,0:0|0:0,0:0:0:0:
176,48,378308,5,0,0:0:0:0:
248,24,378417,1,8,3:0:0:0:
323,47,378527,1,0,0:0:0:0:
372,120,378636,6,0,L|368:128,1,7.49999970197678,2|0,0:0|0:0,0:0:0:0:
304,180,378746,2,0,L|312:184,1,7.49999970197678,2|0,0:0|0:0,0:0:0:0:
392,216,378855,2,0,L|384:220,1,7.49999970197678,10|0,0:0|0:0,0:0:0:0:
312,272,378965,2,0,L|320:276,1,7.49999970197678,2|0,0:0|0:0,0:0:0:0:
400,320,379074,2,0,L|392:324,1,7.49999970197678,2|0,0:0|0:0,0:0:0:0:
316,364,379184,2,0,L|308:364,1,7.49999970197678,2|0,0:0|0:0,0:0:0:0:
212,344,379293,37,8,3:0:0:0:
148,296,379403,1,0,0:0:0:0:
105,220,379512,6,0,L|104:212,1,7.49999970197678,2|0,0:0|0:0,0:0:0:0:
88,128,379622,2,0,L|88:120,1,7.49999970197678,2|0,0:0|0:0,0:0:0:0:
140,56,379731,2,0,L|148:52,1,7.49999970197678,10|0,0:0|0:0,0:0:0:0:
232,32,379841,2,0,L|240:32,1,7.49999970197678,2|0,0:0|0:0,0:0:0:0:
311,84,379950,2,0,L|320:80,1,7.49999970197678,2|0,0:0|0:0,0:0:0:0:
392,48,380060,5,0,0:0:0:0:
456,96,380169,1,8,3:0:0:0:
464,172,380279,1,0,0:0:0:0:
404,232,380389,38,0,L|396:224,1,7.49999970197678,2|0,0:0|0:0,0:0:0:0:
344,164,380500,2,0,L|336:164,1,7.49999970197678,2|0,0:0|0:0,0:0:0:0:
256,212,380610,2,0,L|248:212,1,7.49999970197678,10|0,0:0|0:0,0:0:0:0:
168,180,380720,2,0,L|160:180,1,7.49999970197678,2|0,0:0|0:0,0:0:0:0:
72,212,380831,2,0,L|64:204,1,7.49999970197678,2|0,0:0|0:0,0:0:0:0:
24,128,380941,2,0,L|28:120,1,7.49999970197678,2|0,0:0|0:0,0:0:0:0:
86,57,381051,5,8,3:0:0:0:
160,28,381162,1,0,0:0:0:0:
252,48,381272,6,0,L|252:56,1,7.49999970197678,2|0,0:0|0:0,0:0:0:0:
296,134,381382,2,0,L|300:142,1,7.49999970197678,2|0,0:0|0:0,0:0:0:0:
256,212,381493,2,0,L|256:220,1,7.49999970197678,10|0,0:0|0:0,0:0:0:0:
228,296,381603,2,0,L|232:304,1,7.49999970197678,2|0,0:0|0:0,0:0:0:0:
296,360,381713,2,0,L|304:360,1,7.49999970197678,2|0,0:0|0:0,0:0:0:0:
376,320,381824,37,0,0:0:0:0:
396,244,381934,6,0,L|396:236,1,7.49999970197678,10|0,3:0|0:0,0:0:0:0:
392,148,382044,2,0,L|388:140,1,7.49999970197678,2|0,0:0|0:0,0:0:0:0:
340,72,382155,2,0,L|332:68,1,7.49999970197678,2|0,0:0|0:0,0:0:0:0:
252,48,382265,2,0,L|244:48,1,7.49999970197678,2|0,0:0|0:0,0:0:0:0:
160,48,382375,2,0,L|152:48,1,7.49999970197678,10|0,0:0|0:0,0:0:0:0:
80,96,382486,2,0,L|80:108,1,7.49999970197678,2|0,0:0|0:0,0:0:0:0:
80,188,382596,2,0,L|80:200,1,7.49999970197678,2|0,0:0|0:0,0:0:0:0:
112,272,382706,2,0,L|116:280,1,7.49999970197678,2|0,0:0|0:0,0:0:0:0:
188,316,382817,2,0,L|196:316,1,7.49999970197678,10|0,3:0|0:0,0:0:0:0:
280,316,382927,2,0,L|288:316,1,7.49999970197678,2|0,0:0|0:0,0:0:0:0:
364,304,383037,6,0,L|372:300,1,7.49999970197678,2|0,0:0|0:0,0:0:0:0:
457,255,383148,1,0,0:0:0:0:
472,168,383258,2,0,L|472:160,1,7.49999970197678,10|0,0:0|0:0,0:0:0:0:
432,92,383368,1,0,0:0:0:0:
348,107,383479,2,0,L|348:116,1,7.49999970197678,2|0,0:0|0:0,0:0:0:0:
304,188,383589,1,0,0:0:0:0:
264,116,383700,38,0,B|231:106|181:155|149:126,1,119.999995231629,10|2,3:0|0:0,0:0:0:0:
172,44,384031,1,2,0:0:0:0:
90,22,384142,2,0,L|25:42,1,59.9999976158143,10|2,0:0|0:0,0:0:0:0:
158,164,384363,2,0,B|162:235,1,59.9999976158143,2|2,0:0|0:0,0:0:0:0:
144,336,384584,5,10,3:0:0:0:
50,258,384695,2,0,L|22:198,1,59.9999976158143,2|2,0:0|0:0,0:0:0:0:
30,33,384916,1,2,0:0:0:0:
84,92,385027,1,10,0:0:0:0:
169,115,385138,2,0,L|235:89,1,59.9999976158143,2|0,0:0|0:0,0:0:0:0:
288,213,385359,2,0,L|227:240,1,59.9999976158143,0|10,0:0|3:0,0:0:0:0:
362,154,385580,6,0,P|383:204|382:218,1,59.9999976158143,2|0,0:0|0:0,0:0:0:0:
314,289,385802,1,2,0:0:0:0:
234,238,385912,2,0,P|185:243|168:233,2,59.9999976158143,10|0|2,0:0|0:0|0:0,0:0:0:0:
53,204,386244,2,0,L|25:144,2,59.9999976158143,0|10|2,0:0|3:0|0:0,0:0:0:0:
206,135,386576,1,0,0:0:0:0:
204,49,386687,1,2,0:0:0:0:
292,62,386797,2,0,P|316:73|325:120,1,59.9999976158143,10|0,0:0|0:0,0:0:0:0:
319,344,387019,1,0,0:0:0:0:
319,344,387129,1,2,0:0:0:0:
408,320,387240,37,8,3:0:0:0:
408,320,387350,1,0,0:0:0:0:
368,232,387461,1,2,0:0:0:0:
368,232,387572,1,0,0:0:0:0:
440,176,387682,1,10,0:0:0:0:
440,176,387793,1,0,0:0:0:0:
368,112,387904,1,2,0:0:0:0:
368,112,388014,1,0,0:0:0:0:
400,32,388125,1,10,3:0:0:0:
400,32,388236,1,0,0:0:0:0:
296,48,388346,1,2,0:0:0:0:
296,48,388457,1,0,0:0:0:0:
272,144,388567,2,0,L|272:216,1,59.9999976158143,10|0,0:0|0:0,0:0:0:0:
264,272,388733,37,2,0:0:0:0:
264,272,388789,2,0,L|200:272,1,59.9999976158143,0|8,0:0|0:0,0:0:0:0:
144,172,389011,54,8,B|103:113,1,59.9999976158143,10|10,0:0|0:0,0:0:0:0:
224,16,389228,1,8,3:0:0:0:
369,28,389336,38,0,B|429:66,1,59.9999976158143,2|10,0:0|0:0,0:0:0:0:
441,84,389499,2,0,L|441:125,1,29.9999988079071,2|8,0:0|0:0,0:0:0:0:
400,192,389662,6,0,L|372:256,1,59.9999976158143,10|10,0:0|3:0,0:0:0:0:
336,264,389825,1,2,0:0:0:0:
308,244,389879,6,0,L|288:182,1,59.9999976158143,10|10,0:0|0:0,0:0:0:0:
336,100,390096,1,10,3:0:0:0:
248,60,390205,1,10,0:0:0:0:
140,96,390314,2,0,P|113:127|103:151,1,59.9999976158143,10|10,0:0|3:0,0:0:0:0:
80,236,390531,21,10,3:0:0:0:
84,264,390585,1,0,0:0:0:0:
96,292,390639,1,0,0:0:0:0:
176,332,390748,53,14,0:0:0:0:
176,332,390776,1,4,0:0:0:0:
176,224,390978,53,2,0:0:0:0:
228,144,391094,1,2,0:0:0:0:
312,184,391209,2,0,P|416:144|416:248,1,239.999990463257,10|10,0:0|3:0,0:0:0:0:
228,140,391898,37,2,0:0:0:0:
176,224,392011,1,2,0:0:0:0:
259,272,392125,2,0,P|313:307|361:278,1,119.999995231629,10|0,0:0|0:0,0:0:0:0:
423,240,392466,2,0,L|461:188,1,59.9999976158143,0|2,0:0|0:0,0:0:0:0:
316,192,392693,5,2,0:0:0:0:
402,136,392807,2,0,L|463:136,1,59.9999976158143,2|8,0:0|3:0,0:0:0:0:
183,107,393034,6,0,B|148:54|148:54|85:46,2,119.999995231629,10|0|2,0:0|0:0|0:0,0:0:0:0:
259,272,393716,2,0,L|228:203,1,59.9999976158143,0|8,0:0|3:0,0:0:0:0:
78,249,393943,2,0,B|35:337|159:364,1,119.999995231629,10|0,0:0|0:0,0:0:0:0:
200,306,394284,2,0,L|238:320,1,29.9999988079071
234,217,394398,38,0,B|256:148|173:121,1,119.999995231629,10|2,3:0|0:0,0:0:0:0:
330,141,394852,2,0,P|273:99|305:45,1,119.999995231629,10|0,0:0|0:0,0:0:0:0:
384,40,395193,5,10,3:0:0:0:
283,60,395307,2,0,P|232:90|221:162,1,119.999995231629,10|2,0:0|0:0,0:0:0:0:
407,226,395761,2,0,B|345:192|297:236,1,119.999995231629,10|2,0:0|0:0,0:0:0:0:
372,335,396102,1,0,0:0:0:0:
454,266,396216,6,0,L|381:203,1,59.9999976158143,10|0,0:3|0:0,0:0:0:0:
205,69,396443,2,0,L|152:23,1,59.9999976158143,2|8,0:0|3:0,0:0:0:0:
60,364,396671,1,10,0:0:0:0:
454,266,396898,2,0,L|392:235,1,59.9999976158143,2|0,0:0|0:0,0:0:0:0:
20,40,397125,37,10,3:0:0:0:
454,266,397351,1,2,0:0:0:0:
480,176,397464,1,2,3:0:0:0:
407,116,397578,1,10,0:0:0:0:
173,89,397804,5,2,0:0:0:0:
59,232,397918,1,2,0:0:0:0:
237,171,398031,1,10,3:0:0:0:
74,130,398144,1,2,0:0:0:0:
175,262,398258,1,2,0:0:0:0:
451,175,398484,6,0,B|408:212|408:212|395:201|395:201|381:213|381:213|394:225|394:225|331:287,1,179.999992847443,10|2,0:0|0:0,0:0:0:0:
272,233,398824,2,0,L|255:205,1,29.9999988079071,0|2,0:0|0:0,0:0:0:0:
260,319,398937,2,0,L|207:352,1,59.9999976158143,10|0,3:0|0:0,0:0:0:0:
202,86,399164,2,8,L|175:24,1,59.9999976158143,2|8,3:0|3:0,3:0:0:0:
288,278,399391,1,10,0:0:0:0:
28,271,399617,2,0,L|28:207,1,59.9999976158143,2|0,0:0|0:0,0:0:0:0:
256,96,399844,38,0,B|322:83|352:152,1,119.999995231629,10|2,3:0|0:0,0:0:0:0:
385,211,400184,2,0,L|422:271,2,59.9999976158143,0|8|0,0:0|0:0|0:0,0:0:0:0:
208,293,400524,2,0,L|208:352,1,59.9999976158143,2|0,0:0|0:0,0:0:0:0:
255,94,400750,38,0,L|156:60,1,89.9999964237214,10|0,3:0|0:0,0:0:0:0:
169,64,400977,2,0,L|127:113,1,59.9999976158143,0|8,0:0|3:0,0:0:0:0:
65,279,401203,2,0,B|150:267,1,89.9999964237214,10|0,0:0|0:0,0:0:0:0:
154,266,401430,2,0,L|214:296,1,59.9999976158143,2|0,0:0|0:0,0:0:0:0:
256,169,401657,6,0,B|296:136|272:80,1,89.9999964237214,10|0,3:0|0:0,0:0:0:0:
274,87,401883,2,0,L|226:51,1,59.9999976158143,2|8,0:0|3:0,0:0:0:0:
72,148,402110,6,0,L|71:207,1,59.9999976158143,10|0,0:0|0:0,0:0:0:0:
198,292,402336,38,0,L|246:292,1,44.9999999284745,2|0,0:0|0:0,0:0:0:0:
243,292,402450,2,0,L|291:292,1,44.9999999284745
288,292,402563,2,0,B|314:279|314:279|346:287|346:287|370:263,1,89.9999964237214,8|0,3:0|0:0,0:0:0:0:
365,267,402790,2,0,B|400:264|400:264|437:220,1,89.9999998569489,0|8,0:0|3:0,0:0:0:0:
423,126,403016,6,0,P|400:84|367:65,1,74.9999970197678,10|0,0:0|0:0,0:0:0:0:
379,70,403129,2,0,P|348:48|299:41,1,74.9999970197678
312,41,403243,2,0,P|255:33|215:58,1,74.9999970197678,8|0,3:0|0:0,0:0:0:0:
240,38,403356,2,0,P|201:50|169:82,1,74.9999970197678
160,96,403470,6,0,L|168:168,1,59.9999976158143,8|0,3:0|0:0,0:0:0:0:
224,264,403697,6,0,L|216:264,1,7.49999970197678,2|0,0:0|0:0,0:0:0:0:
320,296,403811,2,0,L|320:304,1,7.49999970197678,2|0,0:0|0:0,0:0:0:0:
416,264,403925,2,0,L|404:264,1,7.49999970197678,10|0,0:0|0:0,0:0:0:0:
384,168,404039,2,0,L|376:168,1,7.49999970197678,2|0,0:0|0:0,0:0:0:0:
432,76,404153,2,0,L|440:80,1,7.49999970197678,2|0,0:0|0:0,0:0:0:0:
348,32,404267,2,0,L|348:40,1,7.49999970197678,2|0,0:0|0:0,0:0:0:0:
257,29,404381,6,0,L|197:65,1,59.9999976158143,8|0,3:0|0:0,0:0:0:0:
64,148,404609,2,0,L|72:148,1,7.49999970197678,2|0,0:0|0:0,0:0:0:0:
52,240,404723,2,0,L|44:240,1,7.49999970197678,2|0,0:0|0:0,0:0:0:0:
112,308,404837,2,0,L|112:316,1,7.49999970197678,10|0,0:0|0:0,0:0:0:0:
208,336,404951,2,0,L|200:336,1,7.49999970197678,2|0,0:0|0:0,0:0:0:0:
304,324,405065,2,0,L|296:324,1,7.49999970197678,2|0,0:0|0:0,0:0:0:0:
368,256,405179,38,0,L|440:256,1,59.9999976158143,0|8,0:0|3:0,0:0:0:0:
480,44,405403,1,0,0:0:0:0:
376,48,405513,6,0,L|376:40,1,7.49999970197678,2|0,0:0|0:0,0:0:0:0:
268,8,405623,2,0,L|276:8,1,7.49999970197678,2|0,0:0|0:0,0:0:0:0:
155,24,405733,2,0,L|164:24,1,7.49999970197678,10|0,0:0|0:0,0:0:0:0:
78,93,405844,2,0,L|84:88,1,7.49999970197678,2|0,0:0|0:0,0:0:0:0:
80,192,405954,2,0,L|72:196,1,7.49999970197678,2|0,0:0|0:0,0:0:0:0:
156,252,406064,2,0,L|156:264,1,7.49999970197678,2|0,0:0|0:0,0:0:0:0:
248,264,406174,6,0,L|312:264,1,59.9999976158143,8|8,3:0|0:0,0:0:0:0:
412,144,406395,38,0,L|420:152,1,7.49999970197678,2|0,0:0|0:0,0:0:0:0:
332,60,406505,2,0,L|340:60,1,7.49999970197678,2|0,0:0|0:0,0:0:0:0:
240,128,406615,2,10,L|248:128,1,7.49999970197678,10|0,0:0|0:0,0:0:0:0:
184,40,406732,2,0,L|196:40,1,7.49999970197678,2|0,0:0|0:0,0:0:0:0:
83,88,406849,2,0,L|84:76,1,7.49999970197678,2|0,0:0|0:0,0:0:0:0:
33,180,406966,5,0,0:0:0:0:
61,277,407083,2,0,L|93:334,1,59.9999976158143,8|0,3:0|0:0,0:0:0:0:
220,184,407304,21,2,0:0:0:0:
220,184,407318,1,0,0:0:0:0:
260,136,407414,1,2,0:0:0:0:
260,136,407428,1,0,0:0:0:0:
324,136,407525,1,10,0:0:0:0:
324,136,407539,1,0,0:0:0:0:
380,176,407636,1,2,0:0:0:0:
380,176,407649,1,0,0:0:0:0:
396,240,407746,1,2,0:0:0:0:
396,240,407760,1,0,0:0:0:0:
372,304,407857,1,2,0:0:0:0:
372,304,407871,1,0,0:0:0:0:
304,312,407967,22,0,L|216:312,1,83.9999940986636,8|0,3:0|0:0,0:0:0:0:
132,305,408189,37,2,0:0:0:0:
132,305,408202,1,0,0:0:0:0:
64,248,408299,1,2,0:0:0:0:
64,248,408313,1,0,0:0:0:0:
49,168,408410,1,10,0:0:0:0:
49,168,408424,1,0,0:0:0:0:
67,89,408520,1,2,0:0:0:0:
67,89,408534,1,0,0:0:0:0:
115,22,408631,1,2,0:0:0:0:
115,22,408645,2,0,L|195:22,1,73.4999948363306,0|8,0:0|0:0,0:0:0:0:
440,72,408852,5,10,3:0:0:0:
440,72,408866,1,0,0:0:0:0:
488,152,408963,1,10,3:0:0:0:
488,152,408977,1,0,0:0:0:0:
384,120,409073,1,10,0:0:0:0:
384,120,409087,1,0,0:0:0:0:
432,200,409184,1,10,3:0:0:0:
432,200,409198,1,0,0:0:0:0:
328,176,409295,1,10,3:0:0:0:
328,176,409308,1,0,0:0:0:0:
376,248,409405,1,10,0:0:0:0:
376,248,409419,1,0,0:0:0:0:
296,296,409516,6,0,L|248:216,1,83.9999940986636,8|8,3:0|3:0,0:0:0:0:
160,32,409737,37,10,0:0:0:0:
160,32,409751,1,0,0:0:0:0:
144,256,409848,1,10,3:0:0:0:
144,256,409861,1,0,0:0:0:0:
40,60,409958,1,10,3:0:0:0:
40,60,409972,1,0,0:0:0:0:
240,160,410069,1,10,0:0:0:0:
240,160,410083,1,0,0:0:0:0:
16,184,410179,1,10,3:0:0:0:
16,184,410193,1,0,0:0:0:0:
32,272,410290,21,8,3:0:0:0:
64,344,410401,1,8,3:0:0:0:
144,344,410511,1,0,0:0:0:0:
224,312,410622,37,14,0:0:0:0:
224,312,410651,2,0,B|208:223|208:223|180:229|180:229|256:143,1,209.99999165535,4|0,0:0|0:0,0:0:0:0:
160,32,410972,38,0,L|80:104,1,89.9999998569489,0|8,0:0|0:0,0:0:0:0:
180,228,411205,2,0,L|108:300,1,89.9999998569489,0|2,0:0|0:0,0:0:0:0:
240,360,411439,1,0,0:0:0:0:
304,320,411556,21,14,0:0:0:0:
304,320,411584,1,4,0:0:0:0:
368,272,411669,54,0,P|404:252|408:188,1,89.9999998569489
312,56,411895,1,0,0:0:0:0:
288,128,412008,1,10,0:0:0:0:
228,160,412121,1,0,0:0:0:0:
165,136,412234,2,0,P|149:128|149:48,1,89.9999998569489,2|0,0:0|0:0,0:0:0:0:
16,272,412461,37,10,3:0:0:0:
56,192,412570,1,0,0:0:0:0:
8,120,412680,1,0,0:0:0:0:
51,37,412790,1,2,0:0:0:0:
136,64,412900,1,8,0:0:0:0:
224,16,413010,1,0,0:0:0:0:
312,56,413120,1,2,0:0:0:0:
408,16,413230,2,0,L|408:75,1,44.9999999284745,2|2,0:0|0:0,0:0:0:0:
472,92,413340,6,0,B|496:165|496:165|432:260,1,179.999999713898,10|2,3:0|0:0,0:0:0:0:
360,288,413670,1,2,0:0:0:0:
280,304,413780,2,0,L|280:357,1,44.9999999284745,8|0,0:0|0:0,0:0:0:0:
192,296,413890,2,0,L|192:360,1,44.9999999284745
120,264,414000,2,0,B|80:304,1,44.9999999284745
88,192,414110,1,0,0:0:0:0:
80,96,414220,6,0,L|156:30,1,89.9999998569489,10|0,3:0|0:0,0:0:0:0:
248,52,414440,1,0,0:0:0:0:
248,152,414550,2,0,L|344:185,1,89.9999998569489,2|8,0:0|0:0,0:0:0:0:
384,48,414770,2,0,P|440:72|512:40,2,119.999995231629,0|2|0,0:0|0:0|0:0,0:0:0:0:
432,152,415100,53,10,3:0:0:0:
432,259,415210,1,0,0:0:0:0:
355,316,415320,2,0,L|291:380,1,89.9999998569489
232,321,415540,2,0,L|230:223,1,89.9999998569489,8|0,0:0|0:0,0:0:0:0:
146,188,415760,2,0,L|50:188,1,89.9999998569489
57,100,415980,53,10,3:0:0:0:
219,96,416090,1,2,0:0:0:0:
56,188,416200,1,2,0:0:0:0:
225,188,416310,1,2,0:0:0:0:
219,96,416420,5,10,0:0:0:0:
56,188,416530,1,2,0:0:0:0:
225,188,416640,1,2,0:0:0:0:
70,293,416750,1,2,0:0:0:0:
56,188,416860,5,10,3:0:0:0:
225,188,416970,1,2,0:0:0:0:
70,293,417080,1,2,0:0:0:0:
229,289,417190,1,10,3:0:0:0:
358,285,417300,6,0,P|382:194|184:77,1,359.999999427796,10|14,0:0|0:0,0:0:0:0:
188,75,417792,1,4,0:0:0:0:
0,192,418217,21,8,0:0:0:0:
250,111,418445,2,0,L|268:233,1,119.999995231629
297,383,418672,5,10,3:0:0:0:
479,27,418899,1,2,0:0:0:0:
22,28,419126,1,8,0:0:0:0:
488,360,419353,21,14,0:0:0:0:
488,360,419381,1,4,0:0:0:0:
255,33,419817,53,0,0:0:0:0:
468,288,420039,1,10,0:0:0:0:
196,199,420261,2,0,B|157:180|157:180|92:104,1,119.999995231629
260,384,420483,37,2,0:0:0:0:
0,0,420705,1,10,0:0:0:0:
512,0,420927,1,8,3:0:0:0:
0,372,421149,37,14,0:0:0:0:
0,372,421176,1,4,0:0:0:0:
512,197,421484,38,0,L|416:296,1,119.999995231629
40,27,421824,2,0,P|48:115|200:187,1,239.999990463257,10|0,0:0|0:0,0:0:0:0:
224,280,422165,5,8,0:0:0:0:
129,317,422278,1,10,0:0:0:0:
416,144,422505,38,0,B|316:144|316:144|308:194|308:194|218:194,2,239.999990463257,2|8|14,0:0|3:0|1:0,0:0:0:0:
432,232,423137,37,0,0:0:0:0:
424,264,423226,1,0,0:0:0:0:
411,293,423315,1,0,0:0:0:0:
392,317,423405,1,0,0:0:0:0:
340,340,423524,5,8,0:0:0:0:
308,344,423613,1,0,0:0:0:0:
273,335,423702,1,0,0:0:0:0:
248,323,423791,1,0,0:0:0:0:
445,110,424089,53,2,0:0:0:0:
392,86,424237,5,2,0:0:0:0:
360,80,424326,1,2,0:0:0:0:
312,84,424445,53,10,0:0:0:0:
285,111,424535,1,2,0:0:0:0:
264,144,424624,1,2,0:0:0:0:
232,164,424713,1,2,0:0:0:0:
48,200,424921,5,0,0:0:0:0:
48,144,425040,53,0,0:0:0:0:
56,112,425129,1,0,0:0:0:0:
72,88,425219,1,0,0:0:0:0:
96,64,425308,1,0,0:0:0:0:
120,48,425397,1,8,0:0:0:0:
152,40,425486,1,0,0:0:0:0:
184,40,425575,1,0,0:0:0:0:
211,48,425665,1,0,0:0:0:0:
376,240,425843,5,2,0:0:0:0:
336,280,425992,53,2,0:0:0:0:
312,304,426081,1,2,0:0:0:0:
296,320,426170,1,2,0:0:0:0:
256,360,426289,5,10,0:0:0:0:
474,32,426527,53,14,0:0:0:0:
474,32,426557,1,4,0:0:0:0:
256,360,426984,21,2,0:0:0:0:
256,20,427203,1,10,0:0:0:0:
80,328,427422,1,2,0:0:0:0:
16,272,427532,1,0,0:0:0:0:
80,208,427642,1,2,0:0:0:0:
456,144,427861,1,8,3:0:0:0:
512,208,427971,1,0,0:0:0:0:
455,283,428080,2,0,L|368:352,1,101.99999789238,8|0,0:0|0:0,0:0:0:0:
80,208,428300,1,0,0:0:0:0:
8,152,428409,1,0,0:0:0:0:
80,96,428519,5,0,0:0:0:0:
396,288,428738,2,0,L|276:288,1,101.99999789238,10|0,3:0|0:0,0:0:0:0:
80,208,428958,1,8,0:0:0:0:
488,208,429177,1,2,0:0:0:0:
472,114,429287,1,0,0:0:0:0:
400,152,429396,1,2,0:0:0:0:
96,152,429616,2,0,L|-16:152,2,101.99999789238,8|0|8,3:0|0:0|0:0,0:0:0:0:
96,60,429945,1,0,0:0:0:0:
168,12,430054,1,0,0:0:0:0:
228,72,430164,1,0,0:0:0:0:
292,12,430274,5,0,0:0:0:0:
300,320,430493,2,0,B|264:360|264:360|216:320,1,101.99999789238,10|0,3:0|0:0,0:0:0:0:
228,72,430712,1,10,0:0:0:0:
384,232,430932,2,0,L|268:232,1,101.99999789238,2|0,0:0|0:0,0:0:0:0:
60,248,431151,1,10,3:0:0:0:
228,72,431370,2,0,L|116:72,1,101.99999789238,8|0,3:0|0:0,0:0:0:0:
280,334,431590,2,0,L|280:222,1,101.99999789238,8|0,0:0|0:0,0:0:0:0:
488,24,431809,2,0,L|488:128,1,101.99999789238
280,334,432029,38,0,L|496:334,1,203.99999578476,0|10,0:0|3:0,0:0:0:0:
488,256,432358,2,0,L|488:152,1,101.99999789238,0|8,0:0|0:0,0:0:0:0:
64,156,432687,2,0,L|64:260,1,101.99999789238,2|0,0:0|0:0,0:0:0:0:
152,84,432907,2,0,L|356:84,1,203.99999578476,8|10,3:0|3:0,0:0:0:0:
413,186,433236,2,0,L|497:265,1,101.99999789238,0|10,0:0|0:0,0:0:0:0:
390,272,433456,1,0,0:0:0:0:
326,362,433566,1,0,0:0:0:0:
299,256,433676,1,0,0:0:0:0:
213,308,433786,5,8,3:0:0:0:
269,26,434005,2,0,L|248:144,1,101.99999789238,2|0,0:0|0:0,0:0:0:0:
192,356,434225,1,10,0:0:0:0:
144,71,434444,1,2,0:0:0:0:
164,184,434554,1,0,0:0:0:0:
251,126,434664,2,0,L|459:126,1,203.99999578476,2|8,0:0|3:0,0:0:0:0:
452,224,434994,2,0,L|348:224,1,101.99999789238,0|8,0:0|0:0,0:0:0:0:
208,224,435213,1,0,0:0:0:0:
208,320,435323,1,0,0:0:0:0:
304,320,435433,1,0,0:0:0:0:
304,224,435543,5,0,0:0:0:0:
455,24,435762,2,0,L|455:126,2,101.99999789238,10|0|8,3:0|0:0|0:0,0:0:0:0:
40,24,436202,5,14,0:0:0:0:
40,48,436229,2,0,B|48:56|48:56|48:72|48:72|32:72|32:72|32:88|32:88|48:88|48:88|48:104|48:104|32:104|32:104|32:120|32:120|48:120|48:120|40:136|40:136|40:216,1,209.99999165535,4|0,0:0|0:0,0:0:0:0:
417,351,436641,21,0,0:0:0:0:
40,188,436861,1,10,0:0:0:0:
396,48,437080,1,0,0:0:0:0:
452,24,437190,1,0,0:0:0:0:
487,74,437300,5,2,0:0:0:0:
88,352,437520,1,8,3:0:0:0:
488,182,437739,1,10,0:0:0:0:
48,100,437959,1,0,0:0:0:0:
60,43,438069,1,0,0:0:0:0:
114,23,438179,1,2,0:0:0:0:
88,352,438399,5,8,0:0:0:0:
24,296,438508,1,0,0:0:0:0:
24,212,438618,1,10,0:0:0:0:
94,170,438728,1,8,0:0:0:0:
172,192,438838,1,10,3:0:0:0:
216,264,438947,1,0,0:0:0:0:
256,192,439057,37,8,3:0:0:0:
8,368,439276,1,10,3:0:0:0:
261,18,439496,1,8,3:0:0:0:
496,360,439715,1,10,3:0:0:0:
451,111,439936,37,14,1:0:0:0:
451,111,439965,1,4,0:0:0:0:
393,57,440055,37,0,0:0:0:0:
316,56,440174,1,2,0:0:0:0:
260,108,440294,1,0,0:0:0:0:
232,176,440413,1,2,0:0:0:0:
292,224,440533,1,0,0:0:0:0:
280,304,440652,1,2,0:0:0:0:
200,296,440771,1,0,0:0:0:0:
30,215,440891,37,14,1:0:0:0:
30,215,440921,1,4,0:0:0:0:
27,135,441010,5,0,0:0:0:0:
53,70,441130,1,2,0:0:0:0:
116,36,441249,1,0,0:0:0:0:
192,24,441369,1,2,0:0:0:0:
264,32,441488,1,0,0:0:0:0:
336,48,441607,1,2,0:0:0:0:
400,88,441727,1,0,0:0:0:0:
488,267,441846,37,14,1:0:0:0:
488,267,441876,1,4,0:0:0:0:
446,335,441966,53,0,0:0:0:0:
400,262,442085,1,2,0:0:0:0:
354,335,442205,1,0,0:0:0:0:
295,265,442324,1,2,0:0:0:0:
243,338,442443,1,0,0:0:0:0:
191,265,442563,1,2,0:0:0:0:
132,336,442682,1,0,0:0:0:0:
112,184,442802,21,14,1:0:0:0:
112,184,442831,1,4,0:0:0:0:
384,120,443034,54,0,B|323:118|323:118|298:90|298:90|249:93|249:93|223:60|223:60|177:67|177:67|151:36|151:36|111:42|111:42|65:23,1,359.999999427796,2|0,0:0|0:0,0:0:0:0:
48,16,443557,2,0,B|16:64|16:64|32:88|32:88|16:112|16:112|32:136|32:136|16:160|16:160|32:184|32:184|16:208|16:208|32:232|32:232|16:256|16:256|32:280|32:280|16:312|16:312|32:328|32:328|24:360|24:360|80:368|80:368|128:352,1,494.999999213219
128,344,444254,2,0,B|192:344|192:344|189:368|189:368|184:352|184:352|210:344|210:344|249:344|249:344|257:352|257:352|265:344|265:344|273:352|273:352|281:344|281:344|289:352|289:352|297:344|297:344|305:352|305:352|313:344|313:344|321:352|321:352|329:344|329:344|337:352|337:352|345:344|345:344|353:352|353:352|361:344|361:344|369:352|369:352|377:344|377:344|385:352|385:352|393:344|393:344|401:352|401:352|409:344|409:344|417:352|417:352|425:344|425:344|433:352|433:352|441:344|441:344|449:352|449:352|457:344|457:344|465:352|465:352|473:345|473:345|491:356,1,494.999999213219,2|0,0:0|0:0,0:0:0:0:
488,328,444952,2,0,B|496:280|496:280|480:264|480:264|496:256|496:256|480:240|480:240|496:232|496:232|480:216|480:216|496:208|496:208|480:192|480:192|496:176|496:176|480:168|480:168|496:152|496:152|480:136|480:136|496:120|496:120|480:112|480:112|496:96|496:96|476:88|476:88|476:32,1,404.99999935627
400,32,445591,6,0,B|348:36|348:36|304:60|304:60|256:32|256:32|160:52|160:52,1,224.999991059303,2|0,0:0|0:0,0:0:0:0:
190,45,445823,2,0,B|80:45|80:45|118:103|118:103|50:161,1,251.999982295991,2|0,0:0|0:0,0:0:0:0:
62,150,446056,2,0,B|80:240|80:240|23:248|23:248|71:290|71:290|32:357,1,269.999999570847,2|0,0:0|0:0,0:0:0:0:
42,339,446288,2,0,B|96:363|96:363|141:284|141:284|173:355|173:355|217:272,1,296.999991030693,2|0,0:0|0:0,0:0:0:0:
248,280,446521,6,0,B|352:280|352:280|380:376|380:376|460:240|460:240|340:180,1,479.999980926514,10|8,0:0|0:0,0:0:0:0:
112,52,447205,2,0,B|16:28|16:28|40:68|40:68|40:184,1,239.999990463257,2|8,0:0|0:0,0:0:0:0:
40,360,447661,5,8,3:0:0:0:
259,22,447889,1,0,0:0:0:0:
426,358,448117,2,0,B|485:313|485:313|485:256|485:256|376:256,2,239.999990463257,8|0|8,3:0|0:0|3:0,0:0:0:0:
384,288,448688,1,8,3:0:0:0:
355,369,448802,1,8,0:0:0:0:
147,38,449030,6,0,B|27:38|27:38|27:166,1,239.999990463257,0|2,0:0|0:0,0:0:0:0:
321,356,449486,2,0,B|248:312|248:312|184:360|184:360|136:304,1,239.999990463257,10|10,3:0|0:0,0:0:0:0:
248,32,449943,37,2,0:0:0:0:
320,64,450057,1,0,0:0:0:0:
248,96,450171,2,0,B|248:232|248:232|350:268,1,239.999990463257,0|10,0:0|3:0,0:0:0:0:
0,184,450627,1,10,0:0:0:0:
480,176,450855,1,2,0:0:0:0:
36,24,451083,1,8,0:0:0:0:
240,360,451311,2,0,B|300:348|300:348|370:365,2,119.999995231629,10|8|2,3:0|3:0|0:0,0:0:0:0:
362,45,451768,6,0,B|261:15|261:15|261:63|261:63|178:29,1,239.999990463257,2|8,0:0|0:0,0:0:0:0:
180,296,452234,2,0,B|292:275|292:275|413:307,2,239.999990463257,2|8|0,0:0|0:0|0:0,0:0:0:0:
120,352,452827,1,0,0:0:0:0:
32,328,452947,5,0,0:0:0:0:
32,240,453059,1,0,0:0:0:0:
128,224,453172,1,8,3:0:0:0:
128,124,453284,1,0,0:0:0:0:
168,224,453397,37,8,0:0:0:0:
232,136,453509,1,0,0:0:0:0:
312,212,453622,1,0,0:0:0:0:
360,104,453735,1,0,0:0:0:0:
232,104,453847,5,8,0:0:0:0:
196,28,453960,1,0,0:0:0:0:
112,36,454072,1,8,3:0:0:0:
95,125,454185,1,0,0:0:0:0:
232,132,454297,5,0,0:0:0:0:
104,184,454410,1,0,0:0:0:0:
248,208,454523,1,8,3:0:0:0:
128,272,454635,1,0,0:0:0:0:
248,224,454748,37,0,0:0:0:0:
360,240,454860,1,0,0:0:0:0:
324,132,454973,1,8,3:0:0:0:
440,148,455086,1,0,0:0:0:0:
512,76,455198,5,8,0:0:0:0:
440,144,455311,1,0,0:0:0:0:
420,40,455423,1,8,0:0:0:0:
336,100,455536,1,0,0:0:0:0:
440,140,455648,5,8,0:0:0:0:
464,352,455761,1,8,0:0:0:0:
328,184,455874,1,8,0:0:0:0:
512,248,455986,1,8,0:0:0:0:
304,320,456099,1,8,0:0:0:0:
440,136,456211,1,0,0:0:0:0:
464,356,456324,1,10,3:0:0:0:
324,184,456437,1,0,0:0:0:0:
207,354,456549,21,14,0:0:0:0:
207,354,456577,1,4,0:0:0:0:
176,248,456663,5,0,0:0:0:0:
240,164,456777,1,2,0:0:0:0:
328,184,456891,1,0,0:0:0:0:
368,72,457006,5,10,0:0:0:0:
276,108,457120,1,0,0:0:0:0:
234,28,457234,1,10,3:0:0:0:
196,104,457349,1,0,0:0:0:0:
134,25,457463,5,2,0:0:0:0:
24,56,457577,1,0,0:0:0:0:
136,104,457691,1,10,3:0:0:0:
32,136,457806,1,0,0:0:0:0:
164,156,457920,37,10,0:0:0:0:
120,256,458034,1,0,0:0:0:0:
36,200,458149,1,2,0:0:0:0:
36,312,458263,1,0,0:0:0:0:
120,256,458377,5,2,0:0:0:0:
120,296,458453,1,0,0:0:0:0:
136,336,458529,1,0,0:0:0:0:
168,360,458606,1,10,3:0:0:0:
208,368,458682,1,0,0:0:0:0:
248,360,458758,1,0,0:0:0:0:
280,332,458834,1,8,0:0:0:0:
292,296,458910,1,0,0:0:0:0:
308,256,458987,1,0,0:0:0:0:
334,240,459063,1,10,3:0:0:0:
369,247,459139,1,0,0:0:0:0:
392,276,459215,1,0,0:0:0:0:
407,314,459292,5,10,0:0:0:0:
490,297,459404,1,0,0:0:0:0:
510,208,459516,1,0,0:0:0:0:
440,148,459630,1,0,0:0:0:0:
320,184,459743,37,8,0:0:0:0:
344,96,459856,1,0,0:0:0:0:
440,148,459969,1,0,0:0:0:0:
416,44,460082,1,0,0:0:0:0:
304,12,460195,5,8,0:0:0:0:
208,52,460308,1,0,0:0:0:0:
272,144,460420,1,8,3:0:0:0:
348,96,460533,1,0,0:0:0:0:
278,209,460646,5,0,0:0:0:0:
208,144,460759,1,0,0:0:0:0:
202,284,460872,1,8,3:0:0:0:
119,204,460985,1,0,0:0:0:0:
194,291,461098,37,8,0:0:0:0:
120,216,461209,1,0,0:0:0:0:
120,344,461321,1,0,0:0:0:0:
40,280,461433,1,0,0:0:0:0:
120,360,461544,5,8,0:0:0:0:
120,232,461656,1,0,0:0:0:0:
208,144,461768,1,0,0:0:0:0:
100,96,461880,1,0,0:0:0:0:
204,56,461992,5,0,0:0:0:0:
204,100,462068,1,0,0:0:0:0:
208,144,462144,1,0,0:0:0:0:
240,176,462221,1,8,3:0:0:0:
284,172,462297,1,0,0:0:0:0:
312,140,462373,1,0,0:0:0:0:
316,96,462450,1,8,0:0:0:0:
320,48,462526,1,0,0:0:0:0:
352,16,462602,1,0,0:0:0:0:
400,20,462679,1,2,0:0:0:0:
424,60,462755,1,0,0:0:0:0:
428,104,462831,1,0,0:0:0:0:
428,148,462908,37,8,3:0:0:0:
488,208,463022,1,0,0:0:0:0:
432,284,463137,1,2,0:0:0:0:
376,216,463251,1,0,0:0:0:0:
240,144,463366,5,10,0:0:0:0:
272,288,463480,1,0,0:0:0:0:
324,168,463595,1,2,0:0:0:0:
212,240,463709,1,0,0:0:0:0:
170,365,463824,5,10,0:0:0:0:
273,290,463938,1,0,0:0:0:0:
108,296,464053,1,10,3:0:0:0:
260,352,464167,1,0,0:0:0:0:
75,218,464282,38,0,L|49:158,1,59.9999976158143,2|0,0:0|0:0,0:0:0:0:
448,206,464511,2,0,L|477:142,1,59.9999976158143,10|0,3:0|0:0,0:0:0:0:
40,84,464740,5,10,0:0:0:0:
40,84,464816,1,0,0:0:0:0:
76,40,464892,1,0,0:0:0:0:
76,40,464969,1,10,3:0:0:0:
136,36,465045,1,0,0:0:0:0:
136,36,465121,1,0,0:0:0:0:
182,80,465198,1,8,0:0:0:0:
182,80,465274,1,0,0:0:0:0:
192,136,465350,1,0,0:0:0:0:
192,136,465427,1,2,0:0:0:0:
204,192,465503,1,0,0:0:0:0:
204,192,465579,1,0,0:0:0:0:
256,216,465656,5,2,0:0:0:0:
338,212,465769,1,0,0:0:0:0:
352,128,465882,1,8,3:0:0:0:
428,224,465995,5,0,0:0:0:0:
428,224,466051,1,0,0:0:0:0:
428,224,466108,1,8,0:0:0:0:
460,132,466220,37,0,0:0:0:0:
448,16,466333,1,0,0:0:0:0:
356,36,466446,21,0,0:0:0:0:
356,36,466502,1,0,0:0:0:0:
356,36,466559,1,8,0:0:0:0:
248,48,466672,21,0,0:0:0:0:
188,120,466784,1,8,3:0:0:0:
120,64,466897,37,0,0:0:0:0:
120,64,466953,1,0,0:0:0:0:
120,64,467010,1,0,0:0:0:0:
76,160,467123,21,0,0:0:0:0:
136,232,467235,1,10,3:0:0:0:
236,236,467348,37,0,0:0:0:0:
236,236,467405,1,0,0:0:0:0:
236,236,467461,1,10,0:0:0:0:
304,168,467570,53,0,0:0:0:0:
356,80,467680,1,0,0:0:0:0:
464,80,467789,5,0,0:0:0:0:
464,80,467844,1,0,0:0:0:0:
464,80,467899,1,8,0:0:0:0:
472,176,468008,38,0,P|440:224|463:277,2,119.999995231629
376,296,468337,2,0,P|312:286|256:232,1,119.999995231629
192,200,468567,5,8,3:0:0:0:
184,180,468644,1,0,0:0:0:0:
184,92,468797,37,8,0:0:0:0:
200,72,468874,1,0,0:0:0:0:
224,56,468951,1,0,0:0:0:0:
248,48,469028,1,2,0:0:0:0:
276,48,469105,1,0,0:0:0:0:
300,56,469181,1,0,0:0:0:0:
320,68,469258,5,0,0:0:0:0:
368,160,469369,1,0,0:0:0:0:
264,184,469480,1,10,3:0:0:0:
208,264,469591,21,0,0:0:0:0:
208,264,469647,1,0,0:0:0:0:
208,264,469702,1,10,0:0:0:0:
128,192,469813,21,0,0:0:0:0:
40,224,469924,1,2,0:0:0:0:
48,312,470036,37,0,0:0:0:0:
48,312,470091,1,0,0:0:0:0:
48,312,470147,1,2,0:0:0:0:
128,224,470258,37,0,0:0:0:0:
136,312,470369,2,0,P|184:352|256:344,1,119.999995231629,10|0,3:0|0:0,0:0:0:0:
273,262,470591,1,10,0:0:0:0:
203,192,470702,2,0,L|147:192,1,44.9999999284745
296,128,470815,21,14,0:0:0:0:
296,128,470843,2,4,L|296:80,1,44.9999982118607,4|0,0:0|0:0,0:0:0:0:
416,88,471046,21,0,0:0:0:0:
440,120,471123,1,0,0:0:0:0:
456,152,471200,1,0,0:0:0:0:
456,192,471276,1,2,0:0:0:0:
448,236,471354,1,0,0:0:0:0:
428,284,471431,1,0,0:0:0:0:
388,324,471508,1,8,0:0:0:0:
256,200,471739,37,14,0:0:0:0:
256,200,471766,1,4,0:0:0:0:
65,283,472182,6,0,P|57:227|65:195,1,89.9999998569489,2|0,0:0|0:0,0:0:0:0:
90,116,472404,2,0,P|115:62|144:45,1,89.9999998569489,2|0,0:0|0:0,0:0:0:0:
224,28,472625,2,0,P|274:17|327:33,1,89.9999998569489,2|0,0:0|0:0,0:0:0:0:
387,60,472847,2,0,P|417:92|435:142,1,89.9999998569489,2|0,0:0|0:0,0:0:0:0:
440,216,473069,2,0,P|437:260|418:301,1,89.9999998569489,2|0,0:0|0:0,0:0:0:0:
359,357,473291,2,0,P|312:380|256:372,1,89.9999998569489,2|0,0:0|0:0,0:0:0:0:
160,344,473512,54,0,P|81:263|144:163,1,239.999990463257,2|0,0:0|0:0,0:0:0:0:
205,161,473734,22,0,P|243:267|159:344,1,239.999990463257,8|8,0:0|0:0,0:0:0:0:
32,312,474424,1,0,0:0:0:0:
208,160,474654,2,0,P|108:121|23:215,1,239.999990463257,8|8,0:0|0:0,0:0:0:0:
228,192,475345,1,0,0:0:0:0:
28,256,475575,2,0,P|80:298|227:230,1,239.999990463257,8|8,0:0|0:0,0:0:0:0:
144,132,476266,5,0,0:0:0:0:
384,20,476496,1,8,0:0:0:0:
444,260,476727,1,0,0:0:0:0:
180,256,476957,1,8,0:0:0:0:
392,84,477187,5,0,0:0:0:0:
208,72,477422,2,0,P|144:88|112:144,1,119.999995231629,8|0,0:0|0:0,0:0:0:0:
200,264,477893,1,8,0:0:0:0:
322,91,478128,2,0,P|275:70|201:74,1,119.999995231629,0|8,0:0|0:0,0:0:0:0:
63,170,478599,1,0,0:0:0:0:
184,296,478835,37,8,0:0:0:0:
296,144,479070,1,0,0:0:0:0:
407,295,479306,1,8,0:0:0:0:
169,300,479542,6,0,P|97:292|73:244,1,119.999995231629,0|8,0:0|0:0,0:0:0:0:
280,168,480013,2,0,P|352:184|408:176,1,119.999995231629,0|8,0:0|0:0,0:0:0:0:
400,34,480484,5,0,0:0:0:0:
280,168,480719,2,0,P|206:171|177:212,1,119.999995231629,8|0,0:0|0:0,0:0:0:0:
196,382,481191,1,8,0:0:0:0:
352,304,481426,2,0,P|399:277|432:205,1,119.999995231629,0|8,0:0|0:0,0:0:0:0:
232,88,481897,1,0,0:0:0:0:
448,92,482133,37,8,0:0:0:0:
224,284,482368,2,0,P|295:270|339:238,1,119.999995231629
176,120,482840,2,0,P|144:160|136:240,1,119.999995231629,0|8,0:0|0:0,0:0:0:0:
338,274,483311,6,0,P|289:306|232:296,1,119.999995231629,2|8,0:0|0:0,0:0:0:0:
180,72,483782,2,0,P|244:80|296:128,2,119.999995231629,2|8|2,0:0|0:0|0:0,0:0:0:0:
40,200,484489,1,8,0:0:0:0:
260,208,484724,5,0,0:0:0:0:
44,274,484960,2,0,P|68:346|108:370,1,119.999995231629,8|2,0:0|0:0,0:0:0:0:
256,368,485431,37,8,0:0:0:0:
440,320,485666,1,2,0:0:0:0:
260,216,485902,1,8,0:0:0:0:
464,88,486138,6,0,P|416:48|344:48,1,119.999995231629,2|8,0:0|0:0,0:0:0:0:
124,92,486609,1,0,0:0:0:0:
355,209,486844,1,8,0:0:0:0:
140,304,487080,5,2,0:0:0:0:
32,120,487315,2,0,P|56:160|136:176,1,119.999995231629,8|2,0:0|0:0,0:0:0:0:
200,32,487787,1,8,0:0:0:0:
398,179,488023,38,0,P|360:132|296:108,1,119.999995231629,2|8,0:0|0:0,0:0:0:0:
168,176,488496,1,0,0:0:0:0:
96,40,488732,5,8,0:0:0:0:
20,228,488968,1,2,0:0:0:0:
200,344,489204,1,8,0:0:0:0:
360,136,489440,6,0,P|376:208|352:256,1,119.999995231629,2|8,0:0|0:0,0:0:0:0:
200,356,489913,1,2,0:0:0:0:
212,136,490149,1,8,0:0:0:0:
380,324,490385,37,0,0:0:0:0:
240,16,490622,1,8,0:0:0:0:
488,384,490855,1,2,0:0:0:0:
0,176,491089,1,8,0:0:0:0:
504,32,491323,1,2,0:0:0:0:
8,360,491557,1,8,0:0:0:0:
328,0,491791,1,2,0:0:0:0:
256,376,492025,5,8,0:0:0:0:
0,24,492259,1,0,0:0:0:0:
488,248,492493,1,8,0:0:0:0:
256,312,492727,2,0,P|184:272|112:128,1,239.999990463257,2|8,0:0|0:0,0:0:0:0:
407,202,493195,2,0,P|357:96|243:42,1,239.999990463257,2|8,0:0|0:0,0:0:0:0:
32,256,493662,5,2,0:0:0:0:
496,356,493896,1,8,0:0:0:0:
27,32,494130,1,0,0:0:0:0:
493,296,494364,1,8,0:0:0:0:
24,72,494598,1,2,0:0:0:0:
500,236,494832,1,8,0:0:0:0:
25,109,495066,1,2,0:0:0:0:
493,296,495300,37,8,0:0:0:0:
24,144,495534,1,2,0:0:0:0:
480,80,495768,1,8,0:0:0:0:
384,352,496002,2,0,P|448:344|344:248,1,299.999988079071,0|8,0:0|0:0,0:0:0:0:
24,32,496469,2,0,P|32:112|160:24,1,299.999988079071,2|8,0:0|0:0,0:0:0:0:
474,330,496937,5,2,0:0:0:0:
216,80,497171,2,0,P|376:136|388:305,1,359.999999427796,8|2,0:0|0:0,0:0:0:0:
148,177,497641,2,0,P|188:305|388:305,1,359.999999427796,8|0,0:0|0:0,0:0:0:0:
148,177,498111,2,0,P|308:209|372:41,1,359.999999427796,8|2,0:0|0:0,0:0:0:0:
32,24,498581,5,8,0:0:0:0:
488,208,498816,1,2,0:0:0:0:
132,352,499051,1,8,0:0:0:0:
32,24,499286,2,0,B|4:124|4:124|104:92|104:92|76:208|76:208|212:124,1,467.999983188629,2|8,0:0|0:0,0:0:0:0:
232,204,499756,2,0,B|308:204|308:204|308:252|308:252|260:252|260:252|316:332|316:332|240:256|240:256|240:368,1,467.999983188629,0|8,0:0|0:0,0:0:0:0:
504,108,500226,38,0,B|424:176|424:176|416:300|416:300|396:176|396:176|304:104,1,467.999983188629,2|8,0:0|0:0,0:0:0:0:
8,160,500696,1,2,0:0:0:0:
492,348,500931,1,8,0:0:0:0:
280,12,501166,1,2,0:0:0:0:
40,360,501401,1,8,0:0:0:0:
480,40,501636,1,0,0:0:0:0:
256,160,501872,53,14,0:0:0:0:
256,208,501902,1,4,0:0:0:0:
320,96,502599,6,0,L|336:96,1,14.9999994039536
424,272,502842,6,0,L|448:272,1,14.9999994039536
407,274,502902,1,0,0:0:0:0:
388,278,502963,1,0,0:0:0:0:
371,284,503024,1,0,0:0:0:0:
347,294,503084,1,0,0:0:0:0:
464,96,503327,5,2,0:0:0:0:
16,44,503548,1,0,0:0:0:0:
496,228,503770,1,0,0:0:0:0:
12,352,503992,1,0,0:0:0:0:
500,177,504213,37,2,0:0:0:0:
16,24,504445,1,0,0:0:0:0:
248,384,504677,1,2,0:0:0:0:
488,24,504909,1,0,0:0:0:0:
8,368,505141,1,2,0:0:0:0:
252,0,505373,1,0,0:0:0:0:
512,378,505606,1,2,0:0:0:0:
240,240,506070,37,0,0:0:0:0:
280,216,506126,1,0,0:0:0:0:
280,176,506184,1,0,0:0:0:0:
256,152,506242,1,2,0:0:0:0:
240,120,506299,1,2,0:0:0:0:
240,88,506357,1,2,0:0:0:0:
256,192,506416,12,0,510223,0:0:0:0:
