osu file format v14

[General]
AudioFilename: audio.mp3
AudioLeadIn: 0
PreviewTime: 426527
Countdown: 0
SampleSet: Soft
StackLeniency: 0.7
Mode: 0
LetterboxInBreaks: 0
WidescreenStoryboard: 1

[Editor]
DistanceSpacing: 0.5
BeatDivisor: 1
GridSize: 8
TimelineZoom: 1.444

[Metadata]
Title:Roundabout
TitleUnicode:Roundabout
Artist:YES
ArtistUnicode:YES
Creator:IwanWenChoong
Version:Easy
Source:ジョジョの奇妙な冒険
Tags:1971 JoJo's Bizarre Adventure Ending Anime To be Continued jojo Fragile Rock Progressive Jon Anderson Steve Howe Rick Wakeman Bill Bruford Chris Squire meme old song full version Marathon english british Los Santos Rock Radio Grand Theft Auto V GTA 5
BeatmapID:2046310
BeatmapSetID:456802

[Difficulty]
HPDrainRate:2
CircleSize:2
OverallDifficulty:2
ApproachRate:3
SliderMultiplier:1.39999990463257
SliderTickRate:2

[Events]
//Background and Video events
0,0,"cover.jpg",0,0
//Break Periods
2,106521,117790
2,135784,139671
2,205866,218489
2,241340,254049
2,298590,333864
2,390948,402030
2,426727,434762
//Storyboard Layer 0 (Background)
//Storyboard Layer 1 (Fail)
//Storyboard Layer 2 (Pass)
//Storyboard Layer 3 (Foreground)
//Storyboard Layer 4 (Overlay)
//Storyboard Sound Samples

[TimingPoints]
0,447.761194029851,4,2,2,5,1,0
8059,444.444444444444,4,2,2,71,1,0
11170,437.956204379562,4,2,2,71,1,0
12922,473.186119873817,4,2,2,71,1,0
16707,441.891294741494,4,2,2,71,1,0
19800,448.095593726662,4,2,2,71,1,0
21872,458.015267175573,4,2,2,71,1,0
22788,493.015612161052,4,2,2,71,1,0
28704,434.467776973208,4,2,2,71,1,0
33484,491.803278688525,4,2,2,71,1,0
37254,492.610837438424,4,2,2,71,1,0
41194,545.454545454546,4,2,2,71,1,0
42284,448.296654275093,4,2,2,71,1,0
43180,461.538461538462,4,2,2,71,1,0
44103,433.526011560694,4,2,2,71,1,0
44754,437.956204379562,4,1,2,71,1,0
45000,437.956204379562,4,1,1,71,1,0
46751,430.941607412196,4,1,1,71,1,0
48475,437.956204379562,4,1,1,71,1,0
50226,431.468430893139,4,1,1,71,1,0
51951,446.727719454992,4,1,1,71,1,0
53740,433.996383363472,4,1,1,71,1,0
57214,436.270032286469,4,1,1,71,1,0
58959,460.829493087558,4,1,2,71,1,0
59880,442.444444444444,4,1,1,71,1,0
61649,440.787540405525,4,1,1,71,1,0
63412,445.930880713489,4,1,1,71,1,0
68541,444.444444444444,4,1,1,71,1,0
68763,444.444444444444,4,1,1,71,1,0
71429,464.108910891089,4,1,1,71,1,0
72359,484.652665589661,4,2,2,71,1,0
75267,456.725279744234,4,1,2,71,1,0
78977,447.360572621533,4,1,1,71,1,0
80767,434.562178605055,4,1,1,71,1,0
82287,445.136879590474,4,1,1,71,1,0
82509,445.136879590474,4,1,1,71,1,0
83399,443.360673908224,4,1,1,71,1,0
84286,442.02151171357,4,1,2,71,1,0
86081,445.43429844098,4,1,1,71,1,0
95657,-100,4,1,2,71,0,0
95880,444.938820912125,4,1,1,71,1,0
99440,480,4,1,2,71,1,0
100400,492.206726825267,4,2,2,71,1,0
102368,845.427645484007,4,1,1,71,1,0
103213,737.100737100737,4,1,1,71,1,0
103950,705.882352941176,4,1,1,71,1,0
105361,480,4,1,1,71,1,0
106321,471.031559114461,4,1,1,71,1,0
107263,457.003579861376,4,1,1,71,1,0
108177,464.001237336633,4,1,1,71,1,0
112817,454.235748353395,4,2,2,43,1,0
116451,462.962962962963,4,2,2,43,1,0
119230,460.440488066917,4,1,1,71,1,1
119230,-83.3333333333333,4,1,1,71,0,1
125676,463.105896881754,4,1,1,71,1,1
125676,-83.3333333333333,4,1,1,71,0,1
129380,454.545454545455,4,1,1,71,1,1
129380,-83.3333333333333,4,1,1,71,0,1
130970,483.014007406215,4,1,2,71,1,0
131936,458.400183360073,4,2,2,71,1,0
133770,453.514739229025,4,1,1,71,1,0
135584,-100,4,1,2,71,0,0
135773,456.273764258555,4,1,1,71,1,0
137598,421.940928270042,4,1,1,71,1,0
138441,445.16990651432,4,1,1,71,1,0
139331,440.27003228647,4,1,1,71,1,0
140651,459.664444955183,4,1,1,71,1,0
141111,425.954848786029,4,1,2,71,1,0
142868,445.997175351223,4,1,1,71,1,0
145543,418.03107364314,4,1,1,71,1,0
145961,475.134621476085,4,1,1,71,1,0
146436,235.941801022415,4,1,1,71,1,0
146907,227.876946448918,4,1,1,71,1,0
146907,-200,4,1,1,71,0,0
147818,237.492083597213,7,1,1,71,1,0
148530,247.790534401585,7,2,2,71,1,0
148530,-200,4,1,1,71,0,0
149274,233.009708737864,7,1,1,71,1,0
149973,257.510729613734,7,2,2,71,1,0
149973,-200,4,1,1,71,0,0
150230,445.103857566766,4,1,2,71,1,0
150675,-100,4,1,1,71,0,0
153790,449.269936353426,4,1,1,71,1,0
157384,-100,4,3,1,61,0,0
157608,-100,4,1,1,71,0,0
159855,-100,4,1,2,71,0,0
160080,452.556946749133,4,1,1,71,1,0
163701,491.400491400491,4,2,2,71,1,0
166649,816.215480886954,4,1,1,71,1,0
167465,710.059171597633,4,1,1,71,1,0
168175,685.714285714286,4,1,1,71,1,0
169546,460.545454545455,4,1,1,71,1,0
170467,464.037122969838,4,1,1,71,1,1
170467,-83.3333333333333,4,1,1,71,0,1
176963,462.962962962963,4,1,1,71,1,1
181129,-83.3333333333333,4,1,1,71,0,1
182518,451.127819548872,4,1,1,71,1,1
182518,-83.3333333333333,4,1,1,71,0,1
182969,475.134621476085,4,1,1,71,1,1
182969,-83.3333333333333,4,1,1,71,0,1
183444,459.382895643519,4,1,1,71,1,1
187578,-76.9230769230769,4,1,1,71,0,1
188956,477.288998488585,4,1,1,71,1,1
188956,-76.9230769230769,4,1,1,71,0,1
189910,454.063871651279,4,1,1,71,1,1
191726,462.42774566474,4,1,1,71,1,1
193576,460.29919447641,4,1,1,71,1,1
195188,471.623958497092,4,1,2,71,1,1
196132,460.830591605033,4,2,2,71,1,0
197976,553.250345781466,4,1,2,71,1,0
198252,-100,4,2,4,5,0,0
201849,241.954996370675,3,2,2,71,1,0
202332,226.860254083484,3,1,1,71,1,0
202332,-200,3,1,1,71,0,0
202785,254.798709019874,3,2,2,71,1,0
203295,247.167868177137,3,1,1,71,1,0
204036,-200,3,1,1,71,0,0
204779,221.81146025878,3,1,1,51,1,0
205444,222.469410456062,3,1,1,51,1,0
205444,-200,3,1,1,51,0,0
205666,458.330150485066,4,1,2,71,1,0
207499,439.335139488907,4,1,1,71,1,0
209257,453.754821144975,4,1,1,71,1,0
211070,439.721509710516,4,1,1,71,1,0
211949,419.58041958042,4,1,1,71,1,0
212368,461.538461538462,4,1,1,71,1,0
212829,441.988950276243,4,1,1,71,1,0
214596,443.458980044346,4,1,1,71,1,0
216369,445.103857566766,4,1,1,71,1,0
221709,438.436244062843,4,1,1,71,1,0
223462,438.020148926851,4,1,1,71,1,0
226091,408.163265306122,4,1,1,71,1,0
226499,446.528242911364,4,1,1,71,1,0
226945,441.533593347561,4,1,2,71,1,0
227828,-100,4,1,1,71,0,0
230477,444.80687967974,4,1,1,71,1,0
232256,431.996544027649,4,1,1,71,1,0
233119,457.526307762697,4,1,1,71,1,0
234035,444.115470022206,4,1,1,71,1,0
241140,445.136879590474,4,1,1,71,1,0
244701,453.309156844968,4,1,1,71,1,0
248327,447.627017484625,4,1,1,71,1,0
255489,449.775112443778,4,1,1,71,1,0
259088,454.270139309509,4,1,1,71,1,0
262722,449.068183519198,4,1,1,71,1,0
266316,464.32440798638,4,1,1,71,1,0
268173,418.848167539267,4,1,1,71,1,0
269455,419.58041958042,4,1,1,71,1,0
269875,447.928331466965,4,1,2,71,1,0
270770,-100,4,1,1,71,0,0
277042,451.739195904231,4,1,1,71,1,0
277945,-133.333333333333,4,1,1,71,0,0
278397,-133.333333333333,4,1,2,61,0,0
278623,-133.333333333333,4,1,1,71,0,0
280655,447.761194029851,4,1,1,71,1,0
284237,450.45045045045,4,1,2,71,1,0
284687,-100,4,1,1,71,0,0
285588,-133.333333333333,4,1,2,61,0,0
285813,-100,4,1,1,71,0,0
286038,447.761194029851,4,1,1,71,1,0
287829,450.653447498873,4,1,1,71,1,0
289180,-133.333333333333,4,1,2,61,0,0
289406,-100,4,1,1,71,0,0
290983,413.736036408771,4,1,2,71,1,0
292637,391.236036408771,4,2,2,71,1,0
293810,437.31778425656,4,2,2,71,1,0
295121,510.33426894616,4,2,2,71,1,0
295630,418.322526668061,4,2,2,71,1,0
296257,390.32006245121,4,2,2,71,1,0
296647,508.216161273928,4,2,2,71,1,0
297155,338.028169014084,4,2,2,71,1,0
297831,253.796370711899,4,2,2,7,1,0
298085,305.701329800785,4,2,2,7,1,0
298390,455.027819548872,4,2,2,37,1,0
298845,350.405886818899,4,2,2,7,1,0
299545,332.06043499917,4,2,2,7,1,0
300209,352.941176470588,4,2,2,7,1,0
300562,301.507537688442,4,2,2,7,1,0
300863,325.55615843733,4,2,2,7,1,0
301575,429.184549356223,4,2,2,37,1,0
302647,415.512465373961,4,2,2,7,1,0
303339,473.9336492891,4,2,2,37,1,0
303575,393.366311272916,4,2,2,7,1,0
303969,333.333333333333,4,2,2,7,1,0
304302,330.487473180393,4,2,2,7,1,0
304963,340.078651685393,4,2,2,7,1,0
307130,551.825623103099,4,2,2,37,1,0
307681,482.81966685443,4,2,2,7,1,0
308164,518.627366237359,4,2,2,37,1,0
308390,323.066982554383,4,2,2,7,1,0
309037,343.977526801582,4,2,2,7,1,0
309724,481.772924361651,4,2,2,7,1,0
310206,450.34902049088,4,2,2,37,1,0
312288,434.782608695652,4,2,2,37,1,0
312722,492.97510475721,4,2,2,37,1,0
313217,319.233838786911,4,2,2,37,1,0
314175,334.690690020639,4,2,2,7,1,0
314844,344.708721130645,4,2,2,7,1,0
315533,333.704115684093,4,2,2,7,1,0
316200,343.308348114665,4,2,2,7,1,0
316887,332.704890761894,4,2,2,7,1,0
317552,332.704890761894,4,2,2,7,1,0
319069,450.721153846154,4,2,2,37,1,0
320421,474.420811259587,4,2,2,37,1,0
321370,340.155337604173,4,2,2,7,1,0
322050,340.155337604173,4,2,2,7,1,0
322730,328.748936170212,4,2,2,7,1,0
323387,472.664250827162,4,2,2,7,1,0
323860,333.333333333333,4,2,2,37,1,0
324610,334.484596702032,4,2,2,7,1,0
325028,482.625482625483,4,2,2,37,1,0
325843,377.358490566038,4,2,2,37,1,0
326220,446.827524575514,4,2,2,7,1,0
326667,345.164816199735,4,2,2,7,1,0
327357,281.00412139378,4,2,2,7,1,0
327638,488.20179007323,4,2,2,37,1,0
328615,321.888412017167,4,2,2,37,1,0
329581,471.698113207547,4,2,2,37,1,0
331231,404.176490400809,4,2,2,37,1,0
331635,461.71604463255,4,2,2,7,1,0
332327,482.780817508851,4,2,2,7,1,0
335304,509.078567792296,4,2,2,7,1,0
335304,-200,4,2,2,20,0,0
337340,441.176470588235,4,2,2,20,1,0
339104,475.098754669988,4,2,2,20,1,0
339104,-200,4,2,2,20,0,0
341004,769.230769230769,4,1,1,20,1,0
341772,638.297872340426,4,1,1,20,1,0
342410,727.625515401407,4,1,1,20,1,0
343137,659.340659340659,4,1,1,20,1,0
343796,1023.71608940454,4,1,1,20,1,0
344819,474.308300395257,4,1,1,37,1,0
346716,695.974944901984,4,1,1,37,1,0
347412,483.870967741935,4,1,1,71,1,0
347532,-100,4,2,4,5,0,0
351282,459.418070444105,4,1,2,71,1,0
351511,-100,4,1,1,71,0,0
353120,452.147701582517,4,1,1,71,1,0
354024,-100,4,3,1,61,0,0
354250,-100,4,1,1,71,0,0
354929,450.281425891182,4,1,1,71,1,0
356730,-100,4,3,1,61,0,0
356955,-100,4,1,1,71,0,0
357180,-100,4,1,2,61,0,0
357405,-100,4,1,1,71,0,0
359432,458.891013384322,4,1,1,71,1,0
360349,-100,4,3,1,61,0,0
360579,-100,4,1,1,71,0,0
360808,-100,4,1,2,61,0,0
361038,-100,4,1,1,71,0,0
361267,454.545454545455,4,1,1,71,1,0
362631,-100,4,1,2,71,0,0
362858,-100,4,1,1,71,0,0
363085,-100,4,1,2,61,0,0
363312,-100,4,1,1,71,0,0
363540,-100,4,1,2,61,0,0
363767,-100,4,1,1,71,0,0
363994,453.446191051995,4,1,1,71,1,0
366714,-100,4,3,1,61,0,0
366941,-100,4,1,2,61,0,0
367394,-100,4,1,1,71,0,0
367621,452.864367122047,4,1,2,71,1,0
367847,-100,4,1,1,71,0,0
369432,-100,4,3,1,61,0,0
369658,-100,4,1,1,71,0,0
369885,-100,4,1,2,61,0,0
370111,-100,4,1,1,71,0,0
370338,457.805786851012,4,1,1,71,1,0
372169,435.888122048674,4,1,1,71,1,0
372604,453.514739229025,4,1,1,71,1,0
373057,-100,4,3,1,61,0,0
373284,-100,4,1,1,71,0,0
373965,450.112528132033,4,1,1,71,1,0
375765,-100,4,3,1,61,0,0
375990,-100,4,1,1,71,0,0
376215,-100,4,1,2,61,0,0
376440,-100,4,1,1,71,0,0
376666,218.978102189781,4,1,1,71,1,0
376666,-200,4,1,1,71,0,0
380169,220.685596586729,4,1,1,71,1,0
380169,-200,4,1,1,71,0,0
383700,442.543147956926,4,1,1,71,1,0
384142,-100,4,1,2,61,0,0
384363,-100,4,1,1,71,0,0
385027,-100,4,1,2,61,0,0
385248,-100,4,1,1,71,0,0
387240,-90.9090909090909,4,1,1,71,0,0
387682,-100,4,1,2,61,0,0
387904,-100,4,1,1,71,0,0
388567,-100,4,1,2,61,0,0
388789,-100,4,1,1,71,0,0
389011,434.341971912553,4,1,1,71,1,0
390748,461.538461538462,4,1,2,71,1,0
391671,454.545454545455,4,1,1,71,1,0
397125,453.206435531385,4,1,1,71,1,0
403470,227.980849608633,4,1,1,71,1,0
403470,-200,4,1,1,71,0,0
405293,220.426157237325,4,1,1,71,1,0
405293,-200,4,1,1,71,0,0
406615,234.192037470726,4,1,1,71,1,0
406615,-200,4,1,1,71,0,0
407083,221.206311753429,4,1,1,71,1,1
407083,-200,4,1,1,71,0,1
407967,-200,4,3,1,61,0,1
408078,-200,4,1,1,71,0,1
409073,-200,4,1,2,61,0,1
409184,-200,4,1,1,71,0,1
410622,466.926070038911,4,1,2,71,1,0
410855,-100,4,1,1,71,0,0
411088,-100,4,1,2,61,0,0
411322,-100,4,1,1,71,0,0
411556,452.318130418394,4,1,2,71,1,0
412008,-100,4,1,1,71,0,0
412461,439.979467624844,4,1,1,71,1,0
412461,-83.3333333333333,4,1,1,71,0,0
417300,463.965357253325,4,1,1,71,1,0
417764,454.029511918275,4,1,2,71,1,0
417991,-100,4,1,1,71,0,0
419353,-100,4,1,2,71,0,0
419596,443.786982248521,4,1,1,71,1,0
421149,-100,4,1,2,71,0,0
421371,453.857791225416,4,1,1,71,1,0
422959,475.812846946868,4,1,2,71,1,0
423077,-100,4,1,1,5,0,0
426527,-100,4,1,2,71,0,0
426765,438.660622898085,4,1,1,71,1,0
432029,439.270810454645,4,1,1,71,1,0
436202,-100,4,1,2,71,0,0
436422,439.206500256204,4,1,1,71,1,0
439936,477.707006369427,4,2,2,71,1,0
442802,464.900046490005,4,1,2,71,1,0
443034,-100,4,1,1,71,0,0
446521,456.273764258555,4,1,1,71,1,1
451996,475.812846946868,4,1,1,71,1,1
452947,450.315220654458,4,1,1,71,1,1
456549,457.142857142857,4,1,2,71,1,1
456777,-100,4,1,1,71,0,1
458834,-100,4,1,2,61,0,1
458949,-100,4,1,1,71,0,1
459292,451.569202980357,4,1,1,71,1,1
461098,446.927374301676,4,1,1,71,1,1
461992,458.015267175573,4,1,1,71,1,1
465657,451.127819548873,4,1,1,71,1,1
467461,438.116100766703,4,1,1,71,1,1
468337,460.829493087558,4,1,1,71,1,1
469258,444.609114486847,4,1,1,71,1,1
469258,-83.3333333333333,4,1,1,71,0,1
470815,462.214005084354,4,1,2,71,1,0
471739,443.458980044346,4,2,2,71,1,0
473734,460.475825019186,4,2,2,71,1,0
477187,471.142520612485,4,2,2,71,1,0
477422,471.142520612485,7,2,2,71,1,0
487315,472.44094488189,7,2,2,71,1,0
490622,467.836257309942,7,2,2,71,1,0
497171,470.035252643948,7,2,2,71,1,0
501872,485.122897800776,4,1,2,71,1,0
503327,443.458980044346,4,2,2,71,1,0
504213,464.396284829721,4,2,2,71,1,0
506070,461.538461538462,4,2,2,21,1,0
509762,-100,4,2,4,5,0,0

[Colours]
Combo1 : 155,0,0
Combo2 : 20,41,129
Combo3 : 84,135,32
Combo4 : 28,104,192
Combo5 : 255,0,0

[HitObjects]
480,64,41194,6,0,P|478:122|385:182,1,174.999988079071,2|0,0:0|0:0,0:0:0:0:
288,128,42284,2,0,P|248:128|198:210,1,139.999990463257,2|0,0:0|0:0,0:0:0:0:
192,288,43180,6,0,P|160:328|72:336,2,139.999990463257,2|2|2,0:0|0:0|0:0,0:0:0:0:
264,216,44536,2,0,L|336:216,1,69.9999952316285,2|14,0:0|0:0,0:0:0:0:
472,144,45437,5,10,0:0:0:0:
424,56,45875,2,0,P|376:48|296:94,1,139.999990463257,10|8,3:0|0:0,0:0:0:0:
296,192,46751,38,0,P|224:200|184:152,1,139.999990463257,10|10,3:0|0:0,0:0:0:0:
168,56,47612,1,10,3:0:0:0:
72,64,48043,2,0,P|40:136|64:192,1,139.999990463257,8|10,0:0|3:0,0:0:0:0:
144,240,48912,6,0,P|224:224|272:256,1,139.999990463257,10|10,0:0|3:0,0:0:0:0:
312,344,49788,2,0,P|381:348|440:304,1,139.999990463257,10|10,0:0|3:0,0:0:0:0:
456,216,50657,5,8,0:0:0:0:
408,128,51088,2,0,P|416:72|488:48,2,139.999990463257,12|12|14,3:0|0:0|3:0,0:0:0:0:
328,184,52397,54,0,P|264:200|232:264,1,139.999990463257,10|10,0:0|3:0,0:0:0:0:
168,336,53291,2,0,P|120:368|56:328,1,139.999990463257,10|10,0:0|3:0,0:0:0:0:
80,232,54173,2,0,P|64:160|8:128,2,139.999990463257,10|10|8,0:0|3:0|0:0,0:0:0:0:
168,280,55475,54,0,P|232:296|304:280,1,139.999990463257,10|10,3:0|0:0,0:0:0:0:
344,192,56343,2,0,P|360:120|416:88,2,139.999990463257,10|10|14,3:0|0:1|3:0,0:1:0:0:
256,192,57432,12,14,58959,0:0:0:0:
472,136,59880,6,0,P|480:200|440:272,2,139.999990463257,10|8|8,3:0|0:0|3:0,0:0:0:0:
384,88,61207,2,0,P|328:96|288:168,1,139.999990463257,10|10,0:0|3:0,0:0:0:0:
336,248,62089,2,8,P|328:287|232:304,1,139.999990463257,8|8,0:0|3:0,0:0:0:0:
176,232,62971,5,10,0:0:0:0:
176,136,63412,2,0,P|250:65|289:63,2,139.999990463257,10|8|8,3:0|0:0|3:0,0:0:0:0:
176,232,64749,2,0,L|32:232,2,139.999990463257,10|10|10,0:0|3:0|0:0,0:0:0:0:
224,152,66087,37,8,3:0:0:0:
320,136,66533,1,8,0:0:0:0:
352,224,66979,2,0,P|336:274|255:312,2,139.999990463257,10|8|8,3:0|0:0|3:0,0:0:0:0:
384,128,68317,2,0,L|400:56,1,69.9999952316285,8|14,0:0|0:0,0:0:0:0:
256,192,68763,12,14,72359,1:0:0:0:
256,192,73328,6,0,P|322:180|254:47,1,279.999980926514,14|14,1:0|1:0,0:0:0:0:
256,192,75267,12,14,78692,0:0:0:0:
80,104,79424,6,0,P|152:112|168:174,1,139.999990463257,10|10,0:0|3:0,0:0:0:0:
176,264,80319,2,0,P|232:326|288:328,1,139.999990463257,10|10,0:0|3:0,0:0:0:0:
376,304,81201,1,10,0:0:0:0:
448,240,81636,2,0,P|463:169|414:121,1,139.999990463257,10|8,3:0|0:0,0:0:0:0:
344,184,82509,38,0,P|272:208|208:184,1,139.999990463257,12|12,3:0|0:0,0:0:0:0:
136,128,83399,2,0,P|80:192|96:240,1,139.999990463257,12|12,3:0|0:0,0:0:0:0:
256,192,84286,12,14,85833,0:0:0:0:
256,192,86526,5,10,0:0:0:0:
208,280,86971,2,0,P|176:328|94:335,2,139.999990463257,10|8|8,3:0|0:0|3:0,0:0:0:0:
256,192,88308,2,0,P|256:125|201:81,1,139.999990463257,10|10,0:0|3:0,0:0:0:0:
112,48,89199,1,8,0:0:0:0:
56,128,89644,6,0,P|48:176|104:248,1,139.999990463257,8|10,3:0|0:0,0:0:0:0:
200,248,90535,2,0,P|248:232|336:264,2,139.999990463257,10|8|8,3:0|0:0|3:0,0:0:0:0:
192,344,91871,2,0,P|240:368|328:352,1,139.999990463257,10|10,0:0|3:0,0:0:0:0:
408,304,92762,1,10,0:0:0:0:
472,208,93207,38,0,P|480:144|432:88,1,139.999990463257,8|10,3:0|0:0,0:0:0:0:
344,56,94098,2,0,P|272:40|208:56,2,139.999990463257,10|8|8,3:0|0:0|3:0,0:0:0:0:
344,152,95435,2,0,L|336:224,1,69.9999952316285,8|14,0:0|0:0,0:0:0:0:
256,192,95880,12,14,99440,0:0:0:0:
256,192,100400,6,0,P|190:180|258:47,1,279.999980926514,14|14,1:0|1:0,0:0:0:0:
256,192,102368,12,10,106321,3:0:0:0:
184,120,119230,6,0,P|64:120|24:152,2,167.999983428956,10|10|10,0:0|0:0|0:0,0:0:0:0:
240,224,120611,2,0,P|273:260|392:272,2,167.999983428956,10|10|10,3:0|3:0|0:0,0:0:0:0:
264,112,121992,2,0,P|313:95|421:135,2,167.999983428956,10|8|10,0:0|3:0|0:0,0:0:0:0:
168,176,123373,38,0,L|0:176,2,167.999983428956,10|10|10,0:0|0:0|3:0,0:0:0:0:
280,200,124755,2,0,P|322:209|416:136,2,167.999983428956,10|8|10,3:0|0:0|0:0,0:0:0:0:
248,88,126139,6,0,P|272:56|392:56,1,167.999983428956,10|10,0:0|0:0,0:0:0:0:
448,152,127065,1,2,0:0:0:0:
472,264,127528,2,0,P|416:336|344:320,1,167.999983428956,10|10,3:0|0:0,0:0:0:0:
280,248,128454,2,0,B|112:248,2,167.999983428956,10|8|10,3:0|0:0|0:0,0:0:0:0:
336,112,129834,6,0,P|248:64|176:64,1,167.999983428956,10|10,3:0|3:0,0:0:0:0:
64,64,130743,2,0,L|64:160,1,83.9999917144779,10|14,0:0|0:0,0:0:0:0:
168,296,131936,38,0,B|272:272|294:377|437:316,2,279.999980926514,14|2|14,1:0|3:0|3:0,3:0:0:0:
256,192,133883,12,14,135584,0:0:0:0:
256,192,141111,12,14,142601,0:0:0:0:
144,256,143313,6,0,P|107:178|129:133,1,139.999990463257,10|10,0:0|3:0,0:0:0:0:
200,72,144205,2,0,P|279:53|334:71,1,139.999990463257,10|10,0:0|3:0,0:0:0:0:
408,136,145097,2,8,P|432:200|401:265,1,139.999990463257,10|10,0:0|3:0,0:0:0:0:
335,303,145961,2,0,P|247:319|187:294,1,139.999990463257,8|8,0:0|0:0,0:0:0:0:
278,58,146907,54,0,P|256:111|344:308,1,279.999980926514,12|12,3:0|3:0,0:0:0:0:
450,142,148531,2,0,P|442:192|328:305,1,209.999985694886,12|12,3:0|3:0,0:0:0:0:
335,302,149973,22,0,L|274:337,1,69.9999952316285,12|14,3:0|0:0,0:0:0:0:
176,336,150675,2,0,P|125:331|90:254,1,139.999990463257,10|10,0:0|3:0,0:0:0:0:
112,160,151565,2,0,P|112:72|72:40,2,139.999990463257,10|10|10,0:0|3:0|0:0,0:0:0:0:
89,257,152900,37,10,3:0:0:0:
184,248,153345,2,0,P|240:216|272:144,1,139.999990463257,8|8,0:0|3:0,0:0:0:0:
352,96,154239,6,0,P|392:160|384:224,2,139.999990463257,10|10|10,0:0|3:0|0:0,0:0:0:0:
256,64,155587,2,0,P|176:104|168:184,1,139.999990463257,8|10,3:0|0:0,0:0:0:0:
160,248,156485,1,0,0:0:0:0:
160,344,156934,6,0,P|88:352|72:160,1,279.999980926514,10|10,0:0|0:0,0:0:0:0:
96,112,158282,1,10,3:0:0:0:
160,48,158731,2,0,P|240:40|288:80,1,139.999990463257,10|8,0:0|3:0,0:0:0:0:
336,152,159630,2,0,L|360:224,1,69.9999952316285,8|14,0:0|0:0,0:0:0:0:
256,192,160079,12,14,163701,1:0:0:0:
256,192,164683,38,0,P|322:204|254:337,1,279.999980926514,14|14,1:0|1:0,0:0:0:0:
256,192,166649,12,0,169546,0:0:0:0:
440,56,170467,5,10,0:0:0:0:
384,160,170931,2,0,P|330:208|248:171,1,167.999983428956,10|10,0:0|0:0,0:0:0:0:
160,96,171859,2,0,P|112:75|12:124,2,167.999983428956,10|10|10,3:0|3:0|0:0,0:0:0:0:
280,96,173251,2,0,P|322:70|430:102,1,167.999983428956,10|10,0:0|3:0,0:0:0:0:
464,216,174179,6,0,P|448:280|344:312,1,167.999983428956,10|10,3:0|0:0,0:0:0:0:
360,216,175107,2,0,B|264:200|200:288,1,167.999983428956,10|10,3:0|0:0,0:0:0:0:
128,320,176035,2,0,P|104:216|168:136,2,167.999983428956,10|10|10,0:0|3:0|3:0,0:0:0:0:
224,336,177425,54,0,P|312:360|368:352,2,139.999990463257,8|8|8,0:0|0:0|3:0,0:0:0:0:
224,240,178814,1,8,3:0:0:0:
224,144,179277,2,0,P|336:128|384:168,2,139.999990463257,8|8|8,0:0|3:0|0:0,0:0:0:0:
224,144,180666,5,8,3:0:0:0:
248,256,181129,1,10,0:0:0:0:
168,344,181592,2,0,P|104:304|104:208,2,167.999983428956,2|10|10,0:0|0:0|3:0,0:0:0:0:
280,344,182969,2,0,P|360:328|400:240,1,167.999983428956,8|10,0:0|3:0,0:0:0:0:
432,168,183903,38,0,P|416:72|376:48,1,139.999990463257,8|8,0:0|0:0,0:0:0:0:
288,32,184822,1,8,3:0:0:0:
200,72,185281,2,0,P|152:104|160:184,1,139.999990463257,8|8,3:0|0:0,0:0:0:0:
232,240,186200,2,0,P|280:248|288:344,1,139.999990463257,8|8,3:0|0:0,0:0:0:0:
200,336,187119,5,10,3:0:0:0:
96,264,187578,1,10,0:0:0:0:
64,144,188037,1,10,0:0:0:0:
168,72,188497,2,0,P|232:48|328:96,1,181.999979270936,10|10,0:0|3:0,0:0:0:0:
416,184,189433,2,0,P|456:280|408:320,1,181.999979270936,10|10,0:0|3:0,0:0:0:0:
320,336,190364,54,0,P|240:344|176:320,2,139.999990463257,8|8|10,0:0|0:0|3:0,0:0:0:0:
320,232,191726,2,0,L|176:232,2,139.999990463257,10|8|8,3:0|0:0|3:0,0:0:0:0:
320,136,193113,2,0,P|304:72|240:48,1,139.999990463257,8|8,0:0|3:0,0:0:0:0:
144,32,194036,21,10,0:0:0:0:
56,80,194496,1,2,0:0:0:0:
56,176,194956,2,0,L|56:248,1,69.9999952316285,10|14,0:0|0:0,0:0:0:0:
192,208,196132,38,0,P|376:208|416:344,2,279.999980926514,14|2|14,1:0|0:0|1:0,0:0:0:0:
256,192,198252,12,0,201295,0:0:0:0:
262,292,202332,6,0,P|110:304|86:188,1,297.499979734421,12|12,3:0|3:0,0:0:0:0:
178,74,204036,2,0,P|304:61|315:149,1,209.999985694886,12|12,3:0|3:0,0:0:0:0:
342,264,205444,2,0,L|349:339,1,69.9999952316285,12|14,3:0|0:0,0:0:0:0:
352,240,219929,54,0,P|336:304|384:392,2,139.999990463257,0|8|0,0:0|0:0|0:0,0:0:0:0:
440,200,221265,1,10,0:0:0:0:
410,110,221710,22,0,P|378:30|326:13,2,139.999990463257,2|10|2,0:0|0:0|0:0,0:0:0:0:
368,184,223024,1,8,0:0:0:0:
288,208,223462,2,0,P|238:237|248:312,2,139.999990463257,2|10|2,0:0|0:0|0:0,0:0:0:0:
312,128,224776,2,0,P|296:88|200:56,1,139.999990463257,10|2,0:0|0:0,0:0:0:0:
256,192,225433,12,14,226945,0:0:0:0:
256,88,227828,38,0,P|176:64|115:88,2,139.999990463257,0|10|2,0:0|0:0|0:0,0:0:0:0:
349,161,229152,2,0,P|375:184|392:288,1,139.999990463257,10|2,0:0|0:0,0:0:0:0:
312,352,230035,1,10,0:0:0:0:
224,304,230477,6,0,P|180:245|189:180,2,139.999990463257,2|10|2,0:0|0:0|0:0,0:0:0:0:
312,352,231811,2,0,P|369:369|456:327,1,139.999990463257,10|2,0:0|0:0,0:0:0:0:
256,192,232471,12,14,234035,0:0:0:0:
304,80,234923,5,0,0:0:0:0:
208,56,235367,2,0,P|165:57|125:138,1,139.999990463257,10|2,0:0|0:0,0:0:0:0:
128,232,236255,2,0,P|136:296|96:360,2,139.999990463257,10|2|10,0:0|0:0|0:0,0:0:0:0:
200,160,237587,38,0,P|264:120|320:144,1,139.999990463257,2|10,0:0|0:0,0:0:0:0:
344,256,238476,2,0,P|296:312|232:304,2,139.999990463257,2|10|2,0:0|0:0|0:0,0:0:0:0:
256,192,239586,12,14,241140,0:0:0:0:
344,224,255489,6,0,P|400:176|464:184,2,139.999990463257,8|8|8,3:0|0:0|3:0,0:0:0:0:
280,288,256838,1,10,0:0:0:0:
200,240,257288,6,0,P|144:176|155:126,2,139.999990463257,10|10|10,3:0|0:0|3:0,0:0:0:0:
275,184,258637,1,10,0:0:0:0:
347,243,259089,38,0,P|380:298|378:378,2,139.999990463257,10|10|10,3:0|0:0|3:0,0:0:0:0:
275,184,260450,2,0,P|182:161|140:173,1,139.999990463257,10|10,0:0|3:0,0:0:0:0:
256,192,261132,12,14,262722,0:0:0:0:
256,64,263620,6,0,P|189:48|136:96,1,139.999990463257,8|10,3:0|0:0,0:0:0:0:
100,176,264518,2,0,P|109:266|147:301,2,139.999990463257,10|10|10,3:0|0:0|3:0,0:0:0:0:
176,120,265865,1,10,0:0:0:0:
264,120,266316,2,0,P|320:112|392:152,2,139.999990463257,10|10|10,3:0|0:0|3:0,0:0:0:0:
240,208,267708,2,0,P|191:237|112:224,1,139.999990463257,10|10,0:0|3:0,0:0:0:0:
256,192,268382,12,14,269875,0:0:0:0:
256,192,270770,5,8,3:0:0:0:
256,96,271218,2,0,P|187:69|104:106,2,139.999990463257,10|10|10,0:0|3:0|0:0,0:0:0:0:
256,192,272562,2,0,P|192:232|128:224,1,139.999990463257,10|10,3:0|0:0,0:0:0:0:
80,144,273458,38,0,P|32:184|42:259,2,139.999990463257,10|10|10,3:0|0:0|3:0,0:0:0:0:
176,144,274802,2,0,P|223:108|233:22,1,139.999990463257,10|10,0:0|3:0,0:0:0:0:
256,192,275474,12,14,277042,0:0:0:0:
176,336,277945,6,8,P|248:352|328:253,1,209.99999370575,10|10,3:0|3:0,0:0:0:0:
327,167,279300,1,10,0:0:0:0:
389,95,279752,5,10,3:0:0:0:
296,64,280204,2,0,P|239:84|228:127,1,104.999996852875,8|8,0:0|3:0,0:0:0:0:
221,221,281102,37,10,0:0:0:0:
128,240,281550,2,0,P|89:270|71:365,2,139.999990463257,10|8|8,3:0|0:0|3:0,0:0:0:0:
222,265,282893,1,10,0:0:0:0:
306,218,283341,2,0,P|370:240|403:300,2,139.999990463257,10|10|14,3:0|0:0|0:0,0:0:0:0:
232,151,284687,5,10,0:0:0:0:
288,64,285137,2,0,P|120:56|64:144,1,279.999980926514,10|8,3:0|3:0,0:0:0:0:
64,232,286485,1,10,0:0:0:0:
160,256,286933,6,0,P|227:298|246:357,2,139.999990463257,10|8|8,3:0|0:0|3:0,0:0:0:0:
64,232,288279,1,10,0:0:0:0:
124,144,288730,38,0,P|228:80|396:110,1,279.999980926514,10|8,3:0|3:0,0:0:0:0:
368,192,290082,2,0,P|364:229|407:326,2,139.999990463257,10|10|14,0:0|3:0|0:0,0:0:0:0:
256,192,291086,12,2,298390,0:0:0:0:
193,97,335304,6,0,P|105:65|49:97,2,139.999990463257,2|0|2,0:0|0:0|0:0,0:0:0:0:
312,232,339104,2,0,P|350:269|450:293,2,139.999990463257,2|0|2,0:0|0:0|0:0,0:0:0:0:
336,120,341772,6,0,B|272:80|272:80|200:80,1,139.999990463257
104,104,343137,38,0,B|56:136|56:136|56:224,1,139.999990463257
248,337,344819,6,0,P|352:240|278:152,1,279.999980926514,2|2,0:0|0:0,0:0:0:0:
150,135,346716,2,0,P|168:64|236:34,1,139.999990463257,2|6,0:0|0:0,0:0:0:0:
256,192,347532,12,0,350557,0:0:0:0:
168,56,351282,54,0,P|88:56|48:120,2,139.999990463257,14|8|8,0:0|0:0|0:0,0:0:0:0:
266,58,352660,2,0,P|345:58|376:128,1,139.999990463257,8|8,3:0|3:0,0:0:0:0:
416,192,353572,2,0,P|440:304|304:328,1,279.999980926514,10|10,0:0|0:0,0:0:0:0:
280,240,354928,6,0,P|219:201|161:224,1,139.999990463257,10|10,3:0|0:0,0:0:0:0:
64,200,355829,2,0,B|25:121|65:57,1,139.999990463257,10|10,0:0|3:0,0:0:0:0:
72,48,356504,22,0,B|155:31|240:100|240:100|320:44|400:44,1,349.999976158143,2|10,0:0|3:0,0:0:0:0:
488,64,358080,21,10,0:0:0:0:
472,168,358531,2,0,P|456:200|368:248,1,139.999990463257,10|10,0:0|3:0,0:0:0:0:
284,200,359432,2,0,B|203:180|179:274,1,139.999990463257,10|10,3:0|0:0,0:0:0:0:
160,300,360120,38,0,P|0:293|64:181,1,349.999976158143,2|10,0:0|3:0,0:0:0:0:
168,120,361721,22,0,P|128:56|64:40,2,139.999990463257,10|10|14,0:0|0:0|0:0,0:0:0:0:
185,165,362858,54,0,B|200:240|304:280|352:232|240:96|304:56|384:56,1,349.999976158143,2|10,0:0|3:0,0:0:0:0:
456,120,364447,21,10,0:0:0:0:
465,225,364900,2,0,P|427:278|353:297,1,139.999990463257,10|10,0:0|3:0,0:0:0:0:
330,203,365807,2,0,B|250:171|197:223,1,139.999990463257,10|10,0:0|0:0,0:0:0:0:
168,256,366487,38,0,P|78:316|42:147,1,349.999976158143,2|14,0:0|0:0,0:0:0:0:
144,72,368073,6,0,L|288:72,2,139.999990463257,10|10|10,0:0|3:0|0:0,0:0:0:0:
102,98,369206,38,0,B|85:183|141:315|245:83|325:283,1,349.999976158143,2|8,0:0|3:0,0:0:0:0:
414,336,370795,22,0,P|478:304|486:224,1,139.999990463257,10|10,0:0|0:0,0:0:0:0:
491,142,371711,2,0,P|474:74|416:24,1,139.999990463257,10|10,3:0|3:0,0:0:0:0:
330,44,372604,2,0,B|226:108|188:11|58:68,1,279.999980926514,10|10,0:0|0:0,0:0:0:0:
24,176,373965,6,0,B|24:315,1,139.999990463257,10|10,3:0|0:0,0:0:0:0:
112,272,374865,2,0,B|256:272,1,139.999990463257,10|10,3:0|0:0,0:0:0:0:
298,271,375540,22,0,P|458:255|426:108,1,349.999976158143,2|8,0:0|3:0,0:0:0:0:
296,56,377103,22,0,P|223:50|182:102,1,139.999990463257,10|10,0:0|3:0,0:0:0:0:
184,192,377979,1,10,0:0:0:0:
295,179,378417,6,0,P|311:235|247:315,1,139.999990463257,10|10,3:0|0:0,0:0:0:0:
182,334,379293,2,0,P|98:344|51:290,1,139.999990463257,10|10,3:0|0:0,0:0:0:0:
32,216,380169,5,8,3:0:0:0:
64,128,380610,2,0,P|120:104|200:128,1,139.999990463257,10|10,0:0|3:0,0:0:0:0:
240,200,381493,2,0,P|296:248|376:232,1,139.999990463257,10|10,0:0|3:0,0:0:0:0:
368,152,382375,2,8,P|416:120|496:112,2,139.999990463257,10|10|10,0:0|3:0|0:0,0:0:0:0:
296,216,383700,54,0,P|216:296|56:288,2,279.999980926514,10|10|10,3:0|3:0|3:0,0:0:0:0:
360,128,385912,2,0,P|448:144|456:194,1,139.999990463257,10|10,0:0|3:0,0:0:0:0:
456,288,386797,1,8,0:0:0:0:
352,328,387240,2,0,B|251:397|192:272|56:360,2,307.999988418579,10|10|10,3:0|3:0|0:0,0:0:0:0:
256,192,389119,12,14,390748,0:0:0:0:
392,144,403470,6,0,P|369:73|298:41,1,139.999990463257,10|8,3:0|0:0,0:0:0:0:
216,40,404381,1,10,3:0:0:0:
128,72,404837,2,0,P|80:136|120:224,1,139.999990463257,8|10,0:0|3:0,0:0:0:0:
120,288,405733,2,0,P|55:324|0:288,2,139.999990463257,10|10|10,0:0|3:0|0:0,0:0:0:0:
224,256,407083,5,10,3:0:0:0:
224,256,407304,1,2,0:0:0:0:
224,256,407525,1,10,0:0:0:0:
224,256,407746,2,0,P|280:288|352:272,1,139.999990463257,2|2,0:0|0:0,0:0:0:0:
392,248,408410,2,0,L|392:176,1,69.9999952316285,10|0,0:0|0:0,0:0:0:0:
384,128,408852,6,0,P|360:56|304:40,1,139.999990463257,10|10,3:0|0:0,0:0:0:0:
200,40,409737,1,10,0:0:0:0:
152,40,409958,1,10,3:0:0:0:
104,40,410179,1,10,0:0:0:0:
40,264,410622,6,0,P|88:336|256:304,1,279.999980926514,14|14,0:0|0:0,0:0:0:0:
328,232,412008,1,8,0:0:0:0:
384,312,412461,6,0,P|464:320|472:248,1,167.999983428956,10|10,3:0|0:0,0:0:0:0:
472,152,413340,2,0,P|440:64|336:64,1,167.999983428956,10|10,3:0|0:0,0:0:0:0:
256,64,414220,6,0,P|210:86|186:222,1,167.999983428956,10|10,3:0|0:0,0:0:0:0:
176,312,415100,2,0,P|96:344|57:285,1,167.999983428956,10|10,3:0|0:0,0:0:0:0:
22,189,415980,22,0,P|46:90|96:54,3,167.999983428956,10|10|10|10,3:0|0:0|3:0|0:0,0:0:0:0:
200,40,417764,6,0,P|272:46|322:89,2,139.999990463257,14|8|10,0:0|0:0|3:0,0:0:0:0:
129,159,419126,2,0,L|129:231,1,69.9999952316285,10|14,0:0|0:0,0:0:0:0:
256,312,420039,6,0,P|334:314|381:278,1,139.999990463257,10|10,0:0|0:0,0:0:0:0:
447,189,420927,2,0,L|448:120,1,69.9999952316285,8|14,3:0|0:0,0:0:0:0:
248,40,421824,6,0,P|221:42|151:134,1,139.999990463257,10|10,0:0|0:0,0:0:0:0:
127,247,422732,2,0,L|104:352,1,69.9999952316285,8|14,3:0|0:0,0:0:0:0:
256,192,423077,12,14,426527,0:0:0:0:
248,31,436202,38,8,P|352:103|344:175,1,209.999985694886,14|10,0:0|0:0,0:0:0:0:
256,200,437300,2,0,P|240:200|208:296,1,139.999990463257,10|10,3:0|0:0,0:0:0:0:
280,344,438178,2,0,P|328:344|384:272,1,139.999990463257,10|10,3:0|0:0,0:0:0:0:
424,192,439057,2,0,P|467:205|512:288,2,139.999990463257,10|8|14,3:0|3:0|1:0,0:0:0:0:
256,192,440891,6,0,P|190:204|258:337,1,279.999980926514,14|14,1:0|1:0,0:0:0:0:
255,337,442802,1,14,0:0:0:0:
256,192,443034,12,2,445591,2:0:0:0:
256,192,446521,54,0,P|199:220|208:288,1,139.999990463257,10|10,0:0|0:0,0:0:0:0:
288,328,447433,2,0,P|352:296|352:232,1,139.999990463257,10|8,0:0|3:0,0:0:0:0:
352,144,448346,2,0,P|328:80|264:64,1,139.999990463257,8|8,3:0|0:0,0:0:0:0:
176,64,449258,2,0,P|128:72|88:160,1,139.999990463257,10|10,3:0|0:0,0:0:0:0:
80,248,450171,6,0,P|89:291|169:331,1,139.999990463257,10|10,3:0|0:0,0:0:0:0:
248,336,451083,2,0,P|303:305|320:232,1,139.999990463257,10|10,0:0|3:0,0:0:0:0:
320,160,451996,2,0,L|168:160,2,139.999990463257,10|8|10,0:0|0:0|3:0,0:0:0:0:
432,160,453397,53,8,0:0:0:0:
400,256,453847,1,8,0:0:0:0:
336,328,454297,1,8,3:0:0:0:
240,352,454748,1,8,3:0:0:0:
144,336,455198,38,0,L|64:360,2,69.9999952316285,8|8|8,0:0|0:0|0:0,0:0:0:0:
152,288,455874,2,0,L|64:248,2,69.9999952316285,8|8|8,0:0|0:0|3:0,0:0:0:0:
200,296,456549,54,0,P|264:272|296:200,1,139.999990463257,14|10,0:0|0:0,0:0:0:0:
320,112,457463,2,0,P|384:80|432:136,1,139.999990463257,10|10,3:0|1:0,0:0:0:0:
456,208,458377,2,0,P|424:312|256:344,1,279.999980926514,10|10,3:0|0:0,0:0:0:0:
312,264,459743,53,8,0:0:0:0:
336,168,460195,1,8,0:0:0:0:
264,104,460646,1,8,3:0:0:0:
168,128,461098,1,8,0:0:0:0:
120,216,461544,1,8,0:0:0:0:
174,291,461992,2,0,P|230:339|310:331,2,139.999990463257,8|8|10,3:0|0:0|3:0,0:0:0:0:
120,216,463366,54,0,P|96:152|112:80,1,139.999990463257,10|10,0:0|0:0,0:0:0:0:
208,40,464282,2,0,P|272:80|288:144,1,139.999990463257,10|10,3:0|0:0,0:0:0:0:
232,224,465198,2,0,P|280:296|352:296,1,139.999990463257,10|10,0:0|3:0,0:0:0:0:
424,256,466108,5,8,0:0:0:0:
464,168,466559,1,8,0:0:0:0:
432,72,467010,2,0,P|368:40|280:64,1,139.999990463257,8|8,3:0|0:0,0:0:0:0:
224,112,467899,5,8,0:0:0:0:
296,176,468337,1,8,3:0:0:0:
224,240,468797,1,8,0:0:0:0:
288,312,469258,38,0,P|376:328|456:272,1,167.999983428956,10|10,3:0|0:0,0:0:0:0:
488,208,470147,1,8,3:0:0:0:
448,120,470591,2,0,L|352:120,1,83.9999917144779,10|14,0:0|0:0,0:0:0:0:
184,265,471739,6,0,P|148:291|56:241,2,139.999990463257,14|2|2,1:0|0:0|0:0,0:0:0:0:
256,192,473069,2,0,P|280:120|224:72,1,139.999990463257,2|2,0:0|0:0,0:0:0:0:
256,192,473734,12,0,476496,0:0:0:0:
84,226,477422,53,0,0:0:0:0:
177,188,477893,2,0,P|187:147|147:62,2,139.999990463257,0|2|2,0:0|0:0|0:0,0:0:0:0:
448,296,479777,6,0,P|392:330|315:342,1,139.999990463257
232,320,480719,1,0,0:0:0:0:
169,253,481191,2,0,P|111:290|80:352,2,139.999990463257,0|2|2,0:0|0:0|0:0,0:0:0:0:
376,312,483075,6,0,P|368:248|408:177,1,139.999990463257
456,104,484017,2,0,P|388:75|320:88,2,139.999990463257,0|0|2,0:0|0:0|0:0,0:0:0:0:
480,200,485431,1,2,0:0:0:0:
280,176,486373,38,0,P|256:212|163:242,2,139.999990463257
320,72,487787,2,0,B|248:8|184:88|136:112|32:56,1,279.999980926514,2|2,0:0|0:0,0:0:0:0:
288,184,489677,6,0,P|192:216|173:254,1,139.999990463257,2|2,0:0|0:0,0:0:0:0:
264,272,490622,2,0,P|306:309|456:288,2,209.999985694886,2|2|2,0:0|0:0|0:0,0:0:0:0:
232,184,492493,1,0,0:0:0:0:
144,144,492961,6,0,P|80:88|104:40,1,139.999990463257,2|2,0:0|0:0,0:0:0:0:
200,40,493896,2,0,B|286:79|304:29|407:47,2,209.999985694886,2|2|2,0:0|0:0|0:0,0:0:0:0:
136,128,495768,1,0,0:0:0:0:
192,208,496236,38,0,P|235:264|305:254,1,139.999990463257,2|2,0:0|0:0,0:0:0:0:
360,192,497171,2,0,P|413:178|448:320,2,209.999985694886,2|2|2,0:0|0:0|0:0,0:0:0:0:
296,256,499051,1,0,0:0:0:0:
272,168,499521,6,0,P|250:104|176:80,1,139.999990463257,2|2,0:0|0:0,0:0:0:0:
184,176,500461,2,0,P|72:200|40:128,2,209.999985694886,2|2|14,0:0|0:0|0:0,0:0:0:0:
480,72,503327,5,2,0:0:0:0:
320,232,504213,2,0,P|297:286|368:320,1,139.999990463257,2|2,0:0|0:0,0:0:0:0:
456,272,505141,2,0,P|457:198|392:200,1,139.999990463257,2|2,0:0|0:0,0:0:0:0:
256,192,506185,12,0,509762,0:0:0:0:
