osu file format v14

[General]
AudioFilename: audio.mp3
AudioLeadIn: 0
PreviewTime: 9739
Countdown: 0
SampleSet: Soft
StackLeniency: 0.7
Mode: 0
LetterboxInBreaks: 0
EpilepsyWarning: 1
WidescreenStoryboard: 1

[Editor]
Bookmarks: 9739,19419,29091,38768,48446,58123,67800
DistanceSpacing: 1.5
BeatDivisor: 12
GridSize: 32
TimelineZoom: 2.4

[Metadata]
Title:HEARTLESS
TitleUnicode:HEARTLESS
Artist:YAMEII
ArtistUnicode:YAMEII
Creator:Silverboxer
Version:null//space//cyber//angel
Source:
Tags:Yameii Online OSEANWORLD OSEAN WORLD vocaloid trap rap hip hop english pop Avanna hyperpop deko.777 deko777 yameiionline 777 hip-hop
BeatmapID:3244391
BeatmapSetID:1588514

[Difficulty]
HPDrainRate:4.5
CircleSize:2.5
OverallDifficulty:9
ApproachRate:9.2
SliderMultiplier:3.59999990463257
SliderTickRate:1

[Events]
//Background and Video events
Video,0,"yameii_heartless2.mp4"
0,0,"yameii_bg.jpg",0,0
//Break Periods
2,29300,33945
//Storyboard Layer 0 (Background)
//Storyboard Layer 1 (Fail)
//Storyboard Layer 2 (Pass)
//Storyboard Layer 3 (Foreground)
//Storyboard Layer 4 (Overlay)
//Storyboard Sound Samples

[TimingPoints]
59,605.021679943531,4,2,0,50,1,0
59,-50,4,2,0,50,0,0
285,-50,4,2,0,5,0,0
361,-133.333333333333,4,2,0,50,0,0
588,-133.333333333333,4,2,0,5,0,0
664,-50,4,2,0,50,0,0
815,-50,4,2,0,15,0,0
966,-50,4,2,0,30,0,0
1420,-66.6666666666667,4,2,0,50,0,0
1495,-66.6666666666667,4,2,0,5,0,0
1571,-40,4,2,0,50,0,0
1798,-40,4,2,0,5,0,0
1874,-40,4,2,0,50,0,0
1949,-40,4,2,0,5,0,0
2025,-66.6666666666667,4,2,0,50,0,0
2403,-66.6666666666667,4,2,0,5,0,0
2479,-44.4444444444445,4,2,0,50,0,0
3386,-44.4444444444445,4,2,0,30,0,0
3537,-80,4,2,0,30,0,0
3764,-80,4,2,0,5,0,0
3840,-66.6666666666667,4,2,0,50,0,0
3916,-66.6666666666667,4,2,0,5,0,0
3991,-40,4,2,0,50,0,0
4218,-40,4,2,0,5,0,0
4294,-40,4,2,0,50,0,0
4369,-40,4,2,0,5,0,0
4445,-58.8235294117647,4,2,0,50,0,0
4823,-58.8235294117647,4,2,0,5,0,0
4899,-50,4,2,0,50,0,0
5806,-83.3333333333333,4,2,0,30,0,0
6184,-83.3333333333333,4,2,0,5,0,0
6260,-66.6666666666667,4,2,0,50,0,0
6336,-66.6666666666667,4,2,0,5,0,0
6411,-50,4,2,0,50,0,0
6865,-40,4,2,0,50,0,0
7319,-66.6666666666667,4,2,0,50,0,0
7546,-66.6666666666667,4,2,0,5,0,0
7621,-45.4545454545455,4,2,0,50,0,0
7848,-45.4545454545455,4,2,0,5,0,0
7924,-66.6666666666667,4,2,0,50,0,0
8075,-66.6666666666667,4,2,0,15,0,0
8226,-66.6666666666667,4,2,0,30,0,0
8831,-500,4,2,0,30,0,0
9739,-40,4,2,0,50,0,1
9966,-40,4,2,0,5,0,1
10041,-33.3333333333333,4,2,0,50,0,1
10268,-33.3333333333333,4,2,0,5,0,1
10344,-33.3333333333333,4,2,0,50,0,1
10571,-33.3333333333333,4,2,0,5,0,1
10646,-50,4,2,0,50,0,1
10873,-50,4,2,0,5,0,1
10949,-66.6666666666667,4,2,0,50,0,0
11251,-50,4,2,0,50,0,0
11478,-50,4,2,0,5,0,0
11554,-83.3333333333333,4,2,0,50,0,0
11630,-83.3333333333333,4,2,0,5,0,0
11705,-66.6666666666667,4,2,0,50,0,0
12764,-100,4,2,0,50,0,0
13293,-100,4,2,0,5,0,0
13369,-100,4,2,0,50,0,0
13671,-40,4,2,0,50,0,0
14125,-66.6666666666667,4,2,0,50,0,0
14503,-66.6666666666667,4,2,0,5,0,0
14579,-40,4,2,0,50,0,0
14806,-50,4,2,0,5,0,0
14882,-133.333333333333,4,2,0,50,0,0
15108,-133.333333333333,4,2,0,5,0,0
15184,-200,4,2,0,50,0,0
15487,-200,4,2,0,30,0,0
15940,-200,4,2,0,30,0,0
16092,-40,4,2,0,50,0,0
16545,-57.1428571428571,4,2,0,50,0,0
17150,-66.6666666666667,4,2,0,30,0,0
17302,-66.6666666666667,4,2,0,30,0,0
17453,-66.6666666666667,4,2,0,30,0,0
17604,-66.6666666666667,4,2,0,50,0,0
17755,-66.6666666666667,4,2,0,30,0,0
17907,-83.3333333333333,4,2,0,50,0,0
18134,-83.3333333333333,4,2,0,5,0,0
18209,-83.3333333333333,4,2,0,50,0,0
18360,-66.6666666666667,4,2,0,50,0,0
18436,-66.6666666666667,4,2,0,5,0,0
18512,-43.4782608695652,4,2,0,50,0,0
18739,-43.4782608695652,4,2,0,5,0,0
18814,-43.4782608695652,4,2,0,50,0,0
18890,-43.4782608695652,4,2,0,5,0,0
18965,-50,4,2,0,50,0,0
19344,-50,4,2,0,5,0,0
19419,-40,4,2,0,50,0,1
19646,-40,4,2,0,5,0,1
19722,-33.3333333333333,4,2,0,50,0,1
19949,-33.3333333333333,4,2,0,5,0,1
20024,-33.3333333333333,4,2,0,50,0,1
20251,-33.3333333333333,4,2,0,5,0,1
20327,-50,4,2,0,50,0,1
20554,-50,4,2,0,5,0,1
20629,-66.6666666666667,4,2,0,50,0,0
20932,-50,4,2,0,50,0,0
21159,-50,4,2,0,5,0,0
21234,-50,4,2,0,50,0,0
21310,-50,4,2,0,5,0,0
21386,-71.4285714285714,4,2,0,50,0,0
22444,-100,4,2,0,50,0,0
22974,-100,4,2,0,5,0,0
23049,-100,4,2,0,50,0,0
23276,-100,4,2,0,5,0,0
23352,-40,4,2,0,50,0,0
23806,-50,4,2,0,50,0,0
24184,-50,4,2,0,5,0,0
24259,-50,4,2,0,50,0,0
24486,-50,4,2,0,5,0,0
24562,-133.333333333333,4,2,0,50,0,0
24789,-133.333333333333,4,2,0,5,0,0
24864,-200,4,2,0,50,0,0
25167,-200,4,2,0,30,0,0
25621,-200,4,2,0,30,0,0
25772,-33.3333333333333,4,2,0,50,0,0
26226,-50,4,2,0,50,0,0
26679,-83.3333333333333,4,2,0,50,0,0
27284,-100,4,2,0,50,0,0
27436,-100,4,2,0,15,0,0
27587,-100,4,2,0,30,0,0
27663,-100,4,2,0,5,0,0
27738,-100,4,2,0,30,0,0
27814,-100,4,2,0,5,0,0
27889,-100,4,2,0,30,0,0
28041,-100,4,2,0,50,0,0
28192,-40,4,2,0,50,0,0
28419,-40,4,2,0,5,0,0
28495,-50,4,2,0,70,0,0
28797,-133.333333333333,4,2,0,50,0,0
28948,-133.333333333333,4,2,0,5,0,0
29100,-133.333333333333,4,2,0,30,0,0
34545,-133.333333333333,4,2,0,10,0,0
35150,-133.333333333333,4,2,0,20,0,0
35755,-133.333333333333,4,2,0,30,0,0
36360,-133.333333333333,4,2,0,40,0,0
37570,-133.333333333333,4,2,0,50,0,0
38780,-66.6666666666667,4,2,0,50,0,0
39385,-100,4,2,0,50,0,0
39687,-200,4,2,0,50,0,0
40066,-200,4,2,0,5,0,0
40141,-66.6666666666667,4,2,0,50,0,0
40217,-66.6666666666667,4,2,0,5,0,0
40292,-50,4,2,0,50,0,0
41200,-133.333333333333,4,2,0,50,0,0
41805,-66.6666666666667,4,2,0,50,0,0
41881,-66.6666666666667,4,2,0,5,0,0
41956,-66.6666666666667,4,2,0,50,0,0
42032,-66.6666666666667,4,2,0,5,0,0
42108,-1000,4,2,0,50,0,0
42713,-50,4,2,0,50,0,0
42939,-50,4,2,0,5,0,0
43015,-50,4,2,0,50,0,0
43091,-50,4,2,0,5,0,0
43166,-40,4,2,0,50,0,0
43242,-40,4,2,0,5,0,0
43318,-33.3333333333333,4,2,0,50,0,0
43544,-33.3333333333333,4,2,0,5,0,0
43620,-333.333333333333,4,2,0,50,0,0
44074,-333.333333333333,4,2,0,5,0,0
44225,-333.333333333333,4,2,0,50,0,0
44830,-100,4,2,0,50,0,0
44906,-100,4,2,0,5,0,0
44981,-66.6666666666667,4,2,0,50,0,0
45057,-66.6666666666667,4,2,0,5,0,0
45133,-43.4782608695652,4,2,0,50,0,0
45359,-43.4782608695652,4,2,0,5,0,0
45435,-43.4782608695652,4,2,0,50,0,0
45738,-66.6666666666667,4,2,0,50,0,0
45965,-66.6666666666667,4,2,0,5,0,0
46040,-66.6666666666667,4,2,0,50,0,0
46948,-80,4,2,0,50,0,0
47175,-80,4,2,0,5,0,0
47250,-100,4,2,0,50,0,0
47401,-43.4782608695652,4,2,0,50,0,0
47780,-43.4782608695652,4,2,0,5,0,0
47855,-43.4782608695652,4,2,0,50,0,0
48006,-43.4782608695652,4,2,0,50,0,0
48158,-100,4,2,0,50,0,0
48385,-100,4,2,0,5,0,0
48460,-40,4,2,0,50,0,1
48687,-40,4,2,0,5,0,1
48763,-33.3333333333333,4,2,0,50,0,1
48990,-33.3333333333333,4,2,0,5,0,1
49065,-33.3333333333333,4,2,0,50,0,1
49292,-33.3333333333333,4,2,0,5,0,1
49368,-50,4,2,0,50,0,1
49595,-50,4,2,0,5,0,1
49670,-90.9090909090909,4,2,0,50,0,0
49973,-50,4,2,0,50,0,0
50200,-50,4,2,0,5,0,0
50275,-83.3333333333333,4,2,0,50,0,0
50351,-83.3333333333333,4,2,0,5,0,0
50427,-66.6666666666667,4,2,0,50,0,0
51485,-100,4,2,0,50,0,0
52015,-100,4,2,0,5,0,0
52090,-100,4,2,0,50,0,0
52393,-40,4,2,0,50,0,0
52847,-50,4,2,0,50,0,0
53225,-50,4,2,0,5,0,0
53300,-40,4,2,0,50,0,0
53527,-40,4,2,0,5,0,0
53603,-133.333333333333,4,2,0,50,0,0
53830,-133.333333333333,4,2,0,5,0,0
53905,-200,4,2,0,50,0,0
54208,-200,4,2,0,30,0,0
54662,-200,4,2,0,30,0,0
54813,-40,4,2,0,50,0,0
55645,-40,4,2,0,5,0,0
55720,-250,4,2,0,50,0,0
56250,-250,4,2,0,5,0,0
56326,-66.6666666666667,4,2,0,50,0,0
56628,-100,4,2,0,50,0,0
56855,-66.6666666666667,4,2,0,5,0,0
56931,-100,4,2,0,50,0,0
57082,-66.6666666666667,4,2,0,50,0,0
57157,-66.6666666666667,4,2,0,5,0,0
57233,-50,4,2,0,50,0,0
57460,-50,4,2,0,5,0,0
57536,-50,4,2,0,50,0,0
57611,-50,4,2,0,5,0,0
57687,-62.5,4,2,0,50,0,0
58065,-62.5,4,2,0,5,0,0
58141,-40,4,2,0,50,0,1
58367,-40,4,2,0,5,0,1
58443,-33.3333333333333,4,2,0,50,0,1
58670,-33.3333333333333,4,2,0,5,0,1
58746,-33.3333333333333,4,2,0,50,0,1
58972,-33.3333333333333,4,2,0,5,0,1
59048,-50,4,2,0,50,0,1
59275,-50,4,2,0,5,0,1
59351,-66.6666666666667,4,2,0,50,0,0
59653,-40,4,2,0,50,0,0
59880,-40,4,2,0,5,0,0
59956,-40,4,2,0,50,0,0
60031,-40,4,2,0,5,0,0
60107,-76.9230769230769,4,2,0,50,0,0
61166,-100,4,2,0,50,0,0
61695,-100,4,2,0,5,0,0
61771,-100,4,2,0,50,0,0
61998,-100,4,2,0,5,0,0
62073,-37.037037037037,4,2,0,50,0,0
62527,-50,4,2,0,50,0,0
62905,-50,4,2,0,5,0,0
62981,-80,4,2,0,50,0,0
63208,-80,4,2,0,5,0,0
63283,-133.333333333333,4,2,0,50,0,0
63510,-133.333333333333,4,2,0,5,0,0
63586,-200,4,2,0,50,0,0
63888,-200,4,2,0,30,0,0
64342,-200,4,2,0,30,0,0
64493,-40,4,2,0,50,0,0
64947,-71.4285714285714,4,2,0,50,0,0
66006,-100,4,2,0,50,0,0
66157,-100,4,2,0,15,0,0
66308,-100,4,2,0,30,0,0
66384,-100,4,2,0,5,0,0
66460,-100,4,2,0,30,0,0
66535,-100,4,2,0,5,0,0
66611,-100,4,2,0,30,0,0
66762,-100,4,2,0,50,0,0
66913,-40,4,2,0,50,0,0
67140,-40,4,2,0,5,0,0
67216,-40,4,2,0,50,0,0
67292,-40,4,2,0,5,0,0
67367,-74.0740740740741,4,2,0,50,0,0
67745,-74.0740740740741,4,2,0,5,0,0
67821,-100,4,2,0,50,0,0
68350,-100,4,2,0,5,0,0
68426,-100,4,2,0,30,0,0
68577,-100,4,2,0,15,0,0
68728,-166.666666666667,4,2,0,30,0,0
69182,-166.666666666667,4,2,0,20,0,0
69333,-133.333333333333,4,2,0,30,0,0
69863,-133.333333333333,4,2,0,5,0,0
69939,-250,4,2,0,15,0,0
70796,-200,4,2,0,5,0,0

[Colours]
Combo1 : 6,255,218
Combo2 : 237,254,22

[HitObjects]
72,71,59,6,0,B|153:39|251:56|194:159|296:182,1,270.000003147125,4|0,3:0|0:0,0:0:0:0:
379,257,361,2,0,B|425:214|384:174|348:223|373:250,1,101.250001180172,2|0,0:1|0:0,0:0:0:0:
350,119,664,6,0,P|333:220|323:315,1,179.999995231628,8|0,0:0|0:0,0:0:0:0:
217,332,966,1,2,0:0:0:0:
217,332,1117,1,2,0:0:0:0:
217,332,1420,2,0,P|170:313|176:271,1,67.5000007867813,2|0,1:3|0:0,0:0:0:0:
179,137,1571,6,0,B|102:173|78:270|129:326|232:328|246:136|175:167,1,337.499991059303,4|0,3:0|0:0,0:0:0:0:
35,54,1874,2,0,B|58:68|72:96|72:96|64:65|76:33,1,112.499997019768,8|0,0:0|0:0,0:0:0:0:
0,156,2025,6,0,P|139:123|336:109,1,337.500003933907,4|0,3:0|0:0,0:0:0:0:
410,54,2479,6,0,B|384:-10|534:-23|606:96|498:240|397:15|302:76,2,405.000004720688,4|2|8,3:0|0:1|0:0,0:0:0:0:
366,220,3386,1,2,0:0:0:0:
366,220,3537,2,0,B|381:262|381:262|456:269|483:353,1,168.749995529652,2|0,0:0|0:0,0:0:0:0:
398,378,3840,6,0,P|361:368|347:325,1,67.5000007867813,2|0,1:3|0:0,0:0:0:0:
512,189,3991,6,0,B|489:236|489:236|307:216|215:320,1,337.499991059303,4|0,3:0|0:0,0:0:0:0:
86,257,4294,2,0,B|51:252|44:286|44:286|62:264|94:266,1,112.499997019768,8|0,0:0|0:0,0:0:0:0:
71,371,4445,6,0,B|112:399|218:251|162:7|-95:150|50:204,1,382.499997162819,4|0,3:0|0:0,0:0:0:0:
12,173,4899,6,0,P|141:158|404:142,2,359.999990463257,4|2|8,3:0|0:1|0:0,0:0:0:0:
92,63,5806,1,2,0:0:0:0:
92,63,5957,2,0,P|189:52|263:47,1,161.999990764618,2|0,0:0|0:0,0:0:0:0:
357,10,6260,6,0,B|348:17|347:39|347:39|338:14|351:-8,1,67.5000007867813,2|0,1:3|0:0,0:0:0:0:
311,169,6411,2,0,B|329:170|329:170|367:329|367:329|346:168|346:168|360:161,1,359.999990463257,4|8,3:0|0:0,0:0:0:0:
456,77,6865,2,0,B|468:91|468:91|414:289|414:289|485:96|485:96|508:93,1,449.999988079071,4|0,3:0|0:0,0:0:0:0:
512,101,7319,6,0,P|403:110|300:129,1,202.500002360344,4|0,3:0|0:0,0:0:0:0:
240,224,7621,2,0,B|186:252|207:348|257:372|313:329|324:218|253:196,1,297.000001195908,2|0,0:1|0:0,0:0:0:0:
160,79,7924,6,0,B|184:62|183:27|183:27|196:69|166:102,1,135.000001573563,8|0,0:0|0:0,0:0:0:0:
60,196,8226,1,2,0:0:0:0:
60,196,8378,1,2,0:0:0:0:
60,196,8680,1,2,1:3:0:0:
26,30,8831,6,0,L|32:67,2,35.9999990463257
140,136,9739,6,0,B|74:82|38:313|181:301|242:238|202:112|139:99|110:109,1,337.499991059303,4|0,3:0|0:0,0:0:0:0:
138,126,10041,2,0,B|58:61|15:342|188:327|263:251|214:98|137:82|102:94,1,405.000004720688,4|0,3:0|0:0,0:0:0:0:
0,126,10344,6,0,P|198:140|435:189,1,405.000004720688,4|0,1:3|0:0,0:0:0:0:
512,72,10646,2,0,B|592:21|431:-66|320:56|397:80,1,269.999992847443,8|0,1:3|0:0,0:0:0:0:
457,146,10949,6,0,B|475:180|461:216|461:216|467:179|437:151,1,135.000001573563,2|2,0:1|1:3,0:0:0:0:
198,135,11251,6,0,B|158:87|56:114|95:307|190:194|218:234|232:267,1,269.999992847443,4|0,3:0|0:0,0:0:0:0:
167,344,11554,2,0,B|157:361|157:361|168:321,1,53.9999969215394,8|0,0:0|0:0,0:0:0:0:
223,126,11705,6,0,B|242:37|394:4|471:283|273:199|262:270|266:322,1,405.000004720688,4|4,3:0|3:0,0:0:0:0:
265,317,12764,6,0,P|342:308|369:307,1,89.9999976158143,8|0,0:0|0:0,0:0:0:0:
512,291,13066,2,0,P|449:303|466:379,1,134.999996423721,0|0,0:1|0:0,0:0:0:0:
487,333,13369,5,2,0:0:0:0:
414,188,13520,1,2,1:3:0:0:
504,36,13671,6,0,B|556:12|568:178|447:352|334:118|413:8|520:0,1,449.999988079071,4|8,3:0|0:0,0:0:0:0:
280,235,14125,2,0,B|305:273|323:313|323:313|320:210|281:60,1,337.499991059303,4|0,3:0|0:0,0:0:0:0:
187,34,14579,6,0,B|60:107|-79:-41|168:-17|165:50|186:135,1,337.499991059303,4|0,3:0|0:0,0:0:0:0:
123,181,14882,2,0,B|125:160|138:144|138:144|116:155|111:198,1,101.250001180172,2|0,0:1|0:0,0:0:0:0:
5,191,15184,6,0,P|29:241|43:291,1,89.9999976158143,8|2,0:0|0:0,0:0:0:0:
112,384,15638,1,2,0:0:0:0:
112,384,15789,1,2,0:0:0:0:
15,360,15940,5,2,1:3:0:0:
0,348,16016,1,2,0:0:0:0:
4,333,16092,2,0,B|50:167|154:139|288:179|266:294|210:372|169:237|127:288,1,449.999988079071,4|8,3:0|0:0,0:0:0:0:
364,144,16545,2,0,B|449:84|440:238|591:240|557:32|309:16|265:129|365:266,1,472.499991989136,4|4,3:0|3:0,0:0:0:0:
447,303,17150,5,2,0:0:0:0:
466,329,17302,1,2,0:0:0:0:
471,347,17453,1,2,0:0:0:0:
374,361,17604,6,0,P|399:269|389:205,1,135.000001573563,8|0,0:0|0:0,0:0:0:0:
274,66,17907,2,0,B|234:36|255:-3|293:-4|326:31|267:105,1,161.999990764618,0|0,0:1|0:0,0:0:0:0:
221,168,18209,5,2,0:0:0:0:
221,168,18360,2,0,P|183:181|144:164,1,67.5000007867814,2|0,1:3|0:0,0:0:0:0:
67,143,18512,6,0,P|286:120|440:114,1,310.499997696877,4|0,3:0|0:0,0:0:0:0:
436,179,18814,2,0,B|471:186|471:186|404:153,1,103.499999232292,8|0,0:0|0:0,0:0:0:0:
448,16,18965,6,0,P|223:28|0:55,1,449.999988079071,4|0,3:0|0:0,0:0:0:0:
169,139,19419,6,0,B|274:208|206:303|104:316|18:226|104:109|178:147|188:180,1,337.499991059303,4|0,3:0|0:0,0:0:0:0:
173,125,19722,2,0,B|299:207|217:321|95:337|-8:229|95:89|183:134|195:174,1,405.000004720688,4|0,3:0|0:0,0:0:0:0:
0,244,20024,6,0,B|95:172|218:235|122:341|223:401|329:340,1,405.000004720688,4|0,1:3|0:0,0:0:0:0:
502,231,20327,2,0,B|534:133|493:86|437:100|460:218|510:296,1,269.999992847443,8|0,1:3|0:0,0:0:0:0:
403,299,20629,6,0,B|398:362|378:386|373:364|374:335|392:295,1,135.000001573563,2|8,0:1|0:0,0:0:0:0:
381,74,20932,6,0,P|270:164|180:303,1,269.999992847443,4|0,3:0|0:0,0:0:0:0:
212,271,21234,2,0,B|224:305|224:305|220:229,1,89.9999976158143,8|0,0:0|0:0,0:0:0:0:
266,0,21386,6,0,P|241:140|263:383,1,377.999978450776,4|4,3:0|3:0,0:0:0:0:
260,373,22444,6,0,P|292:332|281:282,1,89.9999976158143,8|0,0:0|0:0,0:0:0:0:
157,190,22747,2,0,B|150:225|150:225|196:263|176:333,1,134.999996423721,0|0,0:1|0:0,0:0:0:0:
155,332,23049,5,2,0:0:0:0:
155,332,23201,2,0,L|94:341,1,44.9999988079071,2|0,1:3|0:0,0:0:0:0:
23,262,23352,6,0,B|85:230|194:270|93:335|198:399|350:376|457:221|140:172|226:242,1,449.999988079071,4|8,3:0|0:0,0:0:0:0:
22,354,23806,2,0,P|303:305|506:304,1,449.999988079071,4|0,3:0|0:0,0:0:0:0:
428,204,24259,6,0,B|462:232|488:324|488:324|485:228|521:170,1,269.999992847443,4|0,3:0|0:0,0:0:0:0:
411,94,24562,2,0,B|385:78|399:41|436:48|458:92|416:109,1,101.250001180172,2|0,0:1|0:0,0:0:0:0:
408,112,24864,6,0,P|360:117|341:158,1,89.9999976158143,8|2,0:0|0:0,0:0:0:0:
157,245,25318,1,2,0:0:0:0:
157,245,25469,1,2,0:0:0:0:
192,337,25621,5,2,1:3:0:0:
218,344,25696,1,2,0:0:0:0:
233,323,25772,2,0,B|256:164|24:216|172:9|304:-20|494:126|194:125|267:235,1,540.000006294251,4|8,3:0|0:0,0:0:0:0:
76,180,26226,2,0,B|-37:76|299:26|548:182|443:227,1,539.999985694885,4|4,3:0|3:0,0:0:0:0:
447,225,27284,6,0,P|376:215|338:239,1,89.9999976158143,8|0,0:0|0:0,0:0:0:0:
255,252,27587,2,0,P|265:278|274:308,1,44.9999988079071,2|0,0:0|0:0,0:0:0:0:
303,303,27738,2,0,P|307:330|310:356,1,44.9999988079071,2|0,0:0|0:0,0:0:0:0:
420,334,27889,5,2,0:0:0:0:
188,358,28041,1,2,1:3:0:0:
505,290,28192,6,0,P|334:273|126:255,1,337.499991059303,4|0,3:0|0:0,0:0:0:0:
84,164,28495,6,2,L|90:208,4,44.9999988079071
63,158,28797,2,0,B|67:189|67:189|64:192|64:192|68:193|68:193|75:237,1,67.5000007867814,2|0,3:2|0:0,0:0:0:0:
30,308,29100,5,2,3:2:0:0:
256,192,34545,12,0,38477,0:0:0:0:
152,229,38780,6,0,B|167:215|164:181|164:181|149:27|155:26|181:279|181:279|184:303|200:317,1,405.000004720688,4|0,3:0|0:0,0:0:0:0:
269,251,39385,6,0,P|297:220|358:221,1,89.9999976158143,8|0,0:0|0:0,0:0:0:0:
336,319,39687,2,0,P|288:317|228:265,1,112.499997019768,2|0,0:0|0:0,0:0:0:0:
134,275,40141,6,0,B|134:255|133:247|133:247|145:264|145:315,1,67.5000007867814,2|0,1:3|0:0,0:0:0:0:
79,378,40292,2,0,B|117:373|181:217|77:178|-25:186|-16:352|57:355,1,359.999990463257,4|8,3:0|0:0,0:0:0:0:
168,149,40746,2,0,B|325:97|451:191|451:191|522:151,1,359.999990463257,4|2,3:0|0:0,0:0:0:0:
465,24,41200,6,0,B|406:67|433:140|433:140|436:86|477:53,1,202.500002360344,4|2,3:0|0:0,0:0:0:0:
470,75,41805,6,0,P|425:93|356:92,1,67.5000007867814,8|0,0:0|0:0,0:0:0:0:
383,210,41956,2,0,P|335:203|275:167,1,67.5000007867814,2|0,0:0|0:0,0:0:0:0:
187,77,42108,6,2,L|185:51,1,26.9999992847443,2|2,0:1|1:3,0:1:0:0:
208,20,42713,6,0,B|155:116|177:234|250:131|280:241,1,269.999992847443,4|0,3:0|0:0,0:0:0:0:
209,322,43015,2,0,B|204:338|202:358|202:358|202:325|197:297,1,89.9999976158143,8|0,0:0|0:0,0:0:0:0:
109,239,43166,6,0,B|81:219|76:197|76:197|69:222|90:259,1,112.499997019768,4|0,3:0|0:0,0:0:0:0:
12,304,43318,2,0,P|203:270|440:248,1,405.000004720688,2|0,0:1|0:0,0:0:0:0:
496,323,43620,6,0,B|504:327|521:326|524:308|520:287|486:295|481:321,1,80.9999953823091,4|0,3:0|0:0,0:0:0:0:
415,382,44225,5,8,0:0:0:0:
334,285,44376,1,2,0:0:0:0:
441,190,44528,1,2,0:0:0:0:
449,200,44679,1,2,0:0:0:0:
472,297,44830,6,0,L|408:286,1,44.9999988079071,2|0,0:1|0:0,0:0:0:0:
286,210,44981,2,0,L|352:221,1,67.5000007867814,2|0,1:3|0:0,0:0:0:0:
415,382,45133,6,0,P|385:221|459:84,1,310.499997696877,4|0,3:0|0:0,0:0:0:0:
444,65,45435,2,0,B|506:102|506:102|366:64,1,206.999998464584,8|4,0:0|3:0,0:0:0:0:
221,106,45738,2,0,B|192:122|132:108|136:54|187:30|260:52|247:158,1,202.500002360344,2|0,0:1|0:0,0:0:0:0:
288,7,46040,6,0,P|272:126|257:287,2,270.000003147125,4|0|8,3:0|0:1|0:0,0:0:0:0:
70,146,46948,2,0,P|117:166|166:65,1,168.749995529652,2|0,0:0|0:0,0:0:0:0:
102,27,47250,6,0,P|82:2|98:30,1,89.9999976158143,2|2,0:0|1:3,0:0:0:0:
0,70,47553,6,0,P|126:46|329:57,1,310.499997696877,4|0,3:0|0:0,0:0:0:0:
419,146,47855,2,0,B|480:144|388:241|239:200|305:167,1,206.999998464584,8|0,0:0|0:0,0:0:0:0:
471,60,48158,6,0,B|490:16|448:-11|448:-11|473:19|461:61,1,134.999996423721,2|0,0:1|0:0,0:0:0:0:
348,20,48460,6,0,B|299:19|233:110|257:180|366:222|399:126|398:37|330:44,1,337.499991059303,4|0,3:0|0:0,0:0:0:0:
351,7,48763,2,0,B|294:5|217:111|245:192|371:240|410:129|408:26|330:34,1,405.000004720688,4|0,3:0|0:0,0:0:0:0:
203,6,49065,6,0,B|186:49|186:49|259:141|273:265|250:354|250:354|276:382,1,405.000004720688,4|0,1:3|0:0,0:0:0:0:
93,248,49368,2,0,B|28:244|-11:276|101:438|-141:263|71:163|100:208|112:259,1,269.999992847443,8|0,1:3|0:0,0:0:0:0:
153,340,49670,6,0,B|158:380|158:380|141:319,1,99.0000003986359,2|2,0:1|1:3,0:0:0:0:
370,246,49973,6,0,B|375:220|396:175|509:270|514:73|409:64|378:118,1,269.999992847443,4|0,3:0|0:0,0:0:0:0:
293,194,50275,2,0,B|286:212|286:212|289:171,1,53.9999969215394,8|0,0:0|0:0,0:0:0:0:
352,112,50427,6,0,B|317:27|162:21|135:309|315:192|338:260|343:308,1,405.000004720688,4|4,3:0|3:0,0:0:0:0:
342,306,51485,6,0,P|304:306|236:312,1,89.9999976158143,8|0,0:0|0:0,0:0:0:0:
153,217,51788,2,0,B|177:244|177:244|141:288|152:364,1,134.999996423721,0|0,0:1|0:0,0:0:0:0:
158,351,52090,5,2,0:0:0:0:
65,256,52242,1,2,1:3:0:0:
243,166,52393,6,0,B|298:181|323:237|323:237|110:203|0:342,1,449.999988079071,4|8,3:0|0:0,0:0:0:0:
66,20,52847,2,0,B|53:52|53:52|126:116|146:211|146:211|138:114|209:27|209:27|189:6,1,449.999988079071,4|0,3:0|0:0,0:0:0:0:
175,4,53300,6,0,B|167:72|234:124|371:152|393:2|311:-21|271:68|310:140,1,337.499991059303,4|0,3:0|0:0,0:0:0:0:
476,120,53603,2,0,B|481:139|469:163|469:163|474:133|451:112,1,101.250001180172,2|0,0:1|0:0,0:0:0:0:
448,18,53905,6,0,P|422:63|429:119,1,89.9999976158143,8|2,0:0|0:0,0:0:0:0:
407,298,54359,1,2,0:0:0:0:
407,298,54510,1,2,0:0:0:0:
501,260,54662,5,2,1:3:0:0:
497,230,54737,1,2,0:0:0:0:
466,218,54813,2,0,B|290:202|436:339|226:393|-35:235|307:70|402:188|259:254,1,449.999988079071,4|8,1:3|0:0,0:0:0:0:
0,332,55267,2,0,B|40:254|27:51|27:51|48:254|111:317,1,562.499985098839,4|0,3:0|0:0,0:0:0:0:
121,307,55720,6,0,B|131:364|131:364|133:293,1,125.99999666214,4|0,3:0|0:0,0:0:0:0:
172,207,56326,6,0,P|217:200|208:283,1,135.000001573563,8|0,0:0|0:0,0:0:0:0:
79,147,56628,2,0,B|72:81|28:100|20:29,1,135.000001573563,2|0,0:0|0:0,0:0:0:0:
0,199,56931,5,2,0:0:0:0:
0,199,57082,2,0,L|81:182,1,67.5000007867814,2|0,1:3|0:0,0:0:0:0:
174,43,57233,6,0,P|197:151|216:327,1,269.999992847443,4|0,3:0|0:0,0:0:0:0:
141,350,57536,2,0,B|155:344|158:317|158:317|167:351|143:374,1,89.9999976158143,8|0,0:0|0:0,0:0:0:0:
264,0,57687,6,0,P|291:127|314:360,1,359.999990463257,4|0,3:0|0:0,0:0:0:0:
146,201,58141,6,0,B|69:185|85:378|209:382|246:280|197:168|133:181,1,337.499991059303,4|0,3:0|0:0,0:0:0:0:
145,193,58443,2,0,B|57:174|75:393|216:398|258:282|202:155|130:170,1,405.000004720688,4|0,3:0|0:0,0:0:0:0:
0,335,58746,6,0,B|73:396|228:369|130:224|268:194|348:260,1,405.000004720688,4|0,1:3|0:0,0:0:0:0:
512,184,59048,2,0,B|465:206|438:290|438:290|435:199|404:158,1,269.999992847443,8|0,1:3|0:0,0:0:0:0:
362,80,59351,6,0,B|350:96|363:132|363:132|362:83|395:52,1,135.000001573563,2|2,0:1|1:3,0:0:0:0:
512,24,59653,6,0,B|479:65|479:65|384:30|252:25|128:111,1,337.499991059303,4|0,3:0|0:0,0:0:0:0:
120,39,59956,2,0,P|85:46|120:40,1,112.499997019768,8|0,0:0|0:0,0:0:0:0:
362,80,60107,6,0,B|353:132|353:132|275:135|169:170|121:309,1,350.999974634172,4|4,3:0|3:0,0:0:0:0:
125,295,61166,6,0,P|149:337|197:346,1,89.9999976158143,8|0,0:0|0:0,0:0:0:0:
287,369,61468,2,0,P|289:313|367:283,1,134.999996423721,0|0,0:1|0:0,0:0:0:0:
373,258,61771,5,2,0:0:0:0:
373,258,61922,2,0,L|370:315,1,44.9999988079071,2|0,1:3|0:0,0:0:0:0:
468,322,62073,6,0,B|400:382|129:433|60:51|412:109|369:175|292:182,1,485.99998897934,4|8,3:0|0:0,0:0:0:0:
64,328,62527,2,0,B|151:351|182:60|-7:41|-20:366|76:350,1,449.999988079071,4|0,3:0|0:0,0:0:0:0:
212,319,62981,6,0,B|262:330|274:382|274:382|250:339|204:342,1,168.749995529652,4|0,3:0|0:0,0:0:0:0:
362,236,63283,2,0,B|361:260|368:283|368:283|371:250|381:225,1,101.250001180172,2|0,0:1|0:0,0:0:0:0:
469,222,63586,6,0,P|433:196|385:216,1,89.9999976158143,8|2,0:0|0:0,0:0:0:0:
474,327,64040,1,2,0:0:0:0:
474,327,64191,1,2,0:0:0:0:
384,383,64342,5,2,1:3:0:0:
364,362,64418,1,2,0:0:0:0:
371,333,64493,2,0,B|437:257|518:294|518:294|531:291|531:291|475:107|282:155|376:218,1,449.999988079071,4|8,3:0|0:0,0:0:0:0:
473,377,64947,6,0,P|455:229|416:4,1,377.999978450776,4|4,3:0|3:0,0:0:0:0:
415,3,66006,6,0,P|365:8|331:54,1,89.9999976158143,8|0,0:0|0:0,0:0:0:0:
389,203,66308,2,0,P|396:179|395:150,1,44.9999988079071,2|0,0:0|0:0,0:0:0:0:
417,151,66460,2,0,P|411:122|397:96,1,44.9999988079071,2|0,0:0|0:0,0:0:0:0:
310,125,66611,5,2,0:0:0:0:
504,45,66762,1,2,1:3:0:0:
186,80,66913,6,0,P|345:106|519:141,1,337.499991059303,4|0,3:0|0:0,0:0:0:0:
479,246,67216,2,0,B|500:254|503:285|503:285|510:247|478:217,1,112.499997019768,8|0,0:0|0:0,0:0:0:0:
504,45,67367,6,0,P|393:90|214:206,1,303.749993112087,4|0,3:0|0:0,0:0:0:0:
148,176,67821,6,0,B|133:140|26:122|-28:208|0:279|44:262|12:213|70:184|108:168|138:203,1,314.99999165535,2|0,0:0|0:0,0:0:0:0:
198,319,68426,6,0,B|179:366|171:364|198:298,1,89.9999976158143,8|0,0:0|0:0,0:0:0:0:
206,312,68728,2,0,B|183:390|152:375|204:263,1,161.999990764618,2|2,0:3|1:3,0:0:0:0:
290,193,69333,6,0,B|350:218|335:266|285:278|360:309|393:257|353:168|291:169,1,236.250002753735,2|0,0:3|0:0,0:0:0:0:
366,83,69939,6,0,B|362:27|396:0|435:41|427:1|366:-12|323:36|361:100,1,203.999994595846,2|0,0:3|0:0,0:0:0:0:
