osu file format v14

[General]
AudioFilename: audio.mp3
AudioLeadIn: 0
PreviewTime: 9739
Countdown: 0
SampleSet: Soft
StackLeniency: 0.7
Mode: 0
LetterboxInBreaks: 0
EpilepsyWarning: 1
WidescreenStoryboard: 1

[Editor]
Bookmarks: 9739,19419,29091,38768,48446,58123,67800
DistanceSpacing: 1.2
BeatDivisor: 12
GridSize: 32
TimelineZoom: 1.5

[Metadata]
Title:HEARTLESS
TitleUnicode:HEARTLESS
Artist:YAMEII
ArtistUnicode:YAMEII
Creator:Silverboxer
Version://normal
Source:
Tags:Yameii Online OSEANWORLD OSEAN WORLD vocaloid trap rap hip hop english pop Avanna hyperpop deko.777 deko777 yameiionline 777 hip-hop
BeatmapID:3602532
BeatmapSetID:1588514

[Difficulty]
HPDrainRate:2
CircleSize:2
OverallDifficulty:2
ApproachRate:3
SliderMultiplier:1.49999990463257
SliderTickRate:1

[Events]
//Background and Video events
Video,0,"yameii_heartless2.mp4"
0,0,"yameii_bg.jpg",0,0
//Break Periods
2,29300,33105
//Storyboard Layer 0 (Background)
//Storyboard Layer 1 (Fail)
//Storyboard Layer 2 (Pass)
//Storyboard Layer 3 (Foreground)
//Storyboard Layer 4 (Overlay)
//Storyboard Sound Samples

[TimingPoints]
59,605.021679943531,4,2,0,50,1,0
285,-100,4,2,0,5,0,0
361,-100,4,2,0,50,0,0
588,-100,4,2,0,5,0,0
664,-100,4,2,0,50,0,0
815,-100,4,2,0,15,0,0
966,-100,4,2,0,30,0,0
1420,-100,4,2,0,50,0,0
1495,-100,4,2,0,5,0,0
1571,-100,4,2,0,50,0,0
1798,-100,4,2,0,5,0,0
1874,-100,4,2,0,50,0,0
1949,-100,4,2,0,5,0,0
2025,-100,4,2,0,50,0,0
2403,-100,4,2,0,5,0,0
2479,-100,4,2,0,50,0,0
3386,-100,4,2,0,30,0,0
3764,-100,4,2,0,5,0,0
3840,-100,4,2,0,50,0,0
3916,-100,4,2,0,5,0,0
3991,-100,4,2,0,50,0,0
4218,-100,4,2,0,5,0,0
4294,-100,4,2,0,50,0,0
4369,-100,4,2,0,5,0,0
4445,-100,4,2,0,50,0,0
4823,-100,4,2,0,5,0,0
4899,-100,4,2,0,50,0,0
5806,-100,4,2,0,30,0,0
6184,-100,4,2,0,5,0,0
6260,-100,4,2,0,50,0,0
6336,-100,4,2,0,5,0,0
6411,-100,4,2,0,50,0,0
7546,-100,4,2,0,5,0,0
7621,-100,4,2,0,50,0,0
7848,-100,4,2,0,5,0,0
7924,-100,4,2,0,50,0,0
8075,-100,4,2,0,15,0,0
8226,-100,4,2,0,30,0,0
8831,-100,4,2,0,30,0,0
9739,-100,4,2,0,50,0,1
9966,-100,4,2,0,5,0,1
10041,-100,4,2,0,50,0,1
10268,-100,4,2,0,5,0,1
10344,-100,4,2,0,50,0,1
10571,-100,4,2,0,5,0,1
10646,-100,4,2,0,50,0,1
10873,-100,4,2,0,5,0,1
10949,-100,4,2,0,50,0,0
11478,-100,4,2,0,5,0,0
11554,-100,4,2,0,50,0,0
11630,-100,4,2,0,5,0,0
11705,-100,4,2,0,50,0,0
13293,-100,4,2,0,5,0,0
13369,-100,4,2,0,50,0,0
14503,-100,4,2,0,5,0,0
14579,-100,4,2,0,50,0,0
14806,-100,4,2,0,5,0,0
14882,-100,4,2,0,50,0,0
15108,-100,4,2,0,5,0,0
15184,-100,4,2,0,50,0,0
15487,-100,4,2,0,30,0,0
15940,-100,4,2,0,30,0,0
16092,-100,4,2,0,50,0,0
17150,-100,4,2,0,15,0,0
17302,-100,4,2,0,10,0,0
17453,-100,4,2,0,5,0,0
17604,-100,4,2,0,50,0,0
17755,-100,4,2,0,30,0,0
17907,-100,4,2,0,50,0,0
18134,-100,4,2,0,5,0,0
18209,-100,4,2,0,50,0,0
18436,-100,4,2,0,5,0,0
18512,-100,4,2,0,50,0,0
18739,-100,4,2,0,5,0,0
18814,-100,4,2,0,50,0,0
18890,-100,4,2,0,5,0,0
18965,-100,4,2,0,50,0,0
19344,-100,4,2,0,5,0,0
19419,-100,4,2,0,50,0,1
19646,-100,4,2,0,5,0,1
19722,-100,4,2,0,50,0,1
19949,-100,4,2,0,5,0,1
20024,-100,4,2,0,50,0,1
20251,-100,4,2,0,5,0,1
20327,-100,4,2,0,50,0,1
20554,-100,4,2,0,5,0,1
20629,-100,4,2,0,50,0,0
21159,-100,4,2,0,5,0,0
21234,-100,4,2,0,50,0,0
21310,-100,4,2,0,5,0,0
21386,-100,4,2,0,50,0,0
22974,-100,4,2,0,5,0,0
23049,-100,4,2,0,50,0,0
23276,-100,4,2,0,5,0,0
23352,-100,4,2,0,50,0,0
24184,-100,4,2,0,5,0,0
24259,-100,4,2,0,50,0,0
24486,-100,4,2,0,5,0,0
24562,-100,4,2,0,50,0,0
24789,-100,4,2,0,5,0,0
24864,-100,4,2,0,50,0,0
25167,-100,4,2,0,30,0,0
25621,-100,4,2,0,30,0,0
25772,-100,4,2,0,50,0,0
27436,-100,4,2,0,15,0,0
27587,-100,4,2,0,30,0,0
27663,-100,4,2,0,5,0,0
27738,-100,4,2,0,30,0,0
27814,-100,4,2,0,5,0,0
27889,-100,4,2,0,30,0,0
28041,-100,4,2,0,50,0,0
28419,-100,4,2,0,5,0,0
28495,-100,4,2,0,70,0,0
28797,-100,4,2,0,50,0,0
28948,-100,4,2,0,5,0,0
29100,-100,4,2,0,30,0,0
34545,-100,4,2,0,10,0,0
37570,-100,4,2,0,50,0,0
40066,-100,4,2,0,5,0,0
40141,-100,4,2,0,50,0,0
40217,-100,4,2,0,5,0,0
40292,-100,4,2,0,50,0,0
41881,-100,4,2,0,5,0,0
41956,-100,4,2,0,50,0,0
42032,-100,4,2,0,5,0,0
42108,-100,4,2,0,50,0,0
42939,-100,4,2,0,5,0,0
43015,-100,4,2,0,50,0,0
43091,-100,4,2,0,5,0,0
43166,-100,4,2,0,50,0,0
43242,-100,4,2,0,5,0,0
43318,-100,4,2,0,50,0,0
43544,-100,4,2,0,5,0,0
43620,-100,4,2,0,50,0,0
44074,-100,4,2,0,5,0,0
44225,-100,4,2,0,50,0,0
44906,-100,4,2,0,5,0,0
44981,-100,4,2,0,50,0,0
45057,-100,4,2,0,5,0,0
45133,-100,4,2,0,50,0,0
45359,-100,4,2,0,5,0,0
45435,-100,4,2,0,50,0,0
45965,-100,4,2,0,5,0,0
46040,-100,4,2,0,50,0,0
47175,-100,4,2,0,5,0,0
47250,-100,4,2,0,50,0,0
47780,-100,4,2,0,5,0,0
47855,-100,4,2,0,50,0,0
48385,-100,4,2,0,5,0,0
48460,-100,4,2,0,50,0,1
48687,-100,4,2,0,5,0,1
48763,-100,4,2,0,50,0,1
48990,-100,4,2,0,5,0,1
49065,-100,4,2,0,50,0,1
49292,-100,4,2,0,5,0,1
49368,-100,4,2,0,50,0,1
49595,-100,4,2,0,5,0,1
49670,-100,4,2,0,50,0,0
50200,-100,4,2,0,5,0,0
50275,-100,4,2,0,50,0,0
50351,-100,4,2,0,5,0,0
50427,-100,4,2,0,50,0,0
52015,-100,4,2,0,5,0,0
52090,-100,4,2,0,50,0,0
53225,-100,4,2,0,5,0,0
53300,-100,4,2,0,50,0,0
53527,-100,4,2,0,5,0,0
53603,-100,4,2,0,50,0,0
53830,-100,4,2,0,5,0,0
53905,-100,4,2,0,50,0,0
54208,-100,4,2,0,30,0,0
54662,-100,4,2,0,30,0,0
54813,-100,4,2,0,50,0,0
55645,-100,4,2,0,5,0,0
55720,-100,4,2,0,50,0,0
56250,-100,4,2,0,5,0,0
56326,-100,4,2,0,50,0,0
56855,-100,4,2,0,5,0,0
56931,-100,4,2,0,50,0,0
57157,-100,4,2,0,5,0,0
57233,-100,4,2,0,50,0,0
57460,-100,4,2,0,5,0,0
57536,-100,4,2,0,50,0,0
57611,-100,4,2,0,5,0,0
57687,-100,4,2,0,50,0,0
58065,-100,4,2,0,5,0,0
58141,-100,4,2,0,50,0,1
58367,-100,4,2,0,5,0,1
58443,-100,4,2,0,50,0,1
58670,-100,4,2,0,5,0,1
58746,-100,4,2,0,50,0,1
58972,-100,4,2,0,5,0,1
59048,-100,4,2,0,50,0,1
59275,-100,4,2,0,5,0,1
59351,-100,4,2,0,50,0,0
59880,-100,4,2,0,5,0,0
59956,-100,4,2,0,50,0,0
60031,-100,4,2,0,5,0,0
60107,-100,4,2,0,50,0,0
61695,-100,4,2,0,5,0,0
61771,-100,4,2,0,50,0,0
61998,-100,4,2,0,5,0,0
62073,-100,4,2,0,50,0,0
62905,-100,4,2,0,5,0,0
62981,-100,4,2,0,50,0,0
63208,-100,4,2,0,5,0,0
63283,-100,4,2,0,50,0,0
63510,-100,4,2,0,5,0,0
63586,-100,4,2,0,50,0,0
63888,-100,4,2,0,30,0,0
64342,-100,4,2,0,30,0,0
64493,-100,4,2,0,50,0,0
66157,-100,4,2,0,15,0,0
66308,-100,4,2,0,30,0,0
66384,-100,4,2,0,5,0,0
66460,-100,4,2,0,30,0,0
66535,-100,4,2,0,5,0,0
66611,-100,4,2,0,30,0,0
66762,-100,4,2,0,50,0,0
67140,-100,4,2,0,5,0,0
67216,-100,4,2,0,50,0,0
67292,-100,4,2,0,5,0,0
67367,-100,4,2,0,50,0,0
67745,-100,4,2,0,5,0,0
67821,-100,4,2,0,50,0,0
68350,-100,4,2,0,5,0,0
68426,-100,4,2,0,30,0,0
68577,-100,4,2,0,15,0,0
68728,-100,4,2,0,30,0,0
69182,-100,4,2,0,20,0,0
69333,-100,4,2,0,30,0,0
69636,-100,4,2,0,30,0,0
69863,-100,4,2,0,5,0,0
69939,-100,4,2,0,15,0,0
70796,-100,4,2,0,5,0,0

[Colours]
Combo1 : 6,255,218
Combo2 : 237,254,22

[HitObjects]
60,262,59,6,0,B|148:260|119:317|198:322,1,149.999990463257,4|8,3:0|0:0,0:0:0:0:
279,301,966,1,2,0:0:0:0:
320,318,1117,1,2,0:0:0:0:
456,330,1571,2,0,P|467:258|481:196,1,112.499992847443,4|4,3:0|3:0,0:0:0:0:
437,89,2479,6,0,B|415:50|418:17|418:17|403:50|358:78,1,149.999990463257,4|8,3:0|0:0,0:0:0:0:
293,20,3386,1,2,0:0:0:0:
257,47,3537,1,2,0:0:0:0:
140,114,3991,2,0,P|89:119|68:42,1,112.499992847443,4|4,3:0|3:0,0:0:0:0:
175,0,4899,6,0,B|157:40|157:40|182:91|174:162,1,149.999990463257,4|8,3:0|0:0,0:0:0:0:
153,230,5806,1,2,0:0:0:0:
179,266,5957,1,2,0:0:0:0:
306,312,6411,2,0,P|383:304|450:301,2,112.499992847443,4|4|4,3:0|3:0|3:0,0:0:0:0:
229,359,7621,6,0,P|172:353|134:347,1,74.9999952316285,2|8,0:1|0:0,0:0:0:0:
64,359,8226,1,2,0:0:0:0:
31,327,8378,2,0,P|18:278|67:244,1,112.499992847443,2|0,0:0|0:0,0:0:0:0:
266,170,9739,6,0,P|259:212|278:250,1,74.9999952316285,4|4,3:0|3:0,0:0:0:0:
343,293,10344,1,4,1:3:0:0:
413,237,10646,2,0,P|414:177|417:71,1,149.999990463257,8|4,1:3|3:0,0:0:0:0:
348,27,11554,1,8,0:0:0:0:
304,38,11705,2,0,B|284:28|266:13|266:13|242:31|199:47,1,112.499992847443,4|4,3:0|3:0,0:0:0:0:
27,21,12764,6,0,P|31:80|34:119,1,74.9999952316285,8|0,0:0|0:1,0:0:0:0:
10,183,13369,1,2,0:0:0:0:
33,269,13671,2,0,P|83:272|116:276,1,74.9999952316285,4|8,3:0|0:0,0:0:0:0:
181,222,14277,1,0,0:0:0:0:
231,147,14579,6,0,B|285:166|295:201|363:225,1,149.999990463257,4|8,3:0|0:0,0:0:0:0:
446,243,15487,2,0,P|456:185|460:142,1,74.9999952316285,2|2,0:0|0:0,0:0:0:0:
427,84,16092,2,0,P|446:28|513:27,2,112.499992847443,4|4|4,3:0|3:0|3:0,0:0:0:0:
251,124,17604,6,0,P|260:170|271:204,1,74.9999952316285,8|0,0:0|0:1,0:0:0:0:
355,219,18209,1,2,0:0:0:0:
425,274,18512,2,0,P|392:320|337:344,1,112.499992847443,4|4,3:0|3:0,0:0:0:0:
209,362,19419,6,0,P|165:360|143:318,1,74.9999952316285,4|4,3:0|3:0,0:0:0:0:
56,339,20024,2,0,P|41:302|57:258,1,74.9999952316285,4|8,1:3|1:3,0:0:0:0:
108,201,20629,1,2,0:1:0:0:
197,210,20932,2,0,B|227:222|227:222|269:197|335:214,2,112.499992847443,4|4|4,3:0|3:0|3:0,0:0:0:0:
33,134,22444,6,0,L|22:51,1,74.9999952316285,8|0,0:0|0:1,0:0:0:0:
94,4,23049,1,2,0:0:0:0:
165,59,23352,2,0,P|210:68|264:54,1,74.9999952316285,4|8,3:0|0:0,0:0:0:0:
310,10,23957,1,0,0:0:0:0:
399,0,24259,6,0,P|336:47|376:124,1,149.999990463257,4|8,3:0|0:0,0:0:0:0:
438,131,25167,2,0,P|444:176|449:213,1,74.9999952316285,2|2,0:0|0:0,0:0:0:0:
380,265,25772,2,0,L|363:383,2,112.499992847443,4|4|4,3:0|3:0|3:0,0:0:0:0:
270,122,27284,6,0,P|226:110|174:137,1,74.9999952316285,8|2,0:0|0:0,0:0:0:0:
131,178,27889,1,2,0:0:0:0:
162,262,28192,2,0,B|199:269|230:243|230:243|241:248|241:248|252:245|252:245|261:253|261:253|275:249|275:249|284:257|284:257|294:263|302:266,1,149.999990463257,4|2,3:0|3:2,0:0:0:0:
344,340,29100,5,2,3:2:0:0:
256,192,34545,12,0,37570,0:0:0:0:
120,259,38780,6,0,B|108:303|142:346|195:334|210:282,1,149.999990463257,4|8,3:0|0:0,0:0:0:0:
277,234,39687,1,2,0:0:0:0:
453,267,40292,2,0,B|475:284|475:284|474:331|499:364,2,112.499992847443,4|4|4,3:0|3:0|3:0,0:0:0:0:
302,367,41805,5,8,0:0:0:0:
227,315,42108,2,2,L|220:221,1,74.9999952316285,2|2,0:1|0:0,0:1:0:0:
241,152,42713,1,4,3:0:0:0:
156,121,43015,2,0,L|164:44,2,74.9999952316285,8|2|4,0:0|0:1|3:0,0:0:0:0:
133,299,44225,6,0,P|85:310|43:290,1,74.9999952316285,8|2,0:0|0:0,0:0:0:0:
19,223,44830,1,2,0:1:0:0:
66,146,45133,2,0,L|55:47,1,74.9999952316285,4|8,3:0|0:0,0:0:0:0:
143,42,45738,2,0,L|151:116,1,74.9999952316285,2|4,0:1|3:0,0:0:0:0:
236,145,46343,1,0,0:1:0:0:
298,80,46645,6,0,P|332:47|386:32,2,74.9999952316285,8|2|2,0:0|0:0|0:0,0:0:0:0:
351,153,47553,2,0,B|372:207|416:190|439:236,1,112.499992847443,4|4,3:0|3:0,0:0:0:0:
398,356,48460,6,0,P|349:348|327:308,1,74.9999952316285,4|4,3:0|3:0,0:0:0:0:
250,296,49065,1,4,1:3:0:0:
172,249,49368,2,0,B|187:208|182:171|182:171|209:203|251:208,1,149.999990463257,8|4,1:3|3:0,0:0:0:0:
326,178,50275,1,8,0:0:0:0:
359,147,50427,2,0,P|358:97|290:97,1,112.499992847443,4|4,3:0|3:0,0:0:0:0:
140,17,51485,6,0,P|134:57|125:101,1,74.9999952316285,8|0,0:0|0:1,0:0:0:0:
43,124,52090,1,2,0:0:0:0:
9,207,52393,2,0,P|27:263|39:308,1,74.9999952316285,4|8,3:0|0:0,0:0:0:0:
89,347,52998,1,0,0:0:0:0:
175,325,53300,6,0,B|193:354|190:370|190:370|226:328|201:257,1,149.999990463257,4|8,3:0|0:0,0:0:0:0:
128,228,54208,2,0,P|138:189|158:158,1,74.9999952316285,2|2,0:0|0:0,0:0:0:0:
243,135,54813,2,0,P|261:87|267:7,2,112.499992847443,4|4|4,1:3|3:0|3:0,0:0:0:0:
402,219,56326,6,0,L|410:300,2,74.9999952316285,8|0|2,0:0|0:1|0:0,0:0:0:0:
472,162,57233,2,0,L|481:83,1,74.9999952316285,4|8,3:0|0:0,0:0:0:0:
423,17,57838,1,0,0:0:0:0:
336,41,58141,6,0,P|292:19|247:49,1,74.9999952316285,4|4,3:0|3:0,0:0:0:0:
212,95,58746,2,0,P|177:121|175:164,1,74.9999952316285,4|8,1:3|1:3,0:0:0:0:
226,221,59351,1,2,0:1:0:0:
179,297,59653,2,0,B|156:318|156:318|119:297|48:295,2,112.499992847443,4|4|4,3:0|3:0|3:0,0:0:0:0:
344,367,61166,5,8,0:0:0:0:
424,328,61468,2,0,P|430:281|425:245,1,74.9999952316285,0|2,0:1|0:0,0:0:0:0:
417,164,62073,2,0,B|369:159|332:192,1,74.9999952316285,4|8,3:0|0:0,0:0:0:0:
255,178,62678,1,0,0:0:0:0:
180,230,62981,6,0,P|109:237|67:164,1,149.999990463257,4|8,3:0|0:0,0:0:0:0:
18,102,63888,2,0,P|25:49|36:8,1,74.9999952316285,2|2,0:0|0:0,0:0:0:0:
117,6,64493,2,0,L|251:22,2,112.499992847443,4|4|4,3:0|3:0|3:0,0:0:0:0:
98,185,66006,6,0,L|193:171,1,74.9999952316285,8|2,0:0|0:0,0:0:0:0:
250,128,66611,1,2,0:0:0:0:
312,192,66913,2,0,B|341:204|355:227|355:227|352:198|361:169,2,112.499992847443,4|4|2,3:0|3:0|0:0,0:0:0:0:
158,285,68426,5,8,0:0:0:0:
93,347,68728,2,0,P|172:336|257:336,1,149.999990463257,2|2,0:3|0:3,0:0:0:0:
398,244,69939,6,0,B|452:257|388:355|482:339|465:270|457:216|396:222,1,212.499986489614,2|0,0:3|0:0,0:0:0:0:
