osu file format v14

[General]
AudioFilename: Naruto op 17.mp3
AudioLeadIn: 0
PreviewTime: 61951
Countdown: 1
SampleSet: None
StackLeniency: 0.7
Mode: 0
LetterboxInBreaks: 0
WidescreenStoryboard: 0

[Editor]
DistanceSpacing: 1
BeatDivisor: 4
GridSize: 4
TimelineZoom: 1

[Metadata]
Title:Kaze
TitleUnicode:Kaze
Artist:YAMAZARU
ArtistUnicode:YAMAZARU
Creator:DNR
Version:Hard
Source:
Tags:CDFA Reditum
BeatmapID:1633698
BeatmapSetID:777695

[Difficulty]
HPDrainRate:7
CircleSize:4
OverallDifficulty:7
ApproachRate:8
SliderMultiplier:2
SliderTickRate:1

[Events]
//Background and Video events
0,0,"lvallevrqbnnwkjqjiss.jpg",0,0
Video,0,"kaze_op.avi"
//Break Periods
//Storyboard Layer 0 (Background)
//Storyboard Layer 1 (Fail)
//Storyboard Layer 2 (Pass)
//Storyboard Layer 3 (Foreground)
//Storyboard Sound Samples

[TimingPoints]
1211,370.37037037037,4,2,0,40,1,0
61396,-200,4,2,0,40,0,0
61951,-100,4,1,0,40,0,1
85470,-100,4,1,0,40,0,0

[HitObjects]
64,72,25470,5,0,0:0:0:0:
156,28,25655,2,0,P|208:32|244:72,1,100,0|0,1:0|1:0,0:0:0:0:
224,164,26025,1,0,0:0:0:0:
284,244,26210,1,4,1:0:0:0:
376,204,26396,6,0,B|420:228|420:228|456:272,1,100
488,360,26766,1,0,1:0:0:0:
388,364,26951,1,0,0:0:0:0:
296,328,27136,2,0,P|232:312|192:328,1,100,2|0,0:0|0:0,0:0:0:0:
104,352,27507,2,0,P|64:304|72:236,1,100,0|0,1:0|0:0,0:0:0:0:
116,184,27877,6,0,P|132:128|116:68,2,100,2|0|0,0:0|0:0|1:0,0:0:0:0:
32,128,28433,2,0,L|264:152,1,200,2|2,0:0|0:0,0:0:0:0:
332,152,28988,1,0,1:0:0:0:
408,88,29173,1,0,0:0:0:0:
312,56,29359,6,0,B|396:148|396:148|404:248,1,200,2|0,0:0|1:0,0:0:0:0:
328,288,29914,1,0,0:0:0:0:
232,256,30099,2,0,P|184:248|120:284,1,100,2|0,0:0|0:0,0:0:0:0:
196,348,30470,2,0,L|184:124,1,200,0|2,1:0|0:0,0:0:0:0:
348,32,31210,5,0,1:0:0:0:
348,32,31396,2,0,L|364:256,1,200,2|2,0:0|0:0,0:0:0:0:
344,328,31951,1,0,1:0:0:0:
256,280,32136,1,4,0:0:0:0:
160,304,32322,6,0,P|100:300|76:248,1,100,2|0,0:0|0:0,0:0:0:0:
120,180,32692,2,0,P|144:124|132:56,1,100,0|0,1:0|0:0,0:0:0:0:
52,48,33062,2,0,P|148:84|252:44,1,200,2|0,0:0|1:0,0:0:0:0:
324,8,33618,1,4,0:0:0:0:
408,60,33803,6,0,P|416:116|400:176,1,100,2|0,0:0|0:0,0:0:0:0:
328,220,34173,1,0,1:0:0:0:
232,196,34359,2,0,P|152:196|72:312,1,200,2|2,0:0|0:0,0:0:0:0:
140,356,34914,1,0,1:0:0:0:
232,320,35099,1,0,0:0:0:0:
300,244,35285,6,0,L|328:132,1,100,4|0,0:3|0:0,0:0:0:0:
260,68,35655,2,0,L|224:196,1,100,8|4,0:3|0:3,0:0:0:0:
308,254,36025,2,0,L|342:120,1,100,0|4,0:0|0:3,0:0:0:0:
260,43,36395,2,0,L|232:144,1,100,8|4,0:3|0:3,0:0:0:0:
319,266,36766,6,0,L|352:128,1,100,4|0,0:3|0:0,0:0:0:0:
261,13,37136,2,0,L|227:134,1,100,8|0,0:3|0:0,0:0:0:0:
332,280,37507,1,4,0:3:0:0:
436,188,37692,1,0,1:0:0:0:
308,128,37877,1,0,1:0:0:0:
332,280,38062,2,0,P|292:332|144:300,1,200,4|0,0:0|0:0,0:0:0:0:
116,240,38618,5,0,1:0:0:0:
140,144,38803,1,0,0:0:0:0:
236,176,38988,2,0,P|312:148|316:32,1,200,2|0,0:0|1:0,0:0:0:0:
228,76,39544,1,0,0:0:0:0:
228,76,39729,6,0,L|244:292,1,200,2|0,0:0|1:0,0:0:0:0:
336,312,40285,2,0,B|240:276|240:276|132:284,1,200,2|2,0:0|0:0,0:0:0:0:
44,300,40840,1,0,1:0:0:0:
20,204,41025,1,0,0:0:0:0:
108,160,41210,6,0,P|128:120|128:48,1,100,2|0,0:0|0:0,0:0:0:0:
40,24,41581,2,0,P|136:64|228:28,1,200,0|2,1:0|0:0,0:0:0:0:
420,16,42322,1,0,1:0:0:0:
444,112,42507,1,0,0:0:0:0:
428,212,42692,2,0,P|376:236|324:228,1,100,2|0,0:0|0:0,0:0:0:0:
248,184,43062,1,0,1:0:0:0:
340,144,43248,2,0,B|328:328|328:328|280:344,1,200,2|2,0:0|0:0,0:0:0:0:
216,304,43803,1,0,1:0:0:0:
120,328,43988,1,4,0:0:0:0:
48,256,44173,6,0,P|64:204|64:144,1,100,2|0,0:0|0:0,0:0:0:0:
40,60,44544,1,0,1:0:0:0:
136,32,44729,1,0,0:0:0:0:
216,92,44914,2,0,P|272:116|376:32,1,200,2|0,0:0|1:0,0:0:0:0:
276,20,45470,1,4,0:0:0:0:
276,20,45655,2,0,L|336:260,1,200,2|0,0:0|1:0,0:0:0:0:
420,240,46210,2,0,P|320:216|260:284,1,200,2|2,0:0|0:0,0:0:0:0:
356,312,46766,1,0,1:0:0:0:
456,328,46951,1,4,0:0:0:0:
420,240,47136,6,0,L|456:140,1,100,4|0,0:3|0:0,0:0:0:0:
392,68,47507,2,0,L|356:164,1,100,8|4,0:3|0:3,0:0:0:0:
422,257,47877,6,0,L|465:136,1,100,0|4,0:0|0:3,0:0:0:0:
389,50,48248,2,0,L|344:180,1,100,8|4,0:3|0:3,0:0:0:0:
422,257,48618,2,0,B|330:253|330:253|226:289,1,200,0|0,0:0|1:0,0:0:0:0:
68,344,49173,1,0,0:0:0:0:
108,192,49359,1,4,0:3:0:0:
160,360,49544,1,0,1:0:0:0:
48,264,49729,1,0,1:0:0:0:
200,216,49914,1,4,0:3:0:0:
160,360,50099,6,0,P|252:328|360:360,1,200,4|4,0:0|0:3,0:0:0:0:
448,368,50655,1,2,0:3:0:0:
484,276,50840,2,0,P|488:192|400:64,1,200,0|2,1:0|0:0,0:0:0:0:
344,52,51396,5,8,0:3:0:0:
252,88,51581,2,0,P|180:92|128:68,1,100,0|8,0:0|0:3,0:0:0:0:
76,24,51951,1,0,0:0:0:0:
24,108,52136,1,0,0:0:0:0:
108,164,52322,2,0,B|120:244|120:244|192:232|216:296,1,200,0|2,1:0|0:0,0:0:0:0:
256,384,52877,1,0,0:0:0:0:
296,294,53062,6,0,B|320:232|392:244|392:244|404:164,1,200,4|2,1:0|0:0,0:0:0:0:
424,64,53618,1,0,0:0:0:0:
340,8,53803,2,0,P|292:16|252:72,1,100,0|0,1:0|0:0,0:0:0:0:
244,152,54173,2,0,P|212:204|168:212,1,100,0|8,0:0|0:3,0:0:0:0:
156,116,54544,2,0,L|300:292,1,200,0|2,0:0|0:0,0:0:0:0:
372,312,55099,5,0,0:0:0:0:
444,240,55285,2,0,P|464:192|460:128,1,100,0|0,1:0|0:0,0:0:0:0:
448,44,55655,2,0,L|496:12,2,50,8|0|4,0:3|0:0|0:3,0:0:0:0:
348,48,56025,5,0,1:0:0:0:
348,48,56210,2,0,L|212:60,1,100,0|0,1:0|0:0,0:0:0:0:
196,140,56581,1,0,1:0:0:0:
196,140,56766,2,0,L|296:132,1,100,0|0,1:0|0:0,0:0:0:0:
196,140,57136,5,0,1:0:0:0:
196,140,57321,2,0,L|60:152,1,100,0|0,1:0|0:0,0:0:0:0:
44,232,57692,1,0,1:0:0:0:
44,232,57877,2,0,L|144:224,1,100,0|0,1:0|0:0,0:0:0:0:
244,216,58248,1,0,1:0:0:0:
368,204,58433,1,0,0:0:0:0:
312,284,58618,1,8,0:3:0:0:
300,148,58803,1,0,0:0:0:0:
312,284,58988,5,4,0:0:0:0:
428,172,59173,1,0,0:0:0:0:
420,336,59358,1,8,0:3:0:0:
328,184,59543,1,4,0:3:0:0:
488,256,59728,1,0,0:0:0:0:
392,248,59913,1,0,0:0:0:0:
392,100,60099,1,0,1:0:0:0:
512,180,60285,1,0,0:0:0:0:
392,248,60470,6,0,B|260:256|168:88|292:56|288:164|152:272|56:184,1,400,4|0,0:0|0:0,0:0:0:0:
44,112,61396,6,0,L|-12:76,2,50,4|0|4,0:3|1:0|0:3,0:0:0:0:
128,60,61951,5,4,0:0:0:0:
228,40,62136,1,0,2:0:0:0:
284,124,62322,1,8,0:0:0:0:
184,140,62507,2,0,P|164:216|256:280,1,200,4|4,2:3|0:3,0:0:0:0:
332,224,63062,1,8,0:0:0:0:
424,268,63248,1,0,0:0:0:0:
488,192,63433,2,0,P|504:132|496:80,1,100,4|0,0:3|2:0,0:0:0:0:
408,52,63803,2,0,P|344:64|272:40,1,100,8|0,0:0|2:0,0:0:0:0:
216,32,64173,2,0,B|152:20|152:20|120:32,2,100,4|4|8,0:3|0:3|0:0,0:0:0:0:
248,128,64729,5,0,2:0:0:0:
304,212,64914,2,0,P|348:224|400:192,1,100,4|0,3:0|2:0,0:0:0:0:
336,120,65285,2,0,L|368:336,2,200,8|4|8,0:0|3:0|0:0,0:0:0:0:
276,40,66210,1,0,2:0:0:0:
180,68,66396,2,0,P|132:72|88:32,1,100,4|0,3:0|2:0,0:0:0:0:
0,4,66766,1,8,0:0:0:0:
8,104,66951,1,0,2:0:0:0:
100,140,67136,2,0,P|120:192|120:256,1,100,4|4,3:0|3:0,0:0:0:0:
44,296,67507,2,0,B|148:264|148:264|216:292,1,150,8|8,0:0|0:0,0:0:0:0:
232,300,67877,6,0,P|288:308|336:264,1,100,4|0,0:0|2:0,0:0:0:0:
368,196,68248,1,8,0:0:0:0:
296,128,68433,1,0,2:0:0:0:
392,104,68618,2,0,P|456:104|496:144,1,100,4|4,0:3|3:0,0:0:0:0:
472,224,68988,2,0,B|508:76|508:76|492:32,1,200,8|4,0:0|3:0,0:0:0:0:
392,16,69544,5,0,2:0:0:0:
304,64,69729,2,0,P|248:68|204:40,1,100,8|0,0:0|2:0,0:0:0:0:
116,12,70099,1,4,0:3:0:0:
40,80,70285,1,4,0:3:0:0:
108,152,70470,2,0,P|120:208|108:272,1,100,8|0,0:0|2:0,0:0:0:0:
20,284,70840,2,0,P|112:248|208:300,1,200,4|8,3:0|0:0,0:0:0:0:
256,368,71396,1,0,0:0:0:0:
313,288,71581,2,0,P|401:247|492:284,1,200,4|8,3:0|0:0,0:0:0:0:
404,332,72136,2,0,L|400:116,1,200,4|4,0:3|0:3,0:0:0:0:
392,32,72692,5,8,0:0:0:0:
292,12,72877,1,0,2:0:0:0:
244,100,73062,1,0,0:0:0:0:
280,192,73248,1,4,0:3:0:0:
244,224,73340,1,4,0:3:0:0:
196,216,73433,1,8,0:0:0:0:
152,192,73525,1,0,0:0:0:0:
108,220,73618,1,4,0:3:0:0:
56,308,73803,6,0,B|96:308|96:308|208:356|208:356|264:356,2,200,4|8|4,0:0|0:0|0:3,0:0:0:0:
32,108,74914,1,8,0:0:0:0:
124,68,75099,1,0,2:0:0:0:
176,152,75285,2,0,P|228:176|280:168,1,100,4|0,0:3|2:0,0:0:0:0:
360,128,75655,1,8,0:0:0:0:
404,220,75840,1,0,2:0:0:0:
308,248,76025,2,0,B|260:280|260:280|232:324,1,100,4|4,0:3|0:3,0:0:0:0:
320,372,76396,2,0,P|232:312|132:324,1,200,8|4,0:0|0:3,0:0:0:0:
48,352,76951,5,0,2:0:0:0:
24,256,77136,1,8,0:0:0:0:
116,216,77322,2,0,P|144:164|128:84,1,100,0|4,2:0|0:3,0:0:0:0:
84,44,77692,1,4,0:3:0:0:
184,32,77877,1,8,0:0:0:0:
248,108,78062,1,0,2:0:0:0:
228,208,78248,2,0,P|272:228|320:200,1,100,4|0,0:3|2:0,0:0:0:0:
376,128,78618,1,8,0:0:0:0:
444,200,78803,1,0,2:0:0:0:
380,276,78988,2,0,P|344:336|220:344,1,200,4|8,0:3|0:0,0:0:0:0:
72,216,79729,6,0,P|76:132|180:44,2,200,2|10|2,0:0|0:0|0:0,0:0:0:0:
264,276,80840,1,10,0:0:0:0:
340,212,81025,1,0,2:0:0:0:
440,216,81210,6,0,P|436:132|332:44,2,200,2|10|2,0:0|0:0|0:0,0:0:0:0:
304,364,82322,1,10,0:0:0:0:
256,276,82507,1,0,2:0:0:0:
156,264,82692,6,0,P|132:224|136:164,1,100,4|0,0:0|2:0,0:0:0:0:
296,96,83062,2,0,P|244:140|184:124,1,100,8|0,0:0|2:0,0:0:0:0:
44,56,83433,2,0,P|116:72|156:120,2,100,4|0|8,0:3|0:0|0:0,0:0:0:0:
28,300,83988,6,0,B|120:344|120:344|228:336,1,200,4|4,0:3|0:3,0:0:0:0:
276,252,84544,1,8,0:0:0:0:
376,248,84729,1,4,0:3:0:0:
376,248,84822,1,8,0:0:0:0:
376,248,84914,2,0,B|432:216|432:216|464:176,2,100,8|4|4,0:3|0:3|0:3,0:0:0:0:
316,168,85470,1,4,0:0:0:0:
256,192,85655,12,2,88618,2:0:0:0:
