osu file format v14

[General]
AudioFilename: kaze.mp3
AudioLeadIn: 797
PreviewTime: 61581
Countdown: 0
SampleSet: None
StackLeniency: 0.7
Mode: 0
LetterboxInBreaks: 0
WidescreenStoryboard: 0

[Editor]
Bookmarks: 38248
DistanceSpacing: 1.7
BeatDivisor: 4
GridSize: 4
TimelineZoom: 1.9

[Metadata]
Title:KAZE
TitleUnicode:風
Artist:YAMAZARU
ArtistUnicode:山猿
Creator:iYiyo
Version:Normal
Source:NARUTO-ナルト-疾風伝
Tags:shippuden shippuuden wind opening 17 hazu- irohas mugiwarasekai kantokun
BeatmapID:1341681
BeatmapSetID:339306

[Difficulty]
HPDrainRate:4
CircleSize:3.5
OverallDifficulty:4
ApproachRate:5
SliderMultiplier:1.2
SliderTickRate:1

[Events]
//Background and Video events
0,0,"bg_kyubi.jpg",0,0
Video,0,"kaze_op.avi"
//Break Periods
//Storyboard Layer 0 (Background)
//Storyboard Layer 1 (Fail)
//Storyboard Layer 2 (Pass)
//Storyboard Layer 3 (Foreground)
//Storyboard Sound Samples

[TimingPoints]
1211,370.37037037037,4,2,1,40,1,0
14359,-100,4,2,1,50,0,0
26210,-100,4,2,1,40,0,0
50099,-100,4,2,1,45,0,0
56025,-100,4,2,1,50,0,0
58988,-100,4,2,1,55,0,0
59729,-100,4,2,1,60,0,0
60470,-100,4,2,1,45,0,0
61396,-100,4,2,1,50,0,0
61951,-100,4,2,1,60,0,1
85562,-100,4,2,1,50,0,1
85655,-100,4,2,1,50,0,0
88618,-100,4,2,1,25,0,0
88988,-100,4,2,1,15,0,0
89359,-100,4,2,1,5,0,0

[Colours]
Combo1 : 228,185,33
Combo2 : 28,253,241
Combo3 : 253,129,36
Combo4 : 106,80,175

[HitObjects]
208,208,1211,6,0,P|187:268|121:284,1,120,0|0,0:0|0:0,0:0:0:0:
32,192,1951,2,0,P|53:132|118:115,1,120,0|0,0:0|0:0,0:0:0:0:
240,80,2692,2,0,B|249:54|249:54|240:8,2,60,0|0|0,0:0|0:0|0:0,0:0:0:0:
200,216,3433,2,0,P|244:250|304:232,1,120,0|0,0:0|0:0,0:0:0:0:
376,360,4173,6,0,B|355:365|323:349|323:349|291:365|259:357,1,120
187,348,4729,1,0,0:0:0:0:
153,206,5100,2,0,P|119:158|135:95,1,120
192,142,5655,2,0,B|232:142|232:142|256:103|295:97,1,120
432,152,6396,2,0,P|439:181|435:210,2,60
323,251,7136,6,0,P|379:319|466:327,2,180,8|8|8,0:3|0:3|0:3,0:0:0:0:
280,112,8618,2,0,B|242:92|242:92|167:105,1,120
88,228,9359,1,8,0:0:0:0:
192,328,9729,1,8,0:0:0:0:
296,228,10099,5,4,0:0:0:0:
256,192,10285,12,8,13248,0:0:0:0:
120,272,14359,6,0,B|104:216|104:216|128:152,1,120,4|2,0:0|0:0,0:0:0:0:
164,95,14914,1,8,0:0:0:0:
308,84,15284,2,0,P|340:132|398:138,1,120,2|8,0:0|0:0,0:0:0:0:
472,144,15840,2,0,P|504:188|480:248,1,120,2|2,0:0|0:0,0:0:0:0:
416,276,16396,1,8,0:0:0:0:
272,292,16766,2,0,B|208:301|208:301|152:268,1,120,2|8,0:0|0:0,0:0:0:0:
172,200,17321,6,0,P|211:157|201:100,1,120,2|2,0:0|0:0,0:0:0:0:
136,64,17877,2,0,P|103:59|65:68,1,60,8|0,0:0|0:0,0:0:0:0:
24,116,18247,1,2,0:0:0:0:
24,264,18618,1,8,0:0:0:0:
152,332,18988,2,0,B|192:348|192:348|272:332,1,120,0|8,0:0|0:0,0:0:0:0:
371,227,19729,2,0,B|393:189|393:189|371:107,1,120,2|8,0:0|0:0,0:0:0:0:
299,112,20285,6,0,P|244:131|188:112,1,120,4|2,0:0|0:0,0:0:0:0:
132,64,20840,1,8,0:0:0:0:
270,20,21210,2,0,P|325:1|381:20,1,120,2|8,0:0|0:0,0:0:0:0:
433,72,21766,2,0,L|441:192,1,120,2|2,0:0|0:0,0:0:0:0:
444,265,22322,1,8,0:0:0:0:
320,340,22692,2,0,P|261:345|208:300,1,120,2|8,0:0|0:0,0:0:0:0:
212,236,23248,6,0,L|220:116,1,120,2|2,0:0|0:0,0:0:0:0:
208,44,23803,1,8,0:0:0:0:
108,149,24173,2,0,L|116:213,2,60,2|2|8,0:0|0:0|0:0,0:0:0:0:
48,108,24729,2,0,P|10:148|16:220,1,120,4|8,0:0|0:0,0:0:0:0:
39,278,25285,2,0,P|79:316|151:310,1,120,8|8,0:0|0:0,0:0:0:0:
214,306,25840,1,8,0:0:0:0:
356,276,26210,6,0,B|376:218|376:218|356:162,1,120,4|2,0:0|0:0,0:0:0:0:
307,108,26766,1,8,0:0:0:0:
172,48,27136,2,0,B|152:106|152:106|171:161,1,120,2|8,0:0|0:0,0:0:0:0:
226,293,27877,2,0,L|218:373,2,60,0|2|8,0:0|0:0|0:0,0:0:0:0:
268,232,28433,2,0,P|327:217|377:256,1,120,0|2,0:0|0:0,0:0:0:0:
434,289,28988,1,8,0:0:0:0:
456,140,29359,6,0,P|403:114|336:92,1,120,0|8,0:0|0:0,0:0:0:0:
199,94,30099,2,0,P|142:113|88:139,1,120,2|8,0:0|0:0,0:0:0:0:
84,284,30840,2,0,P|126:322|181:307,1,120,0|8,0:0|0:0,0:0:0:0:
223,243,31396,2,0,P|278:227|320:266,1,120,0|2,0:0|0:0,0:0:0:0:
344,336,31951,1,8,0:0:0:0:
460,248,32321,6,0,B|484:192|484:192|460:120,1,120,0|8,0:0|0:0,0:0:0:0:
320,120,33062,2,0,B|271:109|250:143|184:120,1,120,2|8,0:0|0:0,0:0:0:0:
136,256,33803,2,0,B|185:245|206:279|272:256,1,120,0|8,0:0|0:0,0:0:0:0:
328,272,34358,2,0,B|408:288|432:200,1,120,0|2,0:0|0:0,0:0:0:0:
448,152,34914,1,8,0:0:0:0:
393,102,35099,1,4,0:0:0:0:
324,76,35284,6,0,B|276:60|276:60|196:76,1,120,0|8,0:0|0:0,0:0:0:0:
80,144,36025,2,0,P|52:139|21:144,2,60,2|2|8,0:0|0:0|0:0,0:0:0:0:
128,200,36581,1,4,0:0:0:0:
176,256,36766,2,0,B|229:275|244:235|312:256,1,120,0|8,0:0|0:0,0:0:0:0:
438,241,37507,2,0,P|466:246|497:241,2,60,2|8|8,0:0|0:0|0:0,0:0:0:0:
372,208,38062,1,6,0:0:0:0:
320,156,38247,6,0,P|297:96|324:34,1,120,0|8,0:0|0:0,0:0:0:0:
460,40,38988,2,0,P|492:88|487:146,1,120,2|8,0:0|0:0,0:0:0:0:
428,284,39729,2,0,L|452:356,2,60,0|2|8,0:0|0:0|0:0,0:0:0:0:
376,232,40284,2,0,P|319:219|264:241,1,120,0|2,0:0|0:0,0:0:0:0:
216,299,40840,1,8,0:0:0:0:
84,240,41210,6,0,B|62:196|62:196|73:126,1,120,0|8,0:0|0:0,0:0:0:0:
196,44,41951,2,0,B|240:22|240:22|309:33,1,120,2|8,0:0|0:0,0:0:0:0:
387,156,42692,2,0,B|419:212,2,60,0|2|8,0:0|0:0|0:0,0:0:0:0:
320,124,43247,2,0,P|260:125|213:161,1,120,0|2,0:0|0:0,0:0:0:0:
184,228,43803,1,8,0:0:0:0:
300,316,44173,6,0,L|428:332,1,120,0|8,0:0|0:0,0:0:0:0:
416,184,44914,2,0,L|288:200,1,120,2|8,0:0|0:0,0:0:0:0:
151,199,45655,2,0,P|126:147|146:92,1,120,0|8,0:0|0:0,0:0:0:0:
220,88,46210,2,0,P|277:95|320:56,1,120,0|2,0:0|0:0,0:0:0:0:
388,24,46766,1,8,0:0:0:0:
419,91,46951,1,4,0:0:0:0:
432,164,47136,6,0,L|418:222,2,60,0|2|8,0:0|0:0|0:0,0:0:0:0:
288,184,47877,2,0,L|301:242,2,60,2|2|8,0:0|0:0|0:0,0:0:0:0:
228,139,48433,1,4,0:0:0:0:
159,111,48618,2,0,P|105:133|84:188,1,120,0|8,0:0|0:0,0:0:0:0:
125,250,49173,2,0,B|162:291|224:314,1,120,0|8,0:0|0:0,0:0:0:0:
294,338,49729,1,8,0:0:0:0:
408,256,50099,6,0,P|431:203|407:150,1,120,4|0,0:0|0:0,0:0:0:0:
264,112,50840,2,0,P|209:133|189:187,1,120,8|2,0:0|0:0,0:0:0:0:
100,304,51581,2,0,P|43:296|14:246,1,120,8|0,0:3|0:3,0:0:0:0:
28,100,52321,2,0,B|67:82|67:82|109:96|148:84,1,120,8|2,0:0|0:0,0:0:0:0:
288,64,53062,6,0,L|282:123,2,60,4|0|8,0:0|0:0|0:3,0:0:0:0:
420,128,53803,2,0,L|425:187,2,60,8|2|2,0:0|0:0|0:0,0:0:0:0:
308,224,54544,2,0,B|261:226|261:226|235:219|235:219|179:222,1,120,0|0,0:3|0:3,0:0:0:0:
301,127,55284,2,0,B|346:124|346:124|379:132|379:132|419:128,1,120,8|8,0:0|0:0,0:0:0:0:
488,260,56025,6,0,P|457:339|368:336,1,180,4|8,0:0|0:0,0:0:0:0:
288,136,57136,2,0,B|249:146|220:194|220:194|193:160|145:150,1,180,8|8,0:0|0:3,0:0:0:0:
72,356,58247,1,8,0:0:0:0:
204,292,58618,1,2,0:0:0:0:
340,348,58988,6,0,B|405:340|405:340|433:293,1,120,4|2,0:0|0:0,0:0:0:0:
328,188,59729,2,0,B|263:180|263:180|234:133,1,120,2|8,0:0|0:0,0:0:0:0:
356,56,60470,1,4,0:0:0:0:
113,132,61951,6,0,P|167:153|222:131,1,120,4|8,0:0|0:0,0:0:0:0:
296,124,62507,2,0,B|312:164|312:164|288:204|296:244,1,120,0|2,0:0|0:0,0:0:0:0:
304,310,63062,1,8,0:0:0:0:
156,320,63433,2,0,P|100:330|57:291,1,120,2|8,0:0|0:0,0:0:0:0:
64,144,64173,2,0,P|93:130|122:134,1,60,2|2,0:0|0:0,0:0:0:0:
192,152,64544,1,8,0:0:0:0:
264,280,64914,6,0,L|296:160,1,120,4|8,0:0|0:0,0:0:0:0:
404,68,65655,2,0,L|420:132,1,60,2|2,0:0|0:0,0:0:0:0:
436,199,66025,1,8,0:0:0:0:
463,346,66396,2,0,L|347:315,1,120,2|8,0:0|0:0,0:0:0:0:
273,310,66951,1,0,0:0:0:0:
200,324,67136,2,0,P|175:326|136:308,2,60,2|2|12,0:0|0:0|0:0,0:0:0:0:
264,192,67877,6,0,B|232:168|232:168|153:181,1,120,4|8,0:0|0:0,0:0:0:0:
4,168,68618,2,0,L|20:96,1,60,2|2,0:0|0:0,0:0:0:0:
68,56,68988,1,8,0:0:0:0:
212,20,69359,2,0,B|277:29|277:29|294:80,1,120,2|8,0:0|0:0,0:0:0:0:
324,224,70099,2,0,P|357:227|388:216,1,60,2|2,0:0|0:0,0:0:0:0:
450,192,70470,1,8,0:0:0:0:
439,335,70840,6,0,P|381:325|322:335,1,120,2|8,0:0|0:0,0:0:0:0:
248,344,71396,1,0,0:0:0:0:
175,354,71581,2,0,P|116:363|57:353,1,120,2|8,0:0|0:0,0:0:0:0:
32,204,72322,1,4,0:0:0:0:
56,60,72692,1,12,0:0:0:0:
200,36,73062,2,0,P|207:68|197:107,1,60,2|0,0:0|0:0,0:0:0:0:
207,171,73433,2,0,P|175:178|136:168,1,60,8|8,0:0|0:0,0:0:0:0:
75,181,73803,5,4,0:0:0:0:
116,320,74173,2,0,P|148:327|187:317,1,60,8|0,0:0|0:0,0:0:0:0:
248,308,74544,2,0,P|298:338|356:330,1,120,2|8,0:0|0:0,0:0:0:0:
445,214,75285,2,0,P|395:184|337:192,1,120,2|8,0:0|0:0,0:0:0:0:
264,208,75840,1,0,0:0:0:0:
190,208,76025,2,0,P|133:190|100:141,1,120,2|8,0:0|0:0,0:0:0:0:
208,42,76766,6,0,L|336:58,1,120,4|8,0:0|0:0,0:0:0:0:
380,108,77322,2,0,P|391:165|352:216,2,120,0|2|2,0:0|0:0|0:0,0:0:0:0:
318,149,78248,2,0,P|260:159|212:126,2,120,2|8|2,0:0|0:0|0:0,0:0:0:0:
422,45,79358,1,8,0:0:0:0:
272,32,79729,6,0,P|220:40|155:68,1,120,4|8,0:0|0:0,0:0:0:0:
123,132,80285,2,0,P|127:188|143:260,1,120,2|2,0:0|0:0,0:0:0:0:
184,312,80840,2,0,P|239:342|310:349,1,120,8|2,0:0|0:0,0:0:0:0:
429,295,81581,1,8,0:0:0:0:
376,244,81766,2,0,P|380:189|392:116,1,120,0|2,0:0|0:0,0:0:0:0:
397,51,82321,1,8,0:0:0:0:
248,40,82692,6,0,P|189:36|128:36,2,120,4|8|2,0:0|0:0|0:0,0:0:0:0:
298,178,83803,1,8,0:0:0:0:
224,168,83988,2,0,P|164:162|104:153,1,120,0|2,0:0|0:0,0:0:0:0:
32,168,84544,2,0,B|12:220|40:284|40:284|104:280|104:280|136:328|136:328|194:324,1,300,8|4,0:0|0:0,0:0:0:0:
256,192,85655,12,0,89358,0:0:0:0:
