osu file format v14

[General]
AudioFilename: kaze.mp3
AudioLeadIn: 797
PreviewTime: 61581
Countdown: 0
SampleSet: Soft
StackLeniency: 0.7
Mode: 0
LetterboxInBreaks: 0
WidescreenStoryboard: 0

[Editor]
Bookmarks: 38248
DistanceSpacing: 1.7
BeatDivisor: 4
GridSize: 4
TimelineZoom: 1.9

[Metadata]
Title:KAZE
TitleUnicode:風
Artist:YAMAZARU
ArtistUnicode:山猿
Creator:iYiyo
Version:Easy
Source:NARUTO-ナルト-疾風伝
Tags:shippuden shippuuden wind opening 17 hazu- irohas mugiwarasekai kantokun
BeatmapID:1341680
BeatmapSetID:339306

[Difficulty]
HPDrainRate:2.5
CircleSize:2.4
OverallDifficulty:2
ApproachRate:3
SliderMultiplier:0.9
SliderTickRate:1

[Events]
//Background and Video events
0,0,"bg_kyubi.jpg",0,0
Video,0,"kaze_op.avi"
//Break Periods
//Storyboard Layer 0 (Background)
//Storyboard Layer 1 (Fail)
//Storyboard Layer 2 (Pass)
//Storyboard Layer 3 (Foreground)
//Storyboard Sound Samples

[TimingPoints]
1211,370.37037037037,4,2,1,40,1,0
14359,-100,4,2,1,50,0,0
26210,-100,4,2,1,40,0,0
50099,-100,4,2,1,45,0,0
56025,-100,4,2,1,50,0,0
58988,-100,4,2,1,55,0,0
59729,-100,4,2,1,60,0,0
60470,-100,4,2,1,45,0,0
61951,-100,4,2,1,60,0,1
85655,-100,4,2,1,50,0,0
88618,-100,4,2,1,25,0,0
88988,-100,4,2,1,15,0,0
89359,-100,4,2,1,5,0,0

[Colours]
Combo1 : 228,185,33
Combo2 : 28,253,241
Combo3 : 253,129,36
Combo4 : 106,80,175

[HitObjects]
312,280,1211,6,0,B|339:220|341:171|259:140|259:140|233:183|176:180,1,270,0|0,0:0|0:0,0:0:0:0:
185,92,2692,2,0,B|111:93|92:161|92:161|50:168|-1:210|24:288,1,270
107,250,4173,6,0,P|162:314|304:236,1,270
364,176,5655,1,0,0:0:0:0:
208,84,6396,2,0,P|168:103|124:101,1,90
35,107,7136,6,0,P|12:167|40:241,2,135,8|8|8,0:3|0:3|0:3,0:0:0:0:
123,100,8618,2,0,P|167:103|208:84,1,90
284,36,9359,1,8,0:0:0:0:
296,124,9729,1,8,0:0:0:0:
367,70,10099,1,4,0:0:0:0:
256,192,10285,12,8,12877,0:3:0:0:
70,191,14359,6,0,B|134:195|146:127|146:127|194:119|194:119|210:85|233:67,1,225,4|2,0:0|0:0,0:0:0:0:
360,20,15840,2,0,B|325:81|361:121|365:125|369:129|409:169|363:230,1,225,2|2,0:0|0:0,0:0:0:0:
232,196,17321,6,0,P|216:260|240:323,1,135,2|8,0:0|0:0,0:0:0:0:
324,360,18248,1,2,0:0:0:0:
412,352,18618,1,8,0:0:0:0:
440,267,18988,2,0,P|406:238|362:230,1,90,2|8,0:0|0:0,0:0:0:0:
272,244,19729,2,0,P|228:235|194:206,1,90,2|8,0:0|0:0,0:0:0:0:
220,167,20285,6,0,P|261:76|167:39,1,225,4|2,0:0|0:0,0:0:0:0:
52,112,21766,2,0,B|26:159|44:226|44:226|26:241|26:241|40:284|36:323,1,225,2|2,0:0|0:0,0:0:0:0:
168,344,23247,6,0,P|233:353|288:317,1,135,2|8,0:0|0:0,0:0:0:0:
344,248,24173,2,0,P|355:182|324:124,1,135,2|4,0:0|0:0,0:0:0:0:
236,124,25099,2,0,L|194:142,1,45,8|8,0:0|0:0,0:0:0:0:
144,216,25655,2,0,L|99:196,1,45,8|8,0:0|0:0,0:0:0:0:
44,128,26210,6,0,P|68:68|132:58,1,135,4|8,0:0|0:0,0:0:0:0:
220,80,27136,2,0,P|264:88|308:94,1,90,2|8,0:0|0:0,0:0:0:0:
312,184,27877,2,0,P|267:192|223:198,1,90,0|8,0:0|0:0,0:0:0:0:
256,284,28618,1,2,0:0:0:0:
341,311,28988,1,8,0:0:0:0:
424,272,29358,6,0,B|464:224|464:224|448:96,2,180,0|2|0,0:0|0:0|0:0,0:0:0:0:
341,311,31210,1,8,0:0:0:0:
255,279,31581,2,0,P|224:248|221:200,1,90,0|8,0:0|0:0,0:0:0:0:
150,145,32321,6,0,B|198:96|275:106|305:173,2,180,0|2|0,0:0|0:0|0:0,0:0:0:0:
92,212,34173,1,8,0:0:0:0:
120,296,34544,2,0,P|158:318|202:318,1,90,2|8,0:0|0:0,0:0:0:0:
248,308,35099,6,0,P|312:287|376:306,1,135,4|8,0:0|0:0,0:0:0:0:
448,248,36025,2,0,P|456:200|440:148,1,90,2|8,0:0|0:0,0:0:0:0:
408,140,36581,6,0,P|344:119|280:138,1,135,4|8,0:0|0:0,0:0:0:0:
220,204,37507,2,0,P|178:219|132:204,1,90,2|8,0:0|0:0,0:0:0:0:
96,188,38062,6,0,B|65:155|65:155|72:64,1,135,4|8,0:0|0:0,0:0:0:0:
160,72,38988,1,2,0:0:0:0:
224,136,39359,1,8,0:0:0:0:
260,216,39729,6,0,P|340:245|406:189,1,180,0|2,0:0|0:0,0:0:0:0:
400,100,40840,1,8,0:0:0:0:
312,80,41210,6,0,B|271:65|246:78|246:78|224:67|207:84|207:84|179:102|139:97,1,180,0|2,0:0|0:0,0:0:0:0:
65,150,42321,1,8,0:0:0:0:
88,240,42692,2,0,B|124:259|151:250|151:250|179:268|191:255|191:255|229:267|259:252,1,180,0|0,0:0|0:0,0:0:0:0:
350,253,43803,1,8,0:0:0:0:
431,208,44173,6,0,P|447:127|367:107,1,180,0|2,0:0|0:0,0:0:0:0:
288,144,45284,1,8,0:0:0:0:
200,168,45655,2,0,P|151:178|104:156,1,90,0|8,0:0|0:0,0:0:0:0:
114,74,46396,2,0,P|163:64|210:86,1,90,0|8,0:0|0:0,0:0:0:0:
244,76,46951,6,0,B|332:68|332:68|352:109,1,135,4|8,0:0|0:0,0:0:0:0:
404,184,47877,2,0,P|411:227|396:270,1,90,2|8,0:0|0:0,0:0:0:0:
384,312,48433,6,0,B|296:320|296:320|275:278,1,135,4|8,0:0|0:0,0:0:0:0:
244,196,49359,2,0,P|230:153|240:108,1,90,2|8,0:0|0:0,0:0:0:0:
328,124,50099,6,0,B|416:148,2,90,4|0|8,0:0|0:0|0:0,0:0:0:0:
239,109,51210,1,2,0:0:0:0:
208,196,51581,2,0,B|120:220,2,90,8|0|8,0:3|0:3|0:0,0:0:0:0:
296,208,52692,1,2,0:0:0:0:
327,295,53062,6,0,L|416:288,1,90,4|0,0:0|0:0,0:0:0:0:
480,224,53803,2,0,L|473:134,1,90,8|8,0:3|0:3,0:0:0:0:
423,59,54544,2,0,P|339:46|289:116,1,180,8|2,0:0|0:0,0:0:0:0:
296,208,55655,1,8,0:0:0:0:
212,240,56025,6,0,B|152:259|130:206|81:231,2,135,4|8|8,0:0|0:0|0:0,0:0:0:0:
296,208,57507,1,2,0:0:0:0:
257,127,57877,1,2,0:0:0:0:
173,94,58248,2,0,P|127:89|80:96,1,90,8|2,0:0|0:0,0:0:0:0:
31,172,58988,6,0,P|26:218|33:265,1,90,4|2,0:0|0:0,0:0:0:0:
100,320,59729,1,2,0:0:0:0:
188,316,60099,1,8,0:0:0:0:
264,272,60470,1,4,0:0:0:0:
264,272,61951,6,0,P|269:227|264:182,1,90,4|8,0:0|0:0,0:0:0:0:
216,104,62692,2,0,P|171:98|126:103,1,90,2|8,0:0|0:0,0:0:0:0:
60,164,63433,1,2,0:0:0:0:
52,252,63804,1,8,0:0:0:0:
80,336,64173,2,0,L|170:337,1,90,2|8,0:0|0:0,0:0:0:0:
260,332,64914,6,0,P|308:324|352:284,1,90,4|8,0:0|0:0,0:0:0:0:
372,216,65655,1,2,0:0:0:0:
324,140,66025,1,8,0:0:0:0:
232,140,66396,2,0,P|187:146|151:172,2,90,2|8|2,0:0|0:0|0:0,0:0:0:0:
324,140,67507,1,12,0:0:0:0:
412,140,67877,6,0,P|419:95|412:51,1,90,4|8,0:0|0:0,0:0:0:0:
324,36,68618,1,2,0:0:0:0:
236,36,68988,1,8,0:0:0:0:
148,48,69359,2,0,P|141:92|148:136,1,90,2|8,0:0|0:0,0:0:0:0:
236,164,70099,1,2,0:0:0:0:
324,164,70469,1,8,0:0:0:0:
332,252,70840,6,0,P|310:335|227:357,2,180,2|2|4,0:0|0:0|0:0,0:0:0:0:
324,164,72692,1,12,0:0:0:0:
236,164,73062,1,2,0:0:0:0:
276,84,73433,1,8,0:0:0:0:
188,84,73803,6,0,L|98:84,1,90,4|8,0:0|0:0,0:0:0:0:
28,140,74544,2,0,P|22:183|28:230,1,90,2|8,0:0|0:0,0:0:0:0:
88,296,75285,2,0,B|140:318|140:318|261:297,1,180,2|2,0:0|0:0,0:0:0:0:
348,280,76396,1,8,0:0:0:0:
404,212,76766,6,0,P|408:167|403:122,1,90,2|8,0:0|0:0,0:0:0:0:
328,72,77507,2,0,P|283:67|238:72,1,90,2|8,0:0|0:0,0:0:0:0:
156,104,78248,2,0,L|132:200,1,90,2|8,0:0|0:0,0:0:0:0:
176,272,78988,1,2,0:0:0:0:
264,256,79359,1,8,0:0:0:0:
344,292,79729,6,0,P|421:258|411:174,1,180,4|2,0:0|0:0,0:0:0:0:
344,116,80840,1,8,0:0:0:0:
260,80,81210,2,0,B|207:64|177:100|177:100|143:64|95:76,1,180,2|2,0:0|0:0,0:0:0:0:
32,140,82322,1,8,0:0:0:0:
48,228,82692,6,0,L|64:320,1,90,4|8,0:0|0:0,0:0:0:0:
148,352,83433,1,2,0:0:0:0:
236,336,83803,1,8,0:0:0:0:
308,284,84173,2,0,B|324:244|308:202|308:202|280:137|328:89|422:89|423:181,1,315,2|4,0:0|0:0,0:0:0:0:
256,192,85655,12,0,89358,0:0:0:0:
