osu file format v14

[General]
AudioFilename: kaze.mp3
AudioLeadIn: 797
PreviewTime: 61581
Countdown: 0
SampleSet: Soft
StackLeniency: 0.7
Mode: 0
LetterboxInBreaks: 0
WidescreenStoryboard: 0

[Editor]
Bookmarks: 38248
DistanceSpacing: 1.7
BeatDivisor: 4
GridSize: 4
TimelineZoom: 1.9

[Metadata]
Title:KAZE
TitleUnicode:風
Artist:YAMAZARU
ArtistUnicode:山猿
Creator:iYiyo
Version:Bijuu
Source:NARUTO-ナルト-疾風伝
Tags:shippuden shippuuden wind opening 17 hazu- irohas mugiwarasekai kantokun
BeatmapID:1294950
BeatmapSetID:339306

[Difficulty]
HPDrainRate:6.5
CircleSize:4
OverallDifficulty:8
ApproachRate:9
SliderMultiplier:1.7
SliderTickRate:1

[Events]
//Background and Video events
0,0,"bg_kyubi.jpg",0,0
Video,0,"kaze_op.avi"
//Break Periods
//Storyboard Layer 0 (Background)
//Storyboard Layer 1 (Fail)
//Storyboard Layer 2 (Pass)
//Storyboard Layer 3 (Foreground)
//Storyboard Sound Samples

[TimingPoints]
1211,370.37037037037,4,2,1,40,1,0
14359,-83.3333333333333,4,2,1,50,0,0
17599,-83.3333333333333,4,2,1,5,0,0
17692,-83.3333333333333,4,2,1,50,0,0
23525,-83.3333333333333,4,2,1,5,0,0
23618,-83.3333333333333,4,2,1,50,0,0
26210,-100,4,2,1,40,0,0
50099,-125,4,2,1,45,0,0
56025,-100,4,2,1,50,0,0
58988,-100,4,2,1,55,0,0
59729,-100,4,2,1,60,0,0
60470,-100,4,2,0,45,0,0
61396,-100,4,2,1,50,0,0
61951,-83.3333333333333,4,2,1,60,0,1
85562,-83.3333333333333,4,2,1,50,0,0
88618,-83.3333333333333,4,2,1,25,0,0
88988,-83.3333333333333,4,2,1,15,0,0
89359,-83.3333333333333,4,2,1,5,0,0

[Colours]
Combo1 : 228,185,33
Combo2 : 28,253,241
Combo3 : 253,129,36
Combo4 : 106,80,175

[HitObjects]
360,144,1211,6,0,L|368:240,1,85
255,229,1581,2,0,L|262:144,1,85
148,144,1951,2,0,L|156:229,1,85
200,326,2322,1,0,0:0:0:0:
255,229,2507,1,0,0:0:0:0:
312,326,2692,5,0,0:0:0:0:
312,132,2877,1,0,0:0:0:0:
155,228,3062,1,0,0:0:0:0:
349,228,3247,1,0,0:0:0:0:
192,132,3433,1,0,0:0:0:0:
231,322,3618,2,0,P|270:335|311:325,1,85
421,300,3988,1,0,0:0:0:0:
349,228,4173,6,0,P|337:188|347:147,1,85
421,75,4544,1,0,0:0:0:0:
493,149,4729,2,0,P|505:189|495:230,1,85
352,308,5099,2,0,P|339:267|349:226,1,85
347,117,5470,1,0,0:0:0:0:
402,212,5655,6,0,P|281:206|240:93,1,255
140,38,6396,2,0,L|155:121,1,85
35,164,6766,2,0,L|50:80,1,85
251,124,7136,6,0,P|216:198|136:215,1,170,8|0,0:3|0:0,0:0:0:0:
374,37,7692,2,0,P|419:105|391:182,1,170,8|0,0:3|0:0,0:0:0:0:
251,124,8248,2,0,P|289:108|331:116,1,85,8|0,0:3|0:0,0:0:0:0:
291,263,8618,5,0,0:0:0:0:
168,210,8803,1,0,0:0:0:0:
297,181,8988,1,0,0:0:0:0:
210,281,9173,1,0,0:0:0:0:
221,149,9359,5,8,0:0:0:0:
88,302,9544,1,0,0:0:0:0:
20,111,9729,1,8,0:0:0:0:
221,149,9914,1,0,0:0:0:0:
8,243,10099,5,4,0:0:0:0:
279,43,10655,1,8,0:0:0:0:
279,43,10748,1,8,0:0:0:0:
279,43,10840,1,8,0:0:0:0:
221,149,11025,5,8,0:0:0:0:
336,149,11210,1,8,0:0:0:0:
163,255,11396,1,4,0:0:0:0:
129,40,11952,5,8,0:0:0:0:
336,149,12507,5,8,0:0:0:0:
76,121,12877,1,8,0:3:0:0:
76,121,13248,5,8,0:0:0:0:
336,149,13433,1,8,0:0:0:0:
282,229,13803,5,8,0:0:0:0:
129,40,13988,1,8,0:0:0:0:
393,86,14359,6,0,P|419:134|411:181,1,101.999996887207,4|0,0:0|0:0,0:0:0:0:
282,229,14729,1,2,0:0:0:0:
119,149,14914,1,8,0:0:0:0:
298,118,15099,1,0,0:0:0:0:
171,248,15285,1,2,0:0:0:0:
143,68,15470,2,0,P|93:69|52:99,1,101.999996887207,2|8,0:0|0:0,0:0:0:0:
105,297,15840,6,0,P|145:326|195:327,1,101.999996887207,2|0,0:0|0:0,0:0:0:0:
352,223,16210,1,2,0:0:0:0:
191,138,16395,1,8,0:0:0:0:
270,300,16580,1,0,0:0:0:0:
301,121,16766,1,2,0:0:0:0:
135,207,16951,2,0,P|107:164|107:114,1,101.999996887207,2|8,0:0|0:0,0:0:0:0:
277,44,17322,6,0,B|269:112|269:112|276:108|276:108|267:185,1,152.999995330811,2|0,0:0|0:0,0:0:0:0:
267,184,17692,1,2,0:0:0:0:
375,118,17877,2,0,L|385:14,1,101.999996887207,8|0,0:0|0:0,0:0:0:0:
443,209,18248,1,2,0:0:0:0:
271,267,18433,1,2,0:0:0:0:
375,118,18618,1,8,0:0:0:0:
203,176,18803,1,2,0:0:0:0:
388,293,18988,6,0,L|489:313,1,101.999996887207,0|2,0:0|0:0,0:0:0:0:
271,267,19359,1,8,0:0:0:0:
372,376,19544,1,0,0:0:0:0:
443,209,19729,5,2,0:0:0:0:
271,267,19914,1,2,0:0:0:0:
444,182,20099,1,8,0:0:0:0:
233,88,20285,6,0,P|189:110|168:156,1,101.999996887207,4|0,0:0|0:0,0:0:0:0:
185,342,20655,1,2,0:0:0:0:
338,244,20840,1,8,0:0:0:0:
156,233,21025,1,0,0:0:0:0:
298,349,21211,1,2,0:0:0:0:
277,184,21396,2,0,P|319:157|369:162,1,101.999996887207,2|8,0:0|0:0,0:0:0:0:
298,349,21766,6,0,L|192:344,1,101.999996887207,2|0,0:0|0:0,0:0:0:0:
101,286,22136,1,2,0:0:0:0:
239,167,22321,1,8,0:0:0:0:
196,344,22506,1,0,0:0:0:0:
126,175,22692,1,2,0:0:0:0:
300,222,22877,2,0,P|322:177|311:128,1,101.999996887207,2|8,0:0|0:0,0:0:0:0:
123,100,23248,6,0,B|121:168|121:168|115:163|115:163|113:241,1,152.999995330811,2|0,0:0|0:0,0:0:0:0:
113,240,23618,1,2,0:0:0:0:
239,167,23803,2,0,L|244:65,1,101.999996887207,8|0,0:0|0:0,0:0:0:0:
266,279,24173,1,2,0:0:0:0:
358,144,24359,1,2,0:0:0:0:
425,291,24544,1,8,0:0:0:0:
239,167,24729,5,4,0:0:0:0:
114,217,25099,5,8,0:0:0:0:
388,220,25285,1,8,0:0:0:0:
302,97,25655,5,8,0:0:0:0:
200,340,25840,1,8,0:0:0:0:
253,30,26210,6,0,P|334:20|382:86,1,170,4|2,0:0|0:0,0:0:0:0:
370,218,26766,1,8,0:0:0:0:
234,238,26951,1,0,0:0:0:0:
344,140,27136,2,0,P|385:135|423:154,1,85,2|2,0:0|0:0,0:0:0:0:
260,316,27507,2,0,P|218:320|180:301,1,85,8|2,0:0|0:0,0:0:0:0:
169,137,27877,5,0,0:0:0:0:
234,238,28062,1,2,0:0:0:0:
114,243,28248,1,8,0:0:0:0:
119,71,28433,2,0,P|199:60|249:124,1,170,0|2,0:0|0:0,0:0:0:0:
234,238,28988,1,8,0:0:0:0:
114,243,29173,1,2,0:0:0:0:
249,124,29359,5,0,0:0:0:0:
320,240,29544,1,2,0:0:0:0:
219,351,29729,2,0,L|134:349,1,85,8|0,0:0|0:0,0:0:0:0:
29,240,30099,2,0,L|113:242,1,85,2|2,0:0|0:0,0:0:0:0:
234,238,30469,1,8,0:0:0:0:
175,139,30655,1,2,0:0:0:0:
348,91,30840,6,0,L|440:91,1,85,0|2,0:0|0:0,0:0:0:0:
246,57,31210,1,8,0:0:0:0:
327,200,31396,1,0,0:0:0:0:
117,257,31581,5,2,0:0:0:0:
334,249,31766,1,2,0:0:0:0:
106,276,31951,1,8,0:0:0:0:
323,268,32136,1,6,0:0:0:0:
136,160,32322,6,0,P|124:120|136:79,1,85,0|2,0:0|0:0,0:0:0:0:
323,108,32692,2,0,P|335:148|324:188,1,85,8|0,0:0|0:0,0:0:0:0:
246,49,33062,1,2,0:0:0:0:
232,188,33248,1,2,0:0:0:0:
418,51,33433,1,8,0:0:0:0:
404,190,33619,1,6,0:0:0:0:
246,49,33803,6,0,P|204:45|166:65,1,85,0|2,0:0|0:0,0:0:0:0:
163,210,34173,1,8,0:0:0:0:
323,188,34359,2,0,P|335:148|323:108,1,85,0|2,0:0|0:0,0:0:0:0:
163,210,34729,1,2,0:0:0:0:
230,332,34914,1,8,0:0:0:0:
322,107,35099,1,6,0:0:0:0:
163,210,35285,5,0,0:0:0:0:
389,229,35470,1,2,0:0:0:0:
194,95,35655,1,8,0:0:0:0:
409,141,35840,1,0,0:0:0:0:
178,286,36025,5,2,0:0:0:0:
322,107,36210,1,2,0:0:0:0:
178,316,36396,1,8,0:0:0:0:
322,138,36581,1,4,0:0:0:0:
266,333,36766,5,0,0:0:0:0:
249,104,36951,1,2,0:0:0:0:
340,293,37136,1,8,0:0:0:0:
177,136,37322,2,0,P|135:128|94:143,1,85,0|2,0:0|0:0,0:0:0:0:
327,58,37692,5,8,0:0:0:0:
263,237,37877,1,8,0:0:0:0:
433,135,38062,1,6,0:0:0:0:
304,308,38248,6,0,P|263:319|222:308,1,85,0|2,0:0|0:0,0:0:0:0:
158,187,38618,1,8,0:0:0:0:
252,97,38803,1,0,0:0:0:0:
158,187,38988,2,0,P|117:198|76:187,1,85,2|2,0:0|0:0,0:0:0:0:
252,97,39359,1,8,0:0:0:0:
127,60,39544,1,2,0:0:0:0:
158,187,39729,5,0,0:0:0:0:
334,65,39914,1,2,0:0:0:0:
303,192,40099,1,8,0:0:0:0:
127,60,40285,2,0,B|10:82|10:82|62:118,1,170,0|2,0:0|0:0,0:0:0:0:
252,97,40840,1,8,0:0:0:0:
158,187,41025,6,0,P|145:227|159:267,1,85,2|0,0:0|0:0,0:0:0:0:
262,321,41396,1,2,0:0:0:0:
296,120,41581,1,8,0:0:0:0:
356,217,41766,1,0,0:0:0:0:
241,220,41951,2,0,L|156:229,1,85,2|2,0:0|0:0,0:0:0:0:
377,318,42322,1,8,0:0:0:0:
262,321,42507,6,0,L|177:330,1,85,2|0,0:0|0:0,0:0:0:0:
60,240,42877,1,2,0:0:0:0:
241,220,43062,1,8,0:0:0:0:
224,112,43248,2,0,L|215:27,2,85,0|2|2,0:0|0:0|0:0,0:0:0:0:
241,220,43803,1,8,0:0:0:0:
132,76,43988,1,6,0:0:0:0:
311,88,44173,5,0,0:0:0:0:
241,220,44359,1,2,0:0:0:0:
409,192,44544,1,8,0:0:0:0:
231,127,44729,1,0,0:0:0:0:
338,260,44914,1,2,0:0:0:0:
449,96,45099,2,0,L|364:105,1,85,2|8,0:0|0:0,0:0:0:0:
231,127,45470,1,6,0:0:0:0:
338,260,45655,5,0,0:0:0:0:
187,313,45840,1,2,0:0:0:0:
313,169,46025,1,8,0:0:0:0:
147,138,46210,2,0,L|165:229,1,85,0|2,0:0|0:0,0:0:0:0:
187,313,46581,1,2,0:0:0:0:
72,187,46766,1,8,0:0:0:0:
249,154,46951,1,6,0:0:0:0:
67,43,47136,5,0,0:0:0:0:
203,229,47322,1,2,0:0:0:0:
20,118,47507,1,8,0:0:0:0:
249,154,47692,1,0,0:0:0:0:
42,204,47877,5,2,0:0:0:0:
228,67,48062,1,2,0:0:0:0:
73,212,48248,1,8,0:0:0:0:
262,75,48433,1,6,0:0:0:0:
261,290,48618,6,0,P|302:297|340:280,1,85,0|2,0:0|0:0,0:0:0:0:
370,183,48988,1,8,0:0:0:0:
184,257,49173,2,0,P|176:298|193:336,1,85,0|2,0:0|0:0,0:0:0:0:
76,241,49544,1,8,0:0:0:0:
273,201,49730,1,8,0:0:0:0:
160,144,49914,1,2,0:0:0:0:
156,135,50007,1,2,0:0:0:0:
152,126,50099,6,0,B|144:89|144:89|151:59,1,68,4|0,0:0|0:0,0:0:0:0:
272,134,50470,2,0,B|280:171|280:171|273:201,1,68,0|2,0:0|0:0,0:0:0:0:
184,257,50840,1,8,0:0:0:0:
76,241,51025,2,0,B|68:204|68:204|75:174,1,68,2|2,0:0|0:0,0:0:0:0:
231,103,51396,1,4,0:3:0:0:
311,159,51581,5,8,0:3:0:0:
283,254,51765,1,4,0:3:0:0:
184,257,51950,1,0,0:3:0:0:
151,162,52136,1,0,0:3:0:0:
231,103,52322,1,8,0:0:0:0:
311,159,52507,2,0,P|345:165|378:155,1,68,2|2,0:0|0:0,0:0:0:0:
455,98,52877,1,0,0:3:0:0:
412,257,53062,6,0,B|372:280|348:264|344:260|340:256|312:232|283:250,1,136,4|8,0:0|0:3,0:0:0:0:
198,299,53618,1,8,0:3:0:0:
142,166,53803,2,0,P|129:197|134:230,2,68,8|2|2,0:0|0:0|0:0,0:0:0:0:
188,93,54359,1,8,0:0:0:0:
266,247,54544,5,0,0:3:0:0:
313,174,54729,1,4,0:3:0:0:
188,93,54914,1,0,0:3:0:0:
227,169,55099,1,4,0:3:0:0:
363,101,55285,1,8,0:0:0:0:
274,97,55470,1,0,0:3:0:0:
141,166,55655,1,8,0:0:0:0:
144,199,55747,1,8,0:0:0:0:
146,233,55840,1,8,0:0:0:0:
148,267,55932,1,8,0:0:0:0:
151,301,56025,6,0,P|190:316|231:310,1,85,4|0,0:0|0:0,0:0:0:0:
278,203,56396,1,2,0:0:0:0:
150,85,56581,2,0,P|135:124|141:165,1,85,8|2,0:0|0:0,0:0:0:0:
231,310,56951,1,0,0:0:0:0:
376,212,57136,1,8,0:0:0:0:
219,135,57322,1,0,0:0:0:0:
231,310,57507,5,2,0:0:0:0:
389,295,57692,2,0,L|376:212,1,85,8|2,0:3|0:0,0:0:0:0:
219,135,58062,1,0,0:0:0:0:
364,37,58248,1,8,0:0:0:0:
376,212,58433,1,0,0:0:0:0:
219,135,58618,1,2,0:0:0:0:
364,37,58803,1,2,0:0:0:0:
407,307,58988,5,4,0:0:0:0:
136,328,59173,1,0,0:0:0:0:
376,212,59359,1,2,0:0:0:0:
97,239,59544,1,2,0:0:0:0:
345,117,59729,5,2,0:0:0:0:
74,138,59914,1,0,0:0:0:0:
230,374,60099,1,8,0:0:0:0:
345,117,60285,1,2,0:0:0:0:
407,307,60470,5,4,0:0:0:0:
376,212,60655,1,2,0:0:0:0:
345,117,60840,1,2,0:0:0:0:
314,22,61025,1,2,0:0:0:0:
314,22,61395,5,8,0:0:0:0:
407,307,61581,1,8,0:0:0:0:
150,170,61951,6,0,B|137:99|137:99|151:72,1,101.999996887207,4|0,0:0|0:0,0:0:0:0:
314,22,62322,1,8,0:0:0:0:
336,204,62507,2,0,L|346:305,1,101.999996887207,0|2,0:0|0:0,0:0:0:0:
227,128,62877,1,2,0:0:0:0:
415,105,63062,2,0,B|486:92|486:92|512:106,1,101.999996887207,8|2,0:0|0:0,0:0:0:0:
472,240,63433,5,2,0:0:0:0:
336,204,63618,1,0,0:0:0:0:
230,268,63803,2,0,P|183:290|134:279,1,101.999996887207,8|0,0:0|0:0,0:0:0:0:
16,196,64173,1,2,0:0:0:0:
175,102,64359,2,0,L|176:204,1,101.999996887207,2|8,0:0|0:0,0:0:0:0:
16,196,64729,1,2,0:0:0:0:
128,32,64914,6,0,P|176:18|224:32,1,101.999996887207,6|0,0:0|0:0,0:0:0:0:
335,128,65285,1,8,0:0:0:0:
175,102,65470,1,0,0:0:0:0:
233,254,65655,1,2,0:0:0:0:
335,128,65840,1,2,0:0:0:0:
160,194,66025,1,8,0:0:0:0:
320,220,66210,1,2,0:0:0:0:
175,102,66396,5,2,0:0:0:0:
146,287,66581,1,0,0:0:0:0:
62,102,66766,1,8,0:0:0:0:
33,287,66951,1,0,0:0:0:0:
160,194,67136,1,2,0:0:0:0:
280,293,67322,2,0,P|329:303|374:283,2,101.999996887207,2|12|2,0:0|0:0|0:0,0:0:0:0:
146,287,67877,5,6,0:0:0:0:
320,219,68062,1,0,0:0:0:0:
175,102,68248,1,8,0:0:0:0:
146,287,68433,1,0,0:0:0:0:
266,156,68618,1,2,0:0:0:0:
374,282,68803,2,0,P|422:298|471:283,1,101.999996887207,2|8,0:0|0:0,0:0:0:0:
492,152,69173,1,2,0:0:0:0:
320,219,69359,5,2,0:0:0:0:
469,283,69544,1,0,0:0:0:0:
368,132,69729,1,8,0:0:0:0:
292,300,69914,1,0,0:0:0:0:
148,147,70099,1,2,0:0:0:0:
320,219,70285,1,2,0:0:0:0:
216,79,70470,1,8,0:0:0:0:
136,243,70656,1,2,0:0:0:0:
428,237,70840,5,2,0:0:0:0:
148,147,71025,1,0,0:0:0:0:
397,93,71210,1,8,0:0:0:0:
318,336,71396,1,0,0:0:0:0:
257,47,71581,5,2,0:0:0:0:
428,237,71766,1,2,0:0:0:0:
176,285,71952,1,8,0:0:0:0:
397,93,72136,1,2,0:0:0:0:
318,336,72322,5,4,0:0:0:0:
224,124,72507,1,2,0:0:0:0:
74,294,72692,2,0,L|175:284,1,101.999996887207,12|0,0:0|0:0,0:0:0:0:
304,144,73062,5,2,0:0:0:0:
67,98,73248,1,8,0:0:0:0:
47,130,73340,1,8,0:0:0:0:
42,168,73433,1,8,0:0:0:0:
52,205,73525,1,8,0:0:0:0:
75,235,73618,1,8,0:0:0:0:
108,254,73710,1,8,0:0:0:0:
146,259,73803,5,4,0:0:0:0:
276,219,73988,1,0,0:0:0:0:
177,66,74173,2,0,P|162:114|176:162,1,101.999996887207,8|0,0:0|0:0,0:0:0:0:
384,224,74544,1,2,0:0:0:0:
244,115,74729,1,2,0:0:0:0:
408,48,74914,2,0,P|422:96|408:144,1,101.999996887207,8|2,0:0|0:0,0:0:0:0:
276,219,75285,5,2,0:0:0:0:
285,34,75470,1,0,0:0:0:0:
144,208,75655,1,8,0:0:0:0:
153,23,75840,1,0,0:0:0:0:
276,219,76025,1,2,0:0:0:0:
408,22,76210,2,0,L|416:132,1,101.999996887207,2|8,0:0|0:0,0:0:0:0:
446,305,76581,1,2,0:0:0:0:
446,305,76673,1,2,0:0:0:0:
446,305,76766,6,0,P|401:281|353:293,1,101.999996887207,4|0,0:0|0:0,0:0:0:0:
185,333,77136,1,8,0:0:0:0:
301,199,77322,2,0,P|320:153|304:105,1,101.999996887207,0|2,0:0|0:0,0:0:0:0:
118,158,77692,2,0,P|98:203|114:251,1,101.999996887207,2|8,0:0|0:0,0:0:0:0:
268,287,78062,1,2,0:0:0:0:
201,127,78248,6,0,P|126:68|39:111,1,203.999993774414,2|8,0:0|0:0,0:0:0:0:
147,278,78803,1,0,0:0:0:0:
315,172,78988,1,2,0:0:0:0:
118,158,79173,1,2,0:0:0:0:
268,287,79359,1,8,0:0:0:0:
224,94,79544,1,2,0:0:0:0:
402,162,79729,6,0,P|394:215|350:253,1,101.999996887207,4|0,0:0|0:0,0:0:0:0:
214,190,80099,1,8,0:0:0:0:
361,89,80285,2,0,P|409:78|455:99,1,101.999996887207,2|0,0:0|0:0,0:0:0:0:
360,248,80655,1,2,0:0:0:0:
203,284,80840,2,0,P|192:236|213:190,1,101.999996887207,8|2,0:0|0:0,0:0:0:0:
361,89,81210,5,2,0:0:0:0:
167,68,81396,1,0,0:0:0:0:
315,172,81581,1,8,0:0:0:0:
107,135,81766,2,0,P|79:93|81:42,1,101.999996887207,0|2,0:0|0:0,0:0:0:0:
315,172,82136,2,0,P|316:222|288:263,1,101.999996887207,2|8,0:0|0:0,0:0:0:0:
167,68,82507,1,2,0:0:0:0:
377,68,82692,5,6,0:0:0:0:
214,189,82877,1,0,0:0:0:0:
401,270,83062,1,8,0:0:0:0:
471,75,83248,2,0,P|425:55|377:67,1,101.999996887207,0|2,0:0|0:0,0:0:0:0:
214,189,83618,1,2,0:0:0:0:
418,142,83803,1,8,0:0:0:0:
256,264,83988,6,0,P|207:276|161:256,1,101.999996887207,2|2,0:0|0:0,0:0:0:0:
92,120,84359,1,0,0:0:0:0:
210,29,84544,1,8,0:0:0:0:
338,132,84729,1,2,0:0:0:0:
338,132,84822,1,2,0:0:0:0:
338,132,84914,1,2,0:0:0:0:
92,120,85100,1,8,0:0:0:0:
256,264,85285,1,8,0:0:0:0:
54,334,85470,1,4,0:0:0:0:
256,192,85562,12,0,89359,0:0:0:0:
