osu file format v14

[General]
AudioFilename: audio.mp3
AudioLeadIn: 0
PreviewTime: 10
Countdown: 0
SampleSet: Normal
StackLeniency: 0.4
Mode: 0
LetterboxInBreaks: 0
WidescreenStoryboard: 1

[Editor]
Bookmarks: 36161
DistanceSpacing: 2
BeatDivisor: 8
GridSize: 16
TimelineZoom: 1.4

[Metadata]
Title:Mereana Mordegard Glesgorv
TitleUnicode:Mereana Mordegard Glesgorv
Artist:YABUJIN
ArtistUnicode:YABUJIN
Creator:Apo11o
Version:hehe's Extra
Source:
Tags:english hip hop cloud rap experimental underground sigilkore alphabet aistre hehe handsome
BeatmapID:3556418
BeatmapSetID:1738174

[Difficulty]
HPDrainRate:5
CircleSize:4
OverallDifficulty:8.4
ApproachRate:9
SliderMultiplier:1.39999990463257
SliderTickRate:1

[Events]
//Background and Video events
0,0,"sliceslicesliceslice.jpg",0,0
//Break Periods
//Storyboard Layer 0 (Background)
//Storyboard Layer 1 (Fail)
//Storyboard Layer 2 (Pass)
//Storyboard Layer 3 (Foreground)
//Storyboard Layer 4 (Overlay)
//Storyboard Sound Samples

[TimingPoints]
18500,579.710144927536,4,1,1,70,1,0
18500,-50,4,1,1,70,0,0

[Colours]
Combo1 : 133,73,73
Combo2 : 206,0,0

[HitObjects]
85,203,18500,6,0,P|160:183|250:293,1,209.999985694886,4|0,3:1|3:0,0:0:0:0:
212,338,19079,5,10,0:0:0:0:
212,338,19176,1,0,0:0:0:0:
494,279,19369,5,2,3:1:0:0:
494,279,19466,1,0,0:0:0:0:
497,199,19659,5,2,0:0:0:0:
497,199,19756,1,0,0:0:0:0:
117,194,19949,6,0,P|112:155|102:103,1,69.9999952316285,2|0,3:1|0:0,0:0:0:0:
275,26,20239,2,0,P|280:65|290:117,1,69.9999952316285,8|0,0:0|0:0,0:0:0:0:
365,106,20528,5,2,0:0:0:0:
310,212,20673,5,2,3:1:0:0:
216,131,20818,6,0,P|148:135|118:200,1,139.999990463257,6|0,3:1|0:0,0:0:0:0:
168,255,21253,1,0,3:0:0:0:
431,191,21398,6,0,P|495:212|507:283,1,139.999990463257,10|0,0:0|3:0,0:0:0:0:
445,322,21833,1,2,3:1:0:0:
287,384,21978,6,0,P|277:297|260:212,2,139.999990463257,0|0|10,0:0|3:0|0:0,0:0:0:0:
411,131,22847,5,0,3:0:0:0:
375,56,22992,5,0,3:0:0:0:
458,63,23137,5,6,3:1:0:0:
458,63,23234,1,0,0:0:0:0:
157,115,23427,5,2,0:0:0:0:
157,115,23524,1,0,0:0:0:0:
149,199,23717,5,10,0:0:0:0:
149,199,23814,1,0,0:0:0:0:
475,243,24007,5,2,3:1:0:0:
475,243,24103,1,0,0:0:0:0:
486,329,24297,5,2,0:0:0:0:
486,329,24393,1,0,0:0:0:0:
229,363,24586,6,0,P|231:313|238:269,1,69.9999952316285,2|0,3:1|0:0,0:0:0:0:
19,201,24876,2,0,P|17:251|10:295,1,69.9999952316285,8|0,0:0|0:0,0:0:0:0:
199,225,25166,5,2,0:0:0:0:
75,321,25311,5,2,3:1:0:0:
39,125,25456,6,0,P|120:130|200:167,1,139.999990463257,6|0,3:1|0:0,0:0:0:0:
233,95,25891,1,0,3:0:0:0:
471,252,26036,6,0,P|394:277|326:334,1,139.999990463257,10|0,0:0|3:0,0:0:0:0:
275,273,26471,1,0,3:0:0:0:
400,63,26615,6,0,P|407:130|332:161,2,139.999990463257,2|2|10,0:0|3:1|0:0,0:0:0:0:
175,8,27485,5,0,3:0:0:0:
236,120,27630,5,0,3:0:0:0:
264,248,27775,5,6,3:1:0:0:
264,248,27871,1,0,0:0:0:0:
54,362,28065,5,2,0:0:0:0:
54,362,28161,1,0,0:0:0:0:
37,276,28355,5,10,0:0:0:0:
37,276,28451,1,0,0:0:0:0:
474,227,28644,5,2,3:1:0:0:
474,227,28741,1,0,0:0:0:0:
488,95,28934,5,2,0:0:0:0:
488,95,29031,1,0,0:0:0:0:
169,61,29224,6,0,P|211:57|262:47,1,69.9999952316285,2|2,3:1|0:0,0:0:0:0:
361,204,29514,2,0,P|319:208|268:218,1,69.9999952316285,10|2,0:0|0:0,0:0:0:0:
327,128,29804,5,2,0:0:0:0:
214,230,29949,5,2,3:1:0:0:
361,284,30094,6,0,P|330:353|246:356,1,139.999990463257,4|2,3:1|0:0,0:0:0:0:
136,324,30528,5,2,0:0:0:0:
119,186,30673,5,10,0:0:0:0:
219,108,30818,5,2,0:0:0:0:
327,128,30963,5,2,3:1:0:0:
387,208,31108,5,2,3:1:0:0:
479,212,31253,5,2,0:0:0:0:
509,132,31398,5,2,0:0:0:0:
466,71,31543,5,2,3:1:0:0:
388,73,31688,5,2,0:0:0:0:
227,12,31833,5,10,0:0:0:0:
116,122,31978,5,2,0:0:0:0:
127,256,32123,5,2,3:1:0:0:
233,330,32268,5,2,3:1:0:0:
356,315,32413,5,6,3:1:0:0:
414,225,32557,5,0,0:0:0:0:
401,142,32702,5,0,0:0:0:0:
328,109,32847,5,0,3:0:0:0:
261,138,32992,5,10,0:0:0:0:
261,138,33089,1,0,0:0:0:0:
91,44,33282,5,2,3:1:0:0:
91,44,33379,1,0,0:0:0:0:
178,32,33572,5,2,0:0:0:0:
178,32,33669,1,0,0:0:0:0:
288,328,33862,6,0,P|253:320|218:318,1,69.9999952316285,2|2,3:1|0:0,0:0:0:0:
327,186,34152,2,0,P|361:193|396:195,1,69.9999952316285,10|2,0:0|0:0,0:0:0:0:
468,217,34442,5,2,0:0:0:0:
360,304,34586,5,0,3:1:0:0:
250,202,34731,6,0,P|241:113|224:37,1,139.999990463257,4|0,3:1|0:0,0:0:0:0:
155,34,35166,1,0,3:0:0:0:
112,155,35311,6,0,P|31:156|27:284,1,209.999985694886,8|0,0:0|3:0,0:0:0:0:
123,349,35891,5,2,0:0:0:0:
259,334,36036,5,2,0:0:0:0:
340,246,36181,5,2,3:1:0:0:
345,134,36326,5,2,0:0:0:0:
277,55,36471,5,10,0:0:0:0:
178,49,36615,5,2,0:0:0:0:
117,117,36760,5,0,3:0:0:0:
136,197,36905,5,0,3:0:0:0:
212,229,37050,6,0,P|248:210|212:228,1,139.999990463257,4|0,3:1|0:0,0:0:0:0:
78,260,37485,5,0,3:2:0:0:
49,175,37630,2,0,P|30:139|48:175,1,139.999990463257,4|0,3:1|0:0,0:0:0:0:
198,134,38065,5,0,3:2:0:0:
172,317,38210,2,0,P|153:352|171:317,1,139.999990463257,4|0,3:1|0:0,0:0:0:0:
352,338,38644,5,0,3:2:0:0:
322,86,38789,2,0,P|312:67|321:86,1,69.9999952316285,4|0,3:1|0:0,0:0:0:0:
393,137,39079,5,0,0:0:0:0:
339,230,39224,5,2,3:1:0:0:
232,260,39369,6,0,P|166:227|107:228,1,104.999992847443,6|0,3:1|0:0,0:0:0:0:
128,227,39659,6,0,P|96:215|91:182,1,69.9999952316285,2|0,0:0|0:0,0:0:0:0:
198,117,39949,2,0,P|229:129|234:162,1,69.9999952316285,10|0,0:0|3:0,0:0:0:0:
231,328,40239,6,0,P|225:293|231:259,1,69.9999952316285,2|0,3:1|0:0,0:0:0:0:
477,278,40528,2,0,P|482:312|476:346,1,69.9999952316285,2|0,0:0|0:0,0:0:0:0:
340,249,40818,6,0,P|357:332|378:394,2,139.999990463257,2|10|2,3:1|0:0|0:0,0:0:0:0:
402,196,41543,1,0,3:0:0:0:
366,84,41688,6,0,P|440:94|462:168,1,139.999990463257,6|0,3:1|0:0,0:0:0:0:
402,196,42123,1,0,3:0:0:0:
170,34,42268,6,0,P|95:40|69:112,1,139.999990463257,10|0,0:0|3:0,0:0:0:0:
127,142,42703,1,0,3:0:0:0:
251,0,42847,6,0,P|263:74|274:160,1,139.999990463257,2|2,0:0|3:1,0:0:0:0:
172,207,43282,5,2,0:0:0:0:
372,274,43427,5,10,0:0:0:0:
237,261,43572,5,2,0:0:0:0:
320,333,43717,5,0,3:0:0:0:
245,343,43862,5,2,3:1:0:0:
343,201,44007,6,0,P|333:147|281:93,1,104.999992847443,6|0,3:1|0:0,0:0:0:0:
292,101,44297,6,0,P|257:96|231:128,1,69.9999952316285,2|0,0:0|0:0,0:0:0:0:
283,321,44586,2,0,P|317:325|344:294,1,69.9999952316285,10|0,0:0|3:0,0:0:0:0:
512,25,44876,6,0,P|479:11|439:10,1,69.9999952316285,2|0,3:1|0:0,0:0:0:0:
413,196,45166,2,0,P|445:209|485:210,1,69.9999952316285,2|0,0:0|0:0,0:0:0:0:
188,62,45456,6,0,P|124:65|84:151,2,139.999990463257,2|10|2,3:1|0:0|0:0,0:0:0:0:
226,135,46181,1,0,3:0:0:0:
134,199,46326,6,0,P|171:270|191:345,1,139.999990463257,6|0,3:1|0:0,0:0:0:0:
260,366,46760,1,2,3:0:0:0:
481,152,46905,6,0,P|426:211|388:278,1,139.999990463257,8|2,0:0|3:0,0:0:0:0:
316,280,47339,1,0,3:0:0:0:
241,43,47485,6,0,P|311:46|351:105,2,139.999990463257,0|0|8,0:0|3:0|0:0,0:0:0:0:
74,312,48355,5,0,3:0:0:0:
165,231,48499,5,0,3:0:0:0:
145,101,48644,6,0,P|122:53|74:22,1,104.999992847443,6|0,3:1|0:0,0:0:0:0:
69,22,48934,6,0,P|58:64|16:78,1,69.9999952316285,2|0,0:0|0:0,0:0:0:0:
216,169,49224,2,0,P|227:127|269:113,1,69.9999952316285,10|0,0:0|3:0,0:0:0:0:
482,188,49514,6,0,P|492:221|511:250,1,69.9999952316285,2|0,3:1|0:0,0:0:0:0:
172,384,49804,2,0,P|161:350|142:321,1,69.9999952316285,2|0,0:0|0:0,0:0:0:0:
361,24,50094,6,0,P|325:87|307:172,2,139.999990463257,2|10|2,3:1|0:0|0:0,0:0:0:0:
384,190,50818,1,0,3:0:0:0:
193,296,50963,6,0,P|129:313|70:252,1,139.999990463257,6|0,3:1|0:0,0:0:0:0:
87,193,51398,1,0,3:0:0:0:
384,190,51543,6,0,P|444:217|512:168,1,139.999990463257,8|0,0:0|3:0,0:0:0:0:
506,106,51978,1,0,3:0:0:0:
302,284,52123,6,0,P|288:225|246:140,1,139.999990463257,2|2,0:0|3:1,0:0:0:0:
295,18,52557,5,2,0:0:0:0:
125,92,52702,5,10,0:0:0:0:
314,99,52847,5,2,0:0:0:0:
205,93,52992,5,2,3:1:0:0:
254,153,53137,5,2,3:1:0:0:
248,357,53282,6,0,P|266:270|288:216,8,139.999990463257,6|0|0|0|0|0|0|0|4,3:1|0:0|0:0|0:0|0:0|0:0|0:0|0:0|3:1,0:0:0:0:
256,192,55746,12,0,57920,0:0:0:0:
