osu file format v14

[General]
AudioFilename: audio.mp3
AudioLeadIn: 0
PreviewTime: 10
Countdown: 0
SampleSet: Normal
StackLeniency: 0.4
Mode: 0
LetterboxInBreaks: 0
WidescreenStoryboard: 1

[Editor]
Bookmarks: 36161
DistanceSpacing: 2
BeatDivisor: 4
GridSize: 16
TimelineZoom: 3.299999

[Metadata]
Title:Mereana Mordegard Glesgorv
TitleUnicode:Mereana Mordegard Glesgorv
Artist:YABUJIN
ArtistUnicode:YABUJIN
Creator:Apo11o
Version:Normal
Source:
Tags:english hip hop cloud rap experimental underground sigilkore alphabet aistre hehe handsome
BeatmapID:3552715
BeatmapSetID:1738174

[Difficulty]
HPDrainRate:3
CircleSize:3
OverallDifficulty:5
ApproachRate:6
SliderMultiplier:1.69999990463257
SliderTickRate:1

[Events]
//Background and Video events
0,0,"sliceslicesliceslice.jpg",0,0
//Break Periods
//Storyboard Layer 0 (Background)
//Storyboard Layer 1 (Fail)
//Storyboard Layer 2 (Pass)
//Storyboard Layer 3 (Foreground)
//Storyboard Layer 4 (Overlay)
//Storyboard Sound Samples

[TimingPoints]
18500,579.710144927536,4,1,1,70,1,0

[Colours]
Combo1 : 133,73,73
Combo2 : 206,0,0

[HitObjects]
316,361,18500,6,0,P|252:355|117:357,1,169.999990463257,4|10,3:1|0:0,0:0:0:0:
46,373,19369,1,2,3:1:0:0:
80,277,19659,1,2,0:0:0:0:
114,180,19949,2,0,P|159:156|207:144,1,84.9999952316285,2|8,3:1|0:0,0:0:0:0:
348,276,20818,6,0,P|403:274|475:185,1,169.999990463257,6|10,3:1|0:0,0:0:0:0:
464,89,21688,1,0,3:0:0:0:
379,146,21978,1,0,0:0:0:0:
470,327,22557,1,10,0:0:0:0:
374,363,22847,2,0,P|348:361|316:349,1,42.4999976158143,0|0,3:0|3:0,0:0:0:0:
287,332,23137,6,0,L|107:350,1,169.999990463257,6|10,3:1|0:0,0:0:0:0:
32,293,24007,1,2,3:1:0:0:
97,214,24297,1,2,0:0:0:0:
15,153,24586,2,0,P|6:103|11:55,1,84.9999952316285,2|8,3:1|0:0,0:0:0:0:
207,114,25456,6,0,P|198:195|128:238,1,169.999990463257,6|10,3:1|0:0,0:0:0:0:
45,178,26326,1,0,3:0:0:0:
105,96,26615,1,2,0:0:0:0:
193,279,27195,1,10,0:0:0:0:
284,96,27775,5,6,3:1:0:0:
186,65,28065,1,2,0:0:0:0:
137,154,28355,1,10,0:0:0:0:
207,227,28644,1,2,3:1:0:0:
303,194,28934,2,0,L|361:189,1,42.4999976158143,2|2,0:0|0:0,0:0:0:0:
390,165,29224,2,0,L|448:160,1,42.4999976158143,2|2,3:1|0:0,0:0:0:0:
481,144,29514,1,10,0:0:0:0:
419,62,29804,2,0,P|346:42|306:39,1,84.9999952316285,2|4,0:0|3:1,0:0:0:0:
253,100,30384,6,0,L|260:151,2,42.4999976158143,2|2|10,0:0|0:0|0:0,0:0:0:0:
152,115,30963,2,0,L|159:166,2,42.4999976158143,2|2|2,3:1|3:1|0:0,0:0:0:0:
28,277,31833,6,0,L|21:328,2,42.4999976158143,10|2|2,0:0|0:0|3:1,0:0:0:0:
129,292,32412,2,0,L|122:343,2,42.4999976158143,6|0|0,3:1|0:0|0:0,0:0:0:0:
222,249,32992,1,10,0:0:0:0:
303,310,33282,1,2,3:1:0:0:
402,285,33572,2,0,L|396:236,1,42.4999976158143,2|2,0:0|0:0,0:0:0:0:
417,195,33862,2,0,L|411:146,1,42.4999976158143,2|2,3:1|0:0,0:0:0:0:
425,103,34152,1,10,0:0:0:0:
328,136,34442,1,2,0:0:0:0:
272,50,34731,5,4,3:1:0:0:
171,31,35021,2,0,L|98:42,1,42.4999976158143,0|0,0:0|3:0,0:0:0:0:
78,46,35311,1,8,0:0:0:0:
39,140,35601,2,0,L|112:151,1,42.4999976158143,0|0,3:0|3:0,0:0:0:0:
132,146,35891,6,0,L|209:138,2,42.4999976158143,2|2|2,0:0|0:0|3:1,0:0:0:0:
142,247,36471,2,0,L|219:239,2,42.4999976158143,10|2|0,0:0|0:0|3:0,0:0:0:0:
151,348,37050,5,4,3:1:0:0:
372,260,37630,1,4,3:1:0:0:
218,79,38210,1,4,3:1:0:0:
231,317,38789,1,4,3:1:0:0:
414,164,39369,1,6,3:1:0:0:
479,242,39659,5,2,0:0:0:0:
461,342,39949,1,10,0:0:0:0:
359,328,40239,1,2,3:1:0:0:
374,227,40528,1,2,0:0:0:0:
450,159,40818,1,2,3:1:0:0:
399,68,41108,1,10,0:0:0:0:
321,134,41398,1,2,0:0:0:0:
282,167,41543,1,0,3:0:0:0:
246,203,41688,6,0,P|239:268|242:376,1,169.999990463257,6|10,3:1|0:0,0:0:0:0:
148,331,42557,1,0,3:0:0:0:
53,369,42847,1,2,0:0:0:0:
6,278,43137,6,0,P|31:264|52:257,1,42.4999976158143,2|2,3:1|0:0,0:0:0:0:
70,215,43427,2,0,P|98:218|119:225,1,42.4999976158143,10|2,0:0|0:0,0:0:0:0:
161,209,43717,2,0,P|182:228|195:246,1,42.4999976158143,0|2,3:0|3:1,0:0:0:0:
197,290,44007,5,6,3:1:0:0:
288,244,44297,1,2,0:0:0:0:
240,154,44586,1,10,0:0:0:0:
193,63,44876,1,2,3:1:0:0:
281,12,45166,1,2,0:0:0:0:
333,99,45456,1,2,3:1:0:0:
330,201,45746,1,10,0:0:0:0:
240,154,46036,1,2,0:0:0:0:
275,117,46181,1,0,3:0:0:0:
310,80,46326,6,0,P|387:52|494:23,1,169.999990463257,6|8,3:1|0:0,0:0:0:0:
453,128,47195,1,2,3:0:0:0:
498,219,47485,2,0,P|500:259|497:323,1,84.9999952316285,0|0,0:0|3:0,0:0:0:0:
401,336,48065,2,0,P|399:296|402:232,1,84.9999952316285,8|0,0:0|3:0,0:0:0:0:
361,156,48644,5,6,3:1:0:0:
265,119,48934,1,2,0:0:0:0:
285,219,49224,1,10,0:0:0:0:
188,186,49514,1,2,3:1:0:0:
170,85,49804,1,2,0:0:0:0:
80,35,50094,1,2,3:1:0:0:
17,115,50384,1,10,0:0:0:0:
31,215,50673,1,2,0:0:0:0:
78,235,50818,1,0,3:0:0:0:
124,255,50963,6,0,P|196:240|316:241,1,169.999990463257,6|8,3:1|0:0,0:0:0:0:
389,270,51833,1,0,3:0:0:0:
319,344,52123,1,2,0:0:0:0:
220,371,52413,6,0,P|194:363|169:350,1,42.4999976158143,2|2,3:1|0:0,0:0:0:0:
129,359,52702,2,0,P|112:337|100:312,1,42.4999976158143,10|2,0:0|0:0,0:0:0:0:
65,291,52992,2,0,P|64:263|69:236,1,42.4999976158143,2|2,3:1|3:1,0:0:0:0:
95,206,53282,1,6,3:1:0:0:
256,192,53427,12,4,55601,3:1:0:0:
