osu file format v14

[General]
AudioFilename: audio.mp3
AudioLeadIn: 0
PreviewTime: 10
Countdown: 0
SampleSet: Normal
StackLeniency: 0.4
Mode: 0
LetterboxInBreaks: 0
WidescreenStoryboard: 0

[Editor]
Bookmarks: 36161
DistanceSpacing: 2
BeatDivisor: 12
GridSize: 16
TimelineZoom: 3.299999

[Metadata]
Title:Mereana Mordegard Glesgorv
TitleUnicode:Mereana Mordegard Glesgorv
Artist:YABUJIN
ArtistUnicode:YABUJIN
Creator:Apo11o
Version:Mutilation
Source:
Tags:english hip hop cloud rap experimental underground sigilkore alphabet aistre hehe handsome
BeatmapID:3552688
BeatmapSetID:1738174

[Difficulty]
HPDrainRate:5
CircleSize:3.6
OverallDifficulty:9.3
ApproachRate:9.3
SliderMultiplier:3.59999990463257
SliderTickRate:1

[Events]
//Background and Video events
0,0,"sliceslicesliceslice.jpg",0,0
//Break Periods
//Storyboard Layer 0 (Background)
//Storyboard Layer 1 (Fail)
//Storyboard Layer 2 (Pass)
//Storyboard Layer 3 (Foreground)
//Storyboard Layer 4 (Overlay)
//Storyboard Sound Samples

[TimingPoints]
18500,579.710144927536,4,1,1,70,1,0
18500,-58.8235294117647,4,1,1,70,0,0
19949,-166.666666666667,4,1,1,70,0,0
20239,-58.8235294117647,4,1,1,70,0,0
21398,-66.6666666666667,4,1,1,70,0,0
21978,-117.647058823529,4,1,1,70,0,0
22557,-58.8235294117647,4,1,1,70,0,0
22847,-333.333333333333,4,1,1,70,0,0
23137,-58.8235294117647,4,1,1,70,0,0
24586,-166.666666666667,4,1,1,70,0,0
24876,-58.8235294117647,4,1,1,70,0,0
26036,-66.6666666666667,4,1,1,70,0,0
26615,-117.647058823529,4,1,1,70,0,0
27194,-58.8235294117647,4,1,1,70,0,0
27485,-333.333333333333,4,1,1,70,0,0
27775,-58.8235294117647,4,1,1,70,0,0
28065,-50,4,1,1,70,0,0
28355,-43.4782608695652,4,1,1,70,0,0
28644,-38.4615384615385,4,1,1,70,0,0
29514,-66.6666666666667,4,1,1,70,0,0
30094,-58.8235294117647,4,1,1,70,0,0
32992,-43.4782608695652,4,1,1,70,0,0
33282,-38.4615384615385,4,1,1,70,0,0
34731,-58.8235294117647,4,1,1,70,0,0
35311,-66.6666666666667,4,1,1,70,0,0
35891,-58.8235294117647,4,1,1,70,0,0
37050,-18.9035916824197,4,1,1,70,0,0
37630,-19.9203187250996,4,1,1,70,0,0
39369,-55.5555555555556,4,1,1,70,0,0
42268,-58.8235294117647,4,1,1,70,0,0
43137,-55.5555555555556,4,1,1,70,0,0
46905,-58.8235294117647,4,1,1,70,0,0
47340,-76.9230769230769,4,1,1,70,0,0
48355,-55.5555555555556,4,1,1,70,0,0
51543,-58.8235294117647,4,1,1,70,0,0
52413,-55.5555555555556,4,1,1,70,0,0
53282,-29.4117647058824,4,1,1,70,0,0

[Colours]
Combo1 : 133,73,73
Combo2 : 206,0,0

[HitObjects]
256,192,17340,12,0,18427,0:0:0:0:
396,237,18500,6,0,B|418:185|473:213|497:250|499:304|458:331|358:346|332:342|352:249|296:230|244:247,1,382.499997162819,4|0,3:1|0:0,0:0:0:0:
247,245,18934,1,0,3:0:0:0:
159,140,19079,6,0,B|180:164|180:164|171:238,1,76.4999994325638,10|0,0:0|0:0,0:0:0:0:
167,289,19224,2,0,B|159:309|159:309|164:327|164:327|172:311|172:311|169:291,1,76.4999994325638,2|0,0:0|0:0,0:0:0:0:
22,200,19369,6,0,L|105:185,1,76.4999994325638,2|0,3:1|0:0,0:0:0:0:
255,150,19514,2,0,L|338:135,1,76.4999994325638,2|0,0:0|0:0,0:0:0:0:
42,48,19659,6,0,B|74:72|78:112|78:112|90:73|130:57,1,152.999998865128,2|2,0:0|0:0,0:0:0:0:
506,4,19949,2,0,L|425:13,1,80.9999953823091,2|0,3:1|0:0,0:0:0:0:
341,21,20239,6,0,P|336:67|322:259,1,229.499998297691,8|0,0:0|0:0,0:0:0:0:
264,323,20528,2,0,P|251:287|225:258,1,76.4999994325638,2|0,0:0|0:0,0:0:0:0:
376,328,20673,2,0,P|391:293|420:268,1,76.4999994325638,2|0,3:1|0:0,0:0:0:0:
130,107,20818,6,0,B|67:5|255:-23|254:142|78:157|128:289,1,382.499997162819,6|0,3:1|0:0,0:0:0:0:
127,287,21253,1,0,3:0:0:0:
36,383,21398,2,0,B|0:358|0:358|255:319,1,270.000003147125,10|0,0:0|3:0,0:0:0:0:
495,289,21833,1,2,3:1:0:0:
314,378,21978,6,0,P|328:319|346:212,1,152.999998865128,0|0,0:0|3:0,0:0:0:0:
343,228,22557,2,0,P|329:287|311:394,1,152.999998865128,10|0,0:0|0:0,0:0:0:0:
414,211,22847,6,0,L|434:214,1,13.4999992303849,0|0,3:0|0:0,0:0:0:0:
250,107,22992,6,0,L|270:104,1,13.4999992303849,0|0,3:0|0:0,0:0:0:0:
104,24,23137,6,0,P|73:60|67:94,1,76.4999994325638,6|0,3:1|0:0,0:0:0:0:
82,169,23282,2,0,B|82:177|82:177|72:186|72:186|90:206|90:206|96:179|96:179|84:176,1,76.4999994325638,2|0,0:0|0:0,0:0:0:0:
0,322,23427,6,0,L|82:303,1,76.4999994325638,2|0,0:0|0:0,0:0:0:0:
157,283,23572,2,0,L|239:264,1,76.4999994325638,2|0,3:1|0:0,0:0:0:0:
477,355,23717,6,0,B|463:363|463:363|398:346,1,76.4999994325638,10|0,0:0|0:0,0:0:0:0:
171,292,23862,2,0,L|253:273,1,76.4999994325638,2|0,3:1|0:0,0:0:0:0:
505,156,24007,6,0,L|423:137,1,76.4999994325638,2|0,3:1|0:0,0:0:0:0:
265,101,24152,2,0,B|258:96|258:96|256:83|256:83|229:86|229:86|248:107|248:107|258:98,1,76.4999994325638,2|0,0:0|0:0,0:0:0:0:
444,277,24297,6,0,B|414:250|413:210|413:210|398:247|357:260,1,152.999998865128,2|2,0:0|0:0,0:0:0:0:
92,384,24586,2,0,L|176:366,1,80.9999953823091,2|0,3:1|0:0,0:0:0:0:
265,354,24876,6,0,P|249:271|227:124,1,229.499998297691,8|0,0:0|0:0,0:0:0:0:
153,36,25166,2,0,B|127:73|127:73|132:103,1,76.4999994325638,2|0,0:0|0:0,0:0:0:0:
262,21,25311,2,0,B|296:35|296:35|310:82,1,76.4999994325638,2|0,3:1|0:0,0:0:0:0:
83,236,25456,6,0,B|63:265|28:286|28:286|109:285|109:285|115:274|168:266|175:253|175:253|243:269|243:269|335:250,1,382.499997162819,6|0,3:1|0:0,0:0:0:0:
323,252,25891,1,0,3:0:0:0:
494,79,26036,2,0,B|480:78|480:78|453:85|453:85|430:75|430:75|207:61,1,270.000003147125,10|0,0:0|3:0,0:0:0:0:
0,49,26471,1,0,3:0:0:0:
229,172,26615,6,0,P|299:159|411:155,1,152.999998865128,2|2,0:0|3:1,0:0:0:0:
380,151,27195,2,0,P|306:161|224:161,1,152.999998865128,10|0,0:0|0:0,0:0:0:0:
18,149,27485,6,0,L|20:125,1,13.4999992303849,0|0,3:0|0:0,0:0:0:0:
81,294,27630,6,0,L|75:273,1,13.4999992303849,0|0,3:0|0:0,0:0:0:0:
289,380,27775,6,0,P|251:374|213:373,1,76.4999994325638,6|0,3:1|0:0,0:0:0:0:
213,373,27920,1,0,0:0:0:0:
303,300,28065,6,0,P|248:290|207:290,1,89.9999976158143,2|0,0:0|0:0,0:0:0:0:
214,289,28210,1,0,0:0:0:0:
320,216,28355,6,0,P|261:203|212:203,1,103.499999232292,10|0,0:0|0:0,0:0:0:0:
218,202,28499,1,0,3:0:0:0:
337,132,28644,6,0,P|271:117|212:117,1,116.999991544724,2|0,3:1|0:0,0:0:0:0:
221,116,28789,1,0,0:0:0:0:
51,219,28934,5,2,0:0:0:0:
214,289,29079,1,2,0:0:0:0:
337,132,29224,1,2,3:1:0:0:
430,166,29369,1,2,0:0:0:0:
393,372,29514,5,10,0:0:0:0:
214,289,29659,1,2,0:0:0:0:
157,117,29804,1,2,0:0:0:0:
220,19,29949,1,2,3:1:0:0:
471,72,30094,6,0,B|481:54|497:42|497:42|281:52,1,229.499998297691,4|0,3:1|0:0,0:0:0:0:
1,0,30384,6,0,L|8:97,1,76.4999994325638,2|0,0:0|0:0,0:0:0:0:
17,9,30528,2,0,L|24:106,1,76.4999994325638,2|0,0:0|0:0,0:0:0:0:
201,217,30673,6,0,B|219:249|219:249|213:294,1,76.4999994325638,10|0,0:0|0:0,0:0:0:0:
67,309,30818,2,0,B|48:276|48:276|54:231,1,76.4999994325638,2|0,0:0|0:0,0:0:0:0:
304,198,30963,2,0,L|287:361,1,152.999998865128,2|2,3:1|3:1,0:0:0:0:
120,182,31253,5,2,0:0:0:0:
273,84,31398,1,2,0:0:0:0:
439,155,31543,1,2,3:1:0:0:
493,242,31688,1,2,0:0:0:0:
428,384,31833,6,0,L|417:276,1,76.4999994325638,10|0,0:0|0:0,0:0:0:0:
418,378,31978,2,0,L|407:270,1,76.4999994325638,2|0,0:0|0:0,0:0:0:0:
472,74,32123,6,0,P|427:68|384:86,1,76.4999994325638,2|0,3:1|0:0,0:0:0:0:
256,193,32268,2,0,P|219:202|181:196,1,76.4999994325638,2|0,3:1|0:0,0:0:0:0:
60,79,32413,6,0,B|91:65|91:65|120:26|120:26|91:138|91:138|104:325,1,382.499997162819,6|0,3:1|0:0,0:0:0:0:
103,322,32847,1,0,3:0:0:0:
219,121,32992,6,0,P|269:95|319:85,1,103.499999232292,10|0,0:0|0:0,0:0:0:0:
314,85,33137,1,0,3:0:0:0:
184,45,33282,2,0,P|258:13|310:2,1,116.999991544724,2|0,3:1|0:0,0:0:0:0:
293,4,33427,1,0,0:0:0:0:
496,87,33572,5,2,0:0:0:0:
342,180,33717,1,2,0:0:0:0:
488,267,33862,1,2,3:1:0:0:
394,380,34007,1,2,0:0:0:0:
512,384,34152,5,10,0:0:0:0:
338,291,34297,1,2,0:0:0:0:
323,116,34442,1,2,0:0:0:0:
399,31,34586,1,0,3:1:0:0:
507,192,34731,6,0,B|352:159|393:265|211:334|115:194|253:200,1,382.499997162819,4|0,3:1|0:0,0:0:0:0:
226,201,35166,1,0,3:0:0:0:
105,379,35311,2,0,B|128:346|128:346|119:277|119:277|122:274|122:274|106:244|113:198|113:198|110:202|110:202|96:117,1,270.000003147125,8|0,0:0|3:0,0:0:0:0:
81,0,35746,1,0,3:0:0:0:
297,114,35891,6,0,L|405:103,1,76.4999994325638,2|0,0:0|0:0,0:0:0:0:
291,124,36036,2,0,L|399:113,1,76.4999994325638,2|0,0:0|0:0,0:0:0:0:
205,11,36181,6,0,L|187:109,1,76.4999994325638,2|0,3:1|0:0,0:0:0:0:
107,181,36326,2,0,L|125:279,1,76.4999994325638,2|0,0:0|0:0,0:0:0:0:
275,303,36471,6,0,B|302:337|302:337|277:361,1,76.4999994325638,10|0,0:0|0:0,0:0:0:0:
194,359,36615,2,0,B|167:325|167:325|192:301,1,76.4999994325638,2|0,0:0|0:0,0:0:0:0:
434,283,36760,6,0,B|403:295|386:336|386:336|380:294|350:267,1,152.999998865128,0|0,3:0|3:0,0:0:0:0:
152,73,37050,6,0,B|140:69|136:59|136:59|133:50|134:42|134:42|135:34|141:30|141:30|150:25|160:27|160:27|170:29|176:38|176:38|160:27|160:27|165:37|165:37|176:38|176:38|179:45|179:53|179:53|172:73|152:73|152:73|170:71|170:71|177:54|177:54|179:53|179:53|160:55|160:55|152:73|152:73|140:69|136:59|136:59|152:73|152:73|140:71|140:71|136:59|136:59|133:50|134:42|134:42|135:35|140:30|140:30|141:30|141:30|150:25|160:27|160:27|180:33|179:53|179:53|160:27|160:27|162:46|162:46|179:53|179:53|160:27|160:27|177:34|177:34|179:53|179:53|177:34|177:34|172:44|172:44|179:53|179:53|175:66|163:71|163:71|157:73|152:73|152:73|141:70|136:60|136:60|152:73|152:73|148:62|148:62|136:60|136:60|132:51|134:42|134:42|160:27|160:27|147:33|136:37|136:37|160:27|160:27|151:39|151:39|136:37|136:37|145:24|145:24|160:27|160:27|171:30|176:40|176:40|179:46|179:53|179:53|175:64|165:70|165:70|179:53|179:53|177:66|177:66|165:70|165:70|158:73|152:73|152:73|130:65|134:42|134:42|141:27|141:27|134:42|134:42|142:37|142:37|141:27|141:27|158:27|158:27|160:27|160:27|170:29|176:38|176:38|179:45|179:53|179:53|175:64|165:70|165:70|179:53|179:53|167:57|167:57|165:70|165:70|158:73|152:73|152:73|141:69|135:59|135:59|132:51|134:42|134:42|134:62|134:62|152:72|152:72|152:73|152:73|152:52|152:52|134:42|134:42|135:33|142:29|142:29|134:42|134:42|134:33|134:33|142:29|142:29|151:25|160:27|160:27|170:29|176:38|176:38|176:39|177:40,1,1425.20910054785,4|0,3:1|3:2,0:0:0:0:
377,147,37630,6,0,B|388:143|393:133|393:133|395:124|394:116|394:116|393:108|387:104|387:104|378:99|368:101|368:101|358:103|352:112|352:112|368:101|368:101|357:102|357:102|352:112|352:112|349:119|349:127|349:127|356:147|377:147|377:147|370:130|370:130|352:129|352:129|349:127|349:127|357:145|357:145|377:147|377:147|388:143|393:133|393:133|377:147|377:147|381:135|381:135|393:133|393:133|395:124|394:116|394:116|393:109|388:104|388:104|387:104|387:104|378:99|368:101|368:101|351:108|351:108|349:125|349:125|349:127|349:127|368:101|368:101|366:120|366:120|368:101|368:101|361:110|361:110|366:120|366:120|349:127|349:127|353:139|363:144|363:144|364:145|365:145|365:145|371:147|377:147|377:147|387:144|392:134|392:134|377:147|377:147|388:145|388:145|392:134|392:134|396:125|394:116|394:116|368:101|368:101|381:108|392:110|392:110|368:101|368:101|383:98|383:98|392:110|392:110|377:113|377:113|368:101|368:101|357:104|352:114|352:114|349:120|349:127|349:127|353:138|363:144|363:144|349:127|349:127|361:131|361:131|363:144|363:144|370:147|377:147|377:147|398:138|394:116|394:116|378:116|378:116|394:116|394:116|386:111|386:111|378:116|378:116|370:101|370:101|368:101|368:101|358:103|352:112|352:112|349:119|349:127|349:127|353:138|363:144|363:144|349:127|349:127|351:140|351:140|363:144|363:144|370:147|377:147|377:147|398:138|394:116|394:116|377:126|377:126|377:146|377:146|377:147|377:147|395:137|395:137|394:116|394:116|393:107|386:103|386:103|394:116|394:116|386:112|386:112|386:103|386:103|377:99|368:101|368:101|358:103|352:112|352:112|352:114,1,1354.66496299674,4|0,3:1|3:2,0:0:0:0:
135,240,38210,6,0,B|123:236|119:226|119:226|116:217|117:209|117:209|118:201|124:197|124:197|133:192|143:194|143:194|153:196|159:205|159:205|143:194|143:194|154:195|154:195|159:205|159:205|162:212|162:220|162:220|155:240|135:240|135:240|153:238|153:238|160:221|160:221|162:220|162:220|142:222|142:222|135:240|135:240|123:236|119:226|119:226|135:240|135:240|123:238|123:238|119:226|119:226|116:217|117:209|117:209|118:202|123:197|123:197|124:197|124:197|133:192|143:194|143:194|160:201|160:201|162:220|162:220|143:194|143:194|160:201|160:201|143:194|143:194|149:203|149:203|160:201|160:201|162:220|162:220|158:232|148:237|148:237|147:238|146:238|146:238|140:240|135:240|135:240|124:237|119:227|119:227|135:240|135:240|131:229|131:229|119:227|119:227|115:218|117:209|117:209|143:194|143:194|130:200|119:204|119:204|143:194|143:194|134:206|134:206|119:204|119:204|128:191|128:191|143:194|143:194|154:197|159:207|159:207|162:213|162:220|162:220|158:231|148:237|148:237|162:220|162:220|160:233|160:233|148:237|148:237|141:240|135:240|135:240|113:232|117:209|117:209|124:194|124:194|117:209|117:209|116:199|116:199|124:194|124:194|141:194|141:194|143:194|143:194|153:196|159:205|159:205|162:212|162:220|162:220|158:231|148:237|148:237|162:220|162:220|150:224|150:224|148:237|148:237|141:240|135:240|135:240|124:236|118:226|118:226|115:218|117:209|117:209|117:229|117:229|134:239|134:239|135:240|135:240|135:219|135:219|117:209|117:209|118:200|125:196|125:196|117:209|117:209|125:205|125:205|125:196|125:196|134:192|143:194|143:194|153:196|159:205|159:205|159:206|160:207,1,1356.60337118996,4|0,3:1|3:2,0:0:0:0:
386,294,38789,6,0,B|397:290|402:280|402:280|404:271|403:263|403:263|402:255|396:251|396:251|387:246|377:248|377:248|367:250|361:259|361:259|377:248|377:248|372:258|372:258|361:259|361:259|358:266|358:274|358:274|365:294|386:294|386:294|379:277|379:277|361:276|361:276|358:274|358:274|366:292|366:292|386:294|386:294|397:290|402:280|402:280|386:294|386:294|390:282|390:282|402:280|402:280|404:271|403:263|403:263|402:256|397:251|397:251|396:251|396:251|387:246|377:248|377:248|375:266|375:266|358:272|358:272|358:274|358:274|377:248|377:248|375:267|375:267|377:248|377:248|370:257|370:257|375:267|375:267|358:274|358:274|362:286|372:291|372:291|373:292|374:292|374:292|380:294|386:294|386:294|396:291|401:281|401:281|386:294|386:294|397:292|397:292|401:281|401:281|405:272|403:263|403:263|377:248|377:248|390:255|401:257|401:257|377:248|377:248|392:245|392:245|401:257|401:257|386:260|386:260|377:248|377:248|366:251|361:261|361:261|358:267|358:274|358:274|362:285|372:291|372:291|358:274|358:274|370:278|370:278|372:291|372:291|379:294|386:294|386:294|407:285|403:263|403:263|387:263|387:263|403:263|403:263|395:268|395:268|387:263|387:263|379:248|379:248|377:248|377:248|367:250|361:259|361:259|358:266|358:274|358:274|362:285|372:291|372:291|358:274|358:274|360:287|360:287|372:291|372:291|379:294|386:294|386:294|407:285|403:263|403:263|386:273|386:273|386:293|386:293|386:294|386:294|404:284|404:284|403:263|403:263|402:254|395:250|395:250|403:263|403:263|403:254|403:254|395:250|395:250|386:246|377:248|377:248|367:250|361:259|361:259|361:261,1,1355.30147057086,4|2,3:1|3:1,0:0:0:0:
260,338,39369,6,0,P|257:229|252:90,1,242.999986146927,6|0,3:1|0:0,0:0:0:0:
356,207,39659,6,0,B|311:257|311:257|197:261|197:261|147:214,1,242.999986146927,2|0,0:0|0:0,0:0:0:0:
41,269,39949,2,0,B|47:274|47:274|36:303|36:303|30:272|30:272|41:269,1,80.9999953823091,10|0,0:0|0:0,0:0:0:0:
63,70,40094,2,0,L|53:150,1,80.9999953823091,0|0,3:0|0:0,0:0:0:0:
29,382,40239,1,2,3:1:0:0:
434,51,40528,6,0,P|470:79|513:189,1,161.999990764618,2|0,0:0|0:0,0:0:0:0:
273,103,40818,2,0,P|235:129|186:236,1,161.999990764618,2|0,3:1|0:0,0:0:0:0:
385,299,41108,2,0,P|413:223|400:145,1,161.999990764618,10|0,0:0|0:0,0:0:0:0:
160,63,41398,2,0,P|226:17|306:10,1,161.999990764618,2|0,0:0|3:0,0:0:0:0:
478,322,41688,6,0,B|521:361|521:361|455:382|455:382|251:338|251:338|185:364,1,404.999976911546,6|0,3:1|0:0,0:0:0:0:
186,363,42123,1,0,3:0:0:0:
4,120,42268,2,0,L|161:151,1,152.999998865128,10|0,0:0|0:0,0:0:0:0:
444,204,42557,1,0,3:0:0:0:
187,260,42702,1,0,3:0:0:0:
258,0,42847,1,2,0:0:0:0:
258,0,43137,6,0,L|266:98,1,80.9999953823091,2|0,3:1|0:0,0:0:0:0:
277,188,43282,2,0,P|286:193|272:188,1,80.9999953823091,2|0,0:0|0:0,0:0:0:0:
389,343,43427,6,0,B|412:311|412:311|404:255,1,80.9999953823091,10|0,0:0|0:0,0:0:0:0:
165,298,43572,2,0,B|171:339|171:339|202:364,1,80.9999953823091,2|0,0:0|0:0,0:0:0:0:
442,109,43717,6,0,L|331:123,1,80.9999953823091,0|0,3:0|0:0,0:0:0:0:
171,143,43862,2,0,L|60:157,1,80.9999953823091,2|0,3:1|0:0,0:0:0:0:
34,9,44007,6,0,B|15:23|15:23|47:27|47:27|185:11|185:11|243:32,1,242.999986146927,6|0,3:1|0:0,0:0:0:0:
344,6,44297,6,0,P|347:87|355:261,1,242.999986146927,2|0,0:0|0:0,0:0:0:0:
506,305,44586,6,0,B|475:332|475:332|512:345,1,80.9999953823091,10|0,0:0|0:0,0:0:0:0:
339,370,44731,2,0,B|301:356|301:356|332:329,1,80.9999953823091,0|0,3:0|0:0,0:0:0:0:
163,370,44876,1,2,3:1:0:0:
78,51,45166,6,0,P|42:79|-1:189,1,161.999990764618,2|0,0:0|0:0,0:0:0:0:
239,103,45456,2,0,P|277:129|326:236,1,161.999990764618,2|0,3:1|0:0,0:0:0:0:
127,299,45746,2,0,P|99:223|112:145,1,161.999990764618,10|0,0:0|0:0,0:0:0:0:
352,63,46036,2,0,P|286:17|206:10,1,161.999990764618,2|0,0:0|3:0,0:0:0:0:
0,330,46326,6,0,B|68:292|139:335|139:335|165:256|307:254|324:332|257:378|222:336,1,404.999976911546,6|0,3:1|0:0,0:0:0:0:
224,338,46760,1,2,3:0:0:0:
440,194,46905,2,0,L|430:357,1,152.999998865128,8|0,0:0|0:0,0:0:0:0:
447,95,47195,1,2,3:0:0:0:
279,193,47340,2,0,B|222:216|222:216|163:201,1,116.999991544724,0|0,3:0|0:0,0:0:0:0:
301,66,47630,1,0,0:0:0:0:
206,9,47775,2,0,L|216:132,1,116.999991544724,0|0,3:0|0:0,0:0:0:0:
236,377,48065,1,8,0:0:0:0:
236,377,48355,6,0,L|227:273,1,80.9999953823091,0|0,3:0|0:0,0:0:0:0:
215,125,48499,2,0,L|206:21,1,80.9999953823091,0|0,3:0|0:0,0:0:0:0:
87,233,48644,6,0,P|206:210|327:195,1,242.999986146927,6|0,3:1|0:0,0:0:0:0:
384,280,48934,6,0,B|450:178|450:178|366:90,1,242.999986146927,2|0,0:0|0:0,0:0:0:0:
313,13,49224,2,0,B|308:19|308:19|279:8|279:8|310:2|310:2|313:13,1,80.9999953823091,10|0,0:0|0:0,0:0:0:0:
510,37,49369,2,0,L|430:27,1,80.9999953823091,0|0,3:0|0:0,0:0:0:0:
200,1,49514,1,2,3:1:0:0:
368,360,49804,6,0,P|409:340|476:243,1,161.999990764618,2|0,0:0|0:0,0:0:0:0:
202,277,50094,2,0,P|170:243|147:127,1,161.999990764618,2|0,3:1|0:0,0:0:0:0:
376,107,50384,2,0,P|386:187|355:260,1,161.999990764618,10|0,0:0|0:0,0:0:0:0:
83,290,50674,2,0,P|136:349|213:374,1,161.999990764618,2|0,0:0|3:0,0:0:0:0:
309,47,50963,6,0,B|249:13|189:35|162:82|162:82|105:54|55:62|27:105|27:105|49:152|107:154,1,404.999976911546,6|0,3:1|0:0,0:0:0:0:
92,152,51398,1,0,3:0:0:0:
420,281,51543,2,0,L|267:294,1,152.999998865128,8|0,0:0|0:0,0:0:0:0:
0,320,51833,1,0,3:0:0:0:
206,380,51978,1,0,3:0:0:0:
180,151,52123,1,2,0:0:0:0:
180,151,52413,6,0,B|196:170|196:170|253:162,1,80.9999953823091,2|0,3:1|0:0,0:0:0:0:
398,141,52557,2,0,L|496:128,1,80.9999953823091,2|0,0:0|0:0,0:0:0:0:
247,38,52702,6,0,B|207:46|207:46|219:99,1,80.9999953823091,10|0,0:0|0:0,0:0:0:0:
366,188,52847,2,0,B|406:180|406:180|394:127,1,80.9999953823091,2|0,0:0|0:0,0:0:0:0:
329,0,52992,6,0,L|320:112,1,80.9999953823091,2|0,3:1|0:0,0:0:0:0:
301,262,53137,2,0,L|292:374,1,80.9999953823091,2|0,3:1|0:0,0:0:0:0:
79,326,53282,6,0,B|58:319|61:295|61:295|64:279|85:282|85:282|105:286|105:306|105:306|98:326|79:326|79:326|58:319|61:295|61:295|64:279|85:282|85:282|105:286|105:306|105:306|98:326|79:326|79:326|58:319|61:295|61:295|64:279|85:282|85:282|105:286|105:306|105:306|98:326|79:326|79:326|58:319|61:295|61:295|64:279|85:282|85:282|105:286|105:306|105:306|98:326|79:326|79:326|58:319|61:295|61:295|64:279|85:282|85:282|105:286|105:306|105:306|98:326|79:326|79:326|58:319|61:295|61:295|64:279|85:282|85:282|105:286|105:306|105:306|98:326|79:326|79:326|58:319|61:295|61:295|64:279|85:282|85:282|105:286|105:306|105:306|98:326|79:326|79:326|58:319|61:295|61:295|64:279|85:282|85:282|105:286|105:306|105:306|98:326|79:326|79:326|58:319|61:295|61:295|64:279|85:282|85:282|105:286|105:306|105:306|98:326|79:326|79:326|58:319|61:295|61:295|64:279|85:282|85:282|105:286|105:306|105:306|98:326|79:326|79:326|58:319|61:295|61:295|64:279|85:282|85:282|105:286|105:306|105:306|98:326|79:326|79:326|58:319|61:295|61:295|64:279|85:282|85:282|105:286|105:306|105:306|98:326|79:326|79:326|58:319|61:295|61:295|64:279|85:282|85:282|105:286|105:306|105:306|98:326|79:326|79:326|58:319|61:295|61:295|64:279|85:282|85:282|105:286|105:306|105:306|98:326|79:326|79:326|58:319|61:295|61:295|64:279|85:282|85:282|105:286|105:306|105:306|98:326|79:326|79:326|58:319|61:295|61:295|64:279|85:282|85:282|105:286|105:306|105:306|98:326|79:326|79:326|58:319|61:295|61:295|64:279|85:282|85:282|105:286|105:306|105:306|98:326|79:326|79:326|58:319|61:295|61:295|64:279|85:282|85:282|105:286|105:306|105:306|98:326|79:326|79:326|58:319|61:295|61:295|64:279|85:282|85:282|105:286|105:306|105:306|98:326|79:326|79:326|58:319|61:295|61:295|64:279|85:282|85:282|105:286|105:306|105:306|98:326|79:326|79:326|58:319|61:295|61:295|64:279|85:282|85:282|105:286|105:306|105:306|98:326|79:326|79:326|58:319|61:295|61:295|64:279|85:282|85:282|105:286|105:306|105:306|98:326|79:326|79:326|58:319|61:295|61:295|64:279|85:282|85:282|105:286|105:306|105:306|98:326|79:326|79:326|58:319|61:295|61:295|64:279|85:282|85:282|105:286|105:306|105:306|98:326|79:326|79:326|58:319|61:295|61:295|64:279|85:282|85:282|105:286|105:306|105:306|98:326|79:326|79:326|58:319|61:295|61:295|64:279|85:282|85:282|105:286|105:306|105:306|98:326|79:326|79:326|58:319|61:295|61:295|64:279|85:282|85:282|105:286|105:306|105:306|98:326|79:326|79:326|58:319|61:295|61:295|64:279|85:282|85:282|105:286|105:306|105:306|98:326|79:326|79:326|58:319|61:295|61:295|64:279|85:282|85:282|105:286|105:306|105:306|98:326|79:326|79:326|58:319|61:295|61:295|64:279|85:282|85:282|105:286|105:306|105:306|98:326|79:326|79:326|58:319|61:295|61:295|64:279|85:282|85:282|105:286|105:306|105:306|98:326|79:326|79:326|58:319|61:295|61:295|64:279|85:282|85:282|105:286|105:306|105:306|98:326|79:326|79:326|58:319|61:295|61:295|64:279|85:282|85:282|105:286|105:306|105:306|98:326|79:326|79:326|58:319|61:295|61:295|64:279|85:282|85:282|105:286|105:306|105:306|98:326|79:326|79:326|58:319|61:295|61:295|64:279|85:282|85:282|105:286|105:306|105:306|98:326|79:326,1,4895.99996368408,6|4,3:1|3:1,0:0:0:0:
256,192,55673,12,0,57920,0:0:0:0:
