osu file format v14

[General]
AudioFilename: audio.mp3
AudioLeadIn: 0
PreviewTime: 1730
Countdown: 0
SampleSet: Soft
StackLeniency: 0.7
Mode: 0
LetterboxInBreaks: 0
WidescreenStoryboard: 1

[Editor]
Bookmarks: 25738,97764
DistanceSpacing: 0.7
BeatDivisor: 4
GridSize: 8
TimelineZoom: 2.3

[Metadata]
Title:.*302? ionwan2go*.
TitleUnicode:。✰302?ionwan2go✰。
Artist:YABUJIN
ArtistUnicode:YABUJIN
Creator:Aistre
Version:.*420? expertt*.
Source:
Tags:trance english electronic alphabet venax i don't dont want wanna to go atlas- aeniko apollo apo11o moonpoint mrowswares a3ther_xx aether markus-
BeatmapID:3669609
BeatmapSetID:1790824

[Difficulty]
HPDrainRate:6
CircleSize:5
OverallDifficulty:8
ApproachRate:8.5
SliderMultiplier:1.8
SliderTickRate:1

[Events]
//Background and Video events
Video,-25,"thavideolol.mp4"
0,0,"Bruh.jpg",0,0
//Break Periods
//Storyboard Layer 0 (Background)
//Storyboard Layer 1 (Fail)
//Storyboard Layer 2 (Pass)
//Storyboard Layer 3 (Foreground)
//Storyboard Layer 4 (Overlay)
//Storyboard Sound Samples

[TimingPoints]
1730,375.135986795213,4,2,1,50,1,0
25738,-166.666666666667,4,2,1,50,0,0
46746,-133.333333333333,4,2,1,65,0,0
49747,-100,4,2,1,65,0,0
73756,-90.9090909090909,4,2,1,65,0,0
97764,-111.111111111111,4,2,1,65,0,0
118772,-111.111111111111,4,2,1,55,0,0
119147,-111.111111111111,4,2,1,45,0,0
119522,-111.111111111111,4,2,1,35,0,0

[Colours]
Combo1 : 64,128,128
Combo2 : 192,192,192
Combo3 : 149,219,173

[HitObjects]
115,172,25738,6,0,L|108:102,3,53.9999983520508,6|2|0|2,0:0|0:0|0:0|0:0,0:0:0:0:
172,231,26676,1,2,0:0:0:0:
172,231,27051,1,2,0:0:0:0:
172,231,27426,1,2,0:0:0:0:
234,257,27614,2,0,L|296:263,1,53.9999983520508,2|2,0:0|0:0,0:0:0:0:
339,217,27989,5,2,0:0:0:0:
418,267,28239,5,2,0:0:0:0:
498,317,28489,5,2,0:0:0:0:
480,342,28739,6,0,L|485:278,1,53.9999983520508,2|0,0:0|0:0,0:0:0:0:
512,230,29114,2,0,L|507:166,1,53.9999983520508,2|0,0:0|0:0,0:0:0:0:
468,123,29490,2,0,L|473:59,1,53.9999983520508,2|0,0:0|0:0,0:0:0:0:
472,69,29865,1,2,0:0:0:0:
480,342,30240,6,0,L|485:278,1,53.9999983520508,2|0,0:0|0:0,0:0:0:0:
512,230,30615,2,0,L|507:166,1,53.9999983520508,2|0,0:0|0:0,0:0:0:0:
507,176,30990,1,2,0:0:0:0:
306,119,31365,1,2,0:0:0:0:
141,20,31740,6,0,P|171:40|176:116,2,107.999996704102,2|2|0,0:0|0:0|0:0,0:0:0:0:
96,69,32866,2,0,L|-18:56,1,107.999996704102,2|0,0:0|0:0,0:0:0:0:
2,68,33616,1,2,0:0:0:0:
35,129,33804,1,2,0:0:0:0:
105,148,33991,5,2,0:0:0:0:
31,240,34241,5,2,0:0:0:0:
64,355,34491,5,2,0:0:0:0:
49,341,34741,6,0,L|112:337,1,53.9999983520508,2|0,0:0|0:0,0:0:0:0:
161,371,35117,2,0,L|224:375,1,53.9999983520508,2|0,0:0|0:0,0:0:0:0:
264,326,35492,2,0,L|327:322,1,53.9999983520508,2|0,0:0|0:0,0:0:0:0:
317,322,35867,1,2,0:0:0:0:
49,341,36242,6,0,L|112:337,1,53.9999983520508,2|0,0:0|0:0,0:0:0:0:
161,371,36618,2,0,L|224:375,1,53.9999983520508,2|0,0:0|0:0,0:0:0:0:
214,374,36992,1,2,0:0:0:0:
305,174,37367,1,2,0:0:0:0:
509,188,37743,6,0,P|472:195|444:261,2,107.999996704102,2|2|0,0:0|0:0|0:0,0:0:0:0:
482,117,38868,2,0,L|497:47,1,53.9999983520508,2|2,0:0|0:0,0:0:0:0:
377,22,39243,6,0,L|269:0,2,107.999996704102,2|2|0,0:0|0:0|0:0,0:0:0:0:
400,92,40369,1,2,0:0:0:0:
360,146,40556,1,2,0:0:0:0:
289,128,40744,6,0,P|246:113|216:111,1,53.9999983520508,2|0,0:0|0:0,0:0:0:0:
178,74,41119,2,0,P|143:103|126:128,1,53.9999983520508,2|0,0:0|0:0,0:0:0:0:
75,143,41494,2,0,P|83:187|96:214,1,53.9999983520508,2|0,0:0|0:0,0:0:0:0:
86,195,41869,1,2,0:0:0:0:
289,128,42244,6,0,P|246:113|216:111,1,53.9999983520508,2|0,0:0|0:0,0:0:0:0:
178,74,42619,2,0,P|143:103|126:128,1,53.9999983520508,2|0,0:0|0:0,0:0:0:0:
138,110,42994,1,2,0:0:0:0:
183,174,43182,1,0,0:0:0:0:
246,211,43370,1,8,0:0:0:0:
289,267,43557,1,2,0:0:0:0:
321,328,43745,6,0,P|374:316|406:266,1,107.999996704102,2|8,0:0|0:0,0:0:0:0:
481,207,44307,1,0,0:0:0:0:
446,146,44495,2,0,P|396:141|377:139,1,53.9999983520508,2|0,0:0|0:0,0:0:0:0:
262,79,44870,1,8,0:0:0:0:
365,30,45058,1,2,0:0:0:0:
278,97,45245,6,0,L|213:91,3,53.9999983520508,2|2|8|2,0:0|0:0|0:0|0:0,0:0:0:0:
62,39,45996,1,2,0:0:0:0:
96,104,46183,1,0,0:0:0:0:
55,161,46371,2,0,P|48:200|43:231,1,53.9999983520508,8|2,0:0|0:0,0:0:0:0:
17,307,46746,5,2,0:0:0:0:
17,307,46933,1,0,0:0:0:0:
124,269,47121,1,10,0:0:0:0:
124,269,47309,1,0,0:0:0:0:
208,336,47496,1,2,0:0:0:0:
208,336,47684,1,0,0:0:0:0:
309,243,47871,1,10,0:0:0:0:
17,307,48246,5,2,0:0:0:0:
17,307,48434,1,0,0:0:0:0:
124,269,48621,1,10,0:0:0:0:
124,269,48809,1,0,0:0:0:0:
208,336,48997,1,2,0:0:0:0:
304,131,49372,2,0,P|268:133|233:136,1,67.5000025749208,10|0,0:0|0:0,0:0:0:0:
268,22,49747,6,0,P|224:32|197:74,1,90,4|2,1:2|0:2,0:2:0:0:
272,242,50122,2,0,P|316:232|343:190,1,90,2|2,1:2|0:2,0:2:0:0:
163,136,50497,1,2,1:2:0:0:
61,101,50685,1,2,0:2:0:0:
135,51,50872,1,2,1:2:0:0:
91,180,51060,1,0,0:2:0:0:
193,283,51247,6,2,P|148:289|104:296,1,90,2|2,1:2|0:2,0:1:0:0:
48,258,51623,1,0,1:2:0:0:
99,358,51810,2,2,P|155:287|216:221,1,180,2|0,0:2|0:2,0:1:0:0:
291,276,52373,2,2,P|278:326|270:368,1,90,2|0,1:2|0:2,0:1:0:0:
421,349,52748,5,2,1:2:0:0:
501,306,52936,1,2,0:2:0:0:
458,226,53123,1,2,1:2:0:0:
378,269,53311,1,2,0:2:0:0:
319,197,53498,2,0,P|323:153|325:102,1,90,2|0,1:2|0:2,0:2:0:0:
330,40,53873,1,2,1:2:0:0:
330,40,54061,1,2,0:2:0:0:
438,75,54249,5,2,1:2:0:0:
334,144,54436,1,2,0:2:0:0:
227,71,54624,1,2,1:2:0:0:
332,152,54811,1,2,0:2:0:0:
442,82,54999,2,0,P|440:150|437:277,1,180,2|0,1:2|1:2,0:2:0:0:
119,323,55749,5,2,1:2:0:0:
187,288,55937,2,0,P|193:333|199:380,1,90,2|0,0:2|1:2,0:2:0:0:
222,208,56312,1,2,0:2:0:0:
291,174,56500,2,0,P|297:219|303:266,1,90,2|0,1:2|0:2,0:2:0:0:
144,222,56874,2,0,P|138:177|132:130,1,90,2|2,1:2|0:2,0:2:0:0:
177,29,57250,5,2,1:2:0:0:
265,47,57437,1,2,0:2:0:0:
128,139,57625,1,2,1:2:0:0:
39,119,57812,1,2,0:2:0:0:
97,8,58000,5,2,1:2:0:0:
220,125,58250,5,2,0:2:0:0:
374,61,58500,5,2,0:2:0:0:
355,42,58750,6,0,B|316:131|406:120|370:218,1,180,0|2,1:2|1:2,0:2:0:0:
372,212,59313,1,2,0:2:0:0:
401,305,59500,1,2,1:2:0:0:
342,373,59688,1,0,0:2:0:0:
317,286,59876,1,2,1:2:0:0:
375,216,60063,1,2,0:2:0:0:
471,212,60251,5,2,1:2:0:0:
471,212,60438,1,2,0:2:0:0:
326,126,60626,1,2,1:2:0:0:
326,126,60813,1,2,0:2:0:0:
418,77,61001,2,0,P|371:87|228:110,1,180,2|0,1:2|1:2,0:2:0:0:
64,19,61751,5,2,1:2:0:0:
45,92,61939,1,2,0:2:0:0:
152,133,62126,1,2,1:2:0:0:
171,206,62314,1,2,0:2:0:0:
64,256,62502,1,2,1:2:0:0:
45,329,62690,1,2,0:2:0:0:
45,329,62877,1,0,1:2:0:0:
64,19,63252,5,2,1:2:0:0:
45,92,63440,1,2,0:2:0:0:
152,133,63627,1,2,1:2:0:0:
171,206,63815,1,2,0:2:0:0:
171,206,64002,1,0,1:2:0:0:
411,249,64377,1,0,1:2:0:0:
359,25,64752,6,0,P|308:29|262:32,1,90,2|2,1:2|0:2,0:2:0:0:
255,192,65127,1,2,1:2:0:0:
321,138,65315,1,2,0:2:0:0:
404,159,65503,2,0,P|408:210|411:256,1,90,2|0,1:2|0:2,0:2:0:0:
335,358,65878,2,0,P|331:313|328:268,1,90,2|2,1:2|0:2,0:2:0:0:
239,110,66253,5,2,1:2:0:0:
148,86,66440,1,2,0:2:0:0:
96,154,66628,1,2,1:2:0:0:
5,130,66815,1,2,0:2:0:0:
3,226,67003,1,0,1:2:0:0:
3,226,67378,1,0,1:2:0:0:
267,247,67753,5,2,1:2:0:0:
171,268,67941,1,2,0:2:0:0:
78,298,68129,1,2,1:2:0:0:
169,259,68316,1,2,0:2:0:0:
269,238,68504,2,0,P|321:245|344:362,1,180,2|2,1:2|1:2,0:2:0:0:
349,353,69066,1,2,0:2:0:0:
500,179,69254,5,2,1:2:0:0:
466,260,69442,1,2,0:2:0:0:
440,115,69629,1,2,1:2:0:0:
406,196,69817,1,2,0:2:0:0:
389,55,70004,1,2,1:2:0:0:
445,333,70379,1,2,1:2:0:0:
201,260,70755,6,0,P|144:248|13:226,1,180,2|2,1:2|1:2,0:2:0:0:
68,159,71317,1,2,0:2:0:0:
202,186,71505,2,0,P|259:198|390:220,1,180,2|2,1:2|1:2,0:2:0:0:
335,280,72067,1,2,0:2:0:0:
250,119,72255,5,2,1:2:0:0:
330,89,72443,1,2,0:2:0:0:
459,194,72630,1,2,1:2:0:0:
379,224,72818,1,2,0:2:0:0:
395,142,73005,1,2,1:2:0:0:
395,142,73380,1,0,1:2:0:0:
176,42,73756,5,4,1:2:0:0:
92,86,73943,1,2,0:2:0:0:
12,41,74131,2,0,P|13:100|10:155,1,99.0000030212403,10|0,1:2|0:2,0:2:0:0:
110,178,74506,1,2,1:2:0:0:
194,134,74693,1,2,0:2:0:0:
274,179,74881,2,0,P|273:120|276:65,1,99.0000030212403,10|0,1:2|0:2,0:2:0:0:
180,46,75256,5,2,1:2:0:0:
96,90,75443,1,2,0:2:0:0:
114,182,75631,1,10,1:2:0:0:
198,138,75818,1,2,0:2:0:0:
16,45,76006,2,0,P|17:104|14:159,1,99.0000030212403,2|0,1:2|0:2,0:2:0:0:
278,183,76382,2,0,P|277:124|280:69,1,99.0000030212403,8|0,1:2|0:2,0:2:0:0:
95,253,76757,6,0,P|69:294|92:340,2,99.0000030212403,2|2|10,1:2|0:2|1:2,0:2:0:0:
167,366,77319,1,2,0:2:0:0:
226,318,77507,2,0,P|285:313|335:309,1,99.0000030212403,2|0,1:2|0:2,0:2:0:0:
437,235,77882,1,10,1:2:0:0:
380,360,78070,1,2,0:2:0:0:
313,228,78257,5,2,1:2:0:0:
376,192,78445,1,2,0:2:0:0:
497,343,78632,1,10,1:2:0:0:
434,307,78820,1,2,0:2:0:0:
454,163,79008,2,0,P|460:110|470:57,1,99.0000030212403,2|0,1:2|0:2,0:2:0:0:
294,136,79383,2,0,P|303:184|309:234,1,99.0000030212403,8|0,1:2|0:2,0:2:0:0:
213,96,79758,5,2,1:2:0:0:
213,96,79945,1,2,0:2:0:0:
353,57,80133,1,10,1:2:0:0:
353,57,80320,1,2,0:2:0:0:
222,185,80508,2,0,P|164:205|140:90,1,198.000006042481,2|8,1:2|1:2,0:2:0:0:
213,96,81071,1,2,0:2:0:0:
236,261,81258,6,0,P|232:305|227:378,1,99.0000030212403,2|2,1:2|0:2,0:2:0:0:
155,300,81633,1,10,1:2:0:0:
319,259,81821,1,2,0:2:0:0:
284,192,82009,5,2,1:2:0:0:
142,200,82259,5,2,0:2:0:0:
4,208,82509,5,2,0:2:0:0:
30,185,82759,6,0,P|45:128|21:83,1,99.0000030212403,2|0,1:2|0:2,0:2:0:0:
90,270,83134,2,0,P|74:316|90:362,1,99.0000030212403,10|2,1:2|0:2,0:2:0:0:
213,227,83509,2,0,P|237:168|184:46,1,198.000006042481,2|8,1:2|1:2,0:2:0:0:
188,49,84072,1,2,0:2:0:0:
379,32,84259,5,2,1:2:0:0:
417,125,84447,1,2,0:2:0:0:
349,194,84635,1,10,1:2:0:0:
311,101,84823,1,2,0:2:0:0:
421,129,85010,5,2,1:2:0:0:
353,198,85198,1,0,0:2:0:0:
315,105,85386,1,10,1:2:0:0:
383,36,85572,1,2,0:2:0:0:
487,167,85760,6,0,P|500:217|480:272,1,99.0000030212403,2|2,1:2|0:2,0:2:0:0:
369,358,86135,1,10,1:2:0:0:
385,284,86323,1,2,0:2:0:0:
275,297,86510,2,0,P|262:247|282:192,1,99.0000030212403,2|0,1:2|0:2,0:2:0:0:
393,106,86885,1,10,1:2:0:0:
377,180,87073,1,0,0:2:0:0:
373,362,87261,5,2,1:2:0:0:
389,288,87449,1,2,0:2:0:0:
397,110,87635,1,10,1:2:0:0:
381,184,87823,1,2,0:2:0:0:
491,171,88011,2,0,P|504:221|484:276,1,99.0000030212403,2|0,1:2|0:2,0:2:0:0:
279,301,88386,2,0,P|266:251|286:196,1,99.0000030212403,8|0,1:2|0:2,0:2:0:0:
435,233,88761,5,2,1:2:0:0:
435,233,88949,1,2,0:2:0:0:
330,130,89136,1,10,1:2:0:0:
307,4,89324,1,2,0:2:0:0:
334,135,89511,2,0,P|240:129|112:116,1,198.000006042481,2|10,1:2|1:2,0:2:0:0:
88,172,90074,1,2,0:2:0:0:
25,280,90262,6,0,P|81:287|134:298,1,99.0000030212403,2|2,1:2|0:2,0:2:0:0:
127,102,90637,2,0,P|71:95|18:84,1,99.0000030212403,10|2,1:2|0:2,0:2:0:0:
179,249,91012,1,0,1:2:0:0:
179,249,91106,1,2,0:2:0:0:
179,249,91199,1,2,0:2:0:0:
239,296,91387,1,8,1:2:0:0:
283,361,91575,1,0,0:2:0:0:
426,328,91762,5,0,1:2:0:0:
426,328,91856,1,2,0:2:0:0:
426,328,91950,2,0,P|429:276|437:224,1,99.0000030212403,2|10,0:2|1:2,0:2:0:0:
273,196,92325,1,2,0:2:0:0:
397,82,92512,2,0,P|394:134|386:186,1,99.0000030212403,2|0,1:2|0:2,0:2:0:0:
319,284,92888,1,10,1:2:0:0:
284,120,93075,1,2,0:2:0:0:
331,36,93263,5,0,1:2:0:0:
331,36,93356,1,2,0:2:0:0:
331,36,93450,1,2,0:2:0:0:
397,82,93638,1,10,1:2:0:0:
204,136,93825,1,2,0:2:0:0:
245,61,94013,2,0,P|292:106|235:233,1,198.000006042481,2|10,1:2|1:2,0:2:0:0:
196,256,94576,1,0,0:2:0:0:
57,269,94763,5,0,1:2:0:0:
57,269,94857,1,2,0:2:0:0:
57,269,94951,1,2,0:2:0:0:
174,357,95138,1,10,1:2:0:0:
151,168,95326,1,2,0:2:0:0:
33,293,95513,2,0,P|85:290|142:293,1,99.0000030212403,2|0,1:2|0:2,0:2:0:0:
280,353,95889,1,10,1:2:0:0:
221,184,96076,1,2,0:2:0:0:
170,368,96264,5,0,1:2:0:0:
170,368,96358,1,2,0:2:0:0:
170,368,96451,1,2,0:2:0:0:
263,273,96639,1,10,1:2:0:0:
313,136,96826,1,2,0:2:0:0:
403,47,97014,1,2,1:2:0:0:
403,47,97389,1,8,1:2:0:0:
450,174,97764,6,0,P|469:177|491:182,2,40.4999987640381,4|0|0,1:2|0:2|0:2,0:2:0:0:
387,245,98139,2,0,P|368:248|346:253,2,40.4999987640381,8|0|0,1:2|0:2|0:2,0:2:0:0:
456,321,98515,2,0,P|475:324|495:328,2,40.4999987640381,0|0|0,1:2|0:2|0:2,0:2:0:0:
387,384,98890,1,8,1:2:0:0:
387,384,98984,1,0,0:2:0:0:
387,384,99077,1,0,0:2:0:0:
313,323,99265,1,0,1:2:0:0:
313,323,99359,1,0,0:2:0:0:
313,323,99452,1,0,0:2:0:0:
235,362,99640,1,8,1:2:0:0:
235,362,99734,1,0,0:2:0:0:
235,362,99827,1,0,0:2:0:0:
158,320,100015,1,0,1:2:0:0:
158,320,100109,1,0,0:2:0:0:
158,320,100202,1,0,0:2:0:0:
158,320,100390,1,8,1:2:0:0:
158,320,100484,1,0,0:2:0:0:
158,320,100577,1,0,0:2:0:0:
88,240,100765,6,0,P|84:256|75:282,2,40.4999987640381,0|0|0,1:2|0:2|0:2,0:2:0:0:
187,191,101141,2,0,P|192:210|198:229,2,40.4999987640381,8|0|0,1:2|0:2|0:2,0:2:0:0:
72,132,101516,2,0,P|64:149|50:170,2,40.4999987640381,0|0|0,1:2|0:2|0:2,0:2:0:0:
217,90,101891,2,0,P|225:107|239:128,2,40.4999987640381,8|0|0,1:2|0:2|0:2,0:2:0:0:
128,39,102266,5,0,1:2:0:0:
128,39,102360,1,0,0:2:0:0:
128,39,102454,1,0,0:2:0:0:
250,11,102641,1,8,1:2:0:0:
250,11,102735,1,0,0:2:0:0:
250,11,102829,1,0,0:2:0:0:
331,109,103016,1,0,1:2:0:0:
331,109,103110,1,0,0:2:0:0:
331,109,103204,1,0,0:2:0:0:
209,137,103391,1,8,1:2:0:0:
209,137,103485,1,0,0:2:0:0:
209,137,103579,1,0,0:2:0:0:
251,244,103766,6,0,P|260:273|265:296,2,40.4999987640381,0|0|0,1:2|0:2|0:2,0:2:0:0:
314,358,104142,2,0,P|323:329|328:306,2,40.4999987640381,8|0|0,1:2|0:2|0:2,0:2:0:0:
358,208,104517,2,0,P|367:237|372:260,2,40.4999987640381,0|0|0,1:2|0:2|0:2,0:2:0:0:
439,348,104893,2,0,P|448:319|453:296,2,40.4999987640381,8|0|0,1:2|0:2|0:2,0:2:0:0:
486,234,105267,5,0,1:2:0:0:
490,214,105361,1,0,0:2:0:0:
502,197,105455,1,0,0:2:0:0:
404,138,105642,1,8,1:2:0:0:
416,121,105736,1,0,0:2:0:0:
420,101,105830,1,0,0:2:0:0:
316,185,106017,1,0,1:2:0:0:
320,165,106111,1,0,0:2:0:0:
332,148,106205,1,0,0:2:0:0:
234,89,106392,1,8,1:2:0:0:
246,72,106486,1,0,0:2:0:0:
250,52,106580,1,0,0:2:0:0:
163,38,106768,6,0,P|130:42|115:43,2,40.4999987640381,0|0|0,1:2|0:2|0:2,0:2:0:0:
75,115,107143,2,0,P|46:126|30:131,2,40.4999987640381,8|0|0,1:2|0:2|0:2,0:2:0:0:
50,234,107518,2,0,P|32:255|19:268,2,40.4999987640381,0|0|0,1:2|0:2|0:2,0:2:0:0:
103,333,107893,2,0,P|111:368|115:390,2,40.4999987640381,8|0|0,1:2|0:2|0:2,0:2:0:0:
169,301,108268,2,0,P|177:266|181:244,2,40.4999987640381,0|0|0,1:2|0:2|0:2,0:2:0:0:
263,381,108643,2,0,P|255:346|251:324,2,40.4999987640381,8|0|0,1:2|0:2|0:2,0:2:0:0:
324,277,109018,2,0,P|332:242|336:220,2,40.4999987640381,0|0|0,1:2|0:2|0:2,0:2:0:0:
418,357,109393,2,0,P|410:322|406:300,2,40.4999987640381,8|0|0,1:2|0:2|0:2,0:2:0:0:
423,182,109769,5,0,1:2:0:0:
419,201,109862,1,2,0:2:0:0:
406,217,109956,1,2,0:2:0:0:
325,103,110144,1,8,1:2:0:0:
331,121,110237,1,2,0:2:0:0:
327,141,110331,1,2,0:2:0:0:
253,191,110520,1,0,1:2:0:0:
249,210,110613,1,2,0:2:0:0:
236,226,110707,1,2,0:2:0:0:
155,112,110895,1,8,1:2:0:0:
161,130,110988,1,2,0:2:0:0:
157,150,111082,1,2,0:2:0:0:
96,199,111269,5,0,1:2:0:0:
75,200,111363,1,2,0:2:0:0:
56,191,111457,1,2,0:2:0:0:
115,104,111644,1,8,1:2:0:0:
136,103,111738,1,2,0:2:0:0:
155,112,111832,1,2,0:2:0:0:
233,242,112019,1,0,1:2:0:0:
212,243,112113,1,2,0:2:0:0:
193,234,112207,1,2,0:2:0:0:
252,147,112395,1,8,1:2:0:0:
273,146,112489,1,2,0:2:0:0:
292,155,112583,1,2,0:2:0:0:
331,296,112770,5,0,1:2:0:0:
327,315,112864,1,2,0:2:0:0:
324,334,112957,1,2,0:2:0:0:
425,224,113145,1,8,1:2:0:0:
429,243,113239,1,2,0:2:0:0:
432,262,113332,1,2,0:2:0:0:
324,184,113520,1,0,1:2:0:0:
320,203,113614,1,2,0:2:0:0:
317,222,113707,1,2,0:2:0:0:
418,112,113895,1,8,1:2:0:0:
422,131,113989,1,2,0:2:0:0:
425,150,114082,1,2,0:2:0:0:
317,86,114270,5,0,1:2:0:0:
299,75,114364,1,2,0:2:0:0:
285,60,114458,1,2,0:2:0:0:
221,123,114645,1,8,1:2:0:0:
199,122,114739,1,2,0:2:0:0:
180,116,114833,1,2,0:2:0:0:
174,204,115020,1,0,1:2:0:0:
155,214,115114,1,2,0:2:0:0:
135,218,115208,1,2,0:2:0:0:
158,305,115395,1,8,1:2:0:0:
146,324,115489,1,2,0:2:0:0:
131,337,115583,1,2,0:2:0:0:
16,280,115771,5,0,1:2:0:0:
42,269,115865,1,2,0:2:0:0:
69,275,115958,1,2,0:2:0:0:
210,370,116147,1,8,1:2:0:0:
237,376,116240,1,2,0:2:0:0:
263,365,116334,1,2,0:2:0:0:
350,364,116522,1,0,1:2:0:0:
364,340,116615,1,2,0:2:0:0:
361,312,116709,1,2,0:2:0:0:
387,228,116897,1,8,1:2:0:0:
369,208,116990,1,2,0:2:0:0:
341,202,117084,1,2,0:2:0:0:
246,235,117271,5,0,1:2:0:0:
217,237,117365,1,2,0:2:0:0:
188,239,117459,1,2,0:2:0:0:
261,81,117646,1,8,1:2:0:0:
290,83,117740,1,2,0:2:0:0:
319,85,117834,1,2,0:2:0:0:
372,34,118021,1,0,1:2:0:0:
396,50,118115,1,2,0:2:0:0:
420,66,118209,1,2,0:2:0:0:
486,31,118397,1,8,1:2:0:0:
499,57,118491,1,2,0:2:0:0:
512,83,118585,1,2,0:2:0:0:
469,162,118772,5,0,1:2:0:0:
459,188,118866,1,2,0:2:0:0:
461,216,118959,1,2,0:2:0:0:
376,243,119147,1,8,1:2:0:0:
383,259,119241,1,2,0:2:0:0:
382,278,119335,1,0,0:2:0:0:
441,306,119522,1,0,1:2:0:0:
433,323,119616,1,2,0:2:0:0:
434,338,119710,1,0,0:2:0:0:
410,349,119897,1,8,1:2:0:0:
416,358,119991,1,0,0:2:0:0:
417,369,120085,1,0,0:2:0:0:
256,192,120272,12,4,121773,0:2:0:0:
