osu file format v14

[General]
AudioFilename: audio.mp3
AudioLeadIn: 0
PreviewTime: 120256
Countdown: 0
SampleSet: Soft
StackLeniency: 0.7
Mode: 3
LetterboxInBreaks: 0
SpecialStyle: 0
WidescreenStoryboard: 1

[Editor]
Bookmarks: 1668,25667,48256,69432,72256,131197,142844
DistanceSpacing: 0.8
BeatDivisor: 4
GridSize: 16
TimelineZoom: 1.4

[Metadata]
Title:Wind Island
TitleUnicode:风屿
Artist:Y..J
ArtistUnicode:闫东炜
Creator:Seiran-
Version:6K Normal
Source:Dynamix
Tags:原创音乐 节奏游戏 洛天依 钢琴 electronic piano vgm ost original soundtrack rhythm Vocaloid Luo Tianyi ルォ・テンイ [Crz]Alleyne [RT]Alleyne [Emiria] victorica_db biemote McEndu dudehacker Drum-Hitnormal video game instrumental MaiZang 乐动时代 Dynamix Phigros Dance Rail TsumaMia! HiFive
BeatmapID:3190703
BeatmapSetID:1462834

[Difficulty]
HPDrainRate:7
CircleSize:6
OverallDifficulty:7
ApproachRate:5
SliderMultiplier:1.4
SliderTickRate:1

[Events]
//Background and Video events
0,0,"WindIsland1.jpg",0,0
//Break Periods
//Storyboard Layer 0 (Background)
//Storyboard Layer 1 (Fail)
//Storyboard Layer 2 (Pass)
//Storyboard Layer 3 (Foreground)
//Storyboard Layer 4 (Overlay)
//Storyboard Sound Samples

[TimingPoints]
1668,352.941176470588,4,2,1,20,1,0
120256,-100,4,2,1,20,0,1
171079,-100,4,2,1,20,0,0

[HitObjects]
469,192,1668,5,0,0:0:0:0:
42,192,1668,1,0,0:0:0:0:
128,192,2020,1,0,0:0:0:0:
213,192,2373,1,0,0:0:0:0:
469,192,2726,1,0,0:0:0:0:
384,192,3079,1,0,0:0:0:0:
42,192,3079,1,0,0:0:0:0:
213,192,3432,1,0,0:0:0:0:
128,192,3785,1,0,0:0:0:0:
42,192,4491,1,0,0:0:0:0:
384,192,4491,1,0,0:0:0:0:
128,192,4844,1,0,0:0:0:0:
213,192,5197,1,0,0:0:0:0:
384,192,5903,1,0,0:0:0:0:
128,192,5903,1,0,0:0:0:0:
298,192,6256,1,0,0:0:0:0:
213,192,6609,1,0,0:0:0:0:
384,192,7315,1,0,0:0:0:0:
42,192,7315,1,0,0:0:0:0:
298,192,7667,1,0,0:0:0:0:
213,192,8020,1,0,0:0:0:0:
42,192,8373,1,0,0:0:0:0:
128,192,8550,1,0,0:0:0:0:
213,192,8726,1,0,0:0:0:0:
469,192,8726,1,0,0:0:0:0:
384,192,9079,1,0,0:0:0:0:
298,192,9432,1,0,0:0:0:0:
128,192,9785,1,0,0:0:0:0:
213,192,9962,1,0,0:0:0:0:
298,192,10138,1,0,0:0:0:0:
469,192,10138,1,0,0:0:0:0:
384,192,10491,1,0,0:0:0:0:
298,192,10844,1,0,0:0:0:0:
213,192,11197,1,0,0:0:0:0:
128,192,11373,1,0,0:0:0:0:
42,192,11550,1,0,0:0:0:0:
384,192,11550,1,0,0:0:0:0:
298,192,11903,1,0,0:0:0:0:
213,192,12256,1,0,0:0:0:0:
298,192,12609,1,0,0:0:0:0:
42,192,12962,1,0,0:0:0:0:
384,192,12962,1,0,0:0:0:0:
213,192,13315,1,0,0:0:0:0:
128,192,13667,1,0,0:0:0:0:
298,192,14020,1,0,0:0:0:0:
469,192,14373,1,0,0:0:0:0:
128,192,14373,1,0,0:0:0:0:
384,192,14726,1,0,0:0:0:0:
298,192,15079,1,0,0:0:0:0:
42,192,15785,1,0,0:0:0:0:
298,192,15785,1,0,0:0:0:0:
213,192,16138,1,0,0:0:0:0:
384,192,16491,1,0,0:0:0:0:
469,192,16844,1,0,0:0:0:0:
42,192,17197,1,0,0:0:0:0:
298,192,17197,1,0,0:0:0:0:
213,192,17550,1,0,0:0:0:0:
128,192,17903,1,0,0:0:0:0:
298,192,18256,1,0,0:0:0:0:
469,192,18609,1,0,0:0:0:0:
213,192,18609,1,0,0:0:0:0:
384,192,18962,1,0,0:0:0:0:
213,192,19315,1,0,0:0:0:0:
128,192,19667,1,0,0:0:0:0:
42,192,20020,1,0,0:0:0:0:
384,192,20020,1,0,0:0:0:0:
213,192,20373,1,0,0:0:0:0:
298,192,20726,1,0,0:0:0:0:
469,192,21432,1,0,0:0:0:0:
213,192,21432,1,0,0:0:0:0:
384,192,22138,1,0,0:0:0:0:
128,192,22138,1,0,0:0:0:0:
298,192,22844,1,0,0:0:0:0:
42,192,22844,1,0,0:0:0:0:
42,192,25667,1,2,0:0:0:0:
298,192,25667,1,4,0:0:0:0:
128,192,26020,1,8,0:0:0:0:
384,192,26020,1,2,0:0:0:0:
469,192,26373,1,2,0:0:0:0:
213,192,26373,1,0,0:0:0:0:
384,192,26550,1,0,0:0:0:0:
128,192,26726,1,8,0:0:0:0:
213,192,26726,1,2,0:0:0:0:
298,192,26903,1,0,0:0:0:0:
42,192,27079,1,2,0:0:0:0:
384,192,27079,1,0,0:0:0:0:
469,192,27432,1,8,0:0:0:0:
213,192,27432,1,2,0:0:0:0:
298,192,27785,1,2,0:0:0:0:
42,192,27785,1,0,0:0:0:0:
128,192,27962,1,0,0:0:0:0:
469,192,28138,1,8,0:0:0:0:
213,192,28138,1,2,0:0:0:0:
298,192,28315,1,0,0:0:0:0:
384,192,28491,1,2,0:0:0:0:
42,192,28491,1,0,0:0:0:0:
213,192,28667,1,0,0:0:0:0:
469,192,28844,1,8,0:0:0:0:
128,192,28844,1,2,0:0:0:0:
298,192,29020,1,0,0:0:0:0:
42,192,29197,1,2,0:0:0:0:
384,192,29197,1,0,0:0:0:0:
128,192,29373,1,0,0:0:0:0:
469,192,29550,1,8,0:0:0:0:
298,192,29550,1,2,0:0:0:0:
128,192,29726,1,0,0:0:0:0:
213,192,29815,1,0,0:0:0:0:
298,192,29903,1,2,0:0:0:0:
469,192,29903,1,0,0:0:0:0:
384,192,30256,1,8,0:0:0:0:
128,192,30256,1,2,0:0:0:0:
298,192,30609,1,2,0:0:0:0:
42,192,30609,1,0,0:0:0:0:
469,192,30785,128,0,31315:0:0:0:0:
128,192,30962,1,8,0:0:0:0:
384,192,30962,1,2,0:0:0:0:
298,192,31315,1,2,0:0:0:0:
42,192,31315,1,0,0:0:0:0:
384,192,31667,1,8,0:0:0:0:
128,192,31667,1,2,0:0:0:0:
213,192,32020,1,2,0:0:0:0:
469,192,32020,1,0,0:0:0:0:
128,192,32373,1,8,0:0:0:0:
384,192,32373,1,2,0:0:0:0:
213,192,32550,1,0,0:0:0:0:
469,192,32726,1,2,0:0:0:0:
298,192,32726,1,0,0:0:0:0:
384,192,33079,1,8,0:0:0:0:
213,192,33079,1,2,0:0:0:0:
298,192,33432,1,2,0:0:0:0:
42,192,33432,1,0,0:0:0:0:
128,192,33609,1,0,0:0:0:0:
469,192,33785,1,8,0:0:0:0:
298,192,33785,1,2,0:0:0:0:
128,192,33962,1,0,0:0:0:0:
42,192,34138,1,2,0:0:0:0:
384,192,34138,1,0,0:0:0:0:
128,192,34491,1,8,0:0:0:0:
469,192,34491,1,2,0:0:0:0:
384,192,34844,1,2,0:0:0:0:
213,192,34844,1,0,0:0:0:0:
42,192,35020,1,0,0:0:0:0:
298,192,35197,1,8,0:0:0:0:
128,192,35197,1,2,0:0:0:0:
384,192,35373,1,0,0:0:0:0:
469,192,35550,1,2,0:0:0:0:
213,192,35550,1,0,0:0:0:0:
384,192,35903,1,8,0:0:0:0:
128,192,35903,1,2,0:0:0:0:
42,192,36256,1,2,0:0:0:0:
298,192,36256,1,0,0:0:0:0:
42,192,36609,1,8,0:0:0:0:
298,192,36609,1,2,0:0:0:0:
128,192,36962,1,2,0:0:0:0:
384,192,36962,1,4,0:0:0:0:
42,192,37138,128,0,37315:0:0:0:0:
213,192,37315,1,8,0:0:0:0:
469,192,37315,1,2,0:0:0:0:
128,192,37491,128,0,37667:0:0:0:0:
469,192,37667,1,2,0:0:0:0:
298,192,37667,1,0,0:0:0:0:
213,192,37844,128,0,38020:0:0:0:0:
384,192,38020,1,8,0:0:0:0:
42,192,38020,1,2,0:0:0:0:
298,192,38197,128,0,38373:0:0:0:0:
128,192,38373,1,2,0:0:0:0:
469,192,38373,1,0,0:0:0:0:
384,192,38550,128,0,38726:0:0:0:0:
42,192,38726,1,8,0:0:0:0:
298,192,38726,1,2,0:0:0:0:
128,192,38903,1,0,0:0:0:0:
213,192,39079,1,2,0:0:0:0:
469,192,39079,128,0,39785:0:0:0:0:
298,192,39256,1,0,0:0:0:0:
42,192,39432,1,8,0:0:0:0:
128,192,39432,1,2,0:0:0:0:
213,192,39609,1,0,0:0:0:0:
384,192,39785,1,2,0:0:0:0:
128,192,39785,1,0,0:0:0:0:
128,192,39962,1,0,0:0:0:0:
213,192,40138,1,8,0:0:0:0:
469,192,40138,1,2,0:0:0:0:
469,192,40315,1,0,0:0:0:0:
42,192,40491,1,2,0:0:0:0:
298,192,40491,1,0,0:0:0:0:
384,192,40844,1,8,0:0:0:0:
128,192,40844,1,2,0:0:0:0:
213,192,41020,1,0,0:0:0:0:
298,192,41197,1,2,0:0:0:0:
469,192,41197,1,0,0:0:0:0:
42,192,41550,1,8,0:0:0:0:
213,192,41550,1,2,0:0:0:0:
384,192,41726,1,0,0:0:0:0:
298,192,41903,1,2,0:0:0:0:
384,192,42256,1,8,0:0:0:0:
128,192,42256,1,2,0:0:0:0:
469,192,42609,1,2,0:0:0:0:
213,192,42609,1,0,0:0:0:0:
298,192,42962,1,8,0:0:0:0:
42,192,42962,1,2,0:0:0:0:
213,192,43138,1,0,0:0:0:0:
128,192,43315,1,2,0:0:0:0:
469,192,43315,1,0,0:0:0:0:
298,192,43491,1,0,0:0:0:0:
128,192,43667,1,8,0:0:0:0:
384,192,43667,1,2,0:0:0:0:
42,192,43844,1,0,0:0:0:0:
213,192,44020,1,2,0:0:0:0:
469,192,44020,1,0,0:0:0:50:LR_CymbalWSD.wav
298,192,44197,1,0,0:0:0:0:
384,192,44373,1,8,0:0:0:0:
128,192,44373,1,2,0:0:0:0:
213,192,44726,1,2,0:0:0:0:
298,192,45079,1,8,0:0:0:0:
469,192,45079,1,2,0:0:0:0:
213,192,45256,1,0,0:0:0:0:
42,192,45432,1,2,0:0:0:0:
128,192,45432,1,0,0:0:0:0:
298,192,45609,1,0,0:0:0:0:
384,192,45785,1,8,0:0:0:0:
128,192,45785,1,2,0:0:0:0:
213,192,46138,1,2,0:0:0:0:
298,192,46491,1,8,0:0:0:0:
42,192,46491,1,2,0:0:0:0:
128,192,46667,1,0,0:0:0:0:
213,192,46844,1,2,0:0:0:0:
384,192,47020,1,0,0:0:0:0:
298,192,47197,1,8,0:0:0:0:
128,192,47197,1,2,0:0:0:0:
42,192,47550,1,0,0:0:0:0:
42,192,47815,1,0,0:0:0:0:
298,192,47903,1,0,0:0:0:0:
298,192,48079,1,0,0:0:0:0:
128,192,48256,1,2,0:0:0:0:
384,192,48256,1,4,0:0:0:0:
298,192,48609,1,8,0:0:0:0:
42,192,48609,1,2,0:0:0:0:
128,192,48962,1,2,0:0:0:0:
384,192,49226,1,2,0:0:0:0:
213,192,49315,1,8,0:0:0:0:
42,192,49315,1,2,0:0:0:0:
298,192,49667,1,2,0:0:0:0:
128,192,49667,1,0,0:0:0:0:
213,192,50020,1,8,0:0:0:0:
469,192,50020,1,2,0:0:0:0:
469,192,50197,1,0,0:0:0:0:
298,192,50373,1,2,0:0:0:0:
42,192,50726,1,8,0:0:0:0:
213,192,50726,1,2,0:0:0:0:
298,192,50903,1,2,0:0:0:0:
128,192,51079,1,2,0:0:0:0:
469,192,51079,1,0,0:0:0:0:
469,192,51432,1,8,0:0:0:0:
298,192,51432,1,2,0:0:0:0:
42,192,51609,1,0,0:0:0:0:
128,192,51785,1,2,0:0:0:0:
298,192,51785,1,0,0:0:0:0:
213,192,52050,1,2,0:0:0:0:
298,192,52138,1,8,0:0:0:0:
469,192,52138,1,2,0:0:0:0:
384,192,52315,1,0,0:0:0:0:
128,192,52491,1,2,0:0:0:0:
298,192,52491,1,0,0:0:0:0:
469,192,52844,128,8,53903:0:0:0:0:
42,192,52844,1,2,0:0:0:0:
298,192,53197,1,2,0:0:0:0:
128,192,53197,1,0,0:0:0:0:
213,192,53550,1,8,0:0:0:0:
384,192,53550,1,2,0:0:0:0:
42,192,53726,1,2,0:0:0:0:
128,192,53815,1,0,0:0:0:0:
384,192,53903,1,2,0:0:0:0:
213,192,53903,1,0,0:0:0:0:
42,192,54256,1,2,0:0:0:0:
298,192,54256,1,8,0:0:0:0:
213,192,54609,1,2,0:0:0:0:
469,192,54609,1,0,0:0:0:0:
298,192,54873,1,2,0:0:0:0:
384,192,54962,1,8,0:0:0:0:
128,192,54962,1,2,0:0:0:0:
213,192,55138,1,0,0:0:0:0:
298,192,55315,1,2,0:0:0:0:
469,192,55315,1,0,0:0:0:0:
213,192,55667,1,2,0:0:0:0:
384,192,55667,1,8,0:0:0:0:
128,192,56020,1,2,0:0:0:0:
298,192,56020,1,0,0:0:0:0:
42,192,56285,1,0,0:0:0:0:
298,192,56373,1,8,0:0:0:0:
469,192,56373,1,2,0:0:0:0:
213,192,56550,1,2,0:0:0:0:
42,192,56726,1,2,0:0:0:0:
384,192,56726,1,0,0:0:0:0:
128,192,57079,1,2,0:0:0:0:
298,192,57079,1,8,0:0:0:0:
469,192,57432,1,2,0:0:0:0:
213,192,57432,1,0,0:0:0:0:
42,192,57697,1,2,0:0:0:0:
298,192,57785,1,8,0:0:0:0:
469,192,57785,1,2,0:0:0:0:
42,192,58138,1,2,0:0:0:0:
213,192,58138,1,0,0:0:0:0:
128,192,58315,1,2,0:0:0:0:
213,192,58403,1,0,0:0:0:0:
469,192,58491,1,2,0:0:0:0:
384,192,58491,1,8,0:0:0:0:
128,192,58667,1,2,0:0:0:0:
298,192,58844,128,2,59550:0:0:0:0:
469,192,58844,1,0,0:0:0:0:
42,192,59020,1,2,0:0:0:0:
128,192,59197,1,2,0:0:0:0:
469,192,59197,128,8,59550:0:0:0:0:
213,192,59373,1,2,0:0:0:0:
384,192,59550,1,2,0:0:0:0:
42,192,59550,1,0,0:0:0:50:LR_CymbalWSD.wav
384,192,59903,1,8,0:0:0:0:
213,192,59903,1,2,0:0:0:0:
298,192,60256,1,2,0:0:0:0:
42,192,60256,1,0,0:0:0:0:
213,192,60520,1,2,0:0:0:0:
128,192,60609,1,8,0:0:0:0:
384,192,60609,1,2,0:0:0:0:
213,192,60962,1,2,0:0:0:0:
469,192,60962,1,0,0:0:0:0:
298,192,61315,1,8,0:0:0:0:
128,192,61315,1,2,0:0:0:0:
42,192,61491,1,0,0:0:0:0:
213,192,61667,1,2,0:0:0:0:
384,192,61667,1,0,0:0:0:0:
298,192,62020,1,8,0:0:0:0:
469,192,62020,1,2,0:0:0:0:
213,192,62197,1,2,0:0:0:0:
42,192,62373,1,2,0:0:0:0:
384,192,62373,1,0,0:0:0:0:
298,192,62550,1,0,0:0:0:0:
42,192,62726,1,8,0:0:0:0:
213,192,62726,1,2,0:0:0:0:
128,192,62903,128,0,63079:0:0:0:0:
384,192,63079,1,2,0:0:0:0:
298,192,63079,1,0,0:0:0:0:
213,192,63256,128,0,63432:0:0:0:0:
384,192,63432,1,8,0:0:0:0:
469,192,63432,1,2,0:0:0:0:
298,192,63609,128,0,63785:0:0:0:0:
128,192,63785,1,2,0:0:0:0:
42,192,63785,1,0,0:0:0:0:
469,192,63962,1,0,0:0:0:0:
128,192,64138,1,8,0:0:0:0:
298,192,64138,1,2,0:0:0:0:
469,192,64315,1,0,0:0:0:0:
213,192,64491,1,2,0:0:0:0:
384,192,64491,1,0,0:0:0:0:
42,192,64844,1,8,0:0:0:0:
213,192,64844,1,2,0:0:0:0:
298,192,65020,1,2,0:0:0:0:
42,192,65197,1,2,0:0:0:0:
469,192,65197,1,0,0:0:0:50:LR_CymbalWSD.wav
213,192,65550,1,2,0:0:0:0:
469,192,65550,1,8,0:0:0:0:
384,192,65726,1,0,0:0:0:0:
128,192,65903,1,2,0:0:0:0:
213,192,65903,1,0,0:0:0:0:
42,192,66167,1,2,0:0:0:0:
384,192,66256,1,8,0:0:0:0:
128,192,66256,1,2,0:0:0:0:
298,192,66609,1,2,0:0:0:0:
469,192,66609,1,0,0:0:0:0:
42,192,66962,1,2,0:0:0:0:
128,192,66962,1,8,0:0:0:0:
298,192,67138,1,0,0:0:0:0:
469,192,67315,1,2,0:0:0:0:
384,192,67667,1,8,0:0:0:0:
42,192,67667,1,2,0:0:0:0:
298,192,67844,1,2,0:0:0:0:
128,192,68020,1,2,0:0:0:0:
469,192,68020,1,0,0:0:0:0:
213,192,68373,1,2,0:0:0:0:
384,192,68373,1,8,0:0:0:0:
298,192,68726,1,2,0:0:0:0:
42,192,68726,1,0,0:0:0:50:LR_CymbalWSD.wav
469,192,68991,1,2,0:0:0:0:
128,192,69079,1,8,0:0:0:0:
384,192,69079,1,2,0:0:0:0:
213,192,69432,1,2,0:0:0:0:
469,192,69432,1,0,0:0:0:0:
298,192,69609,1,2,0:0:0:0:
213,192,69785,1,2,0:0:0:0:
42,192,69785,1,8,0:0:0:0:
384,192,69962,1,2,0:0:0:0:
42,192,70138,128,2,70844:0:0:0:0:
298,192,70138,1,0,0:0:0:50:LR_CymbalWSD.wav
213,192,70315,1,2,0:0:0:0:
384,192,70491,128,2,70844:0:0:0:0:
298,192,70667,1,2,0:0:0:0:
469,192,70844,128,0,71550:0:0:0:0:
213,192,70844,1,0,0:0:0:0:
298,192,71550,1,0,0:0:0:0:
213,192,72256,1,2,0:0:0:0:
469,192,72256,1,4,0:0:0:0:
384,192,72609,1,8,0:0:0:0:
128,192,72609,1,2,0:0:0:0:
298,192,72962,1,2,0:0:0:0:
42,192,72962,1,0,0:0:0:0:
213,192,73315,1,8,0:0:0:0:
469,192,73315,1,2,0:0:0:0:
42,192,73667,1,2,0:0:0:0:
298,192,73667,1,0,0:0:0:0:
128,192,74020,1,8,0:0:0:0:
384,192,74020,1,2,0:0:0:0:
213,192,74373,1,2,0:0:0:0:
469,192,74373,1,0,0:0:0:0:
384,192,74550,1,0,0:0:0:0:
298,192,74726,1,8,0:0:0:0:
42,192,74726,1,2,0:0:0:0:
128,192,74903,1,0,0:0:0:0:
213,192,75079,1,2,0:0:0:0:
469,192,75079,1,0,0:0:0:0:
384,192,75256,1,0,0:0:0:0:
128,192,75432,1,8,0:0:0:0:
298,192,75432,1,2,0:0:0:0:
213,192,75609,1,0,0:0:0:0:
384,192,75785,1,2,0:0:0:0:
42,192,75785,1,0,0:0:0:0:
128,192,75962,1,0,0:0:0:0:
213,192,76138,1,8,0:0:0:0:
469,192,76138,1,2,0:0:0:0:
298,192,76315,1,0,0:0:0:0:
213,192,76403,1,0,0:0:0:0:
42,192,76491,1,2,0:0:0:0:
384,192,76491,1,0,0:0:0:0:
128,192,76844,1,8,0:0:0:0:
298,192,76844,1,2,0:0:0:0:
213,192,77197,1,2,0:0:0:0:
384,192,77197,1,0,0:0:0:0:
469,192,77373,1,0,0:0:0:0:
298,192,77550,1,8,0:0:0:0:
128,192,77550,1,2,0:0:0:0:
384,192,77726,1,0,0:0:0:0:
469,192,77815,1,0,0:0:0:0:
42,192,77903,1,2,0:0:0:0:
213,192,77903,1,0,0:0:0:0:
298,192,78079,1,0,0:0:0:0:
469,192,78256,1,2,0:0:0:0:
128,192,78256,1,8,0:0:0:0:
213,192,78432,1,0,0:0:0:0:
42,192,78609,1,2,0:0:0:0:
298,192,78609,1,0,0:0:0:0:
213,192,78785,1,0,0:0:0:0:
128,192,78962,1,2,0:0:0:0:
384,192,78962,1,8,0:0:0:0:
298,192,79138,1,0,0:0:0:0:
469,192,79315,1,2,0:0:0:0:
213,192,79315,1,0,0:0:0:0:
384,192,79667,1,2,0:0:0:0:
128,192,79667,1,8,0:0:0:0:
298,192,80020,1,2,0:0:0:0:
42,192,80020,1,0,0:0:0:0:
213,192,80373,1,2,0:0:0:0:
469,192,80373,1,8,0:0:0:0:
384,192,80726,1,2,0:0:0:0:
128,192,80726,1,0,0:0:0:0:
298,192,81079,1,8,0:0:0:0:
42,192,81079,1,2,0:0:0:0:
213,192,81432,1,2,0:0:0:0:
384,192,81432,1,0,0:0:0:0:
128,192,81785,1,8,0:0:0:0:
298,192,81785,1,2,0:0:0:0:
213,192,82138,1,2,0:0:0:0:
42,192,82138,1,0,0:0:0:0:
298,192,82491,1,8,0:0:0:0:
128,192,82491,1,2,0:0:0:0:
384,192,82667,1,0,0:0:0:0:
213,192,82844,1,2,0:0:0:0:
469,192,82844,1,0,0:0:0:0:
213,192,83197,1,8,0:0:0:0:
469,192,83197,1,2,0:0:0:0:
384,192,83550,1,2,0:0:0:0:
128,192,83550,1,4,0:0:0:0:
298,192,83903,1,8,0:0:0:0:
42,192,83903,1,2,0:0:0:0:
128,192,84256,1,2,0:0:0:0:
213,192,84520,1,2,0:0:0:0:
298,192,84609,1,8,0:0:0:0:
469,192,84609,1,2,0:0:0:0:
128,192,84962,1,2,0:0:0:0:
384,192,84962,1,0,0:0:0:0:
213,192,85315,1,8,0:0:0:0:
42,192,85315,1,2,0:0:0:0:
469,192,85491,1,0,0:0:0:0:
384,192,85667,1,2,0:0:0:0:
128,192,85667,1,0,0:0:0:0:
213,192,86020,1,8,0:0:0:0:
469,192,86020,1,2,0:0:0:0:
384,192,86197,1,2,0:0:0:0:
298,192,86373,1,2,0:0:0:0:
128,192,86373,1,0,0:0:0:0:
213,192,86726,1,8,0:0:0:0:
384,192,86726,1,2,0:0:0:0:
469,192,86903,1,0,0:0:0:0:
128,192,87079,1,2,0:0:0:0:
298,192,87079,1,0,0:0:0:0:
384,192,87344,1,2,0:0:0:0:
42,192,87432,1,8,0:0:0:0:
298,192,87432,1,2,0:0:0:0:
128,192,87609,1,0,0:0:0:0:
213,192,87785,1,2,0:0:0:0:
384,192,87785,1,0,0:0:0:0:
42,192,88138,1,8,0:0:0:0:
213,192,88138,1,2,0:0:0:0:
469,192,88315,1,0,0:0:0:0:
128,192,88491,1,2,0:0:0:0:
298,192,88491,1,0,0:0:0:0:
42,192,88667,1,0,0:0:0:0:
213,192,88844,1,8,0:0:0:0:
384,192,88844,1,2,0:0:0:0:
42,192,89020,1,2,0:0:0:0:
128,192,89109,1,0,0:0:0:0:
298,192,89197,1,2,0:0:0:0:
469,192,89197,1,0,0:0:0:0:
213,192,89550,1,2,0:0:0:0:
42,192,89550,1,8,0:0:0:0:
298,192,89903,1,2,0:0:0:0:
469,192,89903,1,0,0:0:0:0:
384,192,90167,1,2,0:0:0:0:
42,192,90256,1,8,0:0:0:0:
128,192,90256,1,2,0:0:0:0:
213,192,90432,1,0,0:0:0:0:
298,192,90609,1,2,0:0:0:0:
469,192,90609,1,0,0:0:0:0:
42,192,90962,1,2,0:0:0:0:
213,192,90962,1,8,0:0:0:0:
298,192,91315,1,2,0:0:0:0:
469,192,91315,1,0,0:0:0:0:
384,192,91579,1,0,0:0:0:0:
42,192,91667,1,8,0:0:0:0:
213,192,91667,1,2,0:0:0:0:
128,192,91844,1,2,0:0:0:0:
469,192,92020,1,2,0:0:0:0:
213,192,92020,1,0,0:0:0:50:LR_CymbalWSD.wav
298,192,92373,1,2,0:0:0:0:
42,192,92373,1,8,0:0:0:0:
128,192,92726,1,2,0:0:0:0:
384,192,92726,1,0,0:0:0:0:
42,192,92991,1,2,0:0:0:0:
213,192,93079,1,8,0:0:0:0:
469,192,93079,1,2,0:0:0:0:
42,192,93432,1,2,0:0:0:0:
298,192,93432,1,0,0:0:0:50:LR_CymbalWSD.wav
213,192,93609,1,2,0:0:0:0:
384,192,93785,1,2,0:0:0:0:
128,192,93785,1,8,0:0:0:0:
298,192,93962,1,2,0:0:0:0:
469,192,94138,1,2,0:0:0:0:
213,192,94138,1,0,0:0:0:0:
384,192,94315,1,2,0:0:0:0:
42,192,94491,128,2,94844:0:0:0:0:
298,192,94491,1,8,0:0:0:0:
128,192,94844,1,2,0:0:0:0:
469,192,94844,128,8,96256:0:0:0:0:
213,192,95020,1,2,0:0:0:0:
298,192,95197,1,2,0:0:0:0:
384,192,95373,1,2,0:0:0:0:
128,192,95550,1,2,0:0:0:0:
213,192,95726,1,2,0:0:0:0:
298,192,95903,1,2,0:0:0:0:
384,192,96079,1,2,0:0:0:0:
128,192,96256,1,0,0:0:0:50:LR_CymbalWSD.wav
42,192,96256,1,0,0:0:0:0:
42,192,99079,1,0,0:0:0:0:
298,192,99079,1,0,0:0:0:0:
128,192,99432,1,0,0:0:0:0:
213,192,99785,1,0,0:0:0:0:
298,192,100138,1,0,0:0:0:0:
128,192,100491,1,0,0:0:0:0:
469,192,100491,1,0,0:0:0:0:
213,192,100844,1,0,0:0:0:0:
298,192,101197,1,0,0:0:0:0:
384,192,101903,1,0,0:0:0:0:
42,192,101903,1,0,0:0:0:0:
298,192,102256,1,0,0:0:0:0:
213,192,102609,1,0,0:0:0:0:
128,192,102962,1,0,0:0:0:0:
42,192,103315,1,0,0:0:0:0:
384,192,103315,1,0,0:0:0:0:
213,192,103667,1,0,0:0:0:0:
298,192,104020,1,0,0:0:0:0:
42,192,104373,1,0,0:0:0:0:
469,192,104726,1,0,0:0:0:0:
128,192,104726,1,0,0:0:0:0:
213,192,105079,1,0,0:0:0:0:
298,192,105432,1,0,0:0:0:0:
469,192,105785,1,0,0:0:0:0:
298,192,106138,1,0,0:0:0:0:
42,192,106138,1,0,0:0:0:0:
128,192,106491,1,0,0:0:0:0:
213,192,106844,1,0,0:0:0:0:
298,192,107550,1,0,0:0:0:0:
42,192,107550,1,0,0:0:0:0:
469,192,107903,1,0,0:0:0:0:
384,192,108256,1,0,0:0:0:0:
213,192,108962,1,0,0:0:0:0:
469,192,108962,1,0,0:0:0:0:
298,192,109315,1,0,0:0:0:0:
128,192,109667,1,0,0:0:0:0:
384,192,110373,1,0,0:0:0:0:
42,192,110373,1,0,0:0:0:0:
213,192,110726,1,0,0:0:0:0:
298,192,111079,1,0,0:0:0:0:
384,192,111432,1,0,0:0:0:0:
128,192,111785,1,0,0:0:0:0:
469,192,111785,1,0,0:0:0:0:
384,192,112138,1,0,0:0:0:0:
298,192,112491,1,0,0:0:0:0:
384,192,113197,1,0,0:0:0:0:
42,192,113197,1,0,0:0:0:0:
128,192,113550,1,0,0:0:0:0:
213,192,113903,1,0,0:0:0:0:
384,192,114609,1,0,0:0:0:0:
128,192,114609,1,0,0:0:0:0:
298,192,114962,1,0,0:0:0:0:
213,192,115315,1,0,0:0:0:0:
384,192,115667,1,0,0:0:0:0:
128,192,116020,1,0,0:0:0:0:
469,192,116020,1,0,0:0:0:0:
298,192,116373,1,0,0:0:0:0:
213,192,116550,1,0,0:0:0:0:
384,192,116726,1,0,0:0:0:0:
298,192,116903,1,0,0:0:0:0:
128,192,117079,1,0,0:0:0:0:
298,192,117432,1,0,0:0:0:0:
469,192,117432,1,0,0:0:0:0:
42,192,117785,1,0,0:0:0:0:
128,192,117962,1,0,0:0:0:0:
213,192,118138,1,0,0:0:0:0:
298,192,118315,1,0,0:0:0:0:
469,192,118491,1,0,0:0:0:0:
298,192,119550,1,0,0:0:0:0:
469,192,120256,128,2,120609:0:0:0:0:
298,192,120256,1,0,0:0:0:50:LR_CymbalWSD.wav
384,192,120609,128,8,120962:0:0:0:0:
213,192,120609,1,2,0:0:0:0:
298,192,120962,128,2,121315:0:0:0:0:
128,192,120962,1,0,0:0:0:0:
213,192,121315,128,8,121667:0:0:0:0:
42,192,121315,1,2,0:0:0:0:
128,192,121667,128,2,122373:0:0:0:0:
384,192,121667,1,0,0:0:0:0:
469,192,122020,1,8,0:0:0:0:
213,192,122020,1,2,0:0:0:0:
298,192,122373,128,2,123079:0:0:0:0:
42,192,122373,1,0,0:0:0:0:
128,192,122726,1,8,0:0:0:0:
213,192,122903,1,2,0:0:0:0:
42,192,123079,128,2,123432:0:0:0:0:
469,192,123079,1,0,0:0:0:0:
128,192,123432,128,8,123785:0:0:0:0:
384,192,123432,1,2,0:0:0:0:
213,192,123785,128,2,124138:0:0:0:0:
298,192,123785,1,0,0:0:0:0:
384,192,124138,128,2,124491:0:0:0:0:
42,192,124138,1,8,0:0:0:0:
469,192,124491,128,2,125550:0:0:0:0:
42,192,124491,1,0,0:0:0:0:
384,192,124844,1,8,0:0:0:0:
128,192,124844,1,2,0:0:0:0:
42,192,125197,1,2,0:0:0:0:
298,192,125197,1,0,0:0:0:0:
128,192,125550,128,8,125903:0:0:0:0:
384,192,125550,1,2,0:0:0:0:
298,192,125726,1,2,0:0:0:0:
213,192,125903,128,2,126256:0:0:0:0:
469,192,125903,1,0,0:0:0:0:
42,192,126256,128,2,126609:0:0:0:0:
384,192,126256,1,8,0:0:0:0:
298,192,126609,128,2,126962:0:0:0:0:
213,192,126609,1,0,0:0:0:0:
469,192,126962,128,8,127315:0:0:0:0:
128,192,126962,1,2,0:0:0:0:
384,192,127315,128,2,128020:0:0:0:0:
213,192,127315,1,0,0:0:0:0:
42,192,127667,1,2,0:0:0:0:
298,192,127667,1,8,0:0:0:0:
298,192,128020,128,2,128726:0:0:0:0:
128,192,128020,1,0,0:0:0:0:
42,192,128373,1,8,0:0:0:0:
213,192,128373,1,2,0:0:0:0:
384,192,128550,1,2,0:0:0:0:
42,192,128726,128,2,131197:0:0:0:0:
469,192,128726,1,0,0:0:0:0:
384,192,129079,1,2,0:0:0:0:
213,192,129079,1,8,0:0:0:0:
298,192,129432,1,2,0:0:0:0:
128,192,129785,1,8,0:0:0:0:
384,192,129785,1,2,0:0:0:0:
469,192,130138,1,2,0:0:0:0:
213,192,130138,1,0,0:0:0:0:
384,192,130315,1,2,0:0:0:0:
298,192,130491,1,2,0:0:0:0:
213,192,130667,1,2,0:0:0:0:
384,192,130844,1,2,0:0:0:0:
298,192,131020,1,2,0:0:0:0:
213,192,131197,128,2,131550:0:0:0:0:
469,192,131197,128,8,131550:0:0:0:0:
128,192,131550,128,2,131903:0:0:0:0:
384,192,131550,1,0,0:0:0:50:LR_CymbalWSD.wav
213,192,131903,128,2,132256:0:0:0:0:
469,192,131903,1,8,0:0:0:0:
298,192,132256,128,2,132609:0:0:0:0:
42,192,132256,1,0,0:0:0:0:
128,192,132609,128,2,132962:0:0:0:0:
469,192,132609,1,8,0:0:0:0:
384,192,132962,128,2,133667:0:0:0:0:
42,192,132962,1,0,0:0:0:0:
213,192,133315,1,2,0:0:0:0:
42,192,133315,1,8,0:0:0:0:
298,192,133667,128,2,134373:0:0:0:0:
128,192,133667,1,0,0:0:0:0:
469,192,134020,1,2,0:0:0:0:
384,192,134020,1,8,0:0:0:0:
42,192,134197,1,2,0:0:0:0:
128,192,134373,128,2,135079:0:0:0:0:
469,192,134373,1,0,0:0:0:0:
298,192,134726,1,2,0:0:0:0:
384,192,134726,1,8,0:0:0:0:
213,192,135079,128,2,135785:0:0:0:0:
469,192,135079,1,0,0:0:0:0:
298,192,135432,1,2,0:0:0:0:
128,192,135432,1,8,0:0:0:0:
42,192,135785,128,2,136491:0:0:0:0:
469,192,135785,1,0,0:0:0:0:
298,192,136138,1,2,0:0:0:0:
384,192,136138,1,8,0:0:0:0:
469,192,136491,128,2,136844:0:0:0:0:
128,192,136491,1,0,0:0:0:50:LR_CymbalWSD.wav
384,192,136844,128,2,137197:0:0:0:0:
213,192,136844,1,8,0:0:0:0:
42,192,137020,1,2,0:0:0:0:
213,192,137197,128,2,137550:0:0:0:0:
298,192,137197,1,0,0:0:0:0:
298,192,137550,128,8,137903:0:0:0:0:
42,192,137550,1,2,0:0:0:0:
128,192,137903,128,2,138256:0:0:0:0:
469,192,137903,1,0,0:0:0:0:
42,192,138256,128,2,138609:0:0:0:0:
298,192,138256,1,8,0:0:0:0:
213,192,138609,128,2,138962:0:0:0:0:
384,192,138609,1,0,0:0:0:50:LR_CymbalWSD.wav
298,192,138962,128,8,139315:0:0:0:0:
42,192,138962,1,2,0:0:0:0:
469,192,139315,128,2,139667:0:0:0:0:
128,192,139315,1,0,0:0:0:0:
213,192,139667,1,2,0:0:0:0:
384,192,139667,128,8,140020:0:0:0:0:
128,192,139844,1,2,0:0:0:0:
42,192,140020,1,2,0:0:0:0:
298,192,140020,128,0,142491:0:0:0:0:
469,192,140373,1,8,0:0:0:0:
213,192,140373,1,2,0:0:0:0:
384,192,140726,1,2,0:0:0:0:
42,192,140726,1,0,0:0:0:0:
469,192,141079,1,2,0:0:0:0:
213,192,141079,1,8,0:0:0:0:
42,192,141432,1,2,0:0:0:0:
128,192,141432,1,0,0:0:0:0:
469,192,141609,1,2,0:0:0:0:
42,192,141785,1,8,0:0:0:0:
128,192,141785,1,2,0:0:0:0:
384,192,141962,1,2,0:0:0:0:
42,192,142138,1,2,0:0:0:0:
128,192,142138,1,0,0:0:0:0:
469,192,142315,1,2,0:0:0:0:
384,192,142491,128,8,142844:0:0:0:0:
213,192,142491,128,2,142844:0:0:0:0:
42,192,142844,128,2,143197:0:0:0:0:
298,192,142844,1,0,0:0:0:50:LR_CymbalWSD.wav
128,192,143197,128,2,143550:0:0:0:0:
469,192,143197,1,8,0:0:0:0:
384,192,143373,1,2,0:0:0:0:
213,192,143550,128,2,143903:0:0:0:0:
298,192,143550,1,0,0:0:0:0:
298,192,143903,128,2,144256:0:0:0:0:
42,192,143903,1,8,0:0:0:0:
384,192,144256,128,2,144962:0:0:0:0:
213,192,144256,1,0,0:0:0:0:
298,192,144609,1,2,0:0:0:0:
42,192,144609,1,8,0:0:0:0:
128,192,144785,1,2,0:0:0:0:
213,192,144962,128,2,145667:0:0:0:0:
469,192,144962,1,0,0:0:0:0:
384,192,145315,1,2,0:0:0:0:
42,192,145315,1,8,0:0:0:0:
469,192,145667,128,2,146020:0:0:0:0:
128,192,145667,1,0,0:0:0:0:
384,192,146020,128,2,146373:0:0:0:0:
213,192,146020,1,8,0:0:0:0:
128,192,146197,1,2,0:0:0:0:
298,192,146373,128,2,146726:0:0:0:0:
42,192,146373,1,0,0:0:0:0:
128,192,146726,128,2,147079:0:0:0:0:
469,192,146726,1,8,0:0:0:0:
384,192,146903,1,2,0:0:0:0:
42,192,147079,128,2,147785:0:0:0:0:
298,192,147079,1,0,0:0:0:0:
384,192,147432,1,2,0:0:0:0:
128,192,147432,1,8,0:0:0:0:
213,192,147785,1,2,0:0:0:0:
469,192,147785,1,0,0:0:0:0:
298,192,147962,1,2,0:0:0:0:
213,192,148050,1,2,0:0:0:0:
128,192,148138,1,2,0:0:0:0:
384,192,148138,1,8,0:0:0:0:
213,192,148315,1,2,0:0:0:0:
128,192,148403,1,2,0:0:0:0:
298,192,148491,128,2,148844:0:0:0:0:
42,192,148491,1,0,0:0:0:0:
469,192,148844,128,8,149197:0:0:0:0:
128,192,148844,1,2,0:0:0:0:
42,192,149020,1,2,0:0:0:0:
213,192,149197,128,2,149550:0:0:0:0:
298,192,149197,1,0,0:0:0:0:
42,192,149550,128,2,149903:0:0:0:0:
384,192,149550,1,8,0:0:0:0:
128,192,149903,128,2,150609:0:0:0:0:
298,192,149903,1,0,0:0:0:0:
469,192,150256,1,8,0:0:0:0:
384,192,150256,1,2,0:0:0:0:
298,192,150432,1,2,0:0:0:0:
213,192,150609,128,2,151315:0:0:0:0:
42,192,150609,1,0,0:0:0:0:
128,192,150962,1,2,0:0:0:0:
384,192,150962,1,8,0:0:0:0:
42,192,151315,1,2,0:0:0:0:
469,192,151315,128,0,153432:0:0:0:0:
213,192,151667,1,8,0:0:0:0:
128,192,151667,1,2,0:0:0:0:
42,192,151844,1,2,0:0:0:0:
298,192,152020,1,2,0:0:0:0:
213,192,152020,1,0,0:0:0:0:
384,192,152373,1,2,0:0:0:0:
128,192,152373,1,8,0:0:0:0:
213,192,152550,1,2,0:0:0:0:
42,192,152726,1,2,0:0:0:0:
298,192,152726,1,0,0:0:0:0:
128,192,153079,1,8,0:0:0:0:
384,192,153079,1,2,0:0:0:0:
42,192,153432,1,2,0:0:0:0:
298,192,153432,1,0,0:0:0:0:
128,192,153609,1,2,0:0:0:0:
213,192,153697,1,2,0:0:0:0:
298,192,153785,1,8,0:0:0:0:
469,192,153785,1,2,0:0:0:0:
213,192,153962,1,2,0:0:0:0:
298,192,154050,1,2,0:0:0:0:
384,192,154138,128,2,154491:0:0:0:0:
128,192,154138,1,0,0:0:0:50:LR_CymbalWSD.wav
298,192,154491,128,2,154844:0:0:0:0:
42,192,154491,1,8,0:0:0:0:
213,192,154844,128,2,155197:0:0:0:0:
469,192,154844,1,0,0:0:0:0:
298,192,155197,1,2,0:0:0:0:
384,192,155197,128,8,155550:0:0:0:0:
128,192,155550,128,2,156256:0:0:0:0:
469,192,155550,1,0,0:0:0:0:
298,192,155903,1,2,0:0:0:0:
469,192,155903,1,8,0:0:0:0:
213,192,156256,128,2,156962:0:0:0:0:
42,192,156256,1,0,0:0:0:0:
469,192,156609,1,2,0:0:0:0:
128,192,156609,1,8,0:0:0:0:
298,192,156785,1,2,0:0:0:0:
384,192,156962,128,2,157667:0:0:0:0:
42,192,156962,1,0,0:0:0:0:
213,192,157315,1,2,0:0:0:0:
469,192,157315,1,8,0:0:0:0:
298,192,157667,128,2,158373:0:0:0:0:
128,192,157667,1,0,0:0:0:0:
42,192,158020,1,2,0:0:0:0:
213,192,158020,1,8,0:0:0:0:
469,192,158373,128,2,159079:0:0:0:0:
384,192,158373,1,0,0:0:0:0:
213,192,158726,1,2,0:0:0:0:
298,192,158726,1,8,0:0:0:0:
384,192,159079,1,2,0:0:0:0:
42,192,159079,128,0,159432:0:0:0:50:LR_CymbalWSD.wav
128,192,159432,128,2,159785:0:0:0:0:
298,192,159432,1,8,0:0:0:0:
384,192,159609,1,2,0:0:0:0:
298,192,159785,128,2,160138:0:0:0:0:
469,192,159785,1,0,0:0:0:0:
213,192,160138,128,8,160491:0:0:0:0:
42,192,160138,1,2,0:0:0:0:
384,192,160491,128,2,160844:0:0:0:0:
298,192,160491,1,0,0:0:0:0:
128,192,160844,1,2,0:0:0:0:
469,192,160844,128,8,161197:0:0:0:0:
298,192,161197,128,2,161550:0:0:0:0:
42,192,161197,1,0,0:0:0:50:LR_CymbalWSD.wav
213,192,161550,128,8,161903:0:0:0:0:
469,192,161550,1,2,0:0:0:0:
42,192,161903,128,2,162256:0:0:0:0:
384,192,161903,1,0,0:0:0:0:
298,192,162256,1,2,0:0:0:0:
128,192,162256,128,8,162609:0:0:0:0:
384,192,162432,1,2,0:0:0:0:
469,192,162609,1,2,0:0:0:0:
213,192,162609,128,0,165079:0:0:0:0:
42,192,162962,1,8,0:0:0:0:
384,192,162962,1,2,0:0:0:0:
128,192,163315,1,2,0:0:0:0:
469,192,163315,1,0,0:0:0:0:
42,192,163667,1,2,0:0:0:0:
384,192,163667,1,8,0:0:0:0:
469,192,164020,1,2,0:0:0:0:
298,192,164020,1,0,0:0:0:0:
128,192,164197,1,2,0:0:0:0:
469,192,164373,1,8,0:0:0:0:
298,192,164373,1,2,0:0:0:0:
42,192,164550,1,2,0:0:0:0:
469,192,164726,1,2,0:0:0:0:
298,192,164726,1,0,0:0:0:0:
128,192,164903,1,2,0:0:0:0:
469,192,165079,128,8,165432:0:0:0:0:
42,192,165079,128,2,165432:0:0:0:0:
384,192,165432,128,2,165785:0:0:0:0:
128,192,165432,1,0,0:0:0:50:LR_CymbalWSD.wav
298,192,165785,128,8,166138:0:0:0:0:
42,192,165785,1,2,0:0:0:0:
213,192,166138,128,2,166491:0:0:0:0:
469,192,166138,1,0,0:0:0:0:
128,192,166491,128,2,166844:0:0:0:0:
384,192,166491,1,8,0:0:0:0:
42,192,166844,128,2,167197:0:0:0:0:
384,192,166844,1,0,0:0:0:0:
128,192,167197,128,8,167550:0:0:0:0:
469,192,167197,1,2,0:0:0:0:
213,192,167550,128,2,167903:0:0:0:0:
384,192,167550,1,0,0:0:0:0:
298,192,167903,128,2,168256:0:0:0:0:
42,192,167903,1,8,0:0:0:0:
469,192,168256,128,2,170373:0:0:0:0:
128,192,168256,1,0,0:0:0:0:
213,192,168609,1,8,0:0:0:0:
384,192,168609,1,2,0:0:0:0:
128,192,168962,1,2,0:0:0:0:
42,192,168962,1,0,0:0:0:0:
384,192,169315,1,2,0:0:0:0:
213,192,169315,1,8,0:0:0:0:
298,192,169667,1,2,0:0:0:0:
42,192,169667,1,0,0:0:0:50:LR_CymbalWSD.wav
213,192,169844,1,2,0:0:0:0:
128,192,170020,1,8,0:0:0:0:
384,192,170020,1,2,0:0:0:0:
298,192,170197,1,2,0:0:0:0:
42,192,170373,1,2,0:0:0:0:
213,192,170373,1,0,0:0:0:50:LR_CymbalWSD.wav
469,192,170550,1,2,0:0:0:0:
298,192,170550,1,0,0:0:0:0:
42,192,170726,1,8,0:0:0:0:
128,192,170815,1,2,0:0:0:0:
384,192,170903,1,2,0:0:0:0:
298,192,170991,1,2,0:0:0:0:
213,192,171079,1,2,0:0:0:0:
42,192,171079,1,0,0:0:0:50:LR_CymbalWSD.wav
