osu file format v14

[General]
AudioFilename: audio.mp3
AudioLeadIn: 0
PreviewTime: 120256
Countdown: 0
SampleSet: Soft
StackLeniency: 0.7
Mode: 3
LetterboxInBreaks: 0
SpecialStyle: 0
WidescreenStoryboard: 0

[Editor]
Bookmarks: 1668,25667,48256,69432,72256,142844,143815,151315,153079
DistanceSpacing: 0.8
BeatDivisor: 8
GridSize: 16
TimelineZoom: 2

[Metadata]
Title:Wind Island
TitleUnicode:风屿
Artist:Y..J
ArtistUnicode:闫东炜
Creator:Seiran-
Version:6K Light
Source:Dynamix
Tags:原创音乐 节奏游戏 洛天依 钢琴 electronic piano vgm ost original soundtrack rhythm Vocaloid Luo Tianyi ルォ・テンイ [Crz]Alleyne [RT]Alleyne [Emiria] victorica_db biemote McEndu dudehacker Drum-Hitnormal video game instrumental MaiZang 乐动时代 Dynamix Phigros Dance Rail TsumaMia! HiFive
BeatmapID:3005034
BeatmapSetID:1462834

[Difficulty]
HPDrainRate:8.5
CircleSize:6
OverallDifficulty:8.5
ApproachRate:5
SliderMultiplier:1.4
SliderTickRate:1

[Events]
//Background and Video events
0,0,"WindIsland1.jpg",0,0
//Break Periods
//Storyboard Layer 0 (Background)
//Storyboard Layer 1 (Fail)
//Storyboard Layer 2 (Pass)
//Storyboard Layer 3 (Foreground)
//Storyboard Layer 4 (Overlay)
//Storyboard Sound Samples

[TimingPoints]
1668,352.941176470588,4,2,1,20,1,0
1668,-133.333333333333,4,2,1,20,0,0
3785,-166.666666666667,4,2,1,20,0,0
4491,-133.333333333333,4,2,1,20,0,0
5197,-166.666666666667,4,2,1,20,0,0
5903,-133.333333333333,4,2,1,20,0,0
6609,-166.666666666667,4,2,1,20,0,0
7315,-133.333333333333,4,2,1,20,0,0
15079,-166.666666666667,4,2,1,20,0,0
15785,-133.333333333333,4,2,1,20,0,0
20726,-166.666666666667,4,2,1,20,0,0
22844,-200,4,2,1,20,0,0
24256,-100,4,2,1,20,0,0
36256,-66.6666666666667,4,2,1,20,0,0
36432,-200,4,2,1,20,0,0
36609,-125,4,2,1,20,0,0
36785,-83.3333333333333,4,2,1,20,0,0
36962,-100,4,2,1,20,0,0
39785,-80,4,2,1,20,0,0
39873,-133.333333333333,4,2,1,20,0,0
39962,-80,4,2,1,20,0,0
40050,-133.333333333333,4,2,1,20,0,0
40138,-80,4,2,1,20,0,0
40226,-133.333333333333,4,2,1,20,0,0
40315,-80,4,2,1,20,0,0
40403,-133.333333333333,4,2,1,20,0,0
40491,-100,4,2,1,20,0,0
47550,-125,4,2,1,20,0,0
47682,-83.3333333333333,4,2,1,20,0,0
47903,-166.666666666667,4,2,1,20,0,0
47991,-71.4285714285714,4,2,1,20,0,0
48079,-142.857142857143,4,2,1,20,0,0
48167,-125,4,2,1,20,0,0
48256,-100,4,2,1,20,0,0
70844,-111.111111111111,4,2,1,20,0,0
71550,-117.647058823529,4,2,1,20,0,0
71903,-71.4285714285714,4,2,1,20,0,0
72079,-166.666666666667,4,2,1,20,0,0
72256,-100,4,2,1,20,0,0
82844,-66.6666666666667,4,2,1,20,0,0
83020,-200,4,2,1,20,0,0
83197,-125,4,2,1,20,0,0
83373,-83.3333333333333,4,2,1,20,0,0
83550,-100,4,2,1,20,0,0
96256,-133.333333333333,4,2,1,20,0,0
118844,-166.666666666667,4,2,1,20,0,0
119550,-100,4,2,1,20,0,0
120256,-100,4,2,1,20,0,1
171079,-100,4,2,1,20,0,0

[HitObjects]
469,192,1668,5,0,0:0:0:0:
213,192,1668,1,0,0:0:0:0:
128,192,2020,1,0,0:0:0:0:
298,192,2373,1,0,0:0:0:0:
469,192,2726,1,0,0:0:0:0:
42,192,3079,1,0,0:0:0:0:
384,192,3079,1,0,0:0:0:0:
128,192,3432,1,0,0:0:0:0:
213,192,3785,1,0,0:0:0:0:
469,192,3785,1,0,0:0:0:0:
298,192,4491,1,0,0:0:0:0:
448,192,4491,1,0,0:0:0:0:
192,192,4844,1,0,0:0:0:0:
128,192,5197,1,0,0:0:0:0:
384,192,5197,1,0,0:0:0:0:
42,192,5903,1,0,0:0:0:0:
298,192,5903,1,0,0:0:0:0:
213,192,6256,1,0,0:0:0:0:
469,192,6609,1,0,0:0:0:0:
298,192,6609,1,0,0:0:0:0:
128,192,7315,1,0,0:0:0:0:
384,192,7315,1,0,0:0:0:0:
298,192,7667,1,0,0:0:0:0:
213,192,8020,1,0,0:0:0:0:
42,192,8373,1,0,0:0:0:0:
298,192,8373,1,0,0:0:0:0:
128,192,8550,1,0,0:0:0:0:
213,192,8726,1,0,0:0:0:0:
469,192,8726,1,0,0:0:0:0:
298,192,9079,1,0,0:0:0:0:
213,192,9432,1,0,0:0:0:0:
469,192,9785,1,0,0:0:0:0:
128,192,9785,1,0,0:0:0:0:
384,192,9962,1,0,0:0:0:0:
298,192,10138,1,0,0:0:0:0:
42,192,10138,1,0,0:0:0:0:
128,192,10491,1,0,0:0:0:0:
213,192,10844,1,0,0:0:0:0:
384,192,11197,1,0,0:0:0:0:
42,192,11197,1,0,0:0:0:0:
128,192,11373,1,0,0:0:0:0:
213,192,11550,1,0,0:0:0:0:
469,192,11550,1,0,0:0:0:0:
384,192,11903,1,0,0:0:0:0:
298,192,12256,1,0,0:0:0:0:
213,192,12609,1,0,0:0:0:0:
298,192,12962,1,0,0:0:0:0:
42,192,12962,1,0,0:0:0:0:
128,192,13315,1,0,0:0:0:0:
384,192,13315,1,0,0:0:0:0:
213,192,13667,1,0,0:0:0:0:
384,192,14020,1,0,0:0:0:0:
128,192,14020,1,0,0:0:0:0:
320,192,14373,1,0,0:0:0:0:
64,192,14373,1,0,0:0:0:0:
128,192,14726,1,0,0:0:0:0:
213,192,15079,1,0,0:0:0:0:
469,192,15079,1,0,0:0:0:0:
64,192,15785,1,0,0:0:0:0:
298,192,15785,1,0,0:0:0:0:
384,192,16138,1,0,0:0:0:0:
128,192,16138,1,0,0:0:0:0:
469,192,16491,1,0,0:0:0:0:
213,192,16491,1,0,0:0:0:0:
42,192,16844,1,0,0:0:0:0:
298,192,17197,1,0,0:0:0:0:
469,192,17197,1,0,0:0:0:0:
213,192,17550,1,0,0:0:0:0:
128,192,17903,1,0,0:0:0:0:
469,192,18256,1,0,0:0:0:0:
213,192,18256,1,0,0:0:0:0:
128,192,18609,1,0,0:0:0:0:
384,192,18609,1,0,0:0:0:0:
42,192,18962,1,0,0:0:0:0:
298,192,18962,1,0,0:0:0:0:
469,192,19315,1,0,0:0:0:0:
298,192,19315,1,0,0:0:0:0:
128,192,19667,1,0,0:0:0:0:
213,192,20020,1,0,0:0:0:0:
42,192,20020,1,0,0:0:0:0:
298,192,20373,1,0,0:0:0:0:
128,192,20726,1,0,0:0:0:0:
384,192,20726,1,0,0:0:0:0:
64,192,21432,1,0,0:0:0:0:
213,192,21432,1,0,0:0:0:0:
384,192,21432,1,0,0:0:0:0:
128,192,22138,1,0,0:0:0:0:
298,192,22138,1,0,0:0:0:0:
469,192,22138,1,0,0:0:0:0:
213,192,22844,1,0,0:0:0:0:
384,192,22844,1,0,0:0:0:0:
469,192,22844,1,0,0:0:0:0:
384,192,25667,1,2,0:0:0:0:
42,192,25667,1,4,0:0:0:0:
469,192,25667,1,0,0:0:0:0:
298,192,25667,1,0,0:0:0:0:
213,192,25667,1,0,0:0:0:0:
469,192,26020,1,8,0:0:0:0:
128,192,26020,1,2,0:0:0:0:
298,192,26020,1,0,0:0:0:0:
42,192,26020,1,0,0:0:0:0:
384,192,26020,1,0,0:0:0:0:
64,192,26373,1,2,0:0:0:0:
384,192,26373,1,0,0:0:0:0:
213,192,26373,1,0,0:0:0:0:
384,192,26550,1,0,0:0:0:0:
213,192,26550,1,0,0:0:0:0:
448,192,26726,1,8,0:0:0:0:
128,192,26726,1,2,0:0:0:0:
298,192,26726,1,0,0:0:0:0:
42,192,26726,1,0,0:0:0:0:
298,192,26903,1,0,0:0:0:0:
128,192,26903,1,0,0:0:0:0:
42,192,27079,1,2,0:0:0:0:
213,192,27079,1,0,0:0:0:0:
469,192,27079,1,0,0:0:0:0:
469,192,27432,1,8,0:0:0:0:
213,192,27432,1,2,0:0:0:0:
42,192,27432,1,0,0:0:0:0:
298,192,27432,1,0,0:0:0:0:
384,192,27785,1,2,0:0:0:0:
42,192,27785,1,0,0:0:0:0:
213,192,27785,1,0,0:0:0:0:
469,192,27962,1,0,0:0:0:0:
298,192,27962,1,0,0:0:0:0:
298,192,28138,1,8,0:0:0:0:
469,192,28138,1,2,0:0:0:0:
42,192,28138,1,0,0:0:0:0:
213,192,28138,1,0,0:0:0:0:
213,192,28315,1,0,0:0:0:0:
42,192,28315,1,0,0:0:0:0:
298,192,28491,1,2,0:0:0:0:
384,192,28491,1,0,0:0:0:0:
128,192,28491,1,0,0:0:0:0:
213,192,28667,1,0,0:0:0:0:
384,192,28667,1,0,0:0:0:0:
42,192,28844,1,8,0:0:0:0:
213,192,28844,1,2,0:0:0:0:
469,192,28844,1,0,0:0:0:0:
298,192,28844,1,0,0:0:0:0:
213,192,29020,1,0,0:0:0:0:
384,192,29020,1,0,0:0:0:0:
469,192,29197,1,2,0:0:0:0:
42,192,29197,1,0,0:0:0:0:
298,192,29197,1,0,0:0:0:0:
213,192,29373,1,0,0:0:0:0:
42,192,29373,1,0,0:0:0:0:
64,192,29550,1,8,0:0:0:0:
469,192,29550,1,2,0:0:0:0:
298,192,29550,1,0,0:0:0:0:
213,192,29550,1,0,0:0:0:0:
384,192,29726,1,0,0:0:0:0:
128,192,29726,1,0,0:0:0:0:
213,192,29815,1,0,0:0:0:0:
469,192,29815,1,0,0:0:0:0:
128,192,29903,1,2,0:0:0:0:
42,192,29903,1,0,0:0:0:0:
298,192,29903,1,0,0:0:0:0:
384,192,30079,1,0,0:0:0:0:
64,192,30256,1,8,0:0:0:0:
213,192,30256,1,2,0:0:0:0:
298,192,30256,1,0,0:0:0:0:
469,192,30256,1,0,0:0:0:0:
128,192,30432,1,0,0:0:0:0:
298,192,30609,1,2,0:0:0:0:
469,192,30609,1,0,0:0:0:0:
42,192,30609,1,0,0:0:0:0:
384,192,30785,1,0,0:0:0:0:
128,192,30785,1,0,0:0:0:0:
469,192,30873,1,0,0:0:0:0:
213,192,30873,1,0,0:0:0:0:
128,192,30962,1,8,0:0:0:0:
298,192,30962,1,2,0:0:0:0:
42,192,30962,1,0,0:0:0:0:
469,192,31050,1,0,0:0:0:0:
213,192,31050,1,0,0:0:0:0:
384,192,31138,1,0,0:0:0:0:
128,192,31138,1,0,0:0:0:0:
298,192,31226,1,0,0:0:0:0:
42,192,31226,1,0,0:0:0:0:
384,192,31315,1,2,0:0:0:0:
213,192,31315,1,0,0:0:0:0:
469,192,31315,1,0,0:0:0:0:
298,192,31491,1,0,0:0:0:0:
128,192,31491,1,0,0:0:0:0:
64,192,31667,1,8,0:0:0:0:
128,192,31667,1,2,0:0:0:0:
469,192,31667,1,0,0:0:0:0:
298,192,31667,1,0,0:0:0:0:
213,192,31844,1,0,0:0:0:0:
384,192,31844,1,0,0:0:0:0:
42,192,32020,1,2,0:0:0:0:
469,192,32020,1,0,0:0:0:0:
298,192,32020,1,0,0:0:0:0:
298,192,32197,1,0,0:0:0:0:
128,192,32197,1,0,0:0:0:0:
64,192,32373,1,8,0:0:0:0:
384,192,32373,1,2,0:0:0:0:
469,192,32373,1,0,0:0:0:0:
213,192,32373,1,0,0:0:0:0:
384,192,32550,1,0,0:0:0:0:
213,192,32550,1,0,0:0:0:0:
298,192,32726,1,2,0:0:0:0:
42,192,32726,1,0,0:0:0:0:
469,192,32726,1,0,0:0:0:0:
128,192,32903,1,0,0:0:0:0:
469,192,33079,1,8,0:0:0:0:
213,192,33079,1,2,0:0:0:0:
42,192,33079,1,0,0:0:0:0:
384,192,33079,1,0,0:0:0:0:
298,192,33256,1,0,0:0:0:0:
213,192,33432,1,2,0:0:0:0:
42,192,33432,1,0,0:0:0:0:
469,192,33432,1,0,0:0:0:0:
298,192,33609,1,0,0:0:0:0:
128,192,33609,1,0,0:0:0:0:
384,192,33609,1,0,0:0:0:0:
448,192,33785,1,8,0:0:0:0:
64,192,33785,1,2,0:0:0:0:
213,192,33785,1,0,0:0:0:0:
384,192,33785,1,0,0:0:0:0:
42,192,33962,1,0,0:0:0:0:
298,192,33962,1,0,0:0:0:0:
469,192,33962,1,0,0:0:0:0:
298,192,34138,1,2,0:0:0:0:
469,192,34138,1,0,0:0:0:0:
213,192,34138,1,0,0:0:0:0:
128,192,34315,1,0,0:0:0:0:
213,192,34491,1,8,0:0:0:0:
469,192,34491,1,2,0:0:0:0:
42,192,34491,1,0,0:0:0:0:
384,192,34491,1,0,0:0:0:0:
298,192,34667,1,0,0:0:0:0:
128,192,34844,1,2,0:0:0:0:
469,192,34844,1,0,0:0:0:0:
42,192,34844,1,0,0:0:0:0:
384,192,35020,1,0,0:0:0:0:
213,192,35020,1,0,0:0:0:0:
64,192,35197,1,8,0:0:0:0:
469,192,35197,1,2,0:0:0:0:
298,192,35197,1,0,0:0:0:0:
128,192,35197,1,0,0:0:0:0:
384,192,35373,1,0,0:0:0:0:
213,192,35373,1,0,0:0:0:0:
469,192,35550,1,2,0:0:0:0:
298,192,35550,1,0,0:0:0:0:
42,192,35550,1,0,0:0:0:0:
213,192,35726,1,0,0:0:0:0:
469,192,35903,1,8,0:0:0:0:
42,192,35903,1,2,0:0:0:0:
128,192,35903,1,0,0:0:0:0:
384,192,35903,1,0,0:0:0:0:
213,192,36079,1,0,0:0:0:0:
384,192,36256,1,2,0:0:0:0:
42,192,36256,1,0,0:0:0:0:
298,192,36256,1,0,0:0:0:0:
213,192,36609,1,8,0:0:0:0:
448,192,36609,1,2,0:0:0:0:
384,192,36609,1,0,0:0:0:0:
42,192,36609,1,0,0:0:0:0:
64,192,36962,1,2,0:0:0:0:
128,192,36962,1,4,0:0:0:0:
469,192,36962,1,0,0:0:0:0:
213,192,36962,1,0,0:0:0:0:
298,192,36962,1,0,0:0:0:0:
384,192,37138,1,0,0:0:0:0:
128,192,37138,1,0,0:0:0:0:
384,192,37226,1,0,0:0:0:0:
64,192,37315,1,8,0:0:0:0:
213,192,37315,1,2,0:0:0:0:
469,192,37315,1,0,0:0:0:0:
298,192,37315,1,0,0:0:0:0:
128,192,37491,1,0,0:0:0:0:
384,192,37491,1,0,0:0:0:0:
128,192,37579,1,0,0:0:0:0:
469,192,37667,1,2,0:0:0:0:
42,192,37667,1,0,0:0:0:0:
298,192,37667,1,0,0:0:0:0:
128,192,37844,1,0,0:0:0:0:
213,192,37932,1,0,0:0:0:0:
384,192,37932,1,0,0:0:0:0:
64,192,38020,1,8,0:0:0:0:
128,192,38020,1,2,0:0:0:0:
298,192,38020,1,0,0:0:0:0:
469,192,38020,1,0,0:0:0:0:
384,192,38197,1,0,0:0:0:0:
128,192,38197,1,0,0:0:0:0:
384,192,38285,1,0,0:0:0:0:
448,192,38373,1,2,0:0:0:0:
192,192,38373,1,0,0:0:0:0:
42,192,38373,1,0,0:0:0:0:
128,192,38550,1,0,0:0:0:0:
384,192,38550,1,0,0:0:0:0:
128,192,38638,1,0,0:0:0:0:
64,192,38726,1,8,0:0:0:0:
469,192,38726,1,2,0:0:0:0:
213,192,38726,1,0,0:0:0:0:
298,192,38726,1,0,0:0:0:0:
384,192,38903,1,0,0:0:0:0:
213,192,38903,1,0,0:0:0:0:
448,192,39079,1,2,0:0:0:0:
128,192,39079,1,0,0:0:0:0:
42,192,39079,1,0,0:0:0:0:
128,192,39167,1,0,0:0:0:0:
42,192,39167,1,0,0:0:0:0:
384,192,39256,1,0,0:0:0:0:
469,192,39256,1,0,0:0:0:0:
469,192,39344,1,0,0:0:0:0:
384,192,39344,1,0,0:0:0:0:
298,192,39432,1,8,0:0:0:0:
42,192,39432,1,2,0:0:0:0:
128,192,39432,1,0,0:0:0:0:
213,192,39432,1,0,0:0:0:0:
213,192,39520,1,0,0:0:0:0:
42,192,39520,1,0,0:0:0:0:
298,192,39609,1,0,0:0:0:0:
469,192,39609,1,0,0:0:0:0:
298,192,39697,1,0,0:0:0:0:
469,192,39697,1,0,0:0:0:0:
64,192,39785,1,2,0:0:0:0:
384,192,39785,1,0,0:0:0:0:
128,192,39785,1,0,0:0:0:0:
213,192,39785,1,0,0:0:0:0:
298,192,39962,1,0,0:0:0:0:
469,192,39962,1,0,0:0:0:0:
128,192,39962,1,0,0:0:0:0:
448,192,40138,1,8,0:0:0:0:
384,192,40138,1,2,0:0:0:0:
213,192,40138,1,0,0:0:0:0:
42,192,40138,1,0,0:0:0:0:
469,192,40315,1,0,0:0:0:0:
128,192,40315,1,0,0:0:0:0:
298,192,40315,1,0,0:0:0:0:
384,192,40491,1,2,0:0:0:0:
128,192,40491,1,0,0:0:0:0:
213,192,40491,1,0,0:0:0:0:
42,192,40491,1,0,0:0:0:0:
298,192,40667,1,0,0:0:0:0:
469,192,40667,1,0,0:0:0:0:
42,192,40844,1,8,0:0:0:0:
128,192,40844,1,2,0:0:0:0:
384,192,40844,1,0,0:0:0:0:
213,192,40844,1,0,0:0:0:0:
298,192,41020,1,0,0:0:0:0:
128,192,41020,1,0,0:0:0:0:
469,192,41197,1,2,0:0:0:0:
42,192,41197,1,0,0:0:0:0:
213,192,41197,1,0,0:0:0:0:
298,192,41373,1,0,0:0:0:0:
64,192,41550,1,8,0:0:0:0:
384,192,41550,1,2,0:0:0:0:
213,192,41550,1,0,0:0:0:0:
469,192,41550,1,0,0:0:0:0:
213,192,41726,1,0,0:0:0:0:
42,192,41726,1,0,0:0:0:0:
128,192,41903,1,2,0:0:0:0:
298,192,41903,1,0,0:0:0:0:
469,192,41903,1,0,0:0:0:0:
384,192,42079,1,0,0:0:0:0:
64,192,42256,1,8,0:0:0:0:
128,192,42256,1,2,0:0:0:0:
448,192,42256,1,0,0:0:0:0:
298,192,42256,1,0,0:0:0:0:
213,192,42432,1,0,0:0:0:0:
384,192,42609,1,2,0:0:0:0:
469,192,42609,1,0,0:0:0:0:
42,192,42609,1,0,0:0:0:0:
128,192,42785,1,0,0:0:0:0:
384,192,42962,1,8,0:0:0:0:
448,192,42962,1,2,0:0:0:0:
42,192,42962,1,0,0:0:0:0:
298,192,42962,1,0,0:0:0:0:
128,192,43138,1,0,0:0:0:0:
213,192,43138,1,0,0:0:0:0:
469,192,43315,1,2,0:0:0:0:
64,192,43315,1,0,0:0:0:0:
298,192,43315,1,0,0:0:0:0:
128,192,43491,1,0,0:0:0:0:
384,192,43491,1,0,0:0:0:0:
42,192,43667,1,8,0:0:0:0:
448,192,43667,1,2,0:0:0:0:
320,192,43667,1,0,0:0:0:0:
213,192,43667,1,0,0:0:0:0:
448,192,43844,1,0,0:0:0:0:
384,192,43844,1,0,0:0:0:0:
384,192,44020,1,2,0:0:0:0:
42,192,44020,1,0,0:0:0:50:LR_CymbalWSD.wav
469,192,44020,1,0,0:0:0:0:
213,192,44020,1,0,0:0:0:0:
128,192,44020,1,0,0:0:0:0:
213,192,44197,1,0,0:0:0:0:
42,192,44197,1,0,0:0:0:0:
320,192,44373,1,8,0:0:0:0:
448,192,44373,1,2,0:0:0:0:
128,192,44373,1,0,0:0:0:0:
384,192,44373,1,0,0:0:0:0:
298,192,44550,1,0,0:0:0:0:
384,192,44638,1,0,0:0:0:0:
213,192,44726,1,2,0:0:0:0:
469,192,44726,1,0,0:0:0:0:
42,192,44726,1,0,0:0:0:0:
298,192,44903,1,0,0:0:0:0:
192,192,45079,1,8,0:0:0:0:
64,192,45079,1,2,0:0:0:0:
448,192,45079,1,0,0:0:0:0:
384,192,45079,1,0,0:0:0:0:
213,192,45256,1,0,0:0:0:0:
42,192,45256,1,0,0:0:0:0:
384,192,45432,1,2,0:0:0:0:
469,192,45432,1,0,0:0:0:0:
128,192,45432,1,0,0:0:0:0:
128,192,45609,1,0,0:0:0:0:
384,192,45609,1,0,0:0:0:0:
448,192,45785,1,8,0:0:0:0:
64,192,45785,1,2,0:0:0:0:
213,192,45785,1,0,0:0:0:0:
298,192,45785,1,0,0:0:0:0:
384,192,45962,1,0,0:0:0:0:
192,192,46138,1,2,0:0:0:0:
469,192,46138,1,0,0:0:0:0:
42,192,46138,1,0,0:0:0:0:
298,192,46315,1,0,0:0:0:0:
64,192,46491,1,8,0:0:0:0:
448,192,46491,1,2,0:0:0:0:
384,192,46491,1,0,0:0:0:0:
213,192,46491,1,0,0:0:0:0:
298,192,46667,1,0,0:0:0:0:
128,192,46667,1,0,0:0:0:0:
213,192,46844,1,2,0:0:0:0:
469,192,46844,1,0,0:0:0:0:
384,192,46844,1,0,0:0:0:0:
128,192,47020,1,0,0:0:0:0:
298,192,47020,1,0,0:0:0:0:
64,192,47197,1,8,0:0:0:0:
384,192,47197,1,2,0:0:0:0:
469,192,47197,1,0,0:0:0:0:
213,192,47197,1,0,0:0:0:0:
298,192,47373,1,0,0:0:0:0:
64,192,47550,5,0,0:0:0:0:
128,192,47550,1,0,0:0:0:0:
128,192,47815,1,0,0:0:0:0:
42,192,47815,1,0,0:0:0:0:
320,192,47903,1,0,0:0:0:0:
448,192,47903,1,0,0:0:0:0:
320,192,48079,1,0,0:0:0:0:
469,192,48079,1,0,0:0:0:0:
64,192,48256,1,2,0:0:0:0:
128,192,48256,1,4,0:0:0:0:
384,192,48256,1,0,0:0:0:0:
213,192,48256,1,0,0:0:0:0:
469,192,48256,1,0,0:0:0:0:
298,192,48432,1,0,0:0:0:0:
448,192,48609,1,8,0:0:0:0:
384,192,48609,1,2,0:0:0:0:
42,192,48609,1,0,0:0:0:0:
213,192,48609,1,0,0:0:0:0:
128,192,48785,1,0,0:0:0:0:
384,192,48962,1,2,0:0:0:0:
213,192,48962,1,0,0:0:0:0:
42,192,48962,1,0,0:0:0:0:
469,192,49138,1,0,0:0:0:0:
213,192,49226,1,2,0:0:0:0:
42,192,49226,1,0,0:0:0:0:
298,192,49315,1,8,0:0:0:0:
384,192,49315,1,2,0:0:0:0:
469,192,49315,1,0,0:0:0:0:
128,192,49315,1,0,0:0:0:0:
213,192,49491,1,0,0:0:0:0:
64,192,49667,1,2,0:0:0:0:
298,192,49667,1,0,0:0:0:0:
469,192,49667,1,0,0:0:0:0:
128,192,49844,1,0,0:0:0:0:
64,192,50020,1,8,0:0:0:0:
448,192,50020,1,2,0:0:0:0:
384,192,50020,1,0,0:0:0:0:
213,192,50020,1,0,0:0:0:0:
469,192,50197,1,0,0:0:0:0:
213,192,50197,1,0,0:0:0:0:
384,192,50373,1,2,0:0:0:0:
42,192,50373,1,0,0:0:0:0:
128,192,50373,1,0,0:0:0:0:
298,192,50550,1,0,0:0:0:0:
384,192,50726,1,8,0:0:0:0:
64,192,50726,1,2,0:0:0:0:
213,192,50726,1,0,0:0:0:0:
469,192,50726,1,0,0:0:0:0:
213,192,50903,1,2,0:0:0:0:
42,192,50903,1,0,0:0:0:0:
448,192,51079,1,2,0:0:0:0:
298,192,51079,1,0,0:0:0:0:
128,192,51079,1,0,0:0:0:0:
213,192,51256,1,0,0:0:0:0:
448,192,51432,1,8,0:0:0:0:
64,192,51432,1,2,0:0:0:0:
128,192,51432,1,0,0:0:0:0:
298,192,51432,1,0,0:0:0:0:
384,192,51609,1,0,0:0:0:0:
213,192,51609,1,0,0:0:0:0:
128,192,51785,1,2,0:0:0:0:
42,192,51785,1,0,0:0:0:0:
298,192,51785,1,0,0:0:0:0:
384,192,51962,1,0,0:0:0:0:
298,192,52050,1,2,0:0:0:0:
128,192,52050,1,0,0:0:0:0:
384,192,52138,1,8,0:0:0:0:
42,192,52138,1,2,0:0:0:0:
213,192,52138,1,0,0:0:0:0:
469,192,52138,1,0,0:0:0:0:
128,192,52226,1,0,0:0:0:0:
469,192,52315,1,0,0:0:0:0:
298,192,52315,1,0,0:0:0:0:
384,192,52491,1,2,0:0:0:0:
42,192,52491,1,0,0:0:0:0:
128,192,52491,1,0,0:0:0:0:
298,192,52667,1,0,0:0:0:0:
320,192,52844,1,8,0:0:0:0:
448,192,52844,1,2,0:0:0:0:
192,192,52844,1,0,0:0:0:0:
42,192,52844,1,0,0:0:0:0:
128,192,52932,1,0,0:0:0:0:
384,192,52932,1,0,0:0:0:0:
192,192,53020,1,0,0:0:0:0:
469,192,53020,1,0,0:0:0:0:
298,192,53109,1,0,0:0:0:0:
42,192,53109,1,0,0:0:0:0:
213,192,53197,1,2,0:0:0:0:
384,192,53197,1,0,0:0:0:0:
469,192,53197,1,0,0:0:0:0:
298,192,53285,1,0,0:0:0:0:
128,192,53285,1,0,0:0:0:0:
42,192,53373,1,0,0:0:0:0:
469,192,53373,1,0,0:0:0:0:
213,192,53462,1,0,0:0:0:0:
384,192,53462,1,0,0:0:0:0:
298,192,53550,1,8,0:0:0:0:
128,192,53550,1,2,0:0:0:0:
42,192,53550,1,0,0:0:0:0:
469,192,53638,1,0,0:0:0:0:
384,192,53638,1,0,0:0:0:0:
42,192,53726,1,2,0:0:0:0:
213,192,53726,1,0,0:0:0:0:
128,192,53726,1,0,0:0:0:0:
384,192,53815,1,0,0:0:0:0:
469,192,53815,1,0,0:0:0:0:
128,192,53903,1,2,0:0:0:0:
42,192,53903,1,0,0:0:0:0:
298,192,53903,1,0,0:0:0:0:
384,192,54079,1,0,0:0:0:0:
192,192,54256,1,2,0:0:0:0:
64,192,54256,1,8,0:0:0:0:
448,192,54256,1,0,0:0:0:0:
298,192,54256,1,0,0:0:0:0:
128,192,54432,1,0,0:0:0:0:
64,192,54609,1,2,0:0:0:0:
298,192,54609,1,0,0:0:0:0:
469,192,54609,1,0,0:0:0:0:
213,192,54785,1,0,0:0:0:0:
384,192,54873,1,2,0:0:0:0:
128,192,54873,1,0,0:0:0:0:
64,192,54962,1,8,0:0:0:0:
469,192,54962,1,2,0:0:0:0:
213,192,54962,1,0,0:0:0:0:
298,192,54962,1,0,0:0:0:0:
384,192,55138,1,0,0:0:0:0:
128,192,55138,1,0,0:0:0:0:
298,192,55315,1,2,0:0:0:0:
42,192,55315,1,0,0:0:0:0:
469,192,55315,1,0,0:0:0:0:
128,192,55491,1,0,0:0:0:0:
320,192,55667,1,2,0:0:0:0:
448,192,55667,1,8,0:0:0:0:
64,192,55667,1,0,0:0:0:0:
213,192,55667,1,0,0:0:0:0:
384,192,55844,1,0,0:0:0:0:
64,192,56020,1,2,0:0:0:0:
469,192,56020,1,0,0:0:0:0:
213,192,56020,1,0,0:0:0:0:
298,192,56197,1,0,0:0:0:0:
448,192,56285,1,0,0:0:0:0:
384,192,56285,1,0,0:0:0:0:
128,192,56373,1,8,0:0:0:0:
64,192,56373,1,2,0:0:0:0:
298,192,56373,1,0,0:0:0:0:
213,192,56373,1,0,0:0:0:0:
42,192,56550,1,2,0:0:0:0:
384,192,56550,1,0,0:0:0:0:
213,192,56550,1,0,0:0:0:0:
298,192,56726,1,2,0:0:0:0:
448,192,56726,1,0,0:0:0:0:
128,192,56726,1,0,0:0:0:0:
213,192,56903,1,0,0:0:0:0:
64,192,57079,1,2,0:0:0:0:
448,192,57079,1,8,0:0:0:0:
384,192,57079,1,0,0:0:0:0:
128,192,57079,1,0,0:0:0:0:
298,192,57256,1,0,0:0:0:0:
384,192,57432,1,2,0:0:0:0:
64,192,57432,1,0,0:0:0:0:
213,192,57432,1,0,0:0:0:0:
128,192,57609,1,0,0:0:0:0:
298,192,57697,1,2,0:0:0:0:
469,192,57697,1,0,0:0:0:0:
128,192,57785,1,8,0:0:0:0:
42,192,57785,1,2,0:0:0:0:
469,192,57785,1,0,0:0:0:0:
298,192,57785,1,0,0:0:0:0:
213,192,57962,1,0,0:0:0:0:
64,192,58138,1,2,0:0:0:0:
469,192,58138,1,0,0:0:0:0:
213,192,58138,1,0,0:0:0:0:
42,192,58315,1,2,0:0:0:0:
213,192,58315,1,0,0:0:0:0:
384,192,58315,1,0,0:0:0:0:
469,192,58403,1,0,0:0:0:0:
298,192,58403,1,0,0:0:0:0:
64,192,58491,1,2,0:0:0:0:
213,192,58491,1,8,0:0:0:0:
384,192,58491,1,0,0:0:0:0:
128,192,58491,1,0,0:0:0:0:
42,192,58667,1,2,0:0:0:0:
298,192,58667,1,0,0:0:0:0:
469,192,58667,1,0,0:0:0:0:
64,192,58844,1,2,0:0:0:0:
128,192,58844,1,0,0:0:0:0:
469,192,58844,1,0,0:0:0:0:
298,192,58932,1,0,0:0:0:0:
384,192,58932,1,0,0:0:0:0:
64,192,59020,1,2,0:0:0:0:
128,192,59020,1,0,0:0:0:0:
213,192,59020,1,0,0:0:0:0:
384,192,59109,1,0,0:0:0:0:
469,192,59109,1,0,0:0:0:0:
64,192,59197,1,2,0:0:0:0:
128,192,59197,1,8,0:0:0:0:
298,192,59197,1,0,0:0:0:0:
192,192,59285,1,2,0:0:0:0:
384,192,59285,1,0,0:0:0:0:
469,192,59285,1,0,0:0:0:0:
64,192,59373,1,2,0:0:0:0:
298,192,59373,1,0,0:0:0:0:
128,192,59373,1,0,0:0:0:0:
469,192,59462,1,2,0:0:0:0:
384,192,59462,1,0,0:0:0:0:
64,192,59550,1,2,0:0:0:0:
128,192,59550,1,0,0:0:0:50:LR_CymbalWSD.wav
298,192,59550,1,0,0:0:0:0:
213,192,59550,1,0,0:0:0:0:
384,192,59726,1,0,0:0:0:0:
192,192,59903,1,8,0:0:0:0:
64,192,59903,1,2,0:0:0:0:
448,192,59903,1,0,0:0:0:0:
384,192,59903,1,0,0:0:0:0:
128,192,60079,1,0,0:0:0:0:
448,192,60256,1,2,0:0:0:0:
213,192,60256,1,0,0:0:0:0:
298,192,60256,1,0,0:0:0:0:
42,192,60256,1,0,0:0:0:0:
384,192,60432,1,0,0:0:0:0:
213,192,60520,1,2,0:0:0:0:
42,192,60520,1,0,0:0:0:0:
384,192,60609,1,8,0:0:0:0:
64,192,60609,1,2,0:0:0:0:
448,192,60609,1,0,0:0:0:0:
213,192,60609,1,0,0:0:0:0:
298,192,60785,1,0,0:0:0:0:
64,192,60962,1,2,0:0:0:0:
320,192,60962,1,0,0:0:0:0:
128,192,60962,1,0,0:0:0:0:
469,192,60962,1,0,0:0:0:0:
192,192,61138,1,0,0:0:0:0:
64,192,61315,1,8,0:0:0:0:
448,192,61315,1,2,0:0:0:0:
384,192,61315,1,0,0:0:0:0:
213,192,61315,1,0,0:0:0:0:
298,192,61491,1,0,0:0:0:0:
469,192,61491,1,0,0:0:0:0:
469,192,61667,1,2,0:0:0:0:
298,192,61667,1,0,0:0:0:0:
42,192,61667,1,0,0:0:0:0:
128,192,61667,1,0,0:0:0:0:
213,192,61844,1,0,0:0:0:0:
320,192,62020,1,8,0:0:0:0:
448,192,62020,1,2,0:0:0:0:
128,192,62020,1,0,0:0:0:0:
42,192,62020,1,0,0:0:0:0:
192,192,62197,1,2,0:0:0:0:
384,192,62197,1,0,0:0:0:0:
128,192,62197,1,0,0:0:0:0:
64,192,62373,1,2,0:0:0:0:
298,192,62373,1,0,0:0:0:0:
469,192,62373,1,0,0:0:0:0:
213,192,62373,1,0,0:0:0:0:
213,192,62550,1,0,0:0:0:0:
384,192,62550,1,0,0:0:0:0:
469,192,62726,1,8,0:0:0:0:
128,192,62726,1,2,0:0:0:0:
298,192,62726,1,0,0:0:0:0:
42,192,62726,1,0,0:0:0:0:
213,192,62903,1,0,0:0:0:0:
384,192,62903,1,0,0:0:0:0:
384,192,62991,1,0,0:0:0:0:
469,192,63079,1,2,0:0:0:0:
128,192,63079,1,0,0:0:0:0:
298,192,63079,1,0,0:0:0:0:
42,192,63079,1,0,0:0:0:0:
213,192,63256,1,0,0:0:0:0:
469,192,63344,1,2,0:0:0:0:
298,192,63344,1,0,0:0:0:0:
448,192,63432,1,8,0:0:0:0:
128,192,63432,1,2,0:0:0:0:
42,192,63432,1,0,0:0:0:0:
298,192,63432,1,0,0:0:0:0:
128,192,63609,1,0,0:0:0:0:
384,192,63609,1,0,0:0:0:0:
384,192,63697,1,0,0:0:0:0:
320,192,63785,1,2,0:0:0:0:
448,192,63785,1,0,0:0:0:0:
42,192,63785,1,0,0:0:0:0:
128,192,63785,1,0,0:0:0:0:
64,192,63962,1,0,0:0:0:0:
213,192,63962,1,0,0:0:0:0:
192,192,64138,1,8,0:0:0:0:
64,192,64138,1,2,0:0:0:0:
448,192,64138,1,0,0:0:0:0:
384,192,64138,1,0,0:0:0:0:
320,192,64315,1,0,0:0:0:0:
448,192,64315,1,0,0:0:0:0:
64,192,64491,1,2,0:0:0:0:
469,192,64491,1,0,0:0:0:0:
213,192,64491,1,0,0:0:0:0:
384,192,64491,1,0,0:0:0:0:
128,192,64667,1,0,0:0:0:0:
192,192,64844,1,8,0:0:0:0:
64,192,64844,1,2,0:0:0:0:
448,192,64844,1,0,0:0:0:0:
384,192,64844,1,0,0:0:0:0:
448,192,65020,1,2,0:0:0:0:
320,192,65020,1,0,0:0:0:0:
128,192,65020,1,0,0:0:0:0:
64,192,65197,1,2,0:0:0:0:
213,192,65197,1,0,0:0:0:50:LR_CymbalWSD.wav
469,192,65197,1,0,0:0:0:0:
384,192,65197,1,0,0:0:0:0:
128,192,65373,1,0,0:0:0:0:
448,192,65550,1,2,0:0:0:0:
64,192,65550,1,8,0:0:0:0:
192,192,65550,1,0,0:0:0:0:
298,192,65550,1,0,0:0:0:0:
384,192,65726,1,0,0:0:0:0:
128,192,65726,1,0,0:0:0:0:
320,192,65903,1,2,0:0:0:0:
448,192,65903,1,0,0:0:0:0:
42,192,65903,1,0,0:0:0:0:
384,192,66079,1,0,0:0:0:0:
42,192,66167,1,2,0:0:0:0:
213,192,66167,1,0,0:0:0:0:
384,192,66256,1,8,0:0:0:0:
42,192,66256,1,2,0:0:0:0:
213,192,66256,1,0,0:0:0:0:
469,192,66256,1,0,0:0:0:0:
298,192,66432,1,0,0:0:0:0:
192,192,66609,1,2,0:0:0:0:
64,192,66609,1,0,0:0:0:0:
384,192,66609,1,0,0:0:0:0:
469,192,66609,1,0,0:0:0:0:
298,192,66785,1,0,0:0:0:0:
320,192,66962,1,2,0:0:0:0:
448,192,66962,1,8,0:0:0:0:
64,192,66962,1,0,0:0:0:0:
128,192,66962,1,0,0:0:0:0:
213,192,67138,1,0,0:0:0:0:
384,192,67138,1,0,0:0:0:0:
64,192,67315,1,2,0:0:0:0:
128,192,67315,1,0,0:0:0:0:
298,192,67315,1,0,0:0:0:0:
213,192,67491,1,0,0:0:0:0:
298,192,67667,1,8,0:0:0:0:
448,192,67667,1,2,0:0:0:0:
64,192,67667,1,0,0:0:0:0:
128,192,67667,1,0,0:0:0:0:
469,192,67844,1,2,0:0:0:0:
298,192,67844,1,0,0:0:0:0:
128,192,67844,1,0,0:0:0:0:
384,192,68020,1,2,0:0:0:0:
213,192,68020,1,0,0:0:0:0:
469,192,68020,1,0,0:0:0:0:
42,192,68020,1,0,0:0:0:0:
128,192,68197,1,0,0:0:0:0:
213,192,68373,1,2,0:0:0:0:
448,192,68373,1,8,0:0:0:0:
42,192,68373,1,0,0:0:0:0:
384,192,68373,1,0,0:0:0:0:
298,192,68550,1,0,0:0:0:0:
64,192,68726,1,2,0:0:0:0:
128,192,68726,1,0,0:0:0:50:LR_CymbalWSD.wav
298,192,68726,1,0,0:0:0:0:
384,192,68726,1,0,0:0:0:0:
213,192,68903,1,0,0:0:0:0:
298,192,68991,1,2,0:0:0:0:
469,192,68991,1,0,0:0:0:0:
448,192,69079,1,8,0:0:0:0:
298,192,69079,1,2,0:0:0:0:
128,192,69079,1,0,0:0:0:0:
42,192,69079,1,0,0:0:0:0:
128,192,69256,1,0,0:0:0:0:
64,192,69432,1,2,0:0:0:0:
384,192,69432,1,0,0:0:0:0:
469,192,69432,1,0,0:0:0:0:
298,192,69432,1,0,0:0:0:0:
128,192,69520,1,0,0:0:0:0:
192,192,69609,1,2,0:0:0:0:
448,192,69609,1,0,0:0:0:0:
384,192,69609,1,0,0:0:0:0:
128,192,69697,1,0,0:0:0:0:
469,192,69785,1,2,0:0:0:0:
42,192,69785,1,8,0:0:0:0:
384,192,69785,1,0,0:0:0:0:
298,192,69873,1,0,0:0:0:0:
213,192,69962,5,2,0:0:0:0:
128,192,69962,1,0,0:0:0:0:
42,192,69962,1,0,0:0:0:0:
298,192,70050,1,0,0:0:0:0:
448,192,70138,1,2,0:0:0:0:
384,192,70138,1,0,0:0:0:50:LR_CymbalWSD.wav
128,192,70138,1,0,0:0:0:0:
42,192,70138,1,0,0:0:0:0:
298,192,70226,1,0,0:0:0:0:
213,192,70226,1,0,0:0:0:0:
42,192,70315,1,2,0:0:0:0:
384,192,70315,1,0,0:0:0:0:
469,192,70315,1,0,0:0:0:0:
213,192,70403,1,0,0:0:0:0:
128,192,70403,1,0,0:0:0:0:
384,192,70491,1,2,0:0:0:0:
469,192,70491,1,8,0:0:0:0:
298,192,70491,1,0,0:0:0:0:
128,192,70579,1,2,0:0:0:0:
213,192,70579,1,0,0:0:0:0:
42,192,70579,1,0,0:0:0:0:
469,192,70667,1,2,0:0:0:0:
384,192,70667,1,0,0:0:0:0:
298,192,70667,1,0,0:0:0:0:
213,192,70756,1,2,0:0:0:0:
42,192,70756,1,0,0:0:0:0:
128,192,70756,1,0,0:0:0:0:
384,192,70844,1,0,0:0:0:0:
469,192,70844,1,0,0:0:0:0:
298,192,70844,1,0,0:0:0:0:
42,192,70976,1,0,0:0:0:0:
384,192,71020,1,0,0:0:0:0:
213,192,71020,1,0,0:0:0:0:
128,192,71065,1,0,0:0:0:0:
469,192,71109,1,0,0:0:0:0:
213,192,71153,1,0,0:0:0:0:
42,192,71197,1,0,0:0:0:0:
384,192,71197,1,0,0:0:0:0:
298,192,71241,1,0,0:0:0:0:
128,192,71285,1,0,0:0:0:0:
213,192,71373,1,0,0:0:0:0:
469,192,71373,1,0,0:0:0:0:
128,192,71462,1,0,0:0:0:0:
384,192,71550,1,0,0:0:0:0:
42,192,71550,1,0,0:0:0:0:
298,192,71594,1,0,0:0:0:0:
213,192,71638,1,0,0:0:0:0:
128,192,71726,1,0,0:0:0:0:
42,192,71815,1,0,0:0:0:0:
298,192,71859,1,0,0:0:0:0:
448,192,72256,1,2,0:0:0:0:
128,192,72256,1,4,0:0:0:0:
298,192,72256,1,0,0:0:0:0:
42,192,72256,1,0,0:0:0:0:
384,192,72256,1,0,0:0:0:0:
213,192,72432,1,0,0:0:0:0:
128,192,72432,1,0,0:0:0:0:
42,192,72609,1,8,0:0:0:0:
384,192,72609,1,2,0:0:0:0:
469,192,72609,1,0,0:0:0:0:
298,192,72609,1,0,0:0:0:0:
128,192,72697,1,0,0:0:0:0:
213,192,72785,1,0,0:0:0:0:
384,192,72785,1,0,0:0:0:0:
298,192,72873,1,0,0:0:0:0:
469,192,72962,1,2,0:0:0:0:
128,192,72962,1,0,0:0:0:0:
384,192,72962,1,0,0:0:0:0:
213,192,73050,1,0,0:0:0:0:
42,192,73138,1,0,0:0:0:0:
298,192,73138,1,0,0:0:0:0:
128,192,73226,1,0,0:0:0:0:
298,192,73315,1,8,0:0:0:0:
42,192,73315,1,2,0:0:0:0:
469,192,73315,1,0,0:0:0:0:
384,192,73315,1,0,0:0:0:0:
213,192,73403,1,0,0:0:0:0:
128,192,73491,1,0,0:0:0:0:
384,192,73491,1,0,0:0:0:0:
298,192,73579,1,0,0:0:0:0:
42,192,73667,1,2,0:0:0:0:
213,192,73667,1,0,0:0:0:0:
469,192,73667,1,0,0:0:0:0:
128,192,73756,1,0,0:0:0:0:
384,192,73844,1,0,0:0:0:0:
213,192,73844,1,0,0:0:0:0:
298,192,73932,1,0,0:0:0:0:
42,192,74020,1,8,0:0:0:0:
469,192,74020,1,2,0:0:0:0:
128,192,74020,1,0,0:0:0:0:
384,192,74020,1,0,0:0:0:0:
213,192,74109,1,0,0:0:0:0:
128,192,74197,1,0,0:0:0:0:
384,192,74197,1,0,0:0:0:0:
298,192,74285,1,0,0:0:0:0:
469,192,74373,1,2,0:0:0:0:
42,192,74373,1,0,0:0:0:0:
213,192,74373,1,0,0:0:0:0:
298,192,74462,1,0,0:0:0:0:
384,192,74550,1,0,0:0:0:0:
128,192,74550,1,0,0:0:0:0:
213,192,74638,1,0,0:0:0:0:
469,192,74726,1,8,0:0:0:0:
42,192,74726,1,2,0:0:0:0:
298,192,74726,1,0,0:0:0:0:
384,192,74726,1,0,0:0:0:0:
128,192,74815,1,0,0:0:0:0:
384,192,74903,1,0,0:0:0:0:
213,192,74903,1,0,0:0:0:0:
128,192,74991,1,0,0:0:0:0:
298,192,75079,1,2,0:0:0:0:
42,192,75079,1,0,0:0:0:0:
469,192,75079,1,0,0:0:0:0:
213,192,75167,1,0,0:0:0:0:
384,192,75256,1,0,0:0:0:0:
128,192,75256,1,0,0:0:0:0:
298,192,75344,1,0,0:0:0:0:
42,192,75432,1,8,0:0:0:0:
469,192,75432,1,2,0:0:0:0:
384,192,75432,1,0,0:0:0:0:
213,192,75432,1,0,0:0:0:0:
128,192,75520,1,0,0:0:0:0:
42,192,75609,1,0,0:0:0:0:
213,192,75609,1,0,0:0:0:0:
298,192,75697,1,0,0:0:0:0:
469,192,75785,1,2,0:0:0:0:
384,192,75785,1,0,0:0:0:0:
128,192,75785,1,0,0:0:0:0:
213,192,75873,1,0,0:0:0:0:
42,192,75962,1,0,0:0:0:0:
298,192,75962,1,0,0:0:0:0:
384,192,76050,1,0,0:0:0:0:
42,192,76138,1,8,0:0:0:0:
298,192,76138,1,2,0:0:0:0:
469,192,76138,1,0,0:0:0:0:
128,192,76138,1,0,0:0:0:0:
213,192,76226,1,0,0:0:0:0:
128,192,76315,1,0,0:0:0:0:
469,192,76315,1,0,0:0:0:0:
384,192,76403,1,0,0:0:0:0:
42,192,76403,1,0,0:0:0:0:
469,192,76491,1,2,0:0:0:0:
298,192,76491,1,0,0:0:0:0:
213,192,76491,1,0,0:0:0:0:
42,192,76579,1,0,0:0:0:0:
128,192,76667,1,0,0:0:0:0:
213,192,76756,1,0,0:0:0:0:
469,192,76844,1,8,0:0:0:0:
42,192,76844,1,2,0:0:0:0:
384,192,76844,1,0,0:0:0:0:
128,192,76844,1,0,0:0:0:0:
298,192,76932,1,0,0:0:0:0:
128,192,77020,1,0,0:0:0:0:
384,192,77020,1,0,0:0:0:0:
213,192,77109,1,0,0:0:0:0:
469,192,77197,1,2,0:0:0:0:
298,192,77197,1,0,0:0:0:0:
42,192,77197,1,0,0:0:0:0:
128,192,77285,1,0,0:0:0:0:
469,192,77373,1,0,0:0:0:0:
213,192,77373,1,0,0:0:0:0:
128,192,77462,1,0,0:0:0:0:
384,192,77462,1,0,0:0:0:0:
298,192,77550,1,8,0:0:0:0:
42,192,77550,1,2,0:0:0:0:
469,192,77550,1,0,0:0:0:0:
128,192,77638,1,0,0:0:0:0:
384,192,77638,1,0,0:0:0:0:
42,192,77726,1,0,0:0:0:0:
298,192,77726,1,0,0:0:0:0:
213,192,77815,1,0,0:0:0:0:
469,192,77815,1,0,0:0:0:0:
128,192,77903,1,2,0:0:0:0:
42,192,77903,1,0,0:0:0:0:
384,192,77903,1,0,0:0:0:0:
298,192,77991,1,0,0:0:0:0:
213,192,78079,1,0,0:0:0:0:
469,192,78079,1,0,0:0:0:0:
128,192,78167,1,0,0:0:0:0:
469,192,78256,1,2,0:0:0:0:
298,192,78256,1,8,0:0:0:0:
384,192,78256,1,0,0:0:0:0:
42,192,78256,1,0,0:0:0:0:
128,192,78344,1,0,0:0:0:0:
469,192,78432,1,0,0:0:0:0:
213,192,78432,1,0,0:0:0:0:
298,192,78520,1,0,0:0:0:0:
42,192,78609,1,2,0:0:0:0:
128,192,78609,1,0,0:0:0:0:
384,192,78609,1,0,0:0:0:0:
213,192,78697,1,0,0:0:0:0:
298,192,78785,1,0,0:0:0:0:
469,192,78785,1,0,0:0:0:0:
213,192,78873,1,0,0:0:0:0:
384,192,78962,1,2,0:0:0:0:
42,192,78962,1,8,0:0:0:0:
128,192,78962,1,0,0:0:0:0:
469,192,78962,1,0,0:0:0:0:
298,192,79050,1,0,0:0:0:0:
213,192,79138,1,0,0:0:0:0:
42,192,79138,1,0,0:0:0:0:
298,192,79226,1,0,0:0:0:0:
469,192,79315,1,2,0:0:0:0:
384,192,79315,1,0,0:0:0:0:
42,192,79315,1,0,0:0:0:0:
128,192,79403,1,0,0:0:0:0:
213,192,79491,1,0,0:0:0:0:
469,192,79491,1,0,0:0:0:0:
384,192,79579,1,0,0:0:0:0:
42,192,79667,1,2,0:0:0:0:
128,192,79667,1,8,0:0:0:0:
213,192,79667,1,0,0:0:0:0:
298,192,79667,1,0,0:0:0:0:
469,192,79756,1,0,0:0:0:0:
384,192,79844,1,0,0:0:0:0:
128,192,79844,1,0,0:0:0:0:
213,192,79932,1,0,0:0:0:0:
469,192,80020,1,2,0:0:0:0:
42,192,80020,1,0,0:0:0:0:
298,192,80020,1,0,0:0:0:0:
128,192,80109,1,0,0:0:0:0:
213,192,80197,1,0,0:0:0:0:
384,192,80197,1,0,0:0:0:0:
469,192,80285,1,0,0:0:0:0:
298,192,80373,1,2,0:0:0:0:
128,192,80373,1,8,0:0:0:0:
213,192,80373,1,0,0:0:0:0:
42,192,80373,1,0,0:0:0:0:
469,192,80462,1,0,0:0:0:0:
128,192,80550,1,0,0:0:0:0:
384,192,80550,1,0,0:0:0:0:
298,192,80638,1,0,0:0:0:0:
213,192,80726,1,2,0:0:0:0:
42,192,80726,1,0,0:0:0:0:
469,192,80726,1,0,0:0:0:0:
384,192,80815,1,0,0:0:0:0:
298,192,80903,1,0,0:0:0:0:
213,192,80991,1,0,0:0:0:0:
128,192,81079,1,8,0:0:0:0:
42,192,81079,1,2,0:0:0:0:
469,192,81079,1,0,0:0:0:0:
384,192,81079,1,0,0:0:0:0:
298,192,81167,1,0,0:0:0:0:
213,192,81256,1,0,0:0:0:0:
384,192,81344,1,0,0:0:0:0:
469,192,81432,1,2,0:0:0:0:
298,192,81432,1,0,0:0:0:0:
42,192,81432,1,0,0:0:0:0:
128,192,81520,1,0,0:0:0:0:
213,192,81609,1,0,0:0:0:0:
298,192,81697,1,0,0:0:0:0:
42,192,81785,1,8,0:0:0:0:
384,192,81785,1,2,0:0:0:0:
469,192,81785,1,0,0:0:0:0:
128,192,81785,1,0,0:0:0:0:
213,192,81873,1,0,0:0:0:0:
298,192,81962,1,0,0:0:0:0:
469,192,82050,1,0,0:0:0:0:
213,192,82138,1,2,0:0:0:0:
384,192,82138,1,0,0:0:0:0:
42,192,82138,1,0,0:0:0:0:
298,192,82315,1,0,0:0:0:0:
128,192,82315,1,0,0:0:0:0:
42,192,82491,1,8,0:0:0:0:
469,192,82491,1,2,0:0:0:0:
128,192,82491,1,0,0:0:0:0:
298,192,82491,1,0,0:0:0:0:
213,192,82579,1,0,0:0:0:0:
384,192,82667,1,0,0:0:0:0:
128,192,82667,1,0,0:0:0:0:
42,192,82756,1,0,0:0:0:0:
469,192,82844,1,2,0:0:0:0:
213,192,82844,1,0,0:0:0:0:
384,192,82844,1,0,0:0:0:0:
42,192,83197,1,8,0:0:0:0:
469,192,83197,1,2,0:0:0:0:
384,192,83197,1,0,0:0:0:0:
213,192,83197,1,0,0:0:0:0:
42,192,83550,1,2,0:0:0:0:
213,192,83550,1,4,0:0:0:0:
469,192,83550,1,0,0:0:0:0:
384,192,83550,1,0,0:0:0:0:
128,192,83550,1,0,0:0:0:0:
298,192,83726,1,0,0:0:0:0:
128,192,83903,1,8,0:0:0:0:
42,192,83903,1,2,0:0:0:0:
384,192,83903,1,0,0:0:0:0:
298,192,84079,1,0,0:0:0:0:
469,192,84256,1,2,0:0:0:0:
42,192,84256,1,0,0:0:0:0:
213,192,84256,1,0,0:0:0:0:
384,192,84432,1,0,0:0:0:0:
42,192,84520,1,2,0:0:0:0:
128,192,84520,1,0,0:0:0:0:
469,192,84609,1,8,0:0:0:0:
42,192,84609,1,2,0:0:0:0:
128,192,84609,1,0,0:0:0:0:
298,192,84609,1,0,0:0:0:0:
213,192,84785,1,0,0:0:0:0:
42,192,84962,1,2,0:0:0:0:
128,192,84962,1,0,0:0:0:0:
298,192,84962,1,0,0:0:0:0:
469,192,84962,1,0,0:0:0:0:
213,192,85138,1,0,0:0:0:0:
469,192,85315,1,8,0:0:0:0:
42,192,85315,1,2,0:0:0:0:
384,192,85315,1,0,0:0:0:0:
213,192,85315,1,0,0:0:0:0:
298,192,85491,1,0,0:0:0:0:
469,192,85491,1,0,0:0:0:0:
42,192,85667,1,2,0:0:0:0:
384,192,85667,1,0,0:0:0:0:
213,192,85667,1,0,0:0:0:0:
128,192,85844,1,0,0:0:0:0:
42,192,86020,1,8,0:0:0:0:
213,192,86020,1,2,0:0:0:0:
298,192,86020,1,0,0:0:0:0:
384,192,86020,1,0,0:0:0:0:
128,192,86197,1,2,0:0:0:0:
298,192,86197,1,0,0:0:0:0:
469,192,86197,1,0,0:0:0:0:
42,192,86373,1,2,0:0:0:0:
213,192,86373,1,0,0:0:0:0:
384,192,86373,1,0,0:0:0:0:
469,192,86373,1,0,0:0:0:0:
128,192,86550,1,0,0:0:0:0:
298,192,86726,1,8,0:0:0:0:
469,192,86726,1,2,0:0:0:0:
42,192,86726,1,0,0:0:0:0:
384,192,86726,1,0,0:0:0:0:
128,192,86815,1,0,0:0:0:0:
213,192,86903,1,0,0:0:0:0:
384,192,86903,1,0,0:0:0:0:
298,192,87079,1,2,0:0:0:0:
42,192,87079,1,0,0:0:0:0:
469,192,87079,1,0,0:0:0:0:
213,192,87079,1,0,0:0:0:0:
213,192,87256,1,0,0:0:0:0:
384,192,87344,1,2,0:0:0:0:
469,192,87344,1,0,0:0:0:0:
42,192,87432,1,8,0:0:0:0:
469,192,87432,1,2,0:0:0:0:
128,192,87432,1,0,0:0:0:0:
384,192,87432,1,0,0:0:0:0:
213,192,87520,1,0,0:0:0:0:
298,192,87609,1,0,0:0:0:0:
469,192,87609,1,0,0:0:0:0:
42,192,87785,1,2,0:0:0:0:
469,192,87785,1,0,0:0:0:0:
298,192,87785,1,0,0:0:0:0:
213,192,87785,1,0,0:0:0:0:
128,192,87962,1,0,0:0:0:0:
384,192,88138,1,8,0:0:0:0:
42,192,88138,1,2,0:0:0:0:
213,192,88138,1,0,0:0:0:0:
469,192,88138,1,0,0:0:0:0:
128,192,88226,1,0,0:0:0:0:
298,192,88226,1,0,0:0:0:0:
213,192,88315,1,0,0:0:0:0:
384,192,88315,1,0,0:0:0:0:
298,192,88403,1,0,0:0:0:0:
469,192,88403,1,0,0:0:0:0:
42,192,88491,1,2,0:0:0:0:
128,192,88491,1,0,0:0:0:0:
384,192,88491,1,0,0:0:0:0:
213,192,88579,1,0,0:0:0:0:
469,192,88579,1,0,0:0:0:0:
384,192,88667,1,0,0:0:0:0:
128,192,88667,1,0,0:0:0:0:
298,192,88756,1,0,0:0:0:0:
42,192,88756,1,0,0:0:0:0:
469,192,88844,1,8,0:0:0:0:
213,192,88844,1,2,0:0:0:0:
384,192,88844,1,0,0:0:0:0:
298,192,88932,1,0,0:0:0:0:
128,192,88932,1,0,0:0:0:0:
469,192,89020,1,2,0:0:0:0:
213,192,89020,1,0,0:0:0:0:
42,192,89020,1,0,0:0:0:0:
128,192,89109,1,0,0:0:0:0:
384,192,89109,1,0,0:0:0:0:
469,192,89197,1,2,0:0:0:0:
42,192,89197,1,0,0:0:0:0:
298,192,89197,1,0,0:0:0:0:
213,192,89197,1,0,0:0:0:0:
128,192,89373,1,0,0:0:0:0:
384,192,89550,1,2,0:0:0:0:
213,192,89550,1,8,0:0:0:0:
42,192,89550,1,0,0:0:0:0:
469,192,89550,1,0,0:0:0:0:
298,192,89726,1,0,0:0:0:0:
384,192,89903,1,2,0:0:0:0:
42,192,89903,1,0,0:0:0:0:
213,192,89903,1,0,0:0:0:0:
469,192,89903,1,0,0:0:0:0:
298,192,90079,1,0,0:0:0:0:
128,192,90167,1,2,0:0:0:0:
42,192,90167,1,0,0:0:0:0:
42,192,90256,1,8,0:0:0:0:
128,192,90256,1,2,0:0:0:0:
469,192,90256,1,0,0:0:0:0:
298,192,90256,1,0,0:0:0:0:
213,192,90432,1,0,0:0:0:0:
384,192,90432,1,0,0:0:0:0:
42,192,90609,1,2,0:0:0:0:
469,192,90609,1,0,0:0:0:0:
298,192,90609,1,0,0:0:0:0:
128,192,90609,1,0,0:0:0:0:
213,192,90785,1,0,0:0:0:0:
42,192,90962,1,2,0:0:0:0:
298,192,90962,1,8,0:0:0:0:
469,192,90962,1,0,0:0:0:0:
213,192,90962,1,0,0:0:0:0:
128,192,91138,1,0,0:0:0:0:
298,192,91315,1,2,0:0:0:0:
469,192,91315,1,0,0:0:0:0:
42,192,91315,1,0,0:0:0:0:
384,192,91315,1,0,0:0:0:0:
128,192,91491,1,0,0:0:0:0:
298,192,91579,1,0,0:0:0:0:
469,192,91579,1,0,0:0:0:0:
128,192,91667,1,8,0:0:0:0:
384,192,91667,1,2,0:0:0:0:
213,192,91667,1,0,0:0:0:0:
42,192,91667,1,0,0:0:0:0:
42,192,91844,1,2,0:0:0:0:
213,192,91844,1,0,0:0:0:0:
384,192,91844,1,0,0:0:0:0:
128,192,92020,1,2,0:0:0:0:
42,192,92020,1,0,0:0:0:50:LR_CymbalWSD.wav
298,192,92020,1,0,0:0:0:0:
469,192,92020,1,0,0:0:0:0:
384,192,92197,1,0,0:0:0:0:
128,192,92373,5,2,0:0:0:0:
42,192,92373,1,8,0:0:0:0:
469,192,92373,1,0,0:0:0:0:
298,192,92373,1,0,0:0:0:0:
213,192,92550,1,0,0:0:0:0:
42,192,92726,1,2,0:0:0:0:
298,192,92726,1,0,0:0:0:0:
128,192,92726,1,0,0:0:0:0:
469,192,92726,1,0,0:0:0:0:
213,192,92903,1,0,0:0:0:0:
469,192,92991,1,2,0:0:0:0:
384,192,92991,1,0,0:0:0:0:
42,192,93079,1,8,0:0:0:0:
213,192,93079,1,2,0:0:0:0:
469,192,93079,1,0,0:0:0:0:
384,192,93079,1,0,0:0:0:0:
128,192,93256,1,0,0:0:0:0:
384,192,93432,5,2,0:0:0:0:
213,192,93432,1,0,0:0:0:50:LR_CymbalWSD.wav
42,192,93432,1,0,0:0:0:0:
469,192,93432,1,0,0:0:0:0:
469,192,93609,1,2,0:0:0:0:
384,192,93609,1,0,0:0:0:0:
42,192,93609,1,0,0:0:0:0:
128,192,93697,5,0,0:0:0:0:
384,192,93785,5,2,0:0:0:0:
213,192,93785,1,8,0:0:0:0:
469,192,93785,1,0,0:0:0:0:
128,192,93873,1,0,0:0:0:0:
469,192,93962,1,2,0:0:0:0:
42,192,93962,1,0,0:0:0:0:
384,192,93962,1,0,0:0:0:0:
298,192,94050,1,0,0:0:0:0:
42,192,94138,1,2,0:0:0:0:
469,192,94138,1,0,0:0:0:0:
384,192,94138,1,0,0:0:0:0:
128,192,94138,1,0,0:0:0:0:
298,192,94226,1,0,0:0:0:0:
128,192,94315,1,2,0:0:0:0:
213,192,94315,1,0,0:0:0:0:
42,192,94315,1,0,0:0:0:0:
384,192,94403,1,0,0:0:0:0:
213,192,94491,1,2,0:0:0:0:
42,192,94491,1,8,0:0:0:0:
469,192,94491,1,0,0:0:0:0:
298,192,94579,1,2,0:0:0:0:
128,192,94579,1,0,0:0:0:0:
384,192,94667,1,2,0:0:0:0:
213,192,94667,1,0,0:0:0:0:
298,192,94756,1,2,0:0:0:0:
469,192,94756,1,0,0:0:0:0:
42,192,94844,1,2,0:0:0:0:
128,192,94844,1,8,0:0:0:0:
213,192,94844,1,0,0:0:0:50:LR_CymbalWSD.wav
298,192,94932,1,2,0:0:0:0:
384,192,94932,1,0,0:0:0:0:
128,192,95020,1,2,0:0:0:0:
469,192,95020,1,0,0:0:0:0:
42,192,95020,1,0,0:0:0:0:
384,192,95109,1,2,0:0:0:0:
298,192,95109,1,0,0:0:0:0:
469,192,95197,1,2,0:0:0:0:
42,192,95197,1,8,0:0:0:0:
128,192,95197,1,0,0:0:0:50:LR_CymbalWSD.wav
298,192,95285,1,2,0:0:0:0:
213,192,95285,1,0,0:0:0:0:
384,192,95373,1,2,0:0:0:0:
42,192,95373,1,0,0:0:0:0:
469,192,95373,1,0,0:0:0:0:
128,192,95462,1,2,0:0:0:0:
213,192,95462,1,0,0:0:0:0:
469,192,95550,1,2,0:0:0:0:
298,192,95550,1,8,0:0:0:0:
42,192,95550,1,0,0:0:0:50:LR_CymbalWSD.wav
384,192,95638,1,2,0:0:0:0:
213,192,95638,1,0,0:0:0:0:
448,192,95726,1,2,0:0:0:0:
298,192,95726,1,0,0:0:0:0:
42,192,95726,1,0,0:0:0:0:
213,192,95815,1,2,0:0:0:0:
128,192,95815,1,0,0:0:0:0:
448,192,95903,1,2,0:0:0:0:
384,192,95903,1,8,0:0:0:0:
42,192,95903,1,0,0:0:0:50:LR_CymbalWSD.wav
128,192,95991,1,2,0:0:0:0:
213,192,95991,1,0,0:0:0:0:
298,192,95991,1,0,0:0:0:0:
469,192,96079,1,2,0:0:0:0:
384,192,96079,1,0,0:0:0:0:
42,192,96079,1,0,0:0:0:0:
298,192,96167,1,2,0:0:0:0:
213,192,96167,1,0,0:0:0:0:
64,192,96256,1,0,0:0:0:50:LR_CymbalWSD.wav
448,192,96256,1,0,0:0:0:0:
384,192,96256,1,0,0:0:0:0:
128,192,96256,1,0,0:0:0:0:
469,192,99079,1,0,0:0:0:0:
213,192,99079,1,0,0:0:0:0:
384,192,99432,1,0,0:0:0:0:
128,192,99432,1,0,0:0:0:0:
42,192,99785,1,0,0:0:0:0:
128,192,100138,1,0,0:0:0:0:
384,192,100138,1,0,0:0:0:0:
213,192,100491,1,0,0:0:0:0:
469,192,100491,1,0,0:0:0:0:
128,192,100844,1,0,0:0:0:0:
298,192,101197,1,0,0:0:0:0:
42,192,101197,1,0,0:0:0:0:
128,192,101903,1,0,0:0:0:0:
384,192,101903,1,0,0:0:0:0:
213,192,102256,1,0,0:0:0:0:
469,192,102256,1,0,0:0:0:0:
298,192,102609,1,0,0:0:0:0:
42,192,102609,1,0,0:0:0:0:
128,192,102962,1,0,0:0:0:0:
384,192,102962,1,0,0:0:0:0:
213,192,103315,1,0,0:0:0:0:
42,192,103315,1,0,0:0:0:0:
128,192,103667,1,0,0:0:0:0:
298,192,104020,1,0,0:0:0:0:
384,192,104373,1,0,0:0:0:0:
128,192,104373,1,0,0:0:0:0:
42,192,104726,1,0,0:0:0:0:
298,192,104726,1,0,0:0:0:0:
128,192,105079,1,0,0:0:0:0:
384,192,105079,1,0,0:0:0:0:
298,192,105432,1,0,0:0:0:0:
469,192,105432,1,0,0:0:0:0:
213,192,105785,1,0,0:0:0:0:
42,192,105785,1,0,0:0:0:0:
128,192,106138,1,0,0:0:0:0:
384,192,106138,1,0,0:0:0:0:
298,192,106491,1,0,0:0:0:0:
213,192,106844,1,0,0:0:0:0:
42,192,106844,1,0,0:0:0:0:
213,192,107550,1,0,0:0:0:0:
469,192,107550,1,0,0:0:0:0:
384,192,107903,1,0,0:0:0:0:
298,192,108256,1,0,0:0:0:0:
42,192,108962,1,0,0:0:0:0:
128,192,109315,1,0,0:0:0:0:
298,192,109667,1,0,0:0:0:0:
42,192,110373,1,0,0:0:0:0:
298,192,110373,1,0,0:0:0:0:
128,192,110726,1,0,0:0:0:0:
384,192,110726,1,0,0:0:0:0:
298,192,111079,1,0,0:0:0:0:
469,192,111079,1,0,0:0:0:0:
128,192,111432,1,0,0:0:0:0:
213,192,111432,1,0,0:0:0:0:
384,192,111785,1,0,0:0:0:0:
42,192,111785,1,0,0:0:0:0:
298,192,112138,1,0,0:0:0:0:
213,192,112491,1,0,0:0:0:0:
42,192,112491,1,0,0:0:0:0:
128,192,113197,1,0,0:0:0:0:
298,192,113197,1,0,0:0:0:0:
384,192,113550,1,0,0:0:0:0:
469,192,113903,1,0,0:0:0:0:
213,192,113903,1,0,0:0:0:0:
384,192,114609,1,0,0:0:0:0:
128,192,114609,1,0,0:0:0:0:
298,192,114962,1,0,0:0:0:0:
213,192,115315,1,0,0:0:0:0:
42,192,115315,1,0,0:0:0:0:
128,192,115667,1,0,0:0:0:0:
384,192,115667,1,0,0:0:0:0:
298,192,116020,1,0,0:0:0:0:
469,192,116020,1,0,0:0:0:0:
213,192,116373,1,0,0:0:0:0:
42,192,116373,1,0,0:0:0:0:
384,192,116550,1,0,0:0:0:0:
469,192,116550,1,0,0:0:0:0:
213,192,116726,1,0,0:0:0:0:
298,192,116903,1,0,0:0:0:0:
469,192,116903,1,0,0:0:0:0:
42,192,117079,1,0,0:0:0:0:
213,192,117079,1,0,0:0:0:0:
298,192,117432,1,0,0:0:0:0:
42,192,117432,1,0,0:0:0:0:
42,192,117785,1,0,0:0:0:0:
128,192,117962,1,0,0:0:0:0:
469,192,118138,1,0,0:0:0:0:
298,192,118138,1,0,0:0:0:0:
213,192,118315,1,0,0:0:0:0:
384,192,118315,1,0,0:0:0:0:
298,192,118491,1,0,0:0:0:0:
128,192,118491,1,0,0:0:0:0:
213,192,119550,5,0,0:0:0:0:
448,192,120256,5,2,0:0:0:0:
42,192,120256,1,0,0:0:0:50:LR_CymbalWSD.wav
298,192,120256,1,0,0:0:0:0:
213,192,120256,1,0,0:0:0:0:
384,192,120256,1,0,0:0:0:0:
128,192,120344,1,0,0:0:0:0:
213,192,120432,1,0,0:0:0:0:
298,192,120520,1,0,0:0:0:0:
128,192,120609,1,8,0:0:0:0:
469,192,120609,1,2,0:0:0:0:
384,192,120609,1,0,0:0:0:0:
42,192,120609,1,0,0:0:0:0:
213,192,120697,1,0,0:0:0:0:
384,192,120785,1,0,0:0:0:0:
298,192,120873,1,0,0:0:0:0:
42,192,120962,1,2,0:0:0:0:
213,192,120962,1,0,0:0:0:0:
469,192,120962,1,0,0:0:0:0:
384,192,121050,1,0,0:0:0:0:
42,192,121138,1,0,0:0:0:0:
213,192,121138,1,0,0:0:0:0:
128,192,121226,1,2,0:0:0:0:
469,192,121226,1,0,0:0:0:0:
298,192,121226,1,0,0:0:0:0:
384,192,121315,1,8,0:0:0:0:
213,192,121315,1,2,0:0:0:0:
42,192,121315,1,0,0:0:0:0:
469,192,121403,1,0,0:0:0:0:
298,192,121491,1,0,0:0:0:0:
128,192,121579,1,0,0:0:0:0:
42,192,121667,1,2,0:0:0:0:
469,192,121667,1,0,0:0:0:0:
298,192,121667,1,0,0:0:0:0:
213,192,121756,1,0,0:0:0:0:
128,192,121844,1,0,0:0:0:0:
384,192,121844,1,0,0:0:0:0:
298,192,121932,1,0,0:0:0:0:
42,192,122020,1,8,0:0:0:0:
384,192,122020,1,2,0:0:0:0:
469,192,122020,1,0,0:0:0:0:
128,192,122020,1,0,0:0:0:0:
213,192,122109,1,0,0:0:0:0:
298,192,122197,1,0,0:0:0:0:
469,192,122197,1,0,0:0:0:0:
128,192,122285,1,0,0:0:0:0:
42,192,122373,1,2,0:0:0:0:
469,192,122373,1,0,0:0:0:0:
298,192,122373,1,0,0:0:0:0:
213,192,122462,1,0,0:0:0:0:
384,192,122550,1,0,0:0:0:0:
128,192,122550,1,0,0:0:0:0:
298,192,122638,1,0,0:0:0:0:
384,192,122726,1,8,0:0:0:0:
469,192,122726,1,2,0:0:0:0:
128,192,122726,1,0,0:0:0:0:
42,192,122726,1,0,0:0:0:0:
213,192,122815,1,0,0:0:0:0:
298,192,122903,1,2,0:0:0:0:
384,192,122903,1,0,0:0:0:0:
469,192,122903,1,0,0:0:0:0:
42,192,122991,1,0,0:0:0:0:
469,192,123079,1,2,0:0:0:0:
128,192,123079,1,0,0:0:0:0:
384,192,123079,1,0,0:0:0:0:
213,192,123167,1,0,0:0:0:0:
298,192,123256,1,0,0:0:0:0:
469,192,123256,1,0,0:0:0:0:
128,192,123344,1,0,0:0:0:0:
384,192,123432,1,8,0:0:0:0:
42,192,123432,1,2,0:0:0:0:
213,192,123432,1,0,0:0:0:0:
469,192,123432,1,0,0:0:0:0:
298,192,123520,1,0,0:0:0:0:
128,192,123609,1,0,0:0:0:0:
384,192,123609,1,0,0:0:0:0:
213,192,123697,1,0,0:0:0:0:
469,192,123785,1,2,0:0:0:0:
298,192,123785,1,0,0:0:0:0:
42,192,123785,1,0,0:0:0:0:
128,192,123873,1,0,0:0:0:0:
298,192,123962,1,0,0:0:0:0:
469,192,123962,1,0,0:0:0:0:
384,192,124050,1,2,0:0:0:0:
213,192,124050,1,0,0:0:0:0:
42,192,124050,1,0,0:0:0:0:
128,192,124138,1,2,0:0:0:0:
469,192,124138,1,8,0:0:0:0:
298,192,124138,1,0,0:0:0:0:
384,192,124226,1,0,0:0:0:0:
213,192,124315,1,0,0:0:0:0:
42,192,124315,1,0,0:0:0:0:
298,192,124403,1,0,0:0:0:0:
384,192,124491,1,2,0:0:0:0:
128,192,124491,1,0,0:0:0:0:
469,192,124491,1,0,0:0:0:0:
213,192,124579,1,0,0:0:0:0:
42,192,124667,1,0,0:0:0:0:
298,192,124667,1,0,0:0:0:0:
384,192,124756,1,0,0:0:0:0:
128,192,124844,1,8,0:0:0:0:
42,192,124844,1,2,0:0:0:0:
469,192,124844,1,0,0:0:0:0:
213,192,124844,1,0,0:0:0:0:
384,192,124932,1,0,0:0:0:0:
42,192,125020,1,0,0:0:0:0:
298,192,125020,1,0,0:0:0:0:
213,192,125109,1,0,0:0:0:0:
384,192,125197,1,2,0:0:0:0:
128,192,125197,1,0,0:0:0:0:
469,192,125197,1,0,0:0:0:0:
213,192,125285,1,0,0:0:0:0:
42,192,125373,1,0,0:0:0:0:
298,192,125373,1,0,0:0:0:0:
384,192,125462,1,0,0:0:0:0:
42,192,125550,1,8,0:0:0:0:
213,192,125550,1,2,0:0:0:0:
469,192,125550,1,0,0:0:0:0:
128,192,125550,1,0,0:0:0:0:
384,192,125638,1,0,0:0:0:0:
42,192,125726,1,2,0:0:0:0:
128,192,125726,1,0,0:0:0:0:
298,192,125726,1,0,0:0:0:0:
213,192,125815,1,0,0:0:0:0:
469,192,125903,1,2,0:0:0:0:
384,192,125903,1,0,0:0:0:0:
128,192,125903,1,0,0:0:0:0:
298,192,125991,1,0,0:0:0:0:
213,192,126079,1,0,0:0:0:0:
42,192,126079,1,0,0:0:0:0:
384,192,126167,1,0,0:0:0:0:
469,192,126256,1,2,0:0:0:0:
298,192,126256,1,8,0:0:0:0:
128,192,126256,1,0,0:0:0:0:
42,192,126256,1,0,0:0:0:0:
213,192,126344,1,0,0:0:0:0:
128,192,126432,1,0,0:0:0:0:
384,192,126432,1,0,0:0:0:0:
213,192,126520,1,0,0:0:0:0:
42,192,126609,1,2,0:0:0:0:
469,192,126609,1,0,0:0:0:0:
298,192,126609,1,0,0:0:0:0:
128,192,126697,1,0,0:0:0:0:
213,192,126785,1,0,0:0:0:0:
384,192,126785,1,0,0:0:0:0:
298,192,126873,1,2,0:0:0:0:
128,192,126873,1,0,0:0:0:0:
42,192,126873,1,0,0:0:0:0:
469,192,126962,1,8,0:0:0:0:
213,192,126962,1,2,0:0:0:0:
384,192,126962,1,0,0:0:0:0:
42,192,127050,1,0,0:0:0:0:
128,192,127138,1,0,0:0:0:0:
298,192,127138,1,0,0:0:0:0:
384,192,127226,1,0,0:0:0:0:
213,192,127315,1,2,0:0:0:0:
469,192,127315,1,0,0:0:0:0:
42,192,127315,1,0,0:0:0:0:
298,192,127403,1,0,0:0:0:0:
128,192,127491,1,0,0:0:0:0:
384,192,127491,1,0,0:0:0:0:
42,192,127579,1,0,0:0:0:0:
213,192,127667,1,2,0:0:0:0:
469,192,127667,1,8,0:0:0:0:
298,192,127667,1,0,0:0:0:0:
384,192,127667,1,0,0:0:0:0:
128,192,127756,1,0,0:0:0:0:
42,192,127844,1,0,0:0:0:0:
298,192,127844,1,0,0:0:0:0:
384,192,127932,1,0,0:0:0:0:
42,192,128020,1,2,0:0:0:0:
469,192,128020,1,0,0:0:0:0:
128,192,128020,1,0,0:0:0:0:
298,192,128109,1,0,0:0:0:0:
213,192,128197,1,0,0:0:0:0:
469,192,128197,1,0,0:0:0:0:
298,192,128285,1,0,0:0:0:0:
42,192,128373,1,8,0:0:0:0:
128,192,128373,1,2,0:0:0:0:
469,192,128373,1,0,0:0:0:0:
213,192,128373,1,0,0:0:0:0:
384,192,128462,1,0,0:0:0:0:
128,192,128550,1,2,0:0:0:0:
42,192,128550,1,0,0:0:0:0:
298,192,128550,1,0,0:0:0:0:
469,192,128638,1,0,0:0:0:0:
42,192,128726,5,2,0:0:0:0:
128,192,128726,1,0,0:0:0:0:
298,192,128726,1,0,0:0:0:0:
469,192,128815,1,0,0:0:0:0:
192,192,128903,1,0,0:0:0:0:
384,192,128903,1,0,0:0:0:0:
128,192,128991,1,0,0:0:0:0:
448,192,129079,1,2,0:0:0:0:
320,192,129079,1,8,0:0:0:0:
42,192,129079,1,0,0:0:0:0:
384,192,129079,1,0,0:0:0:0:
128,192,129167,1,0,0:0:0:0:
213,192,129256,1,0,0:0:0:0:
384,192,129256,1,0,0:0:0:0:
469,192,129344,1,0,0:0:0:0:
298,192,129432,1,2,0:0:0:0:
42,192,129432,1,0,0:0:0:0:
128,192,129432,1,0,0:0:0:0:
384,192,129520,1,0,0:0:0:0:
469,192,129609,1,0,0:0:0:0:
213,192,129609,1,0,0:0:0:0:
298,192,129697,1,0,0:0:0:0:
128,192,129785,1,8,0:0:0:0:
42,192,129785,1,2,0:0:0:0:
384,192,129785,1,0,0:0:0:0:
469,192,129785,1,0,0:0:0:0:
213,192,129873,1,0,0:0:0:0:
298,192,129962,1,0,0:0:0:0:
42,192,129962,1,0,0:0:0:0:
128,192,130050,1,0,0:0:0:0:
469,192,130138,1,2,0:0:0:0:
384,192,130138,1,0,0:0:0:0:
298,192,130138,1,0,0:0:0:0:
213,192,130138,1,0,0:0:0:0:
128,192,130226,1,0,0:0:0:0:
469,192,130315,1,2,0:0:0:0:
42,192,130315,1,0,0:0:0:0:
384,192,130315,1,0,0:0:0:0:
298,192,130403,1,0,0:0:0:0:
42,192,130491,1,2,0:0:0:0:
128,192,130491,1,8,0:0:0:0:
469,192,130491,1,0,0:0:0:0:
384,192,130491,1,0,0:0:0:0:
213,192,130579,1,0,0:0:0:0:
384,192,130667,1,2,0:0:0:0:
469,192,130667,1,0,0:0:0:0:
42,192,130667,1,0,0:0:0:0:
128,192,130756,1,0,0:0:0:0:
213,192,130844,1,2,0:0:0:0:
298,192,130844,1,0,0:0:0:0:
384,192,130844,1,0,0:0:0:0:
469,192,130844,1,0,0:0:0:0:
128,192,130932,1,0,0:0:0:0:
42,192,131020,1,2,0:0:0:0:
469,192,131020,1,0,0:0:0:0:
384,192,131020,1,0,0:0:0:0:
213,192,131109,1,0,0:0:0:0:
448,192,131197,1,2,0:0:0:0:
384,192,131197,1,8,0:0:0:0:
42,192,131197,1,0,0:0:0:0:
128,192,131197,1,0,0:0:0:0:
298,192,131285,1,2,0:0:0:0:
213,192,131285,1,0,0:0:0:0:
384,192,131373,1,2,0:0:0:0:
469,192,131373,1,0,0:0:0:0:
298,192,131462,1,2,0:0:0:0:
213,192,131462,1,0,0:0:0:0:
128,192,131550,1,2,0:0:0:0:
42,192,131550,1,0,0:0:0:50:LR_CymbalWSD.wav
384,192,131550,1,0,0:0:0:0:
469,192,131550,1,0,0:0:0:0:
298,192,131638,1,0,0:0:0:0:
42,192,131726,1,0,0:0:0:0:
213,192,131726,1,0,0:0:0:0:
384,192,131815,1,0,0:0:0:0:
448,192,131903,1,2,0:0:0:0:
42,192,131903,1,8,0:0:0:0:
128,192,131903,1,0,0:0:0:0:
213,192,131903,1,0,0:0:0:0:
298,192,131991,1,0,0:0:0:0:
128,192,132079,1,0,0:0:0:0:
384,192,132079,1,0,0:0:0:0:
213,192,132167,1,0,0:0:0:0:
448,192,132256,1,2,0:0:0:0:
42,192,132256,1,0,0:0:0:0:
298,192,132256,1,0,0:0:0:0:
213,192,132344,1,0,0:0:0:0:
384,192,132432,1,0,0:0:0:0:
128,192,132432,1,0,0:0:0:0:
42,192,132520,1,2,0:0:0:0:
298,192,132520,1,0,0:0:0:0:
213,192,132520,1,0,0:0:0:0:
384,192,132609,1,2,0:0:0:0:
469,192,132609,1,8,0:0:0:0:
128,192,132609,1,0,0:0:0:0:
298,192,132697,1,0,0:0:0:0:
42,192,132785,1,0,0:0:0:0:
213,192,132785,1,0,0:0:0:0:
384,192,132873,1,0,0:0:0:0:
469,192,132962,1,2,0:0:0:0:
42,192,132962,1,0,0:0:0:0:
213,192,132962,1,0,0:0:0:0:
298,192,133050,1,0,0:0:0:0:
384,192,133138,1,0,0:0:0:0:
128,192,133138,1,0,0:0:0:0:
213,192,133226,1,0,0:0:0:0:
42,192,133315,1,2,0:0:0:0:
469,192,133315,1,8,0:0:0:0:
298,192,133315,1,0,0:0:0:0:
384,192,133315,1,0,0:0:0:0:
128,192,133403,1,0,0:0:0:0:
469,192,133491,1,0,0:0:0:0:
213,192,133491,1,0,0:0:0:0:
384,192,133579,1,0,0:0:0:0:
298,192,133667,1,2,0:0:0:0:
128,192,133667,1,0,0:0:0:0:
42,192,133667,1,0,0:0:0:0:
469,192,133756,1,0,0:0:0:0:
213,192,133844,1,0,0:0:0:0:
384,192,133844,1,0,0:0:0:0:
298,192,133932,1,0,0:0:0:0:
384,192,134020,1,2,0:0:0:0:
469,192,134020,1,8,0:0:0:0:
42,192,134020,1,0,0:0:0:0:
128,192,134020,1,0,0:0:0:0:
213,192,134109,1,0,0:0:0:0:
42,192,134197,1,2,0:0:0:0:
128,192,134197,1,0,0:0:0:0:
384,192,134197,1,0,0:0:0:0:
298,192,134285,1,0,0:0:0:0:
469,192,134373,1,2,0:0:0:0:
42,192,134373,1,0,0:0:0:0:
213,192,134373,1,0,0:0:0:0:
384,192,134462,1,0,0:0:0:0:
128,192,134550,1,0,0:0:0:0:
298,192,134550,1,0,0:0:0:0:
384,192,134638,1,0,0:0:0:0:
213,192,134726,1,2,0:0:0:0:
42,192,134726,1,8,0:0:0:0:
469,192,134726,1,0,0:0:0:50:LR_CymbalWSD.wav
128,192,134726,1,0,0:0:0:0:
298,192,134815,1,0,0:0:0:0:
469,192,134903,1,0,0:0:0:0:
128,192,134903,1,0,0:0:0:0:
298,192,134991,1,0,0:0:0:0:
42,192,135079,1,2,0:0:0:0:
469,192,135079,1,0,0:0:0:0:
213,192,135079,1,0,0:0:0:0:
384,192,135167,1,0,0:0:0:0:
213,192,135256,1,0,0:0:0:0:
42,192,135256,1,0,0:0:0:0:
128,192,135344,1,2,0:0:0:0:
384,192,135344,1,0,0:0:0:0:
298,192,135344,1,0,0:0:0:0:
213,192,135432,1,2,0:0:0:0:
469,192,135432,1,8,0:0:0:0:
42,192,135432,1,0,0:0:0:50:LR_CymbalWSD.wav
298,192,135520,1,0,0:0:0:0:
384,192,135609,1,0,0:0:0:0:
42,192,135609,1,0,0:0:0:0:
128,192,135697,1,0,0:0:0:0:
469,192,135785,1,2,0:0:0:0:
213,192,135785,1,0,0:0:0:0:
384,192,135785,1,0,0:0:0:0:
42,192,135873,1,0,0:0:0:0:
298,192,135962,1,0,0:0:0:0:
128,192,135962,1,0,0:0:0:0:
384,192,136050,1,0,0:0:0:0:
469,192,136138,1,2,0:0:0:0:
42,192,136138,1,8,0:0:0:0:
128,192,136138,1,0,0:0:0:50:LR_CymbalWSD.wav
213,192,136138,1,0,0:0:0:0:
298,192,136226,1,0,0:0:0:0:
469,192,136315,1,0,0:0:0:0:
128,192,136315,1,0,0:0:0:0:
298,192,136403,1,0,0:0:0:0:
469,192,136491,1,2,0:0:0:0:
213,192,136491,1,0,0:0:0:50:LR_CymbalWSD.wav
42,192,136491,1,0,0:0:0:0:
128,192,136491,1,0,0:0:0:0:
384,192,136579,1,0,0:0:0:0:
42,192,136667,1,0,0:0:0:0:
298,192,136667,1,0,0:0:0:0:
213,192,136756,1,0,0:0:0:0:
42,192,136844,1,2,0:0:0:0:
384,192,136844,1,8,0:0:0:0:
469,192,136844,1,0,0:0:0:50:LR_CymbalWSD.wav
128,192,136844,1,0,0:0:0:0:
298,192,136932,1,0,0:0:0:0:
213,192,136932,1,0,0:0:0:0:
469,192,137020,1,2,0:0:0:0:
128,192,137020,1,0,0:0:0:0:
42,192,137020,1,0,0:0:0:0:
298,192,137109,1,0,0:0:0:0:
469,192,137197,1,2,0:0:0:0:
42,192,137197,1,0,0:0:0:0:
213,192,137197,1,0,0:0:0:0:
384,192,137285,1,0,0:0:0:0:
42,192,137373,1,0,0:0:0:0:
298,192,137373,1,0,0:0:0:0:
213,192,137462,1,0,0:0:0:0:
42,192,137550,1,8,0:0:0:0:
384,192,137550,1,2,0:0:0:0:
469,192,137550,1,0,0:0:0:0:
128,192,137550,1,0,0:0:0:0:
213,192,137638,1,0,0:0:0:0:
298,192,137726,1,0,0:0:0:0:
42,192,137726,1,0,0:0:0:0:
384,192,137815,1,0,0:0:0:0:
42,192,137903,1,2,0:0:0:0:
469,192,137903,1,0,0:0:0:0:
298,192,137903,1,0,0:0:0:0:
128,192,137991,1,0,0:0:0:0:
213,192,138079,1,0,0:0:0:0:
469,192,138079,1,0,0:0:0:0:
298,192,138167,1,2,0:0:0:0:
128,192,138167,1,0,0:0:0:0:
42,192,138167,1,0,0:0:0:0:
213,192,138256,1,2,0:0:0:0:
384,192,138256,1,8,0:0:0:0:
469,192,138256,1,0,0:0:0:0:
298,192,138344,1,0,0:0:0:0:
213,192,138432,1,0,0:0:0:0:
469,192,138432,1,0,0:0:0:0:
128,192,138520,1,0,0:0:0:0:
42,192,138609,1,2,0:0:0:0:
298,192,138609,1,0,0:0:0:50:LR_CymbalWSD.wav
469,192,138609,1,0,0:0:0:0:
384,192,138609,1,0,0:0:0:0:
213,192,138697,1,0,0:0:0:0:
384,192,138785,1,0,0:0:0:0:
128,192,138785,1,0,0:0:0:0:
298,192,138873,1,0,0:0:0:0:
213,192,138962,1,8,0:0:0:0:
42,192,138962,1,2,0:0:0:0:
469,192,138962,1,0,0:0:0:50:LR_CymbalWSD.wav
128,192,138962,1,0,0:0:0:0:
384,192,139050,1,0,0:0:0:0:
298,192,139138,1,0,0:0:0:0:
128,192,139138,1,0,0:0:0:0:
469,192,139226,1,0,0:0:0:0:
213,192,139315,1,2,0:0:0:0:
42,192,139315,1,0,0:0:0:0:
298,192,139315,1,0,0:0:0:0:
384,192,139403,1,0,0:0:0:0:
469,192,139491,1,0,0:0:0:0:
128,192,139491,1,0,0:0:0:0:
213,192,139579,1,0,0:0:0:0:
298,192,139667,1,2,0:0:0:0:
384,192,139667,1,8,0:0:0:0:
469,192,139667,1,0,0:0:0:0:
42,192,139667,1,0,0:0:0:0:
128,192,139756,1,0,0:0:0:0:
384,192,139844,1,2,0:0:0:0:
469,192,139844,1,0,0:0:0:0:
213,192,139844,1,0,0:0:0:0:
128,192,139932,1,0,0:0:0:0:
469,192,140020,1,2,0:0:0:0:
42,192,140020,1,0,0:0:0:0:
298,192,140020,1,0,0:0:0:0:
384,192,140109,1,0,0:0:0:0:
128,192,140197,1,0,0:0:0:0:
213,192,140197,1,0,0:0:0:0:
384,192,140285,1,0,0:0:0:0:
213,192,140373,1,8,0:0:0:0:
42,192,140373,1,2,0:0:0:0:
298,192,140373,1,0,0:0:0:0:
469,192,140373,1,0,0:0:0:0:
128,192,140462,1,0,0:0:0:0:
213,192,140550,1,0,0:0:0:0:
384,192,140550,1,0,0:0:0:0:
42,192,140638,1,0,0:0:0:0:
298,192,140726,1,2,0:0:0:0:
469,192,140726,1,0,0:0:0:0:
128,192,140726,1,0,0:0:0:0:
213,192,140815,1,0,0:0:0:0:
42,192,140903,1,0,0:0:0:0:
384,192,140903,1,0,0:0:0:0:
469,192,140991,1,2,0:0:0:0:
213,192,140991,1,0,0:0:0:0:
298,192,140991,1,0,0:0:0:0:
128,192,141079,1,2,0:0:0:0:
42,192,141079,1,8,0:0:0:0:
384,192,141079,1,0,0:0:0:0:
213,192,141167,1,0,0:0:0:0:
469,192,141256,1,0,0:0:0:0:
298,192,141256,1,0,0:0:0:0:
384,192,141344,1,0,0:0:0:0:
213,192,141432,1,2,0:0:0:0:
298,192,141432,1,0,0:0:0:0:
42,192,141432,1,0,0:0:0:0:
128,192,141432,1,0,0:0:0:0:
384,192,141520,1,0,0:0:0:0:
469,192,141609,1,2,0:0:0:0:
128,192,141609,1,0,0:0:0:0:
42,192,141609,1,0,0:0:0:0:
298,192,141697,1,0,0:0:0:0:
469,192,141785,1,8,0:0:0:0:
42,192,141785,1,2,0:0:0:0:
128,192,141785,1,0,0:0:0:0:
213,192,141785,1,0,0:0:0:0:
384,192,141873,1,0,0:0:0:0:
42,192,141962,1,2,0:0:0:0:
298,192,141962,1,0,0:0:0:0:
128,192,141962,1,0,0:0:0:0:
213,192,142050,1,0,0:0:0:0:
42,192,142138,1,2,0:0:0:0:
128,192,142138,1,0,0:0:0:0:
298,192,142138,1,0,0:0:0:0:
469,192,142138,1,0,0:0:0:0:
384,192,142226,1,0,0:0:0:0:
128,192,142315,1,2,0:0:0:0:
42,192,142315,1,0,0:0:0:0:
298,192,142315,1,0,0:0:0:0:
213,192,142403,1,0,0:0:0:0:
384,192,142491,1,8,0:0:0:0:
469,192,142491,1,2,0:0:0:0:
128,192,142491,1,0,0:0:0:0:
42,192,142491,1,0,0:0:0:0:
298,192,142579,1,2,0:0:0:0:
213,192,142579,1,0,0:0:0:0:
128,192,142667,1,2,0:0:0:0:
42,192,142667,1,0,0:0:0:0:
384,192,142667,1,0,0:0:0:0:
298,192,142756,1,2,0:0:0:0:
469,192,142756,1,0,0:0:0:0:
64,192,142844,5,2,0:0:0:0:
384,192,142844,1,0,0:0:0:50:LR_CymbalWSD.wav
128,192,142844,1,0,0:0:0:0:
213,192,142844,1,0,0:0:0:0:
469,192,142932,1,0,0:0:0:0:
298,192,142932,1,0,0:0:0:0:
128,192,143020,1,0,0:0:0:0:
213,192,143020,1,0,0:0:0:0:
298,192,143109,1,2,0:0:0:0:
469,192,143109,1,0,0:0:0:0:
213,192,143197,1,2,0:0:0:0:
384,192,143197,1,8,0:0:0:0:
42,192,143197,1,0,0:0:0:0:
469,192,143285,1,0,0:0:0:0:
298,192,143285,1,0,0:0:0:0:
42,192,143373,1,2,0:0:0:0:
213,192,143373,1,0,0:0:0:0:
128,192,143373,1,0,0:0:0:0:
384,192,143462,1,0,0:0:0:0:
298,192,143462,1,0,0:0:0:0:
42,192,143550,1,2,0:0:0:0:
469,192,143550,1,0,0:0:0:0:
128,192,143550,1,0,0:0:0:0:
384,192,143638,1,0,0:0:0:0:
213,192,143638,1,0,0:0:0:0:
298,192,143726,1,0,0:0:0:0:
42,192,143726,1,0,0:0:0:0:
128,192,143815,1,0,0:0:0:0:
213,192,143903,1,2,0:0:0:0:
469,192,143903,1,8,0:0:0:0:
384,192,143903,1,0,0:0:0:0:
298,192,143991,1,0,0:0:0:0:
42,192,143991,1,0,0:0:0:0:
384,192,144079,1,0,0:0:0:0:
128,192,144079,1,0,0:0:0:0:
213,192,144167,1,0,0:0:0:0:
469,192,144167,1,0,0:0:0:0:
298,192,144256,1,2,0:0:0:0:
128,192,144256,1,0,0:0:0:0:
42,192,144256,1,0,0:0:0:0:
213,192,144344,1,0,0:0:0:0:
384,192,144344,1,0,0:0:0:0:
469,192,144432,1,0,0:0:0:0:
298,192,144432,1,0,0:0:0:0:
42,192,144520,1,2,0:0:0:0:
384,192,144520,1,0,0:0:0:0:
128,192,144609,1,2,0:0:0:0:
469,192,144609,1,8,0:0:0:0:
298,192,144609,1,0,0:0:0:0:
213,192,144697,1,0,0:0:0:0:
42,192,144697,1,0,0:0:0:0:
128,192,144785,1,2,0:0:0:0:
384,192,144785,1,0,0:0:0:0:
213,192,144873,1,0,0:0:0:0:
469,192,144873,1,0,0:0:0:0:
42,192,144962,1,2,0:0:0:0:
298,192,144962,1,0,0:0:0:0:
128,192,144962,1,0,0:0:0:0:
384,192,145050,1,0,0:0:0:0:
213,192,145050,1,0,0:0:0:0:
469,192,145138,1,0,0:0:0:0:
128,192,145138,1,0,0:0:0:0:
42,192,145226,1,0,0:0:0:0:
298,192,145226,1,0,0:0:0:0:
384,192,145315,1,2,0:0:0:0:
213,192,145315,1,8,0:0:0:0:
469,192,145315,1,0,0:0:0:0:
298,192,145403,1,0,0:0:0:0:
42,192,145403,1,0,0:0:0:0:
128,192,145491,1,0,0:0:0:0:
469,192,145491,1,0,0:0:0:0:
213,192,145579,1,0,0:0:0:0:
384,192,145579,1,0,0:0:0:0:
298,192,145667,1,2,0:0:0:0:
128,192,145667,1,0,0:0:0:0:
42,192,145667,1,0,0:0:0:0:
469,192,145756,1,0,0:0:0:0:
213,192,145756,1,0,0:0:0:0:
384,192,145844,1,0,0:0:0:0:
42,192,145844,1,0,0:0:0:0:
469,192,145932,1,2,0:0:0:0:
128,192,145932,1,0,0:0:0:0:
298,192,145932,1,0,0:0:0:0:
42,192,146020,1,2,0:0:0:0:
384,192,146020,1,8,0:0:0:0:
213,192,146020,1,0,0:0:0:0:
128,192,146109,1,0,0:0:0:0:
298,192,146109,1,0,0:0:0:0:
384,192,146197,1,2,0:0:0:0:
469,192,146197,1,0,0:0:0:0:
213,192,146197,1,0,0:0:0:0:
42,192,146285,1,0,0:0:0:0:
298,192,146285,1,0,0:0:0:0:
469,192,146373,1,2,0:0:0:0:
128,192,146373,1,0,0:0:0:0:
213,192,146373,1,0,0:0:0:0:
42,192,146462,1,0,0:0:0:0:
384,192,146462,1,0,0:0:0:0:
213,192,146550,1,0,0:0:0:0:
469,192,146550,1,0,0:0:0:0:
42,192,146638,1,2,0:0:0:0:
298,192,146638,1,0,0:0:0:0:
128,192,146638,1,0,0:0:0:0:
469,192,146726,1,2,0:0:0:0:
213,192,146726,1,8,0:0:0:0:
384,192,146726,1,0,0:0:0:0:
42,192,146815,1,0,0:0:0:0:
128,192,146815,1,0,0:0:0:0:
213,192,146903,1,2,0:0:0:0:
469,192,146903,1,0,0:0:0:0:
298,192,146903,1,0,0:0:0:0:
128,192,146991,1,0,0:0:0:0:
384,192,146991,1,0,0:0:0:0:
469,192,147079,1,2,0:0:0:0:
298,192,147079,1,0,0:0:0:0:
42,192,147079,1,0,0:0:0:0:
384,192,147167,1,0,0:0:0:0:
128,192,147167,1,0,0:0:0:0:
298,192,147256,1,0,0:0:0:0:
42,192,147256,1,0,0:0:0:0:
469,192,147344,1,0,0:0:0:0:
213,192,147344,1,0,0:0:0:0:
42,192,147432,1,2,0:0:0:0:
384,192,147432,1,8,0:0:0:0:
128,192,147432,1,0,0:0:0:0:
213,192,147520,1,0,0:0:0:0:
469,192,147520,1,0,0:0:0:0:
42,192,147609,1,0,0:0:0:0:
298,192,147609,1,0,0:0:0:0:
128,192,147697,1,0,0:0:0:0:
384,192,147697,1,0,0:0:0:0:
213,192,147785,1,2,0:0:0:0:
469,192,147785,1,0,0:0:0:0:
42,192,147785,1,0,0:0:0:0:
128,192,147873,1,0,0:0:0:0:
298,192,147873,1,0,0:0:0:0:
213,192,147962,1,2,0:0:0:0:
384,192,147962,1,0,0:0:0:0:
469,192,148050,1,2,0:0:0:0:
298,192,148050,1,0,0:0:0:0:
384,192,148138,1,2,0:0:0:0:
42,192,148138,1,8,0:0:0:0:
213,192,148138,1,0,0:0:0:0:
128,192,148138,1,0,0:0:0:0:
469,192,148226,1,0,0:0:0:0:
298,192,148226,1,0,0:0:0:0:
213,192,148315,1,2,0:0:0:0:
384,192,148315,1,0,0:0:0:0:
298,192,148403,1,2,0:0:0:0:
128,192,148403,1,0,0:0:0:0:
42,192,148491,1,2,0:0:0:0:
469,192,148491,1,0,0:0:0:0:
213,192,148491,1,0,0:0:0:0:
213,192,148667,1,0,0:0:0:0:
42,192,148667,1,0,0:0:0:0:
469,192,148756,1,2,0:0:0:0:
298,192,148756,1,0,0:0:0:0:
384,192,148756,1,0,0:0:0:0:
42,192,148844,1,8,0:0:0:0:
213,192,148844,1,2,0:0:0:0:
128,192,148844,1,0,0:0:0:0:
42,192,149020,1,2,0:0:0:0:
298,192,149020,1,0,0:0:0:0:
384,192,149020,1,0,0:0:0:0:
469,192,149197,1,2,0:0:0:0:
42,192,149197,1,0,0:0:0:0:
213,192,149197,1,0,0:0:0:0:
213,192,149373,1,0,0:0:0:0:
384,192,149373,1,0,0:0:0:0:
42,192,149550,1,2,0:0:0:0:
298,192,149550,1,8,0:0:0:0:
469,192,149550,1,0,0:0:0:0:
128,192,149550,1,0,0:0:0:0:
128,192,149726,1,0,0:0:0:0:
384,192,149726,1,0,0:0:0:0:
298,192,149815,1,0,0:0:0:0:
42,192,149903,1,2,0:0:0:0:
469,192,149903,1,0,0:0:0:0:
213,192,149903,1,0,0:0:0:0:
384,192,150079,1,0,0:0:0:0:
469,192,150079,1,0,0:0:0:0:
42,192,150167,1,2,0:0:0:0:
213,192,150167,1,0,0:0:0:0:
128,192,150167,1,0,0:0:0:0:
298,192,150256,1,8,0:0:0:0:
384,192,150256,1,2,0:0:0:0:
469,192,150256,1,0,0:0:0:0:
213,192,150432,1,2,0:0:0:0:
42,192,150432,1,0,0:0:0:0:
384,192,150432,1,0,0:0:0:0:
469,192,150520,1,0,0:0:0:0:
128,192,150609,1,2,0:0:0:0:
42,192,150609,1,0,0:0:0:0:
213,192,150609,1,0,0:0:0:0:
298,192,150785,1,0,0:0:0:0:
128,192,150785,1,0,0:0:0:0:
298,192,150962,1,2,0:0:0:0:
42,192,150962,1,8,0:0:0:0:
469,192,150962,1,0,0:0:0:0:
128,192,150962,1,0,0:0:0:0:
213,192,151138,1,0,0:0:0:0:
384,192,151138,1,0,0:0:0:0:
469,192,151315,1,2,0:0:0:0:
213,192,151315,1,0,0:0:0:0:
42,192,151315,1,0,0:0:0:0:
384,192,151403,1,0,0:0:0:0:
128,192,151403,1,0,0:0:0:0:
298,192,151491,1,0,0:0:0:0:
42,192,151491,1,0,0:0:0:0:
213,192,151579,1,2,0:0:0:0:
384,192,151579,1,0,0:0:0:0:
469,192,151579,1,0,0:0:0:0:
298,192,151667,1,8,0:0:0:0:
42,192,151667,1,2,0:0:0:0:
128,192,151667,1,0,0:0:0:0:
213,192,151756,1,0,0:0:0:0:
469,192,151756,1,0,0:0:0:0:
384,192,151844,1,2,0:0:0:0:
128,192,151844,1,0,0:0:0:0:
42,192,151844,1,0,0:0:0:0:
298,192,151932,1,0,0:0:0:0:
469,192,152020,1,2,0:0:0:0:
42,192,152020,1,0,0:0:0:0:
213,192,152020,1,0,0:0:0:0:
128,192,152109,1,0,0:0:0:0:
384,192,152109,1,0,0:0:0:0:
469,192,152197,1,0,0:0:0:0:
213,192,152197,1,0,0:0:0:0:
298,192,152285,1,2,0:0:0:0:
384,192,152285,1,0,0:0:0:0:
128,192,152285,1,0,0:0:0:0:
469,192,152373,1,2,0:0:0:0:
213,192,152373,1,8,0:0:0:0:
42,192,152373,1,0,0:0:0:0:
128,192,152462,1,0,0:0:0:0:
384,192,152462,1,0,0:0:0:0:
298,192,152550,1,2,0:0:0:0:
469,192,152550,1,0,0:0:0:0:
42,192,152550,1,0,0:0:0:0:
213,192,152638,1,0,0:0:0:0:
42,192,152726,1,2,0:0:0:0:
384,192,152726,1,0,0:0:0:0:
128,192,152726,1,0,0:0:0:0:
213,192,152815,1,0,0:0:0:0:
469,192,152815,1,0,0:0:0:0:
298,192,152903,1,0,0:0:0:0:
42,192,152903,1,0,0:0:0:0:
128,192,152991,1,0,0:0:0:0:
384,192,153079,1,8,0:0:0:0:
469,192,153079,1,2,0:0:0:0:
213,192,153079,1,0,0:0:0:0:
42,192,153167,1,0,0:0:0:0:
298,192,153167,1,0,0:0:0:0:
128,192,153256,1,0,0:0:0:0:
384,192,153256,1,0,0:0:0:0:
213,192,153344,1,0,0:0:0:0:
42,192,153432,1,2,0:0:0:0:
469,192,153432,1,0,0:0:0:0:
384,192,153432,1,0,0:0:0:0:
128,192,153520,1,0,0:0:0:0:
298,192,153520,1,0,0:0:0:0:
42,192,153609,1,2,0:0:0:0:
469,192,153609,1,0,0:0:0:0:
384,192,153653,1,2,0:0:0:0:
213,192,153697,1,2,0:0:0:0:
298,192,153741,1,2,0:0:0:0:
469,192,153785,1,8,0:0:0:0:
128,192,153785,1,2,0:0:0:0:
384,192,153785,1,0,0:0:0:0:
298,192,153873,1,0,0:0:0:0:
42,192,153873,1,0,0:0:0:0:
469,192,153962,1,2,0:0:0:0:
128,192,153962,1,0,0:0:0:0:
213,192,154006,1,2,0:0:0:0:
384,192,154050,1,2,0:0:0:0:
469,192,154094,1,2,0:0:0:0:
42,192,154138,1,2,0:0:0:0:
298,192,154138,1,0,0:0:0:50:LR_CymbalWSD.wav
128,192,154138,1,0,0:0:0:0:
469,192,154226,1,0,0:0:0:0:
213,192,154226,1,0,0:0:0:0:
384,192,154315,1,0,0:0:0:0:
128,192,154315,1,0,0:0:0:0:
42,192,154403,1,0,0:0:0:0:
298,192,154403,1,0,0:0:0:0:
469,192,154491,1,2,0:0:0:0:
384,192,154491,1,8,0:0:0:0:
213,192,154491,1,0,0:0:0:0:
42,192,154579,1,0,0:0:0:0:
298,192,154579,1,0,0:0:0:0:
128,192,154667,1,0,0:0:0:0:
384,192,154667,1,0,0:0:0:0:
469,192,154756,1,0,0:0:0:0:
213,192,154756,1,0,0:0:0:0:
42,192,154844,1,2,0:0:0:0:
128,192,154844,1,0,0:0:0:0:
298,192,154844,1,0,0:0:0:0:
213,192,154932,1,0,0:0:0:0:
469,192,154932,1,0,0:0:0:0:
42,192,155020,1,0,0:0:0:0:
384,192,155020,1,0,0:0:0:0:
128,192,155109,1,2,0:0:0:0:
298,192,155109,1,0,0:0:0:0:
469,192,155197,1,2,0:0:0:0:
384,192,155197,1,8,0:0:0:0:
213,192,155197,1,0,0:0:0:0:
298,192,155285,1,0,0:0:0:0:
42,192,155285,1,0,0:0:0:0:
128,192,155373,1,0,0:0:0:0:
384,192,155373,1,0,0:0:0:0:
298,192,155462,1,0,0:0:0:0:
42,192,155462,1,0,0:0:0:0:
469,192,155550,1,2,0:0:0:0:
384,192,155550,1,0,0:0:0:0:
213,192,155550,1,0,0:0:0:0:
128,192,155638,1,0,0:0:0:0:
298,192,155638,1,0,0:0:0:0:
42,192,155726,1,0,0:0:0:0:
384,192,155726,1,0,0:0:0:0:
469,192,155815,1,0,0:0:0:0:
213,192,155815,1,0,0:0:0:0:
42,192,155903,1,2,0:0:0:0:
298,192,155903,1,8,0:0:0:0:
128,192,155903,1,0,0:0:0:0:
469,192,155991,1,0,0:0:0:0:
213,192,155991,1,0,0:0:0:0:
128,192,156079,1,0,0:0:0:0:
384,192,156079,1,0,0:0:0:0:
298,192,156167,1,0,0:0:0:0:
42,192,156167,1,0,0:0:0:0:
469,192,156256,1,2,0:0:0:0:
384,192,156256,1,0,0:0:0:0:
213,192,156256,1,0,0:0:0:0:
298,192,156344,1,0,0:0:0:0:
42,192,156344,1,0,0:0:0:0:
128,192,156432,1,0,0:0:0:0:
469,192,156432,1,0,0:0:0:0:
298,192,156520,1,0,0:0:0:0:
42,192,156520,1,0,0:0:0:0:
384,192,156609,1,2,0:0:0:0:
469,192,156609,1,8,0:0:0:0:
213,192,156609,1,0,0:0:0:0:
42,192,156697,1,0,0:0:0:0:
128,192,156697,1,0,0:0:0:0:
298,192,156785,1,2,0:0:0:0:
469,192,156785,1,0,0:0:0:0:
384,192,156785,1,0,0:0:0:0:
128,192,156873,1,0,0:0:0:0:
42,192,156873,1,0,0:0:0:0:
213,192,156962,1,2,0:0:0:0:
469,192,156962,1,0,0:0:0:0:
384,192,156962,1,0,0:0:0:0:
42,192,157050,1,0,0:0:0:0:
298,192,157050,1,0,0:0:0:0:
384,192,157138,1,0,0:0:0:0:
128,192,157138,1,0,0:0:0:0:
469,192,157226,1,0,0:0:0:0:
213,192,157226,1,0,0:0:0:0:
42,192,157315,1,2,0:0:0:0:
298,192,157315,1,8,0:0:0:0:
128,192,157315,1,0,0:0:0:50:LR_CymbalWSD.wav
469,192,157403,1,0,0:0:0:0:
213,192,157403,1,0,0:0:0:0:
384,192,157491,1,0,0:0:0:0:
128,192,157491,1,0,0:0:0:0:
42,192,157579,1,0,0:0:0:0:
298,192,157579,1,0,0:0:0:0:
384,192,157667,1,2,0:0:0:0:
213,192,157667,1,0,0:0:0:0:
469,192,157667,1,0,0:0:0:0:
42,192,157756,1,0,0:0:0:0:
298,192,157756,1,0,0:0:0:0:
384,192,157844,1,0,0:0:0:0:
128,192,157844,1,0,0:0:0:0:
213,192,157932,1,2,0:0:0:0:
469,192,157932,1,0,0:0:0:0:
298,192,158020,1,2,0:0:0:0:
128,192,158020,1,8,0:0:0:0:
42,192,158020,1,0,0:0:0:50:LR_CymbalWSD.wav
213,192,158109,1,0,0:0:0:0:
384,192,158109,1,0,0:0:0:0:
469,192,158197,1,0,0:0:0:0:
298,192,158197,1,0,0:0:0:0:
42,192,158285,1,0,0:0:0:0:
213,192,158285,1,0,0:0:0:0:
384,192,158373,1,2,0:0:0:0:
128,192,158373,1,0,0:0:0:0:
469,192,158373,1,0,0:0:0:0:
42,192,158462,1,0,0:0:0:0:
298,192,158462,1,0,0:0:0:0:
384,192,158550,1,0,0:0:0:0:
128,192,158550,1,0,0:0:0:0:
469,192,158638,1,0,0:0:0:0:
213,192,158638,1,0,0:0:0:0:
298,192,158726,1,2,0:0:0:0:
128,192,158726,1,8,0:0:0:0:
42,192,158726,1,0,0:0:0:50:LR_CymbalWSD.wav
213,192,158815,1,0,0:0:0:0:
469,192,158815,1,0,0:0:0:0:
128,192,158903,1,0,0:0:0:0:
384,192,158903,1,0,0:0:0:0:
42,192,158991,1,0,0:0:0:0:
298,192,158991,1,0,0:0:0:0:
213,192,159079,1,2,0:0:0:0:
469,192,159079,1,0,0:0:0:50:LR_CymbalWSD.wav
384,192,159079,1,0,0:0:0:0:
42,192,159167,1,0,0:0:0:0:
298,192,159167,1,0,0:0:0:0:
384,192,159256,1,0,0:0:0:0:
128,192,159256,1,0,0:0:0:0:
469,192,159344,1,0,0:0:0:0:
213,192,159344,1,0,0:0:0:0:
384,192,159432,1,2,0:0:0:0:
42,192,159432,1,8,0:0:0:0:
128,192,159432,1,0,0:0:0:50:LR_CymbalWSD.wav
213,192,159520,1,0,0:0:0:0:
469,192,159520,1,0,0:0:0:0:
384,192,159609,1,2,0:0:0:0:
42,192,159609,1,0,0:0:0:0:
128,192,159609,1,0,0:0:0:0:
298,192,159697,1,0,0:0:0:0:
469,192,159697,1,0,0:0:0:0:
42,192,159785,1,2,0:0:0:0:
128,192,159785,1,0,0:0:0:0:
213,192,159785,1,0,0:0:0:0:
298,192,159873,1,0,0:0:0:0:
469,192,159873,1,0,0:0:0:0:
42,192,159962,1,0,0:0:0:0:
384,192,159962,1,0,0:0:0:0:
128,192,160050,1,0,0:0:0:0:
298,192,160050,1,0,0:0:0:0:
42,192,160138,1,8,0:0:0:0:
469,192,160138,1,2,0:0:0:0:
213,192,160138,1,0,0:0:0:0:
128,192,160226,1,0,0:0:0:0:
384,192,160226,1,0,0:0:0:0:
213,192,160315,1,0,0:0:0:0:
469,192,160315,1,0,0:0:0:0:
298,192,160403,1,0,0:0:0:0:
42,192,160403,1,0,0:0:0:0:
128,192,160491,1,2,0:0:0:0:
384,192,160491,1,0,0:0:0:0:
469,192,160491,1,0,0:0:0:0:
298,192,160579,1,0,0:0:0:0:
42,192,160579,1,0,0:0:0:0:
469,192,160667,1,0,0:0:0:0:
213,192,160667,1,0,0:0:0:0:
42,192,160756,1,2,0:0:0:0:
128,192,160756,1,0,0:0:0:0:
384,192,160756,1,0,0:0:0:0:
469,192,160844,1,2,0:0:0:0:
213,192,160844,1,8,0:0:0:0:
298,192,160844,1,0,0:0:0:0:
42,192,160932,1,0,0:0:0:0:
128,192,160932,1,0,0:0:0:0:
298,192,161020,1,0,0:0:0:0:
469,192,161020,1,0,0:0:0:0:
42,192,161109,1,0,0:0:0:0:
213,192,161109,1,0,0:0:0:0:
298,192,161197,1,2,0:0:0:0:
469,192,161197,1,0,0:0:0:50:LR_CymbalWSD.wav
128,192,161197,1,0,0:0:0:0:
213,192,161285,1,0,0:0:0:0:
384,192,161285,1,0,0:0:0:0:
128,192,161373,1,0,0:0:0:0:
298,192,161373,1,0,0:0:0:0:
213,192,161462,1,0,0:0:0:0:
42,192,161462,1,0,0:0:0:0:
384,192,161550,1,8,0:0:0:0:
469,192,161550,1,2,0:0:0:0:
128,192,161550,1,0,0:0:0:50:LR_CymbalWSD.wav
42,192,161638,1,0,0:0:0:0:
298,192,161638,1,0,0:0:0:0:
213,192,161726,1,0,0:0:0:0:
469,192,161726,1,0,0:0:0:0:
384,192,161815,1,0,0:0:0:0:
128,192,161815,1,0,0:0:0:0:
42,192,161903,1,2,0:0:0:0:
469,192,161903,1,0,0:0:0:0:
213,192,161903,1,0,0:0:0:0:
128,192,161991,1,0,0:0:0:0:
298,192,161991,1,0,0:0:0:0:
213,192,162079,1,0,0:0:0:0:
384,192,162079,1,0,0:0:0:0:
469,192,162167,1,0,0:0:0:0:
298,192,162167,1,0,0:0:0:0:
128,192,162256,1,2,0:0:0:0:
384,192,162256,1,8,0:0:0:0:
42,192,162256,1,0,0:0:0:0:
213,192,162344,1,0,0:0:0:0:
469,192,162344,1,0,0:0:0:0:
298,192,162432,1,2,0:0:0:0:
42,192,162432,1,0,0:0:0:0:
128,192,162432,1,0,0:0:0:0:
469,192,162520,1,0,0:0:0:0:
213,192,162520,1,0,0:0:0:0:
42,192,162609,1,2,0:0:0:0:
128,192,162609,1,0,0:0:0:0:
384,192,162609,1,0,0:0:0:0:
469,192,162697,1,0,0:0:0:0:
213,192,162697,1,0,0:0:0:0:
128,192,162785,1,0,0:0:0:0:
298,192,162785,1,0,0:0:0:0:
384,192,162873,1,0,0:0:0:0:
469,192,162962,1,8,0:0:0:0:
42,192,162962,1,2,0:0:0:0:
213,192,162962,1,0,0:0:0:0:
298,192,163050,1,0,0:0:0:0:
128,192,163050,1,0,0:0:0:0:
384,192,163138,1,0,0:0:0:0:
42,192,163138,1,0,0:0:0:0:
469,192,163226,1,0,0:0:0:0:
213,192,163226,1,0,0:0:0:0:
42,192,163315,1,2,0:0:0:0:
298,192,163315,1,0,0:0:0:0:
128,192,163315,1,0,0:0:0:0:
213,192,163403,1,0,0:0:0:0:
384,192,163403,1,0,0:0:0:0:
469,192,163491,1,0,0:0:0:0:
298,192,163491,1,0,0:0:0:0:
128,192,163579,1,2,0:0:0:0:
42,192,163579,1,0,0:0:0:0:
213,192,163579,1,0,0:0:0:0:
384,192,163667,1,2,0:0:0:0:
298,192,163667,1,8,0:0:0:0:
469,192,163667,1,0,0:0:0:0:
128,192,163756,1,0,0:0:0:0:
42,192,163756,1,0,0:0:0:0:
469,192,163844,1,0,0:0:0:0:
298,192,163844,1,0,0:0:0:0:
213,192,163932,1,0,0:0:0:0:
42,192,163932,1,0,0:0:0:0:
298,192,164020,1,2,0:0:0:0:
384,192,164020,1,0,0:0:0:0:
469,192,164020,1,0,0:0:0:0:
42,192,164109,1,0,0:0:0:0:
128,192,164109,1,0,0:0:0:0:
298,192,164197,1,2,0:0:0:0:
384,192,164197,1,0,0:0:0:0:
469,192,164197,1,0,0:0:0:0:
213,192,164285,1,0,0:0:0:0:
128,192,164285,1,0,0:0:0:0:
42,192,164373,1,8,0:0:0:0:
469,192,164373,1,2,0:0:0:0:
384,192,164373,1,0,0:0:0:0:
298,192,164462,1,0,0:0:0:0:
213,192,164462,1,0,0:0:0:0:
128,192,164550,1,2,0:0:0:0:
42,192,164550,1,0,0:0:0:0:
469,192,164550,1,0,0:0:0:0:
298,192,164638,1,0,0:0:0:0:
384,192,164638,1,0,0:0:0:0:
128,192,164726,1,2,0:0:0:0:
42,192,164726,1,0,0:0:0:0:
213,192,164726,1,0,0:0:0:0:
298,192,164815,1,0,0:0:0:0:
469,192,164815,1,0,0:0:0:0:
384,192,164903,1,2,0:0:0:0:
128,192,164903,1,0,0:0:0:0:
42,192,164903,1,0,0:0:0:0:
298,192,164991,1,0,0:0:0:0:
213,192,164991,1,0,0:0:0:0:
469,192,165079,1,8,0:0:0:0:
42,192,165079,1,2,0:0:0:0:
384,192,165079,1,0,0:0:0:0:
128,192,165167,1,2,0:0:0:0:
298,192,165167,1,0,0:0:0:0:
213,192,165167,1,0,0:0:0:0:
42,192,165256,1,2,0:0:0:0:
384,192,165256,1,0,0:0:0:0:
469,192,165256,1,0,0:0:0:0:
298,192,165344,1,2,0:0:0:0:
128,192,165344,1,0,0:0:0:0:
213,192,165344,1,0,0:0:0:0:
384,192,165432,1,2,0:0:0:0:
42,192,165432,1,0,0:0:0:50:LR_CymbalWSD.wav
469,192,165432,1,0,0:0:0:0:
298,192,165520,1,0,0:0:0:0:
213,192,165520,1,0,0:0:0:0:
469,192,165609,1,0,0:0:0:0:
128,192,165609,1,0,0:0:0:0:
384,192,165697,1,0,0:0:0:0:
42,192,165697,1,0,0:0:0:0:
298,192,165785,1,8,0:0:0:0:
469,192,165785,1,2,0:0:0:0:
213,192,165785,1,0,0:0:0:0:
42,192,165873,1,0,0:0:0:0:
128,192,165873,1,0,0:0:0:0:
469,192,165962,1,0,0:0:0:0:
298,192,165962,1,0,0:0:0:0:
213,192,166050,1,0,0:0:0:0:
42,192,166050,1,0,0:0:0:0:
128,192,166138,1,2,0:0:0:0:
469,192,166138,1,0,0:0:0:0:
384,192,166138,1,0,0:0:0:0:
42,192,166226,1,0,0:0:0:0:
213,192,166226,1,0,0:0:0:0:
128,192,166315,1,0,0:0:0:0:
298,192,166315,1,0,0:0:0:0:
213,192,166403,1,2,0:0:0:0:
469,192,166403,1,0,0:0:0:0:
384,192,166403,1,0,0:0:0:0:
298,192,166491,1,2,0:0:0:0:
128,192,166491,1,8,0:0:0:0:
42,192,166491,1,0,0:0:0:0:
384,192,166579,1,0,0:0:0:0:
469,192,166579,1,0,0:0:0:0:
42,192,166667,1,0,0:0:0:0:
213,192,166667,1,0,0:0:0:0:
298,192,166756,1,0,0:0:0:0:
128,192,166756,1,0,0:0:0:0:
213,192,166844,1,2,0:0:0:0:
469,192,166844,1,0,0:0:0:0:
384,192,166844,1,0,0:0:0:0:
298,192,166932,1,0,0:0:0:0:
42,192,166932,1,0,0:0:0:0:
384,192,167020,1,0,0:0:0:0:
128,192,167020,1,0,0:0:0:0:
213,192,167109,1,0,0:0:0:0:
469,192,167109,1,0,0:0:0:0:
298,192,167197,1,8,0:0:0:0:
42,192,167197,1,2,0:0:0:0:
128,192,167197,1,0,0:0:0:0:
213,192,167285,1,0,0:0:0:0:
469,192,167285,1,0,0:0:0:0:
128,192,167373,1,0,0:0:0:0:
384,192,167373,1,0,0:0:0:0:
298,192,167462,1,0,0:0:0:0:
42,192,167462,1,0,0:0:0:0:
213,192,167550,1,2,0:0:0:0:
469,192,167550,1,0,0:0:0:0:
384,192,167550,1,0,0:0:0:0:
128,192,167638,1,0,0:0:0:0:
42,192,167638,1,0,0:0:0:0:
469,192,167726,1,0,0:0:0:0:
384,192,167726,1,0,0:0:0:0:
42,192,167815,1,2,0:0:0:0:
213,192,167815,1,0,0:0:0:0:
298,192,167815,1,0,0:0:0:0:
469,192,167903,1,2,0:0:0:0:
384,192,167903,1,8,0:0:0:0:
128,192,167903,1,0,0:0:0:0:
42,192,167991,1,0,0:0:0:0:
298,192,167991,1,0,0:0:0:0:
384,192,168079,1,0,0:0:0:0:
128,192,168079,1,0,0:0:0:0:
469,192,168167,1,0,0:0:0:0:
213,192,168167,1,0,0:0:0:0:
298,192,168256,1,2,0:0:0:0:
42,192,168256,1,0,0:0:0:0:
128,192,168256,1,0,0:0:0:0:
213,192,168344,1,0,0:0:0:0:
469,192,168344,1,0,0:0:0:0:
384,192,168432,1,0,0:0:0:0:
128,192,168432,1,0,0:0:0:0:
42,192,168520,1,0,0:0:0:0:
298,192,168520,1,0,0:0:0:0:
469,192,168609,1,8,0:0:0:0:
213,192,168609,1,2,0:0:0:0:
384,192,168609,1,0,0:0:0:0:
42,192,168697,1,0,0:0:0:0:
128,192,168697,1,0,0:0:0:0:
298,192,168785,1,0,0:0:0:0:
469,192,168785,1,0,0:0:0:0:
42,192,168873,1,0,0:0:0:0:
213,192,168873,1,0,0:0:0:0:
384,192,168962,1,2,0:0:0:0:
469,192,168962,1,0,0:0:0:0:
128,192,168962,1,0,0:0:0:0:
298,192,169050,1,0,0:0:0:0:
42,192,169050,1,0,0:0:0:0:
384,192,169138,1,0,0:0:0:0:
128,192,169138,1,0,0:0:0:0:
469,192,169226,1,2,0:0:0:0:
213,192,169226,1,0,0:0:0:0:
128,192,169315,1,2,0:0:0:0:
298,192,169315,1,8,0:0:0:0:
42,192,169315,1,0,0:0:0:0:
469,192,169403,1,0,0:0:0:0:
384,192,169403,1,0,0:0:0:0:
42,192,169491,1,0,0:0:0:0:
213,192,169491,1,0,0:0:0:0:
298,192,169579,1,0,0:0:0:0:
469,192,169579,1,0,0:0:0:0:
384,192,169667,1,2,0:0:0:0:
42,192,169667,1,0,0:0:0:50:LR_CymbalWSD.wav
128,192,169667,1,0,0:0:0:0:
213,192,169667,1,0,0:0:0:0:
298,192,169756,1,0,0:0:0:0:
469,192,169756,1,0,0:0:0:0:
42,192,169844,1,2,0:0:0:0:
128,192,169844,1,0,0:0:0:0:
213,192,169844,1,0,0:0:0:0:
384,192,169932,1,0,0:0:0:0:
298,192,169932,1,0,0:0:0:0:
128,192,170020,1,8,0:0:0:0:
42,192,170020,1,2,0:0:0:0:
469,192,170020,1,0,0:0:0:0:
298,192,170109,1,0,0:0:0:0:
213,192,170109,1,0,0:0:0:0:
42,192,170197,1,2,0:0:0:0:
384,192,170197,1,0,0:0:0:0:
469,192,170197,1,0,0:0:0:0:
128,192,170285,1,0,0:0:0:0:
213,192,170285,1,0,0:0:0:0:
42,192,170373,1,2,0:0:0:0:
298,192,170373,1,0,0:0:0:50:LR_CymbalWSD.wav
469,192,170373,1,0,0:0:0:0:
384,192,170462,1,0,0:0:0:0:
213,192,170462,1,0,0:0:0:0:
298,192,170550,1,2,0:0:0:0:
42,192,170550,1,0,0:0:0:0:
128,192,170550,1,0,0:0:0:0:
469,192,170638,1,0,0:0:0:0:
384,192,170638,1,0,0:0:0:0:
42,192,170726,5,8,0:0:0:0:
298,192,170726,1,2,0:0:0:0:
128,192,170726,1,0,0:0:0:0:
213,192,170815,1,2,0:0:0:0:
384,192,170815,1,0,0:0:0:0:
469,192,170815,1,0,0:0:0:0:
42,192,170903,1,2,0:0:0:0:
128,192,170903,1,0,0:0:0:0:
298,192,170903,1,0,0:0:0:0:
213,192,170991,1,2,0:0:0:0:
469,192,170991,1,0,0:0:0:0:
384,192,170991,1,0,0:0:0:0:
128,192,171079,1,2,0:0:0:0:
42,192,171079,1,0,0:0:0:50:LR_CymbalWSD.wav
469,192,171079,1,0,0:0:0:0:
298,192,171079,1,0,0:0:0:0:
