osu file format v14

[General]
AudioFilename: audio.mp3
AudioLeadIn: 0
PreviewTime: 120256
Countdown: 0
SampleSet: Soft
StackLeniency: 0.7
Mode: 3
LetterboxInBreaks: 0
SpecialStyle: 0
WidescreenStoryboard: 1

[Editor]
Bookmarks: 1668,25667,48256,69432,72256,142844
DistanceSpacing: 0.8
BeatDivisor: 4
GridSize: 16
TimelineZoom: 0.8999999

[Metadata]
Title:Wind Island
TitleUnicode:风屿
Artist:Y..J
ArtistUnicode:闫东炜
Creator:Seiran-
Version:6K Easy
Source:Dynamix
Tags:原创音乐 节奏游戏 洛天依 钢琴 electronic piano vgm ost original soundtrack rhythm Vocaloid Luo Tianyi ルォ・テンイ [Crz]Alleyne [RT]Alleyne [Emiria] victorica_db biemote McEndu dudehacker Drum-Hitnormal video game instrumental MaiZang 乐动时代 Dynamix Phigros Dance Rail TsumaMia! HiFive
BeatmapID:3011869
BeatmapSetID:1462834

[Difficulty]
HPDrainRate:6
CircleSize:6
OverallDifficulty:6
ApproachRate:5
SliderMultiplier:1.4
SliderTickRate:1

[Events]
//Background and Video events
0,0,"WindIsland1.jpg",0,0
//Break Periods
//Storyboard Layer 0 (Background)
//Storyboard Layer 1 (Fail)
//Storyboard Layer 2 (Pass)
//Storyboard Layer 3 (Foreground)
//Storyboard Layer 4 (Overlay)
//Storyboard Sound Samples

[TimingPoints]
1668,352.941176470588,4,2,1,20,1,0
120256,-100,4,2,1,20,0,1
171079,-100,4,2,1,20,0,0

[HitObjects]
469,192,1668,5,0,0:0:0:0:
469,192,2726,1,0,0:0:0:0:
298,192,3079,1,0,0:0:0:0:
213,192,3785,1,0,0:0:0:0:
384,192,4491,1,0,0:0:0:0:
213,192,5197,1,0,0:0:0:0:
42,192,5903,1,0,0:0:0:0:
384,192,7315,1,0,0:0:0:0:
298,192,8373,1,0,0:0:0:0:
128,192,8550,1,0,0:0:0:0:
42,192,8726,1,0,0:0:0:0:
213,192,9785,1,0,0:0:0:0:
298,192,9962,1,0,0:0:0:0:
469,192,10138,1,0,0:0:0:0:
384,192,11197,1,0,0:0:0:0:
298,192,11373,1,0,0:0:0:0:
128,192,11550,1,0,0:0:0:0:
469,192,12962,1,0,0:0:0:0:
298,192,13315,1,0,0:0:0:0:
128,192,13667,1,0,0:0:0:0:
384,192,14020,1,0,0:0:0:0:
213,192,14373,1,0,0:0:0:0:
298,192,15079,1,0,0:0:0:0:
42,192,15785,1,0,0:0:0:0:
213,192,16138,1,0,0:0:0:0:
384,192,16491,1,0,0:0:0:0:
298,192,16844,1,0,0:0:0:0:
469,192,17197,1,0,0:0:0:0:
469,192,18256,1,0,0:0:0:0:
213,192,18609,1,0,0:0:0:0:
384,192,18962,1,0,0:0:0:0:
128,192,19315,1,0,0:0:0:0:
298,192,19667,1,0,0:0:0:0:
42,192,20020,1,0,0:0:0:0:
384,192,20726,1,0,0:0:0:0:
213,192,21432,1,0,0:0:0:0:
128,192,22138,1,0,0:0:0:0:
42,192,22844,1,0,0:0:0:0:
128,192,25667,1,2,0:0:0:0:
384,192,25667,1,4,0:0:0:0:
213,192,26020,1,8,0:0:0:0:
384,192,26373,1,2,0:0:0:0:
298,192,26726,1,8,0:0:0:0:
128,192,27079,1,2,0:0:0:0:
298,192,27432,1,8,0:0:0:0:
128,192,27785,1,2,0:0:0:0:
42,192,28138,1,8,0:0:0:0:
384,192,28491,1,2,0:0:0:0:
469,192,28844,1,8,0:0:0:0:
128,192,29197,1,2,0:0:0:0:
213,192,29550,1,8,0:0:0:0:
384,192,29903,1,2,0:0:0:0:
298,192,30256,1,8,0:0:0:0:
128,192,30609,1,2,0:0:0:0:
42,192,30962,1,8,0:0:0:0:
384,192,31315,1,2,0:0:0:0:
213,192,31667,1,8,0:0:0:0:
298,192,32020,1,2,0:0:0:0:
128,192,32373,1,8,0:0:0:0:
469,192,32726,1,2,0:0:0:0:
298,192,33079,1,8,0:0:0:0:
384,192,33432,1,2,0:0:0:0:
128,192,33609,1,0,0:0:0:0:
298,192,33785,1,8,0:0:0:0:
213,192,33962,1,0,0:0:0:0:
469,192,34138,1,2,0:0:0:0:
128,192,34491,1,8,0:0:0:0:
213,192,34844,1,2,0:0:0:0:
298,192,35197,1,8,0:0:0:0:
128,192,35550,1,2,0:0:0:0:
213,192,35903,1,8,0:0:0:0:
469,192,36256,1,2,0:0:0:0:
469,192,36609,1,8,0:0:0:0:
384,192,36962,1,2,0:0:0:0:
42,192,36962,1,4,0:0:0:0:
128,192,37138,1,0,0:0:0:0:
213,192,37315,1,8,0:0:0:0:
298,192,37667,1,2,0:0:0:0:
384,192,37844,1,0,0:0:0:0:
469,192,38020,1,8,0:0:0:0:
128,192,38373,1,2,0:0:0:0:
213,192,38550,1,0,0:0:0:0:
384,192,38726,1,8,0:0:0:0:
128,192,39079,1,2,0:0:0:0:
298,192,39256,1,0,0:0:0:0:
469,192,39432,1,8,0:0:0:0:
213,192,39609,1,0,0:0:0:0:
384,192,39785,1,2,0:0:0:0:
384,192,40138,1,8,0:0:0:0:
128,192,40491,1,2,0:0:0:0:
298,192,40844,1,8,0:0:0:0:
469,192,41197,1,2,0:0:0:0:
42,192,41550,1,8,0:0:0:0:
213,192,41903,1,2,0:0:0:0:
384,192,42256,1,8,0:0:0:0:
298,192,42609,1,2,0:0:0:0:
469,192,42962,1,8,0:0:0:0:
213,192,43315,1,2,0:0:0:0:
42,192,43667,1,8,0:0:0:0:
128,192,44020,1,2,0:0:0:0:
298,192,44373,1,8,0:0:0:0:
213,192,44726,1,2,0:0:0:0:
384,192,45079,1,8,0:0:0:0:
42,192,45432,1,2,0:0:0:0:
128,192,45785,1,8,0:0:0:0:
213,192,46138,1,2,0:0:0:0:
298,192,46491,1,8,0:0:0:0:
469,192,46844,1,2,0:0:0:0:
384,192,47197,1,8,0:0:0:0:
42,192,47550,1,0,0:0:0:0:
42,192,47903,1,0,0:0:0:0:
128,192,48256,1,2,0:0:0:0:
384,192,48256,1,4,0:0:0:0:
298,192,48609,1,8,0:0:0:0:
128,192,48962,1,2,0:0:0:0:
213,192,49315,1,8,0:0:0:0:
384,192,49315,1,2,0:0:0:0:
298,192,49667,1,2,0:0:0:0:
42,192,50020,1,8,0:0:0:0:
213,192,50373,1,2,0:0:0:0:
469,192,50726,1,8,0:0:0:0:
298,192,50903,1,2,0:0:0:0:
128,192,51079,1,2,0:0:0:0:
42,192,51432,1,8,0:0:0:0:
213,192,51785,1,2,0:0:0:0:
298,192,52138,1,8,0:0:0:0:
384,192,52138,1,2,0:0:0:0:
128,192,52491,1,2,0:0:0:0:
469,192,52844,128,8,53903:0:0:0:0:
213,192,53197,1,2,0:0:0:0:
42,192,53550,1,8,0:0:0:0:
298,192,53726,1,2,0:0:0:0:
128,192,53903,1,2,0:0:0:0:
213,192,54256,1,2,0:0:0:0:
42,192,54609,1,2,0:0:0:0:
213,192,54962,1,8,0:0:0:0:
384,192,54962,1,2,0:0:0:0:
298,192,55315,1,2,0:0:0:0:
213,192,55667,1,2,0:0:0:0:
128,192,56020,1,2,0:0:0:0:
384,192,56373,1,8,0:0:0:0:
213,192,56550,1,2,0:0:0:0:
42,192,56726,1,2,0:0:0:0:
298,192,57079,1,2,0:0:0:0:
128,192,57432,1,2,0:0:0:0:
384,192,57785,1,8,0:0:0:0:
298,192,57785,1,2,0:0:0:0:
128,192,58138,128,2,58844:0:0:0:0:
384,192,58491,1,2,0:0:0:0:
298,192,58844,128,2,59550:0:0:0:0:
128,192,59197,1,2,0:0:0:0:
42,192,59550,1,2,0:0:0:0:
469,192,59550,1,0,0:0:0:50:LR_CymbalWSD.wav
384,192,59903,1,8,0:0:0:0:
298,192,60256,1,2,0:0:0:0:
128,192,60609,1,8,0:0:0:0:
384,192,60609,1,2,0:0:0:0:
213,192,60962,1,2,0:0:0:0:
298,192,61315,1,8,0:0:0:0:
128,192,61667,1,2,0:0:0:0:
384,192,62020,1,8,0:0:0:0:
213,192,62197,1,2,0:0:0:0:
42,192,62373,1,2,0:0:0:0:
42,192,62726,1,8,0:0:0:0:
384,192,63079,1,2,0:0:0:0:
213,192,63432,1,8,0:0:0:0:
384,192,63432,1,2,0:0:0:0:
298,192,63785,1,2,0:0:0:0:
128,192,64138,1,8,0:0:0:0:
384,192,64491,1,2,0:0:0:0:
128,192,64844,1,8,0:0:0:0:
298,192,65020,1,2,0:0:0:0:
469,192,65197,1,2,0:0:0:0:
42,192,65197,1,0,0:0:0:50:LR_CymbalWSD.wav
213,192,65550,1,2,0:0:0:0:
128,192,65903,1,2,0:0:0:0:
213,192,66256,1,8,0:0:0:0:
384,192,66256,1,2,0:0:0:0:
298,192,66609,1,2,0:0:0:0:
42,192,66962,1,2,0:0:0:0:
384,192,67315,1,2,0:0:0:0:
298,192,67667,1,8,0:0:0:0:
213,192,67844,1,2,0:0:0:0:
42,192,68020,1,2,0:0:0:0:
384,192,68373,1,2,0:0:0:0:
213,192,68726,1,2,0:0:0:0:
42,192,69079,1,8,0:0:0:0:
298,192,69079,1,2,0:0:0:0:
384,192,69432,128,2,70138:0:0:0:0:
213,192,69785,1,2,0:0:0:0:
42,192,70138,128,2,70844:0:0:0:0:
298,192,70491,1,2,0:0:0:0:
469,192,70844,128,0,71550:0:0:0:0:
213,192,71550,1,0,0:0:0:0:
42,192,72256,1,2,0:0:0:0:
384,192,72256,1,4,0:0:0:0:
298,192,72609,1,8,0:0:0:0:
213,192,72962,1,2,0:0:0:0:
128,192,73315,1,8,0:0:0:0:
469,192,73667,1,2,0:0:0:0:
384,192,74020,1,8,0:0:0:0:
298,192,74373,1,2,0:0:0:0:
213,192,74726,1,8,0:0:0:0:
42,192,75079,1,2,0:0:0:0:
128,192,75432,1,8,0:0:0:0:
384,192,75785,1,2,0:0:0:0:
298,192,76138,1,8,0:0:0:0:
213,192,76491,1,2,0:0:0:0:
42,192,76844,1,8,0:0:0:0:
128,192,77197,1,2,0:0:0:0:
384,192,77373,1,0,0:0:0:0:
213,192,77550,1,8,0:0:0:0:
469,192,77726,1,0,0:0:0:0:
42,192,77903,1,2,0:0:0:0:
128,192,78256,1,2,0:0:0:0:
213,192,78609,1,2,0:0:0:0:
298,192,78962,1,2,0:0:0:0:
469,192,79315,1,2,0:0:0:0:
384,192,79667,1,2,0:0:0:0:
298,192,80020,1,2,0:0:0:0:
213,192,80373,1,2,0:0:0:0:
384,192,80726,1,2,0:0:0:0:
298,192,81079,1,8,0:0:0:0:
213,192,81432,1,2,0:0:0:0:
128,192,81785,1,8,0:0:0:0:
384,192,82138,1,2,0:0:0:0:
298,192,82491,1,8,0:0:0:0:
128,192,82667,1,0,0:0:0:0:
42,192,82844,1,2,0:0:0:0:
42,192,83197,1,8,0:0:0:0:
213,192,83550,1,2,0:0:0:0:
469,192,83550,1,4,0:0:0:0:
384,192,83903,1,8,0:0:0:0:
128,192,84256,1,2,0:0:0:0:
298,192,84609,1,8,0:0:0:0:
42,192,84962,1,2,0:0:0:0:
469,192,85315,1,8,0:0:0:0:
384,192,85667,1,2,0:0:0:0:
42,192,86020,1,8,0:0:0:0:
213,192,86197,1,2,0:0:0:0:
384,192,86373,1,2,0:0:0:0:
213,192,86726,1,8,0:0:0:0:
128,192,87079,1,2,0:0:0:0:
42,192,87432,1,8,0:0:0:0:
298,192,87432,1,2,0:0:0:0:
213,192,87785,1,2,0:0:0:0:
469,192,88138,128,8,89197:0:0:0:0:
213,192,88491,1,2,0:0:0:0:
42,192,88844,1,8,0:0:0:0:
298,192,89020,1,2,0:0:0:0:
128,192,89197,1,2,0:0:0:0:
384,192,89550,1,2,0:0:0:0:
298,192,89903,1,2,0:0:0:0:
128,192,90256,1,8,0:0:0:0:
469,192,90256,1,2,0:0:0:0:
384,192,90609,1,2,0:0:0:0:
128,192,90962,1,2,0:0:0:0:
213,192,91315,1,2,0:0:0:0:
128,192,91667,1,8,0:0:0:0:
298,192,91844,1,2,0:0:0:0:
469,192,92020,1,2,0:0:0:0:
384,192,92373,1,2,0:0:0:0:
298,192,92726,1,2,0:0:0:0:
213,192,93079,1,8,0:0:0:0:
42,192,93079,1,2,0:0:0:0:
384,192,93432,128,2,94138:0:0:0:0:
213,192,93785,1,2,0:0:0:0:
128,192,94138,128,2,94844:0:0:0:0:
469,192,94491,1,2,0:0:0:0:
298,192,94844,128,2,96256:0:0:0:0:
384,192,94844,128,8,96256:0:0:0:0:
42,192,96256,1,0,0:0:0:50:LR_CymbalWSD.wav
469,192,99079,1,0,0:0:0:0:
298,192,99432,1,0,0:0:0:0:
384,192,100138,1,0,0:0:0:0:
213,192,100491,1,0,0:0:0:0:
213,192,101197,1,0,0:0:0:0:
42,192,101903,1,0,0:0:0:0:
128,192,102256,1,0,0:0:0:0:
298,192,102609,1,0,0:0:0:0:
469,192,102962,1,0,0:0:0:0:
213,192,103315,1,0,0:0:0:0:
128,192,104373,1,0,0:0:0:0:
384,192,104726,1,0,0:0:0:0:
213,192,105079,1,0,0:0:0:0:
42,192,105432,1,0,0:0:0:0:
469,192,105785,1,0,0:0:0:0:
213,192,106138,1,0,0:0:0:0:
298,192,106844,1,0,0:0:0:0:
384,192,107550,1,0,0:0:0:0:
469,192,110373,1,0,0:0:0:0:
298,192,110726,1,0,0:0:0:0:
128,192,111079,1,0,0:0:0:0:
384,192,111432,1,0,0:0:0:0:
213,192,111785,1,0,0:0:0:0:
298,192,112491,1,0,0:0:0:0:
469,192,113197,1,0,0:0:0:0:
298,192,113903,1,0,0:0:0:0:
128,192,114609,1,0,0:0:0:0:
298,192,115315,1,0,0:0:0:0:
469,192,115667,1,0,0:0:0:0:
213,192,116020,1,0,0:0:0:0:
384,192,116373,1,0,0:0:0:0:
298,192,116550,1,0,0:0:0:0:
213,192,116903,1,0,0:0:0:0:
128,192,117079,1,0,0:0:0:0:
384,192,117432,1,0,0:0:0:0:
213,192,118138,1,0,0:0:0:0:
42,192,118844,1,0,0:0:0:70:LR3_BassDrop.wav
298,192,119550,1,0,0:0:0:0:
469,192,120256,1,2,0:0:0:0:
42,192,120256,1,0,0:0:0:50:LR_CymbalWSD.wav
128,192,120609,1,8,0:0:0:0:
298,192,120609,1,2,0:0:0:0:
384,192,120962,1,2,0:0:0:0:
213,192,121138,1,0,0:0:0:0:
298,192,121315,1,8,0:0:0:0:
42,192,121315,1,2,0:0:0:0:
213,192,121667,1,2,0:0:0:0:
128,192,122020,1,8,0:0:0:0:
384,192,122020,1,2,0:0:0:0:
298,192,122373,1,2,0:0:0:0:
384,192,122726,1,8,0:0:0:0:
42,192,122726,1,2,0:0:0:0:
469,192,122903,1,2,0:0:0:0:
128,192,123079,1,2,0:0:0:0:
213,192,123432,1,8,0:0:0:0:
384,192,123432,1,2,0:0:0:0:
298,192,123785,1,2,0:0:0:0:
213,192,123962,1,0,0:0:0:0:
469,192,124138,1,2,0:0:0:0:
128,192,124138,1,8,0:0:0:0:
384,192,124491,1,2,0:0:0:0:
298,192,124844,1,8,0:0:0:0:
42,192,124844,1,2,0:0:0:0:
213,192,125197,1,2,0:0:0:0:
298,192,125550,1,8,0:0:0:0:
469,192,125550,1,2,0:0:0:0:
128,192,125726,1,2,0:0:0:0:
384,192,125903,1,2,0:0:0:0:
298,192,126256,1,2,0:0:0:0:
42,192,126256,1,8,0:0:0:0:
213,192,126609,1,2,0:0:0:0:
298,192,126785,1,0,0:0:0:0:
128,192,126962,1,8,0:0:0:0:
384,192,126962,1,2,0:0:0:0:
298,192,127315,1,2,0:0:0:0:
213,192,127667,1,2,0:0:0:0:
469,192,127667,1,8,0:0:0:0:
128,192,128020,1,2,0:0:0:0:
298,192,128373,1,8,0:0:0:0:
42,192,128373,1,2,0:0:0:0:
213,192,128550,1,2,0:0:0:0:
469,192,128726,1,2,0:0:0:0:
298,192,129079,1,2,0:0:0:0:
128,192,129079,1,8,0:0:0:0:
42,192,129432,1,2,0:0:0:0:
213,192,129785,1,8,0:0:0:0:
384,192,129785,1,2,0:0:0:0:
469,192,130138,128,2,131197:0:0:0:0:
42,192,130491,1,2,0:0:0:0:
128,192,130491,1,8,0:0:0:0:
213,192,130844,1,2,0:0:0:0:
384,192,131197,128,2,131550:0:0:0:0:
298,192,131197,1,8,0:0:0:0:
42,192,131550,1,2,0:0:0:0:
128,192,131550,1,0,0:0:0:50:LR_CymbalWSD.wav
298,192,131903,1,2,0:0:0:0:
469,192,131903,1,8,0:0:0:0:
213,192,132256,1,2,0:0:0:0:
298,192,132432,1,0,0:0:0:0:
384,192,132609,1,2,0:0:0:0:
42,192,132609,1,8,0:0:0:0:
298,192,132962,1,2,0:0:0:0:
213,192,133315,1,2,0:0:0:0:
469,192,133315,1,8,0:0:0:0:
128,192,133667,1,2,0:0:0:0:
298,192,134020,1,2,0:0:0:0:
469,192,134020,1,8,0:0:0:0:
213,192,134197,1,2,0:0:0:0:
42,192,134373,1,2,0:0:0:0:
128,192,134726,1,2,0:0:0:0:
384,192,134726,1,8,0:0:0:0:
213,192,135079,1,2,0:0:0:0:
298,192,135256,1,0,0:0:0:0:
384,192,135432,1,2,0:0:0:0:
128,192,135432,1,8,0:0:0:0:
298,192,135785,1,2,0:0:0:0:
128,192,136138,1,2,0:0:0:0:
384,192,136138,1,8,0:0:0:0:
384,192,136491,1,2,0:0:0:0:
128,192,136491,1,0,0:0:0:50:LR_CymbalWSD.wav
384,192,136844,1,2,0:0:0:0:
128,192,136844,1,8,0:0:0:0:
213,192,137020,1,2,0:0:0:0:
42,192,137197,1,2,0:0:0:0:
298,192,137550,1,8,0:0:0:0:
469,192,137550,1,2,0:0:0:0:
128,192,137903,1,2,0:0:0:0:
298,192,138079,1,0,0:0:0:0:
213,192,138256,1,2,0:0:0:0:
469,192,138256,1,8,0:0:0:0:
298,192,138609,1,2,0:0:0:0:
42,192,138609,1,0,0:0:0:50:LR_CymbalWSD.wav
298,192,138962,1,8,0:0:0:0:
42,192,138962,1,2,0:0:0:0:
384,192,139315,1,2,0:0:0:0:
213,192,139667,1,2,0:0:0:0:
469,192,139667,1,8,0:0:0:0:
128,192,139844,1,2,0:0:0:0:
42,192,140020,1,2,0:0:0:0:
298,192,140373,1,8,0:0:0:0:
128,192,140373,1,2,0:0:0:0:
469,192,140726,1,2,0:0:0:0:
298,192,140903,1,0,0:0:0:0:
213,192,141079,1,2,0:0:0:0:
128,192,141079,1,8,0:0:0:0:
42,192,141432,128,2,142491:0:0:0:0:
384,192,141785,1,8,0:0:0:0:
469,192,141785,1,2,0:0:0:0:
298,192,142138,1,2,0:0:0:0:
128,192,142491,128,8,142844:0:0:0:0:
213,192,142491,1,2,0:0:0:0:
384,192,142844,1,2,0:0:0:0:
469,192,142844,1,0,0:0:0:50:LR_CymbalWSD.wav
213,192,143197,1,2,0:0:0:0:
42,192,143197,1,8,0:0:0:0:
298,192,143373,1,2,0:0:0:0:
384,192,143550,1,2,0:0:0:0:
469,192,143903,1,2,0:0:0:0:
128,192,143903,1,8,0:0:0:0:
213,192,144256,1,2,0:0:0:0:
384,192,144432,1,0,0:0:0:0:
42,192,144609,1,2,0:0:0:0:
298,192,144609,1,8,0:0:0:0:
128,192,144962,1,2,0:0:0:0:
384,192,145315,1,2,0:0:0:0:
213,192,145315,1,8,0:0:0:0:
469,192,145667,1,2,0:0:0:0:
42,192,146020,1,2,0:0:0:0:
384,192,146197,1,2,0:0:0:0:
128,192,146373,1,2,0:0:0:0:
298,192,146550,1,0,0:0:0:0:
213,192,146726,1,2,0:0:0:0:
42,192,147079,128,2,148491:0:0:0:0:
384,192,147432,1,2,0:0:0:0:
469,192,147432,1,8,0:0:0:0:
213,192,147785,1,2,0:0:0:0:
298,192,148138,1,2,0:0:0:0:
384,192,148138,1,8,0:0:0:0:
469,192,148491,1,2,0:0:0:0:
384,192,148667,1,0,0:0:0:0:
42,192,148844,1,8,0:0:0:0:
213,192,149020,1,2,0:0:0:0:
384,192,149197,1,2,0:0:0:0:
298,192,149550,1,2,0:0:0:0:
213,192,149903,1,2,0:0:0:0:
384,192,150079,1,0,0:0:0:0:
42,192,150256,1,8,0:0:0:0:
128,192,150432,1,2,0:0:0:0:
298,192,150609,1,2,0:0:0:0:
213,192,150962,1,2,0:0:0:0:
469,192,150962,1,8,0:0:0:0:
42,192,151315,1,2,0:0:0:0:
128,192,151491,1,0,0:0:0:0:
298,192,151667,1,8,0:0:0:0:
213,192,151844,1,2,0:0:0:0:
469,192,152020,1,2,0:0:0:0:
213,192,152373,1,2,0:0:0:0:
42,192,152373,1,8,0:0:0:0:
298,192,152550,1,2,0:0:0:0:
128,192,152726,1,2,0:0:0:0:
384,192,153079,1,8,0:0:0:0:
213,192,153079,1,2,0:0:0:0:
469,192,153432,1,2,0:0:0:0:
128,192,153785,1,8,0:0:0:0:
298,192,153785,1,2,0:0:0:0:
42,192,154138,1,2,0:0:0:0:
469,192,154138,1,0,0:0:0:50:LR_CymbalWSD.wav
213,192,154491,1,2,0:0:0:0:
298,192,154491,1,8,0:0:0:0:
384,192,154844,1,2,0:0:0:0:
298,192,155020,1,0,0:0:0:0:
128,192,155197,1,2,0:0:0:0:
469,192,155197,1,8,0:0:0:0:
298,192,155550,1,2,0:0:0:0:
384,192,155903,1,2,0:0:0:0:
42,192,155903,1,8,0:0:0:0:
213,192,156256,1,2,0:0:0:0:
384,192,156609,1,2,0:0:0:0:
128,192,156609,1,8,0:0:0:0:
213,192,156785,1,2,0:0:0:0:
42,192,156962,1,2,0:0:0:0:
128,192,157315,1,2,0:0:0:0:
469,192,157315,1,8,0:0:0:0:
298,192,157667,1,2,0:0:0:0:
384,192,157844,1,0,0:0:0:0:
469,192,158020,1,2,0:0:0:0:
128,192,158020,1,8,0:0:0:0:
213,192,158373,1,2,0:0:0:0:
384,192,158726,1,2,0:0:0:0:
128,192,158726,1,8,0:0:0:0:
384,192,159079,1,2,0:0:0:0:
128,192,159079,1,0,0:0:0:50:LR_CymbalWSD.wav
128,192,159432,1,2,0:0:0:0:
384,192,159432,1,8,0:0:0:0:
298,192,159609,1,2,0:0:0:0:
213,192,159785,1,2,0:0:0:0:
298,192,160138,1,8,0:0:0:0:
469,192,160138,1,2,0:0:0:0:
213,192,160491,1,2,0:0:0:0:
128,192,160667,1,0,0:0:0:0:
42,192,160844,1,2,0:0:0:0:
384,192,160844,1,8,0:0:0:0:
213,192,161197,1,2,0:0:0:0:
469,192,161197,1,0,0:0:0:50:LR_CymbalWSD.wav
213,192,161550,1,8,0:0:0:0:
469,192,161550,1,2,0:0:0:0:
384,192,161903,1,2,0:0:0:0:
469,192,162256,1,2,0:0:0:0:
42,192,162256,1,8,0:0:0:0:
298,192,162432,1,2,0:0:0:0:
128,192,162609,1,2,0:0:0:0:
42,192,162962,1,8,0:0:0:0:
384,192,162962,1,2,0:0:0:0:
213,192,163315,1,2,0:0:0:0:
384,192,163491,1,0,0:0:0:0:
128,192,163667,1,2,0:0:0:0:
298,192,163667,1,8,0:0:0:0:
384,192,164020,128,2,165079:0:0:0:0:
42,192,164373,1,8,0:0:0:0:
128,192,164373,1,2,0:0:0:0:
42,192,164726,1,2,0:0:0:0:
128,192,165079,128,8,165432:0:0:0:0:
213,192,165079,1,2,0:0:0:0:
469,192,165432,1,2,0:0:0:0:
384,192,165432,1,0,0:0:0:50:LR_CymbalWSD.wav
298,192,165785,1,8,0:0:0:0:
42,192,165785,1,2,0:0:0:0:
213,192,166138,1,2,0:0:0:0:
128,192,166315,1,0,0:0:0:0:
42,192,166491,1,2,0:0:0:0:
384,192,166491,1,8,0:0:0:0:
128,192,166844,1,2,0:0:0:0:
213,192,167197,1,8,0:0:0:0:
384,192,167550,1,2,0:0:0:0:
298,192,167726,1,0,0:0:0:0:
213,192,167903,1,2,0:0:0:0:
42,192,167903,1,8,0:0:0:0:
298,192,168256,1,2,0:0:0:0:
213,192,168609,1,8,0:0:0:0:
469,192,168609,1,2,0:0:0:0:
384,192,168962,1,2,0:0:0:0:
128,192,169138,1,0,0:0:0:0:
213,192,169315,1,2,0:0:0:0:
469,192,169315,1,8,0:0:0:0:
128,192,169667,1,2,0:0:0:0:
384,192,169667,1,0,0:0:0:50:LR_CymbalWSD.wav
128,192,170020,1,8,0:0:0:0:
384,192,170020,1,2,0:0:0:0:
384,192,170373,1,2,0:0:0:0:
128,192,170373,1,0,0:0:0:50:LR_CymbalWSD.wav
298,192,170550,1,2,0:0:0:0:
213,192,170726,128,8,171079:0:0:0:0:
42,192,171079,1,2,0:0:0:0:
384,192,171079,1,0,0:0:0:50:LR_CymbalWSD.wav
