osu file format v14

[General]
AudioFilename: Sweet Rain.mp3
AudioLeadIn: 0
PreviewTime: 49755
Countdown: 0
SampleSet: Soft
StackLeniency: 1
Mode: 0
LetterboxInBreaks: 0
EpilepsyWarning: 1
WidescreenStoryboard: 1

[Editor]
Bookmarks: 12594,24981,37368,49755,74529,80723,85077,93110,105497
DistanceSpacing: 0.14
BeatDivisor: 4
GridSize: 4
TimelineZoom: 1.2

[Metadata]
Title:Sweet Rain
TitleUnicode:Sweet Rain
Artist:Y&Co. feat. Karin
ArtistUnicode:Y&Co. feat. Karin
Creator:Yauxo
Version:pishi's Hard
Source:jubeat knit
Tags:Akira Yokota Tetsuya Tamura pishifat milan- stjpa appleeaterx
BeatmapID:778792
BeatmapSetID:327825

[Difficulty]
HPDrainRate:5.5
CircleSize:4.2
OverallDifficulty:6.5
ApproachRate:7.3
SliderMultiplier:1.4
SliderTickRate:2

[Events]
//Background and Video events
0,0,"earlyBG.jpg",0,0
//Break Periods
2,80923,84320
//Storyboard Layer 0 (Background)
//Storyboard Layer 1 (Fail)
//Storyboard Layer 2 (Pass)
//Storyboard Layer 3 (Foreground)
//Storyboard Sound Samples

[TimingPoints]
207,387.096774193548,4,2,1,40,1,0
207,-117.647058823529,4,2,1,40,0,0
690,-117.647058823529,4,2,1,5,0,0
787,-117.647058823529,4,2,1,40,0,0
1852,-117.647058823529,4,2,1,20,0,0
1948,-117.647058823529,4,2,1,40,0,0
2045,-117.647058823529,4,2,1,20,0,0
2142,-117.647058823529,4,2,1,40,0,0
2239,-117.647058823529,4,2,1,20,0,0
2336,-117.647058823529,4,2,1,40,0,0
2432,-117.647058823529,4,2,1,20,0,0
2529,-117.647058823529,4,2,1,40,0,0
5819,-117.647058823529,4,2,1,50,0,0
6400,-117.647058823529,4,2,1,60,0,0
8045,-117.647058823529,4,2,1,30,0,0
8142,-117.647058823529,4,2,1,60,0,0
8239,-117.647058823529,4,2,1,30,0,0
8336,-117.647058823529,4,2,1,60,0,0
8819,-117.647058823529,4,2,1,30,0,0
8916,-117.647058823529,4,2,1,60,0,0
9013,-117.647058823529,4,2,1,30,0,0
9110,-100,4,2,1,60,0,0
12303,-100,4,2,1,30,0,0
12400,-100,4,2,1,60,0,0
12497,-100,4,2,1,30,0,0
12594,-100,4,1,1,65,0,0
13465,-100,4,1,1,30,0,0
13561,-100,4,1,1,65,0,0
13658,-100,4,1,1,30,0,0
13755,-100,4,1,1,65,0,0
13852,-100,4,1,1,30,0,0
13948,-100,4,1,1,65,0,0
14045,-100,4,1,1,30,0,0
14142,-100,4,1,1,65,0,0
15400,-100,4,1,1,30,0,0
15497,-100,4,1,1,65,0,0
15594,-100,4,1,1,30,0,0
15690,-100,4,1,1,65,0,0
16561,-100,4,1,1,30,0,0
16658,-100,4,1,1,65,0,0
16755,-100,4,1,1,30,0,0
16852,-100,4,1,1,65,0,0
16948,-100,4,1,1,30,0,0
17045,-100,4,1,1,65,0,0
17142,-100,4,1,1,30,0,0
17239,-100,4,1,1,65,0,0
19658,-100,4,1,1,30,0,0
19755,-100,4,1,1,65,0,0
19852,-100,4,1,1,30,0,0
19948,-100,4,1,1,65,0,0
20045,-100,4,1,1,30,0,0
20142,-100,4,1,1,65,0,0
20239,-100,4,1,1,30,0,0
20336,-100,4,1,1,65,0,0
20819,-100,4,1,1,30,0,0
20916,-100,4,1,1,65,0,0
21013,-100,4,1,1,30,0,0
21110,-100,4,1,1,65,0,0
22755,-100,4,1,1,30,0,0
22852,-100,4,1,1,65,0,0
22948,-100,4,1,1,30,0,0
23045,-100,4,1,1,65,0,0
23142,-100,4,1,1,30,0,0
23239,-100,4,1,1,65,0,0
24981,-117.647058823529,4,1,1,65,0,0
43271,-100,4,1,1,30,0,0
43368,-100,4,1,1,65,0,0
43465,-100,4,1,1,30,0,0
43561,-117.647058823529,4,1,1,65,0,0
48787,-100,4,1,1,65,0,0
49174,-100,4,1,1,65,0,0
49368,-100,4,1,1,65,0,0
49658,-100,4,1,1,5,0,0
49755,-100,4,1,1,65,0,1
53142,-100,4,1,1,5,0,1
53239,-100,4,1,1,65,0,1
65916,-100,4,1,1,5,0,1
66013,-100,4,1,1,65,0,1
70948,-100,4,1,1,5,0,1
71045,-100,4,1,1,65,0,1
71336,-100,4,1,1,5,0,1
71432,-100,4,1,1,65,0,1
74529,-111.111111111111,4,1,1,65,0,0
75400,-111.111111111111,4,1,1,30,0,0
75497,-111.111111111111,4,1,1,65,0,0
75594,-111.111111111111,4,1,1,30,0,0
75690,-111.111111111111,4,1,1,65,0,0
75787,-111.111111111111,4,1,1,30,0,0
75884,-111.111111111111,4,1,1,65,0,0
75981,-111.111111111111,4,1,1,30,0,0
76077,-111.111111111111,4,1,1,65,0,0
78497,-111.111111111111,4,1,1,30,0,0
78594,-111.111111111111,4,1,1,65,0,0
78690,-111.111111111111,4,1,1,30,0,0
78787,-111.111111111111,4,1,1,65,0,0
80045,-111.111111111111,4,1,1,5,0,0
80142,-125,4,1,1,65,0,0
80336,-111.111111111111,4,1,1,80,0,0
80529,-111.111111111111,4,1,1,50,0,0
80723,-111.111111111111,4,1,1,65,0,0
86916,-125,4,1,1,65,0,0
91561,-100,4,1,1,65,0,0
92045,-100,4,1,1,5,0,0
92142,-100,4,1,1,65,0,0
92432,-100,4,1,1,5,0,0
92529,-100,4,1,1,65,0,0
93110,-100,4,1,1,65,0,1
96884,-100,4,1,1,5,0,1
96981,-100,4,1,1,65,0,1
101916,-100,4,1,1,5,0,1
102013,-100,4,1,1,65,0,1
102303,-100,4,1,1,5,0,1
102400,-100,4,1,1,65,0,1
104916,-100,4,1,1,30,0,1
105013,-100,4,1,1,65,0,1
105206,-100,4,1,1,30,0,1
105303,-100,4,1,1,65,0,1
105497,-100,4,1,1,65,0,0
106368,-100,4,1,1,30,0,0
106465,-100,4,1,1,65,0,0
106561,-100,4,1,1,30,0,0
106658,-100,4,1,1,65,0,0
106755,-100,4,1,1,30,0,0
106852,-100,4,1,1,65,0,0
106948,-100,4,1,1,30,0,0
107045,-100,4,1,1,65,0,0
108303,-100,4,1,1,30,0,0
108400,-100,4,1,1,65,0,0
108497,-100,4,1,1,30,0,0
108594,-100,4,1,1,65,0,0
109465,-100,4,1,1,30,0,0
109561,-100,4,1,1,65,0,0
109658,-100,4,1,1,30,0,0
109755,-100,4,1,1,65,0,0
109852,-100,4,1,1,30,0,0
109948,-100,4,1,1,65,0,0
110045,-100,4,1,1,30,0,0
110142,-100,4,1,1,65,0,0
112561,-100,4,1,1,30,0,0
112658,-100,4,1,1,65,0,0
112755,-100,4,1,1,30,0,0
112852,-100,4,1,1,65,0,0
112948,-100,4,1,1,30,0,0
113045,-100,4,1,1,65,0,0
113142,-100,4,1,1,30,0,0
113239,-100,4,1,1,65,0,0
113723,-100,4,1,1,30,0,0
113819,-100,4,1,1,65,0,0
113916,-100,4,1,1,30,0,0
114013,-100,4,1,1,65,0,0
115658,-100,4,1,1,30,0,0
115755,-100,4,1,1,65,0,0
115852,-100,4,1,1,30,0,0
115948,-100,4,1,1,65,0,0
117884,-200,4,2,1,5,0,0

[Colours]
Combo1 : 216,139,241
Combo2 : 219,240,98
Combo3 : 132,237,255
Combo4 : 194,243,24
Combo5 : 74,228,255
Combo6 : 255,107,81

[HitObjects]
39,130,207,5,12,3:1:0:0:
124,78,400,2,0,L|132:207,2,119.000002269745,2|2|0,0:0|0:0|0:0,0:0:0:0:
191,22,1368,2,0,P|226:13|246:12,2,29.7500005674362,2|2|2,0:0|0:0|0:0,0:0:0:0:
215,108,1755,6,0,P|251:118|296:122,1,59.5000011348725,2|2,0:0|0:0,0:0:0:0:
359,88,2142,2,0,P|394:94|434:114,1,59.5000011348725,2|2,0:0|0:0,0:0:0:0:
466,183,2529,2,0,L|508:180,2,29.7500005674362,2|2|2,0:0|0:0|0:0,0:0:0:0:
446,271,2916,2,0,L|491:279,2,29.7500005674362,2|2|2,0:0|0:0|0:0,0:0:0:0:
375,206,3303,70,0,P|332:197|255:230,1,119.000002269745,2|0,0:0|0:0,0:0:0:0:
136,119,4077,2,0,P|194:126|248:102,1,119.000002269745,2|2,0:0|0:0,0:0:0:0:
53,76,4852,5,0,0:0:0:0:
62,164,5045,1,0,0:0:0:0:
71,251,5239,2,0,B|100:253|117:259|117:259|145:246|145:246|201:252,1,119.000002269745,2|0,0:0|0:0,0:0:0:0:
263,300,5819,1,10,1:0:0:0:
322,233,6013,1,10,1:0:0:0:
322,233,6400,69,8,1:1:0:0:
248,168,6594,2,0,L|166:162,2,59.5000011348725,0|10|0,0:0|1:0|0:0,0:0:0:0:
340,140,7174,1,8,1:0:0:0:
420,215,7368,1,0,0:0:0:0:
420,215,7465,1,0,0:0:0:0:
420,215,7561,2,0,L|427:267,2,29.7500005674362,10|0|0,1:0|0:0|0:0,0:0:0:0:
433,119,7948,6,0,L|443:32,1,59.5000011348725,10|0,1:0|0:0,0:0:0:0:
340,140,8336,2,0,L|338:68,1,59.5000011348725,10|0,1:0|0:0,0:0:0:0:
248,168,8723,2,0,L|238:84,1,59.5000011348725,10|0,1:0|0:0,0:0:0:0:
164,204,9110,2,0,P|132:178|72:166,1,70,10|0,1:0|0:0,0:0:0:0:
88,172,9400,1,8,1:0:0:0:
71,176,9497,70,0,L|63:256,1,70,8|10,1:0|1:0,0:0:0:0:
98,330,9884,2,0,P|131:314|192:305,1,70,10|8,1:0|1:0,0:0:0:0:
180,310,10174,1,0,0:0:0:0:
196,314,10271,1,8,1:0:0:0:
278,353,10465,1,8,1:0:0:0:
352,298,10658,1,0,0:0:0:0:
352,298,10755,1,0,0:0:0:0:
352,298,10852,1,8,1:0:0:0:
316,37,12206,5,2,0:0:0:0:
316,37,12594,70,0,B|400:41|400:41|440:57|464:96,1,140,12|10,3:1|0:0,0:0:0:0:
463,167,13174,1,0,0:0:0:0:
463,167,13271,1,0,0:0:0:0:
463,167,13368,2,0,P|421:173|381:192,1,70,8|0,0:0|0:0,0:0:0:0:
322,244,13755,2,0,P|263:232|239:217,1,70,10|0,0:0|0:0,0:0:0:0:
174,133,14142,6,0,L|168:91,2,35,8|0|0,0:0|0:0|0:0,0:0:0:0:
146,217,14529,2,0,L|139:299,1,70,10|0,0:0|0:0,0:0:0:0:
169,376,14916,2,0,P|207:358|219:349,2,35,8|0|0,0:0|0:0|0:0,0:0:0:0:
78,363,15303,1,10,0:0:0:0:
48,280,15497,1,0,0:0:0:0:
48,280,15594,1,0,0:0:0:0:
48,280,15690,70,0,B|55:226|55:226|46:196|46:196|54:133,1,140,8|10,0:0|0:0,0:0:0:0:
125,82,16271,1,0,0:0:0:0:
125,82,16368,1,0,0:0:0:0:
125,82,16465,2,0,P|168:97|218:93,1,70,8|0,0:0|0:0,0:0:0:0:
271,41,16852,1,10,0:0:0:0:
356,72,17045,1,0,0:0:0:0:
290,158,17239,6,0,L|279:253,1,70,8|0,0:0|0:0,0:0:0:0:
297,325,17626,2,0,P|346:299|393:297,1,70,10|0,0:0|0:0,0:0:0:0:
376,300,17916,1,0,0:0:0:0:
392,304,18013,2,0,L|397:349,2,35,8|0|0,0:0|0:0|0:0,0:0:0:0:
399,211,18400,1,10,0:0:0:0:
481,170,18594,1,10,0:0:0:0:
360,125,18787,70,0,B|316:122|316:122|285:131|285:131|261:129|216:97,1,140,12|10,0:0|0:0,0:0:0:0:
231,11,19368,1,0,0:0:0:0:
231,11,19465,1,0,0:0:0:0:
231,11,19561,2,0,P|195:20|147:54,1,70,8|0,0:0|0:0,0:0:0:0:
136,133,19948,2,0,L|146:219,1,70,10|0,0:0|0:0,0:0:0:0:
110,329,20336,6,0,P|90:323|72:309,2,35,8|0|0,0:0|0:0|0:0,0:0:0:0:
194,285,20723,2,0,P|222:267|276:255,1,70,10|0,0:0|0:0,0:0:0:0:
342,301,21110,2,0,L|437:310,1,70,8|0,0:0|0:0,0:0:0:0:
504,283,21497,1,10,0:0:0:0:
437,214,21690,1,0,0:0:0:0:
487,114,21884,70,0,P|452:79|350:88,1,140,8|10,0:0|0:0,0:0:0:0:
328,167,22465,1,0,0:0:0:0:
328,167,22561,1,0,0:0:0:0:
328,167,22658,2,0,P|292:178|240:178,1,70,8|0,0:0|0:0,0:0:0:0:
183,125,23045,2,0,P|140:114|99:116,1,70,10|0,0:0|0:0,0:0:0:0:
47,195,23432,6,0,L|60:324,1,105,8|8,0:0|0:0,0:0:0:0:
151,342,23916,1,8,0:0:0:0:
154,324,24013,2,0,L|164:219,1,105,8|8,0:0|0:0,0:0:0:0:
259,180,24497,1,8,0:0:0:0:
262,197,24594,2,0,L|273:281,1,70,8|8,0:0|0:0,0:0:0:0:
334,356,24981,69,12,3:1:0:0:
334,356,25368,2,0,P|395:347|411:338,1,59.5000011348725,10|0,0:0|0:0,0:0:0:0:
442,268,25755,2,0,L|450:189,1,59.5000011348725,8|0,0:0|0:0,0:0:0:0:
348,165,26142,2,0,L|355:251,1,59.5000011348725,10|0,0:0|0:0,0:0:0:0:
421,102,26529,6,0,P|362:69|304:77,1,119.000002269745,8|10,0:0|0:0,0:0:0:0:
252,147,27110,2,0,B|194:165|194:165|126:154,1,119.000002269745,0|0,0:0|0:0,0:0:0:0:
53,116,27690,1,10,0:0:0:0:
20,200,27884,1,0,0:0:0:0:
20,200,27981,1,8,0:0:0:0:
20,200,28077,70,0,P|36:232|43:268,1,59.5000011348725,8|0,0:0|0:0,0:0:0:0:
36,344,28465,1,10,0:0:0:0:
124,368,28658,2,0,B|173:336|173:336|248:332,1,119.000002269745
324,344,29239,1,10,0:0:0:0:
294,258,29432,1,0,0:0:0:0:
375,212,29626,6,0,P|408:217|445:238,1,59.5000011348725,8|0,0:0|0:0,0:0:0:0:
493,291,30013,2,0,L|478:151,2,119.000002269745,10|8|10,0:0|0:0|0:0,0:0:0:0:
448,371,30981,1,0,0:0:0:0:
363,341,31174,69,8,0:0:0:0:
363,341,31561,2,0,P|327:357|288:362,1,59.5000011348725,10|0,0:0|0:0,0:0:0:0:
221,321,31948,2,0,P|203:273|206:241,1,59.5000011348725,8|0,0:0|0:0,0:0:0:0:
273,208,32336,2,0,P|285:174|287:131,1,59.5000011348725,10|0,0:0|0:0,0:0:0:0:
213,91,32723,6,0,L|144:100,2,59.5000011348725,8|0|10,0:0|0:0|0:0,0:0:0:0:
286,32,33303,2,0,B|319:18|346:24|346:24|369:47|398:58,1,119.000002269745,0|0,0:0|0:0,0:0:0:0:
489,70,33884,1,10,0:0:0:0:
437,144,34077,1,0,0:0:0:0:
437,144,34174,1,8,0:0:0:0:
437,144,34271,70,0,L|434:275,1,119.000002269745,8|10,0:0|0:0,0:0:0:0:
395,346,34852,2,0,P|358:327|314:322,1,59.5000011348725
258,372,35239,1,0,0:0:0:0:
168,364,35432,1,10,0:0:0:0:
114,293,35626,1,0,0:0:0:0:
222,256,35819,5,8,0:0:0:0:
132,183,36013,1,8,0:0:0:0:
115,188,36400,1,8,0:0:0:0:
99,193,36787,1,8,0:0:0:0:
461,111,37368,69,12,3:1:0:0:
461,111,37755,2,0,P|410:86|383:85,1,59.5000011348725,10|0,0:0|0:0,0:0:0:0:
313,106,38142,1,8,0:0:0:0:
374,177,38336,2,0,L|385:297,1,119.000002269745
321,366,38916,5,8,0:0:0:0:
289,285,39110,1,0,0:0:0:0:
205,259,39303,1,10,0:0:0:0:
121,293,39497,2,0,L|49:285,1,59.5000011348725,0|8,0:0|0:0,0:0:0:0:
71,193,39884,2,0,L|151:204,2,59.5000011348725,0|10|0,0:0|0:0|0:0,0:0:0:0:
19,94,40465,69,8,0:0:0:0:
96,52,40658,1,0,0:0:0:0:
160,116,40852,2,0,P|221:122|283:86,1,119.000002269745,10|8,0:0|0:0,0:0:0:0:
321,3,41432,1,8,0:0:0:0:
338,9,41819,1,8,0:0:0:0:
399,73,42013,6,0,L|406:149,1,59.5000011348725,8|8,0:0|0:0,0:0:0:0:
414,224,42400,1,8,0:0:0:0:
423,312,42594,1,8,0:0:0:0:
414,327,42981,1,8,0:0:0:0:
406,343,43368,1,8,0:0:0:0:
303,312,43561,69,8,0:0:0:0:
303,312,43948,2,0,L|239:320,1,59.5000011348725,10|0,0:0|0:0,0:0:0:0:
159,286,44336,1,8,0:0:0:0:
229,223,44529,2,0,B|234:165|234:165|227:145|183:119,1,119.000002269745,0|0,0:0|0:0,0:0:0:0:
101,149,45110,5,8,0:0:0:0:
119,58,45303,2,0,P|168:31|245:44,2,119.000002269745
101,149,46271,1,10,0:0:0:0:
190,123,46465,1,0,0:0:0:0:
170,211,46658,69,8,0:0:0:0:
250,255,46852,2,0,B|296:260|296:260|329:250|329:250|394:256,1,119.000002269745,0|0,0:0|0:0,0:0:0:0:
380,259,47336,1,8,0:0:0:0:
393,264,47432,1,8,0:0:0:0:
481,240,47626,2,0,P|451:194|375:174,1,119.000002269745,8|8,0:0|0:0,0:0:0:0:
306,203,48206,5,12,0:0:0:0:
314,118,48400,1,12,0:0:0:0:
245,65,48594,1,12,0:0:0:0:
163,87,48787,1,12,0:0:0:0:
151,97,49174,1,12,0:0:0:0:
227,154,49368,2,0,L|238:285,1,105,2|0,2:3|0:0,0:0:0:0:
231,275,49755,6,0,P|195:258|140:252,1,70,12|0,3:1|0:0,0:0:0:0:
103,368,50142,2,0,P|132:352|186:341,1,70,10|0,0:0|0:0,0:0:0:0:
261,359,50529,1,8,0:0:0:0:
325,292,50723,2,0,B|332:242|332:242|319:206|319:206|328:136,1,140,0|0,0:0|0:0,0:0:0:0:
430,119,51303,6,0,P|472:136|512:135,1,70,8|0,0:0|0:0,0:0:0:0:
485,47,51690,1,10,0:0:0:0:
395,34,51884,2,0,B|359:42|359:42|329:60|329:60|296:62|253:37,1,140,0|0,0:0|0:0,0:0:0:0:
283,140,52465,2,0,L|276:221,1,70,10|0,0:0|0:0,0:0:0:0:
267,224,52755,1,8,0:0:0:0:
258,239,52852,70,0,P|223:226|165:225,1,70,8|0,0:0|0:0,0:0:0:0:
100,238,53239,2,0,P|77:197|75:146,1,70,10|0,0:0|0:0,0:0:0:0:
84,83,53626,1,8,0:0:0:0:
2,118,53819,2,0,L|150:134,1,140,0|0,0:0|0:0,0:0:0:0:
240,70,54400,6,0,P|298:49|331:50,1,70,8|0,0:0|0:0,0:0:0:0:
398,70,54787,1,10,0:0:0:0:
336,141,54981,2,0,B|328:213|328:213|370:273,1,140,0|0,0:0|0:0,0:0:0:0:
461,286,55561,1,10,0:0:0:0:
411,366,55756,1,10,0:0:0:0:
411,366,55852,1,0,0:0:0:0:
411,366,55948,70,0,P|342:379|325:379,1,70,12|0,0:0|0:0,0:0:0:0:
266,326,56336,2,0,P|217:315|179:318,1,70,10|0,0:0|0:0,0:0:0:0:
115,360,56723,1,8,0:0:0:0:
42,306,56916,2,0,P|36:244|86:189,1,140,0|0,0:0|0:0,0:0:0:0:
205,212,57497,5,8,0:0:0:0:
280,157,57690,1,0,0:0:0:0:
193,117,57884,2,0,P|179:77|183:38,1,70,10|0,0:0|0:0,0:0:0:0:
267,15,58271,2,0,P|302:25|343:28,1,70,8|0,0:0|0:0,0:0:0:0:
426,0,58658,1,10,0:0:0:0:
494,63,58852,1,0,0:0:0:0:
388,112,59045,70,0,P|374:175|424:255,1,140,8|10,0:0|0:0,0:0:0:0:
492,276,59626,1,0,0:0:0:0:
457,361,59819,2,0,B|406:352|406:352|371:363|371:363|309:352,1,140,8|10,0:0|0:0,0:0:0:0:
89,252,60594,5,8,0:0:0:0:
144,327,60787,2,0,L|148:372,2,35,8|8|10,0:0|0:0|0:0,0:0:0:0:
183,244,61174,1,8,0:0:0:0:
130,169,61368,1,8,0:0:0:0:
130,169,61465,1,8,0:0:0:0:
130,169,61561,2,0,P|86:160|40:139,1,70,10|8,0:0|0:0,0:0:0:0:
32,61,61948,1,8,0:0:0:0:
32,61,62045,1,8,0:0:0:0:
32,61,62142,70,0,L|126:53,1,70,12|0,3:1|0:0,0:0:0:0:
190,28,62529,2,0,L|279:40,1,70,10|0,0:0|0:0,0:0:0:0:
337,85,62916,1,8,0:0:0:0:
253,129,63110,2,0,P|240:191|282:266,1,140,0|0,0:0|0:0,0:0:0:0:
396,222,63690,6,0,P|431:209|467:204,2,70,8|0|10,0:0|0:0|0:0,0:0:0:0:
349,303,64271,2,0,L|200:292,1,140,0|0,0:0|0:0,0:0:0:0:
139,230,64852,2,0,P|127:200|125:135,1,70,10|0,0:0|0:0,0:0:0:0:
127,146,65142,1,8,0:0:0:0:
133,129,65239,70,0,P|98:104|39:98,1,70,8|0,0:0|0:0,0:0:0:0:
0,157,65626,2,0,L|-12:248,1,70,10|0,0:0|0:0,0:0:0:0:
0,319,66013,1,8,0:0:0:0:
70,262,66206,2,0,P|141:251|197:291,1,140,0|0,0:0|0:0,0:0:0:0:
275,370,66787,6,0,L|363:377,1,70,8|0,0:0|0:0,0:0:0:0:
425,329,67174,1,10,0:0:0:0:
345,282,67368,2,0,B|335:214|335:214|375:138,1,140,0|0,0:0|0:0,0:0:0:0:
455,118,67948,1,10,0:0:0:0:
384,62,68142,1,10,0:0:0:0:
384,62,68239,1,0,0:0:0:0:
384,62,68336,70,0,P|317:76|304:84,1,70,12|0,0:0|0:0,0:0:0:0:
251,146,68723,2,0,P|211:143|173:129,1,70,10|0,0:0|0:0,0:0:0:0:
108,70,69110,2,0,L|96:228,1,140,8|10,0:0|0:0,0:0:0:0:
44,293,69690,1,0,0:0:0:0:
44,293,69787,1,0,0:0:0:0:
44,293,69884,6,0,P|107:306|143:300,1,70,8|0,0:0|0:0,0:0:0:0:
183,242,70271,1,10,0:0:0:0:
265,276,70465,1,0,0:0:0:0:
344,229,70658,2,0,L|424:220,1,70,8|0,0:0|0:0,0:0:0:0:
463,316,71045,2,0,L|372:306,1,70,10|0,0:0|0:0,0:0:0:0:
303,363,71432,70,0,P|239:367|175:317,1,140,8|10,0:0|0:0,0:0:0:0:
262,272,72013,1,0,0:0:0:0:
204,202,72206,2,0,P|156:182|126:181,1,70,8|0,0:0|0:0,0:0:0:0:
121,186,72497,1,0,0:0:0:0:
104,192,72594,2,0,L|108:253,2,35,10|0|0,0:0|0:0|0:0,0:0:0:0:
124,97,72981,5,8,0:0:0:0:
196,46,73174,1,8,0:0:0:0:
275,85,73368,1,10,0:0:0:0:
346,31,73561,1,8,0:0:0:0:
421,82,73755,2,0,L|428:128,3,35,8|8|8|8,0:0|0:0|0:0|0:0,0:0:0:0:
455,154,74142,2,0,L|467:221,3,35,10|8|8|8,0:0|0:0|0:0|0:0,0:0:0:0:
481,229,74529,38,0,P|416:222|359:258,1,125.999996154785,12|10,3:1|0:0,0:0:0:0:
383,344,75110,2,0,L|428:349,2,31.4999990386963,0|0|8,0:0|0:0|0:0,0:0:0:0:
299,320,75497,1,0,0:0:0:0:
299,320,75594,1,0,0:0:0:0:
299,320,75690,2,0,L|224:329,1,62.9999980773926,10|0,0:0|0:0,0:0:0:0:
152,284,76077,6,0,B|146:237|146:237|161:206|161:206|151:142,1,125.999996154785,8|10,0:0|0:0,0:0:0:0:
99,82,76658,2,0,P|88:77|65:71,2,31.4999990386963,0|0|10,0:0|0:0|0:0,0:0:0:0:
179,38,77045,2,0,P|169:21|141:-6,2,31.4999990386963,0|0|10,0:0|0:0|0:0,0:0:0:0:
236,118,77432,1,0,0:0:0:0:
236,118,77529,1,0,0:0:0:0:
236,118,77626,70,0,P|288:86|375:106,1,125.999996154785,8|10,0:0|0:0,0:0:0:0:
432,134,78206,2,0,L|483:128,2,31.4999990386963,0|0|10,0:0|0:0|0:0,0:0:0:0:
356,184,78594,2,0,L|345:327,1,125.999996154785,10|0,0:0|0:0,0:0:0:0:
268,362,79174,5,12,0:0:0:0:
205,296,79368,1,12,0:0:0:0:
249,217,79561,1,12,0:0:0:0:
180,159,79755,1,12,0:0:0:0:
165,171,80142,2,0,L|11:188,1,140,14|0,0:0|0:0,0:0:0:0:
12,195,80723,69,4,0:0:0:0:
200,88,85174,5,8,0:0:0:0:
215,79,85561,1,8,0:0:0:0:
143,237,85948,1,8,0:0:0:0:
128,228,86335,1,8,0:0:0:0:
298,215,86723,1,8,0:0:0:0:
223,268,86916,70,0,L|214:381,1,112,12|0,0:0|0:0,0:0:0:0:
390,248,87690,2,0,L|381:136,1,112,0|0,0:0|0:0,0:0:0:0:
162,202,88465,6,0,P|107:208|59:181,1,112,8|0,0:0|0:0,0:0:0:0:
238,152,89239,2,0,P|278:189|289:243,1,112,0|0,0:0|0:0,0:0:0:0:
88,372,90013,70,0,L|216:365,1,112,8|0,0:0|0:0,0:0:0:0:
424,372,90787,2,0,L|296:365,1,112,0|0,0:0|0:0,0:0:0:0:
256,160,91561,5,8,0:0:0:0:
256,247,91755,1,10,0:0:0:0:
256,263,92142,1,10,0:0:0:0:
256,279,92529,1,10,0:0:0:0:
424,106,93110,6,0,P|394:84|342:69,1,70,12|0,3:1|0:0,0:0:0:0:
283,118,93497,2,0,P|241:128|196:128,1,70,10|0,0:0|0:0,0:0:0:0:
135,77,93884,1,8,0:0:0:0:
63,144,94077,2,0,L|49:293,1,140,0|0,0:0|0:0,0:0:0:0:
130,364,94658,6,0,P|167:336|188:291,1,70,8|0,0:0|0:0,0:0:0:0:
164,220,95045,1,10,0:0:0:0:
214,138,95239,2,0,P|287:128|341:171,1,140,0|0,0:0|0:0,0:0:0:0:
357,264,95819,2,0,L|441:269,1,70,10|0,0:0|0:0,0:0:0:0:
442,275,96110,1,8,0:0:0:0:
457,282,96206,70,0,P|488:324|494:358,1,70,8|0,0:0|0:0,0:0:0:0:
415,384,96594,2,0,P|363:364|321:362,1,70,10|0,0:0|0:0,0:0:0:0:
255,373,96981,1,8,0:0:0:0:
195,305,97174,2,0,B|185:237|185:237|220:172,1,140,0|0,0:0|0:0,0:0:0:0:
293,108,97755,6,0,P|274:64|240:39,1,70,8|0,0:0|0:0,0:0:0:0:
168,35,98142,1,10,0:0:0:0:
119,106,98336,1,0,0:0:0:0:
69,176,98529,2,0,L|-9:182,1,70,8|0,0:0|0:0,0:0:0:0:
59,273,98916,1,10,0:0:0:0:
141,233,99110,1,10,0:0:0:0:
195,305,99303,70,0,P|278:313|332:261,1,140,12|10,0:0|0:0,0:0:0:0:
307,189,99884,1,0,0:0:0:0:
340,103,100077,2,0,P|384:80|433:82,1,70,8|0,0:0|0:0,0:0:0:0:
491,105,100465,1,10,0:0:0:0:
423,170,100658,1,0,0:0:0:0:
483,241,100852,6,0,L|494:327,1,70,8|0,0:0|0:0,0:0:0:0:
410,353,101239,2,0,P|350:326|315:323,1,70,10|0,0:0|0:0,0:0:0:0:
257,354,101626,2,0,L|172:364,1,70,8|0,0:0|0:0,0:0:0:0:
106,316,102013,2,0,P|88:271|88:234,1,70,10|0,0:0|0:0,0:0:0:0:
194,215,102400,70,0,B|260:239|260:239|357:226,1,140,8|10,0:0|0:0,0:0:0:0:
396,162,102981,1,0,0:0:0:0:
305,139,103174,2,0,P|272:94|289:-4,2,140,8|10|8,0:0|0:0|0:0,0:0:0:0:
410,172,104142,6,0,L|519:162,2,105,8|8|8,0:0|0:0|0:0,0:0:0:0:
203,190,105110,2,0,P|185:222|180:269,1,70,10|8,0:0|0:0,0:0:0:0:
196,347,105497,6,0,B|144:340|144:340|106:352|106:352|37:338,1,140,12|10,3:1|0:0,0:0:0:0:
98,261,106077,1,0,0:0:0:0:
98,261,106174,1,0,0:0:0:0:
98,261,106271,2,0,P|85:220|60:183,1,70,8|0,0:0|0:0,0:0:0:0:
17,120,106658,2,0,L|113:110,1,70,10|0,0:0|0:0,0:0:0:0:
194,174,107045,6,0,L|189:219,2,35,8|0|0,0:0|0:0|0:0,0:0:0:0:
252,96,107432,2,0,P|273:121|287:165,1,70,10|0,0:0|0:0,0:0:0:0:
303,249,107819,2,0,L|358:260,2,35,8|0|0,0:0|0:0|0:0,0:0:0:0:
216,288,108206,1,10,0:0:0:0:
278,370,108400,1,0,0:0:0:0:
278,370,108497,1,0,0:0:0:0:
278,370,108593,70,0,P|346:374|408:323,1,140,8|10,0:0|0:0,0:0:0:0:
428,250,109174,1,0,0:0:0:0:
428,250,109271,1,0,0:0:0:0:
428,250,109368,2,0,L|424:158,1,70,8|0,0:0|0:0,0:0:0:0:
376,91,109755,1,10,0:0:0:0:
308,158,109948,1,0,0:0:0:0:
292,42,110142,6,0,P|252:28|210:30,1,70,8|0,0:0|0:0,0:0:0:0:
147,97,110529,2,0,L|53:110,1,70,10|0,0:0|0:0,0:0:0:0:
60,112,110819,1,0,0:0:0:0:
43,117,110916,2,0,L|-11:112,2,35,8|0|0,0:0|0:0|0:0,0:0:0:0:
111,183,111303,1,10,0:0:0:0:
21,211,111497,1,10,0:0:0:0:
139,273,111690,70,0,B|183:276|183:276|214:267|214:267|238:269|283:301,1,140,12|10,0:0|0:0,0:0:0:0:
320,380,112271,1,0,0:0:0:0:
320,380,112368,1,0,0:0:0:0:
320,380,112464,2,0,P|356:371|404:337,1,70,8|0,0:0|0:0,0:0:0:0:
411,266,112851,2,0,L|401:180,1,70,10|0,0:0|0:0,0:0:0:0:
409,75,113239,6,0,P|427:66|449:61,2,35,8|0|0,0:0|0:0|0:0,0:0:0:0:
330,127,113626,2,0,P|303:111|249:97,1,70,10|0,0:0|0:0,0:0:0:0:
182,140,114013,2,0,L|194:224,1,70,8|0,0:0|0:0,0:0:0:0:
254,285,114400,1,10,0:0:0:0:
207,364,114593,1,0,0:0:0:0:
207,364,114690,1,0,0:0:0:0:
207,364,114787,70,0,P|152:334|54:342,1,140,8|10,0:0|0:0,0:0:0:0:
24,261,115368,1,0,0:0:0:0:
24,261,115464,1,0,0:0:0:0:
24,261,115561,2,0,P|60:250|104:219,1,70,8|8,0:0|0:0,0:0:0:0:
152,166,115948,2,0,P|190:156|235:161,1,70,8|8,0:0|0:0,0:0:0:0:
315,195,116336,6,0,L|435:203,1,105,12|8,0:0|0:0,0:0:0:0:
297,100,116916,70,0,L|417:108,1,105,8|8,0:0|0:0,0:0:0:0:
278,9,117497,6,0,L|358:14,1,70,8|8,0:0|0:0,0:0:0:0:
256,192,117884,12,0,120206,0:0:0:0:
