osu file format v14

[General]
AudioFilename: Sweet Rain.mp3
AudioLeadIn: 0
PreviewTime: 49755
Countdown: 0
SampleSet: Normal
StackLeniency: 0.7
Mode: 0
LetterboxInBreaks: 0
EpilepsyWarning: 1
WidescreenStoryboard: 1

[Editor]
Bookmarks: 12594,24981,37368,49755,74529,80723,85077,93110,105497
DistanceSpacing: 1.3
BeatDivisor: 4
GridSize: 4
TimelineZoom: 0.8

[Metadata]
Title:Sweet Rain
TitleUnicode:Sweet Rain
Artist:Y&Co. feat. Karin
ArtistUnicode:Y&Co. feat. Karin
Creator:Yauxo
Version:Milan-'s Normal
Source:jubeat knit
Tags:Akira Yokota Tetsuya Tamura pishifat milan- stjpa appleeaterx
BeatmapID:812916
BeatmapSetID:327825

[Difficulty]
HPDrainRate:4
CircleSize:3.5
OverallDifficulty:4
ApproachRate:5
SliderMultiplier:1.2
SliderTickRate:1

[Events]
//Background and Video events
0,0,"earlyBG.jpg",0,0
//Break Periods
2,80923,83974
//Storyboard Layer 0 (Background)
//Storyboard Layer 1 (Fail)
//Storyboard Layer 2 (Pass)
//Storyboard Layer 3 (Foreground)
//Storyboard Sound Samples

[TimingPoints]
207,387.096774193548,4,2,1,40,1,0
207,-117.647058823529,4,2,1,40,0,0
690,-117.647058823529,4,2,1,5,0,0
787,-117.647058823529,4,2,1,40,0,0
1852,-117.647058823529,4,2,1,20,0,0
1948,-117.647058823529,4,2,1,40,0,0
2045,-117.647058823529,4,2,1,20,0,0
2142,-117.647058823529,4,2,1,40,0,0
2239,-117.647058823529,4,2,1,20,0,0
2336,-117.647058823529,4,2,1,40,0,0
2432,-117.647058823529,4,2,1,20,0,0
2529,-117.647058823529,4,2,1,40,0,0
5819,-117.647058823529,4,2,1,50,0,0
6400,-117.647058823529,4,2,1,60,0,0
8045,-117.647058823529,4,2,1,30,0,0
8142,-117.647058823529,4,2,1,60,0,0
8239,-117.647058823529,4,2,1,30,0,0
8336,-117.647058823529,4,2,1,60,0,0
8819,-117.647058823529,4,2,1,30,0,0
8916,-117.647058823529,4,2,1,60,0,0
9013,-117.647058823529,4,2,1,30,0,0
9110,-117.647058823529,4,2,1,60,0,0
12303,-117.647058823529,4,2,1,30,0,0
12400,-117.647058823529,4,2,1,60,0,0
12497,-117.647058823529,4,2,1,30,0,0
12594,-100,4,1,1,65,0,0
13465,-100,4,1,1,30,0,0
13561,-100,4,1,1,65,0,0
13658,-100,4,1,1,30,0,0
13755,-100,4,1,1,65,0,0
13852,-100,4,1,1,30,0,0
13948,-100,4,1,1,65,0,0
14045,-100,4,1,1,30,0,0
14142,-100,4,1,1,65,0,0
15400,-100,4,1,1,30,0,0
15497,-100,4,1,1,65,0,0
15594,-100,4,1,1,30,0,0
15690,-100,4,1,1,65,0,0
16561,-100,4,1,1,30,0,0
16658,-100,4,1,1,65,0,0
16755,-100,4,1,1,30,0,0
16852,-100,4,1,1,65,0,0
16948,-100,4,1,1,30,0,0
17045,-100,4,1,1,65,0,0
17142,-100,4,1,1,30,0,0
17239,-100,4,1,1,65,0,0
19658,-100,4,1,1,30,0,0
19755,-100,4,1,1,65,0,0
19852,-100,4,1,1,30,0,0
19948,-100,4,1,1,65,0,0
20045,-100,4,1,1,30,0,0
20142,-100,4,1,1,65,0,0
20239,-100,4,1,1,30,0,0
20336,-100,4,1,1,65,0,0
20819,-100,4,1,1,30,0,0
20916,-100,4,1,1,65,0,0
21013,-100,4,1,1,30,0,0
21110,-100,4,1,1,65,0,0
22755,-100,4,1,1,30,0,0
22852,-100,4,1,1,65,0,0
22948,-100,4,1,1,30,0,0
23045,-100,4,1,1,65,0,0
23142,-100,4,1,1,30,0,0
23239,-100,4,1,1,65,0,0
43271,-100,4,1,1,30,0,0
43368,-100,4,1,1,65,0,0
43465,-100,4,1,1,30,0,0
43561,-100,4,1,1,65,0,0
48787,-100,4,1,1,65,0,0
49174,-100,4,1,1,65,0,0
49368,-100,4,1,1,65,0,0
49658,-100,4,1,1,5,0,0
49755,-100,4,1,1,65,0,1
53142,-100,4,1,1,5,0,1
53239,-100,4,1,1,65,0,1
65916,-100,4,1,1,5,0,1
66013,-100,4,1,1,65,0,1
70948,-100,4,1,1,5,0,1
71045,-100,4,1,1,65,0,1
71336,-100,4,1,1,5,0,1
71432,-100,4,1,1,65,0,1
74529,-100,4,1,1,65,0,0
75400,-100,4,1,1,30,0,0
75497,-100,4,1,1,65,0,0
75594,-100,4,1,1,30,0,0
75690,-100,4,1,1,65,0,0
75787,-100,4,1,1,30,0,0
75884,-100,4,1,1,65,0,0
75981,-100,4,1,1,30,0,0
76077,-100,4,1,1,65,0,0
78497,-100,4,1,1,30,0,0
78594,-100,4,1,1,65,0,0
78690,-100,4,1,1,30,0,0
78787,-100,4,1,1,65,0,0
80045,-100,4,1,1,5,0,0
80142,-100,4,1,1,65,0,0
80336,-100,4,1,1,80,0,0
80529,-100,4,1,1,50,0,0
80723,-100,4,1,1,65,0,0
86916,-117.647058823529,4,1,1,65,0,0
91561,-100,4,1,1,65,0,0
92045,-100,4,1,1,5,0,0
92142,-100,4,1,1,65,0,0
92432,-100,4,1,1,5,0,0
92529,-100,4,1,1,65,0,0
93110,-100,4,1,1,65,0,1
96884,-100,4,1,1,5,0,1
96981,-100,4,1,1,65,0,1
101916,-100,4,1,1,5,0,1
102013,-100,4,1,1,65,0,1
102303,-100,4,1,1,5,0,1
102400,-100,4,1,1,65,0,1
104916,-100,4,1,1,30,0,1
105013,-100,4,1,1,65,0,1
105206,-100,4,1,1,30,0,1
105303,-100,4,1,1,65,0,1
105497,-100,4,1,1,65,0,0
106368,-100,4,1,1,30,0,0
106465,-100,4,1,1,65,0,0
106561,-100,4,1,1,30,0,0
106658,-100,4,1,1,65,0,0
106755,-100,4,1,1,30,0,0
106852,-100,4,1,1,65,0,0
106948,-100,4,1,1,30,0,0
107045,-100,4,1,1,65,0,0
108303,-100,4,1,1,30,0,0
108400,-100,4,1,1,65,0,0
108497,-100,4,1,1,30,0,0
108594,-100,4,1,1,65,0,0
109465,-100,4,1,1,30,0,0
109561,-100,4,1,1,65,0,0
109658,-100,4,1,1,30,0,0
109755,-100,4,1,1,65,0,0
109852,-100,4,1,1,30,0,0
109948,-100,4,1,1,65,0,0
110045,-100,4,1,1,30,0,0
110142,-100,4,1,1,65,0,0
112561,-100,4,1,1,30,0,0
112658,-100,4,1,1,65,0,0
112755,-100,4,1,1,30,0,0
112852,-100,4,1,1,65,0,0
112948,-100,4,1,1,30,0,0
113045,-100,4,1,1,65,0,0
113142,-100,4,1,1,30,0,0
113239,-100,4,1,1,65,0,0
113723,-100,4,1,1,30,0,0
113819,-100,4,1,1,65,0,0
113916,-100,4,1,1,30,0,0
114013,-100,4,1,1,65,0,0
115658,-100,4,1,1,30,0,0
115755,-100,4,1,1,65,0,0
115852,-100,4,1,1,30,0,0
115948,-100,4,1,1,65,0,0

[Colours]
Combo1 : 216,139,241
Combo2 : 219,240,98
Combo3 : 132,237,255
Combo4 : 194,243,24
Combo5 : 74,228,255
Combo6 : 255,107,81

[HitObjects]
386,78,207,5,8,3:1:0:0:
353,147,400,2,0,L|365:262,2,102.000001945496,2|2|0,0:0|0:0|0:0,0:0:0:0:
305,86,1368,1,2,0:0:0:0:
169,164,1755,6,0,L|47:155,1,102.000001945496,2|2,0:0|0:0,0:0:0:0:
98,306,2529,2,0,L|199:313,1,102.000001945496,2|2,0:0|0:0,0:0:0:0:
342,368,3303,2,0,P|356:347|367:317,1,51.0000009727478,2|0,0:0|0:0,0:0:0:0:
377,247,3690,2,0,L|376:141,1,102.000001945496,0|2,0:0|0:0,0:0:0:0:
259,244,4465,1,2,0:0:0:0:
150,136,4852,70,0,P|88:155|186:202,1,255.000004863739,0|10,0:0|1:0,0:0:0:0:
228,150,6013,1,10,1:0:0:0:
367,210,6400,6,0,P|418:212|465:193,1,102.000001945496,8|10,1:1|1:0,0:0:0:0:
434,43,7174,2,0,P|383:41|336:60,1,102.000001945496,8|10,1:0|1:0,0:0:0:0:
229,169,7948,1,10,1:0:0:0:
104,79,8336,1,10,1:0:0:0:
54,223,8723,2,0,L|63:296,1,51.0000009727478,10|0,1:0|0:0,0:0:0:0:
112,330,9110,70,0,L|6:330,2,102.000001945496,10|8|10,1:0|1:0|1:0,0:0:0:0:
247,259,10271,1,8,1:0:0:0:
191,206,10465,2,0,B|181:147|181:147|189:90,1,102.000001945496,8|8,1:0|1:0,0:0:0:0:
451,331,12206,5,2,0:0:0:0:
451,331,12594,2,0,L|442:207,1,120,8|10,3:1|0:0,0:0:0:0:
321,112,13368,2,0,P|294:98|264:96,1,60,8|0,0:0|0:0,0:0:0:0:
270,174,13755,2,0,P|238:171|200:144,1,60,10|0,0:0|0:0,0:0:0:0:
138,136,14142,2,0,L|12:145,1,120,8|10,0:0|0:0,0:0:0:0:
96,9,14916,2,0,L|222:18,1,120,8|10,0:0|0:0,0:0:0:0:
360,76,15690,70,0,L|430:66,1,60,8|0,0:0|0:0,0:0:0:0:
452,0,16077,2,0,P|491:40|490:98,1,120,10|8,0:0|0:0,0:0:0:0:
460,172,16658,2,0,L|471:230,2,60,0|10|0,0:0|0:0|0:0,0:0:0:0:
383,165,17239,2,0,L|247:158,1,120,8|10,0:0|0:0,0:0:0:0:
276,314,18013,2,0,L|156:307,1,120,8|10,0:0|0:0,0:0:0:0:
89,347,18594,1,10,0:0:0:0:
87,269,18787,6,0,L|80:128,2,120,8|10|8,0:0|0:0|0:0,0:0:0:0:
201,162,19948,2,0,P|194:136|204:85,1,60,10|0,0:0|0:0,0:0:0:0:
271,131,20336,2,0,B|348:131|348:131|409:124,1,120,8|10,0:0|0:0,0:0:0:0:
503,233,21110,2,0,B|425:232|425:232|383:237,1,120,8|10,0:0|0:0,0:0:0:0:
244,309,21884,70,0,L|182:306,1,60,8|0,0:0|0:0,0:0:0:0:
127,359,22271,2,0,P|106:303|131:248,1,120,10|8,0:0|0:0,0:0:0:0:
175,186,22852,2,0,L|168:108,2,60,0|10|0,0:0|0:0|0:0,0:0:0:0:
235,237,23432,6,0,B|278:232|278:232|337:206,1,90,8|8,0:0|0:0,0:0:0:0:
399,126,24013,2,0,B|441:107|441:107|484:102,1,90,8|8,0:0|0:0,0:0:0:0:
472,218,24594,2,0,P|481:251|482:290,1,60,8|8,0:0|0:0,0:0:0:0:
424,328,24981,70,0,L|298:304,1,120,8|10,3:1|0:0,0:0:0:0:
228,306,25561,1,0,0:0:0:0:
164,351,25755,2,0,P|150:295|178:244,1,120,8|10,0:0|0:0,0:0:0:0:
315,170,26529,2,0,P|343:118|327:62,1,120,8|10,0:0|0:0,0:0:0:0:
265,110,27110,2,0,L|144:113,1,120
4,180,27884,5,0,0:0:0:0:
43,247,28077,2,0,P|100:270|162:244,1,120,8|10,0:0|0:0,0:0:0:0:
207,195,28658,2,0,L|326:192,1,120,0|0,0:0|0:0,0:0:0:0:
462,115,29432,2,0,P|484:171|473:230,1,120,0|0,0:0|0:0,0:0:0:0:
426,291,30013,1,10,0:0:0:0:
273,322,30400,2,0,L|143:325,2,120,8|10|8,0:0|0:0|0:0,0:0:0:0:
296,167,31561,70,0,L|176:164,1,120,10|8,0:0|0:0,0:0:0:0:
56,63,32336,2,0,P|16:107|12:165,1,120,10|8,0:0|0:0,0:0:0:0:
57,229,32916,2,0,P|65:257|69:287,1,60,0|10,0:0|0:0,0:0:0:0:
54,363,33303,2,0,L|173:360,1,120,0|0,0:0|0:0,0:0:0:0:
329,347,34077,5,0,0:0:0:0:
381,288,34271,2,0,L|363:169,1,120,8|10,0:0|0:0,0:0:0:0:
344,93,34852,1,0,0:0:0:0:
231,200,35239,2,0,L|154:211,2,60,0|10|0,0:0|0:0|0:0,0:0:0:0:
250,275,35819,70,0,L|190:283,1,60,8|8,0:0|0:0,0:0:0:0:
50,352,36400,1,8,0:0:0:0:
13,200,36787,2,0,B|13:144|43:117|43:117|71:119|71:119|95:107|136:103,1,180,8|8,0:0|3:1,0:0:0:0:
255,195,37755,6,0,P|318:216|389:190,1,120,10|8,0:0|0:0,0:0:0:0:
433,159,38336,1,0,0:0:0:0:
350,26,38723,2,0,P|294:5|236:17,1,120
158,152,39497,2,0,P|99:163|44:143,1,120,0|0,0:0|0:0,0:0:0:0:
2,77,40077,1,10,0:0:0:0:
60,24,40271,70,0,P|118:12|173:32,1,120
216,98,40852,1,10,0:0:0:0:
369,70,41239,1,8,0:0:0:0:
398,141,41432,2,0,L|396:286,1,120,8|8,0:0|0:0,0:0:0:0:
370,334,42013,2,0,P|402:338|441:328,2,60,8|8|8,0:0|0:0|0:0,0:0:0:0:
318,275,42594,2,0,P|263:255|203:260,1,120,8|8,0:0|0:0,0:0:0:0:
85,363,43368,5,8,0:0:0:0:
91,285,43561,2,0,L|77:142,1,120,8|10,0:0|0:0,0:0:0:0:
197,63,44336,2,0,L|208:182,1,120,8|10,0:0|0:0,0:0:0:0:
251,247,44916,2,0,P|296:265|361:246,1,120,0|0,0:0|0:0,0:0:0:0:
418,191,45497,1,10,0:0:0:0:
466,129,45690,2,0,L|454:9,1,120
351,127,46465,70,0,P|291:136|228:100,1,120
180,60,47045,2,0,L|87:86,2,90,10|8|8,0:0|0:0|0:0,0:0:0:0:
326,2,48013,5,8,0:0:0:0:
340,78,48207,2,0,P|367:69|394:43,2,60,12|12|12,0:0|0:0|0:0,0:0:0:0:
286,134,48787,2,0,L|269:252,1,120,12|12,0:0|0:0,0:0:0:0:
58,353,49755,6,0,L|76:234,1,120,8|10,3:1|0:0,0:0:0:0:
126,87,50529,2,0,P|106:66|68:46,2,60,8|0|10,0:0|0:0|0:0,0:0:0:0:
166,154,51110,2,0,P|219:166|279:140,1,120,0|0,0:0|0:0,0:0:0:0:
390,33,51884,2,0,P|443:8|501:20,1,120,0|0,0:0|0:0,0:0:0:0:
504,98,52465,1,10,0:0:0:0:
442,241,52852,6,0,P|384:252|330:228,1,120,8|10,0:0|0:0,0:0:0:0:
219,117,53626,2,0,L|209:34,2,60,8|0|10,0:0|0:0|0:0,0:0:0:0:
204,193,54206,2,0,P|159:229|90:222,1,120,0|0,0:0|0:0,0:0:0:0:
28,86,54981,2,0,P|74:49|132:52,1,120,0|0,0:0|0:0,0:0:0:0:
211,57,55561,2,0,P|240:48|283:40,1,60,10|10,0:0|0:0,0:0:0:0:
344,64,55948,70,0,P|416:47|474:52,1,120,8|10,0:0|0:0,0:0:0:0:
492,203,56723,2,0,L|501:267,2,60,8|0|10,0:0|0:0|0:0,0:0:0:0:
421,169,57303,2,0,P|361:169|303:154,1,120,0|0,0:0|0:0,0:0:0:0:
238,111,57884,1,10,0:0:0:0:
142,234,58271,2,0,P|128:299|163:365,1,120,8|10,0:0|0:0,0:0:0:0:
221,370,58852,1,0,0:0:0:0:
265,306,59045,6,0,P|322:275|438:312,1,180,8|0,0:0|0:0,0:0:0:0:
476,364,59819,2,0,P|464:265|466:165,1,180,8|0,0:0|0:0,0:0:0:0:
484,108,60594,1,8,0:0:0:0:
406,124,60787,2,0,P|348:135|292:116,1,120,8|8,0:0|0:0,0:0:0:0:
157,38,61561,2,0,P|100:18|42:30,1,120,10|8,0:0|0:0,0:0:0:0:
20,105,62142,70,0,L|37:248,1,120,8|10,3:1|0:0,0:0:0:0:
162,312,62916,2,0,P|144:340|114:362,2,60,8|0|10,0:0|0:0|0:0,0:0:0:0:
175,235,63497,2,0,P|206:180|259:159,1,120
412,150,64271,2,0,P|465:126|493:74,1,120,0|0,0:0|0:0,0:0:0:0:
463,2,64852,1,10,0:0:0:0:
315,52,65239,6,0,L|195:35,1,120,8|10,0:0|0:0,0:0:0:0:
53,97,66013,2,0,P|44:76|42:13,2,60,8|0|10,0:0|0:0|0:0,0:0:0:0:
102,157,66594,2,0,P|115:211|95:276,1,120,0|0,0:0|0:0,0:0:0:0:
213,376,67368,2,0,P|258:343|325:337,1,120,0|0,0:0|0:0,0:0:0:0:
394,363,67948,2,0,L|468:354,1,60,10|10,0:0|0:0,0:0:0:0:
491,285,68336,70,0,P|488:226|461:173,1,120,8|10,0:0|0:0,0:0:0:0:
318,109,69110,2,0,L|187:126,1,120,8|10,0:0|0:0,0:0:0:0:
153,187,69690,2,0,P|126:146|146:67,1,120
188,20,70271,1,10,0:0:0:0:
318,109,70658,2,0,L|436:93,1,120,8|10,0:0|0:0,0:0:0:0:
462,247,71432,6,0,L|331:264,1,120,8|10,0:0|0:0,0:0:0:0:
274,300,72013,1,0,0:0:0:0:
206,338,72206,2,0,L|75:355,1,120,8|10,0:0|0:0,0:0:0:0:
16,213,72981,69,8,0:0:0:0:
16,213,73174,2,0,L|135:197,1,120,8|8,0:0|0:0,0:0:0:0:
231,75,73948,2,0,L|111:59,1,120,8|8,0:0|0:0,0:0:0:0:
256,192,74529,12,8,77626,0:0:0:0:
378,249,78981,69,10,0:0:0:0:
300,252,79174,2,0,L|223:273,2,60,12|12|12,0:0|0:0|0:0,0:0:0:0:
336,182,79755,2,0,P|334:110|301:68,1,120,12|14,0:0|0:0,0:0:0:0:
75,34,80723,5,0,0:0:0:0:
406,131,85174,69,8,0:0:0:0:
267,202,85561,1,8,0:0:0:0:
111,187,85948,1,8,0:0:0:0:
201,59,86336,1,8,0:0:0:0:
267,202,86723,1,8,0:0:0:0:
342,221,86916,70,0,P|384:194|406:149,1,102.000001945496,8|0,0:0|0:0,0:0:0:0:
359,25,87690,2,0,P|316:52|294:97,1,102.000001945496,0|0,0:0|0:0,0:0:0:0:
233,215,88465,2,0,P|190:187|168:142,1,102.000001945496,8|0,0:0|0:0,0:0:0:0:
97,30,89239,2,0,P|74:75|32:102,1,102.000001945496,0|0,0:0|0:0,0:0:0:0:
47,234,90013,2,0,P|89:261|111:306,1,102.000001945496,8|0,0:0|0:0,0:0:0:0:
234,355,90787,2,0,P|256:309|298:282,1,102.000001945496,0|0,0:0|0:0,0:0:0:0:
453,302,91561,5,8,0:0:0:0:
454,223,91755,2,0,L|441:80,2,120,10|10|10,0:0|0:0|0:0,0:0:0:0:
298,282,93110,6,0,P|235:277|160:260,1,120,8|10,3:1|0:0,0:0:0:0:
56,170,93884,2,0,L|15:119,2,60,8|0|10,0:0|0:0|0:0,0:0:0:0:
134,172,94465,2,0,P|179:134|195:77,1,120,0|0,0:0|0:0,0:0:0:0:
346,41,95239,2,0,P|300:78|284:135,1,120,0|0,0:0|0:0,0:0:0:0:
303,211,95819,1,10,0:0:0:0:
448,266,96206,6,0,P|493:228|509:171,1,120,8|10,0:0|0:0,0:0:0:0:
425,39,96981,2,0,P|448:26|497:14,2,60,8|0|10,0:0|0:0|0:0,0:0:0:0:
376,99,97561,2,0,P|317:101|271:65,1,120,0|0,0:0|0:0,0:0:0:0:
162,178,98336,2,0,P|115:214|57:211,1,120,0|0,0:0|0:0,0:0:0:0:
93,142,98916,2,0,L|83:77,1,60,10|10,0:0|0:0,0:0:0:0:
16,45,99303,70,0,P|62:8|120:11,1,120,8|10,0:0|0:0,0:0:0:0:
251,93,100077,2,0,L|281:230,1,120,8|10,0:0|0:0,0:0:0:0:
318,276,100658,2,0,P|376:278|422:242,1,120,0|0,0:0|0:0,0:0:0:0:
423,164,101239,2,0,P|427:135|441:88,2,60,10|0|8,0:0|0:0|0:0,0:0:0:0:
487,306,102013,1,10,0:0:0:0:
342,364,102400,6,0,P|219:357|162:349,1,180,8|0,0:0|0:0,0:0:0:0:
90,318,103174,2,0,P|209:289|264:271,1,180,8|0,0:0|0:0,0:0:0:0:
330,231,103948,69,8,0:0:0:0:
331,152,104142,2,0,B|340:81|418:60|418:60|459:74,2,180,8|8|8,0:0|0:0|0:0,0:0:0:0:
330,231,105497,22,0,L|349:363,1,120,8|10,3:1|0:0,0:0:0:0:
191,342,106271,2,0,L|180:267,1,60,8|0,0:0|0:0,0:0:0:0:
140,216,106658,2,0,L|129:141,1,60,10|0,0:0|0:0,0:0:0:0:
142,79,107045,2,0,P|186:27|251:17,1,120,8|10,0:0|0:0,0:0:0:0:
369,92,107819,2,0,P|333:138|276:155,1,120,8|10,0:0|0:0,0:0:0:0:
124,191,108594,6,0,L|87:328,1,120,8|10,0:0|0:0,0:0:0:0:
233,372,109368,2,0,L|256:292,1,60,8|0,0:0|0:0,0:0:0:0:
309,264,109755,2,0,L|332:184,1,60,10|0,0:0|0:0,0:0:0:0:
365,138,110142,2,0,P|418:113|477:120,2,120,8|10|8,0:0|0:0|0:0,0:0:0:0:
225,209,111303,2,0,L|142:198,1,60,10|10,0:0|0:0,0:0:0:0:
110,257,111690,70,0,P|89:207|123:136,1,120,8|10,0:0|0:0,0:0:0:0:
252,83,112465,2,0,L|311:75,1,60,8|0,0:0|0:0,0:0:0:0:
368,128,112852,2,0,L|427:120,1,60,10|0,0:0|0:0,0:0:0:0:
486,171,113239,2,0,L|476:304,1,120,8|10,0:0|0:0,0:0:0:0:
342,369,114013,2,0,L|333:249,1,120,8|10,0:0|0:0,0:0:0:0:
242,120,114787,6,0,P|188:96|129:99,1,120,8|10,0:0|0:0,0:0:0:0:
5,193,115561,2,0,L|20:269,1,60,8|8,0:0|0:0,0:0:0:0:
94,246,115948,2,0,L|109:322,1,60,10|10,0:0|0:0,0:0:0:0:
159,362,116336,70,0,B|212:371|212:371|256:368,1,90,8|8,0:0|0:0,0:0:0:0:
335,290,116916,2,0,B|388:281|388:281|424:283,1,90,8|8,0:0|0:0,0:0:0:0:
476,178,117497,2,0,L|397:173,1,60,8|8,0:0|0:0,0:0:0:0:
338,167,117884,1,12,0:3:0:0:
