osu file format v14

[General]
AudioFilename: Sweet Rain.mp3
AudioLeadIn: 0
PreviewTime: 49755
Countdown: 0
SampleSet: Normal
StackLeniency: 0.4
Mode: 0
LetterboxInBreaks: 0
EpilepsyWarning: 1
WidescreenStoryboard: 1

[Editor]
Bookmarks: 12594,24981,37368,49755,74529,80723,93110,105497
DistanceSpacing: 0.6
BeatDivisor: 8
GridSize: 4
TimelineZoom: 2.3

[Metadata]
Title:Sweet Rain
TitleUnicode:Sweet Rain
Artist:Y&Co. feat. Karin
ArtistUnicode:Y&Co. feat. Karin
Creator:Yauxo
Version:Another
Source:jubeat knit
Tags:Akira Yokota Tetsuya Tamura pishifat milan- stjpa appleeaterx
BeatmapID:727447
BeatmapSetID:327825

[Difficulty]
HPDrainRate:6
CircleSize:4.4
OverallDifficulty:8
ApproachRate:8.9
SliderMultiplier:1.7
SliderTickRate:1

[Events]
//Background and Video events
0,0,"earlyBG.jpg",0,0
//Break Periods
2,80922,84559
//Storyboard Layer 0 (Background)
//Storyboard Layer 1 (Fail)
//Storyboard Layer 2 (Pass)
//Storyboard Layer 3 (Foreground)
//Storyboard Sound Samples

[TimingPoints]
207,387.096774193548,4,2,1,40,1,0
690,-100,4,2,1,5,0,0
787,-100,4,2,1,40,0,0
1852,-100,4,2,1,20,0,0
1948,-100,4,2,1,40,0,0
2045,-100,4,2,1,20,0,0
2142,-100,4,2,1,40,0,0
2239,-100,4,2,1,20,0,0
2336,-100,4,2,1,40,0,0
2432,-100,4,2,1,20,0,0
2529,-100,4,2,1,40,0,0
5819,-100,4,2,1,50,0,0
6061,-100,4,2,1,38,0,0
6400,-100,4,2,1,60,0,0
8045,-100,4,2,1,30,0,0
8142,-100,4,2,1,60,0,0
8239,-100,4,2,1,30,0,0
8336,-100,4,2,1,60,0,0
8819,-100,4,2,1,30,0,0
8916,-100,4,2,1,60,0,0
9013,-100,4,2,1,30,0,0
9110,-100,4,2,1,60,0,0
9932,-100,4,2,1,40,0,0
10077,-100,4,2,1,60,0,0
10126,-100,4,2,1,40,0,0
10271,-100,4,2,1,60,0,0
12303,-100,4,2,1,30,0,0
12400,-100,4,2,1,60,0,0
12497,-100,4,2,1,30,0,0
12594,-100,4,1,1,65,0,0
13465,-100,4,1,1,30,0,0
13561,-100,4,1,1,65,0,0
13658,-100,4,1,1,30,0,0
13755,-100,4,1,1,65,0,0
13852,-100,4,1,1,30,0,0
13948,-100,4,1,1,65,0,0
14045,-100,4,1,1,30,0,0
14142,-100,4,1,1,65,0,0
15400,-100,4,1,1,30,0,0
15497,-100,4,1,1,65,0,0
15594,-100,4,1,1,30,0,0
15690,-100,4,1,1,65,0,0
16561,-100,4,1,1,30,0,0
16658,-100,4,1,1,65,0,0
16755,-100,4,1,1,30,0,0
16852,-100,4,1,1,65,0,0
16948,-100,4,1,1,30,0,0
17045,-100,4,1,1,65,0,0
17142,-100,4,1,1,30,0,0
17239,-100,4,1,1,65,0,0
19658,-100,4,1,1,30,0,0
19755,-100,4,1,1,65,0,0
19852,-100,4,1,1,30,0,0
19948,-100,4,1,1,65,0,0
20045,-100,4,1,1,30,0,0
20142,-100,4,1,1,65,0,0
20239,-100,4,1,1,30,0,0
20336,-100,4,1,1,65,0,0
20819,-100,4,1,1,30,0,0
20916,-100,4,1,1,65,0,0
21013,-100,4,1,1,30,0,0
21110,-100,4,1,1,65,0,0
22755,-100,4,1,1,30,0,0
22852,-100,4,1,1,65,0,0
22948,-100,4,1,1,30,0,0
23045,-100,4,1,1,65,0,0
23142,-100,4,1,1,30,0,0
23239,-100,4,1,1,65,0,0
37029,-100,4,1,1,35,0,0
37077,-100,4,1,1,40,0,0
37126,-100,4,1,1,45,0,0
37174,-100,4,1,1,50,0,0
37368,-100,4,1,1,65,0,0
43271,-100,4,1,1,30,0,0
43368,-100,4,1,1,65,0,0
43465,-100,4,1,1,30,0,0
43561,-100,4,1,1,65,0,0
48787,-200,4,1,1,65,0,0
49077,-200,4,1,1,5,0,0
49174,-100,4,1,1,65,0,0
49368,-84.7457627118644,4,1,1,65,0,0
49561,-100,4,1,1,65,0,0
49755,-100,4,1,1,65,0,1
53142,-100,4,1,1,5,0,1
53239,-100,4,1,1,65,0,1
65916,-100,4,1,1,5,0,1
66013,-100,4,1,1,65,0,1
70948,-100,4,1,1,5,0,1
71045,-100,4,1,1,65,0,1
71336,-100,4,1,1,5,0,1
71432,-100,4,1,1,65,0,1
74384,-100,4,1,1,45,0,1
74529,-100,4,1,1,65,0,0
75400,-100,4,1,1,30,0,0
75497,-100,4,1,1,65,0,0
75594,-100,4,1,1,30,0,0
75690,-100,4,1,1,65,0,0
75787,-100,4,1,1,30,0,0
75884,-100,4,1,1,65,0,0
75981,-100,4,1,1,30,0,0
76077,-100,4,1,1,65,0,0
78061,-100,4,1,1,45,0,0
78206,-100,4,1,1,65,0,0
78255,-100,4,1,1,45,0,0
78400,-100,4,1,1,65,0,0
78497,-100,4,1,1,30,0,0
78594,-100,4,1,1,65,0,0
78690,-100,4,1,1,30,0,0
78787,-100,4,1,1,65,0,0
80045,-100,4,1,1,5,0,0
80142,-200,4,1,1,65,0,0
80336,-200,4,1,1,80,0,0
80529,-200,4,1,1,50,0,0
80723,-100,4,1,1,65,0,0
92045,-100,4,1,1,5,0,0
92142,-100,4,1,1,65,0,0
92432,-100,4,1,1,5,0,0
92529,-100,4,1,1,65,0,0
92771,-100,4,1,1,35,0,0
92819,-100,4,1,1,40,0,0
92868,-100,4,1,1,45,0,0
92916,-100,4,1,1,50,0,0
93110,-100,4,1,1,65,0,1
96884,-100,4,1,1,5,0,1
96981,-100,4,1,1,65,0,1
101916,-100,4,1,1,5,0,1
102013,-100,4,1,1,65,0,1
102303,-100,4,1,1,5,0,1
102400,-100,4,1,1,65,0,1
104916,-100,4,1,1,30,0,1
105013,-100,4,1,1,65,0,1
105206,-100,4,1,1,30,0,1
105303,-100,4,1,1,65,0,1
105352,-100,4,1,1,45,0,1
105497,-100,4,1,1,65,0,0
106368,-100,4,1,1,30,0,0
106465,-100,4,1,1,65,0,0
106561,-100,4,1,1,30,0,0
106658,-100,4,1,1,65,0,0
106755,-100,4,1,1,30,0,0
106852,-100,4,1,1,65,0,0
106948,-100,4,1,1,30,0,0
107045,-100,4,1,1,65,0,0
108303,-100,4,1,1,30,0,0
108400,-100,4,1,1,65,0,0
108497,-100,4,1,1,30,0,0
108594,-100,4,1,1,65,0,0
109465,-100,4,1,1,30,0,0
109561,-100,4,1,1,65,0,0
109658,-100,4,1,1,30,0,0
109755,-100,4,1,1,65,0,0
109852,-100,4,1,1,30,0,0
109948,-100,4,1,1,65,0,0
110045,-100,4,1,1,30,0,0
110142,-100,4,1,1,65,0,0
112561,-100,4,1,1,30,0,0
112658,-100,4,1,1,65,0,0
112755,-100,4,1,1,30,0,0
112852,-100,4,1,1,65,0,0
112948,-100,4,1,1,30,0,0
113045,-100,4,1,1,65,0,0
113142,-100,4,1,1,30,0,0
113239,-100,4,1,1,65,0,0
113723,-100,4,1,1,30,0,0
113819,-100,4,1,1,65,0,0
113916,-100,4,1,1,30,0,0
114013,-100,4,1,1,65,0,0
115658,-100,4,1,1,30,0,0
115755,-100,4,1,1,65,0,0
115852,-100,4,1,1,30,0,0
115948,-100,4,1,1,65,0,0

[Colours]
Combo1 : 216,139,241
Combo2 : 219,240,98
Combo3 : 132,237,255
Combo4 : 194,243,24
Combo5 : 74,228,255
Combo6 : 255,107,81

[HitObjects]
192,172,207,5,8,3:1:0:0:
192,172,400,2,0,P|248:192|312:172,1,127.5,2|0,0:0|0:0,0:0:0:0:
311,173,787,2,0,L|304:268,1,85,2|0,0:0|0:0,0:0:0:0:
252,87,1174,1,0,0:0:0:0:
400,140,1368,1,2,0:0:0:0:
397,170,1464,1,2,0:0:0:0:
395,200,1561,1,2,0:0:0:0:
392,230,1658,1,2,0:0:0:0:
390,260,1755,6,0,L|387:302,1,42.5,2|0,0:0|0:0,0:0:0:0:
304,364,1948,2,0,L|301:321,1,42.5,2|0,0:0|0:0,0:0:0:0:
218,260,2142,2,0,L|215:302,1,42.5,2|0,0:0|0:0,0:0:0:0:
132,364,2336,2,0,L|129:321,1,42.5,2|0,0:0|0:0,0:0:0:0:
46,260,2529,69,2,0:0:0:0:
49,230,2626,1,2,0:0:0:0:
51,200,2723,1,2,0:0:0:0:
54,170,2820,1,2,0:0:0:0:
57,140,2916,1,2,0:0:0:0:
59,110,3013,1,2,0:0:0:0:
62,80,3110,1,2,0:0:0:0:
64,50,3206,1,2,0:0:0:0:
67,20,3303,5,2,0:0:0:0:
75,28,3884,1,2,0:0:0:0:
75,28,3981,1,2,0:0:0:0:
75,28,4077,2,0,L|144:16,3,42.5,2|0|0|0,0:0|0:0|0:0|0:0,0:0:0:0:
188,88,4465,2,0,L|257:100,3,42.5,2|0|0|0,0:0|0:0|0:0|0:0,0:0:0:0:
92,144,4852,69,0,0:0:0:0:
83,172,4948,1,0,0:0:0:0:
83,202,5045,1,0,0:0:0:0:
91,230,5142,1,0,0:0:0:0:
104,256,5239,2,0,L|100:284,2,21.25,2|0|2,0:0|0:0|0:0,0:0:0:0:
140,244,5432,5,2,0:0:0:0:
174,232,5529,1,2,0:0:0:0:
212,232,5625,1,0,0:0:0:0:
247,242,5722,1,0,0:0:0:0:
282,254,5819,1,10,1:0:0:0:
320,254,5916,1,0,0:0:0:0:
356,244,6013,2,0,L|360:216,6,21.25,10|10|10|10|10|10|10,1:0|1:0|1:0|1:0|1:0|1:0|1:0,0:0:0:0:
416,304,6400,70,0,B|448:316|448:316|500:304,1,85,8|0,1:1|0:0,0:0:0:0:
396,152,6787,2,0,B|364:140|364:140|312:152,1,85,10|0,1:0|0:0,0:0:0:0:
280,164,7077,1,0,0:0:0:0:
280,164,7174,2,0,L|266:80,1,85,8|0,1:0|0:0,0:0:0:0:
359,222,7561,2,0,L|343:315,1,85,10|0,1:0|0:0,0:0:0:0:
344,340,7852,1,0,0:0:0:0:
343,339,7948,6,0,L|302:332,1,42.5,10|0,1:0|0:0,0:0:0:0:
189,272,8142,2,0,L|258:260,1,42.5,0|0,0:0|0:0,0:0:0:0:
392,240,8335,1,10,1:0:0:0:
397,211,8432,1,0,0:0:0:0:
402,182,8529,1,0,0:0:0:0:
407,153,8626,1,0,0:0:0:0:
412,124,8723,70,0,L|370:116,1,42.5,10|0,1:0|0:0,0:0:0:0:
258,57,8917,2,0,L|327:45,1,42.5,0|0,0:0|0:0,0:0:0:0:
480,20,9109,1,10,1:0:0:0:
486,56,9206,1,0,0:0:0:0:
492,92,9303,1,0,0:0:0:0:
498,128,9400,1,8,1:0:0:0:
505,165,9497,6,0,L|497:206,3,42.5,8|0|10|0,1:0|0:0|1:0|0:0,0:0:0:0:
416,136,9884,70,0,L|412:108,2,21.25,10|0|0,1:0|0:0|0:0,0:0:0:0:
327,165,10077,2,0,L|323:193,2,21.25,8|0|0,1:0|0:0|0:0,0:0:0:0:
238,136,10271,5,8,1:0:0:0:
238,136,10368,1,0,0:0:0:0:
238,136,10465,2,0,L|230:94,3,42.5,8|0|0|0,1:0|0:0|0:0|0:0,0:0:0:0:
228,168,10852,1,8,1:0:0:0:
348,248,11045,69,2,0:0:0:0:
348,248,11142,1,0,0:0:0:0:
348,248,11239,1,0,0:0:0:0:
348,248,11336,1,0,0:0:0:0:
348,248,11432,5,2,0:0:0:0:
331,276,11528,1,0,0:0:0:0:
325,309,11625,1,0,0:0:0:0:
331,343,11722,1,0,0:0:0:0:
348,371,11819,1,2,0:0:0:0:
309,356,11915,1,0,0:0:0:0:
267,351,12012,1,2,0:0:0:0:
225,356,12109,1,0,0:0:0:0:
185,370,12206,70,0,L|143:362,1,42.5,2|0,0:0|0:0,0:0:0:0:
31,303,12400,2,0,L|100:291,1,42.5,2|0,0:0|0:0,0:0:0:0:
216,204,12594,6,0,B|228:236|228:236|216:288,1,85,8|0,3:1|0:0,0:0:0:0:
144,244,12884,1,0,0:0:0:0:
144,244,12981,2,0,B|132:212|132:212|143:162,1,85,10|0,0:0|0:0,0:0:0:0:
152,132,13271,1,0,0:0:0:0:
152,132,13368,70,0,L|86:116,1,42.5,8|0,0:0|0:0,0:0:0:0:
220,196,13561,2,0,L|285:180,1,42.5,0|0,0:0|0:0,0:0:0:0:
368,160,13755,2,0,L|372:104,1,42.5,10|0,0:0|0:0,0:0:0:0:
276,48,13948,2,0,L|279:90,1,42.5,0|0,0:0|0:0,0:0:0:0:
304,260,14142,5,8,0:0:0:0:
340,280,14238,1,0,0:0:0:0:
382,288,14335,1,0,0:0:0:0:
424,280,14432,1,0,0:0:0:0:
460,259,14529,2,0,L|496:292,3,42.5,10|0|0|0,0:0|0:0|0:0|0:0,0:0:0:0:
380,180,14916,69,8,0:0:0:0:
344,160,15012,1,0,0:0:0:0:
302,152,15109,1,0,0:0:0:0:
260,160,15206,1,0,0:0:0:0:
224,181,15303,2,0,L|188:148,1,42.5,10|0,0:0|0:0,0:0:0:0:
284,36,15497,2,0,L|272:84,1,42.5
275,260,15690,5,8,0:0:0:0:
275,260,15787,2,0,L|187:264,1,85,0|0,0:0|0:0,0:0:0:0:
139,184,16077,2,0,L|223:180,1,85,10|0,0:0|0:0,0:0:0:0:
260,180,16368,1,0,0:0:0:0:
260,180,16465,70,0,L|272:128,1,42.5,8|0,0:0|0:0,0:0:0:0:
336,44,16658,2,0,L|345:85,1,42.5,0|0,0:0|0:0,0:0:0:0:
400,200,16852,2,0,L|348:212,1,42.5,10|0,0:0|0:0,0:0:0:0:
264,276,17045,2,0,L|305:285,1,42.5,0|0,0:0|0:0,0:0:0:0:
448,296,17239,5,8,0:0:0:0:
448,303,17336,1,0,0:0:0:0:
449,311,17432,1,0,0:0:0:0:
450,319,17529,1,0,0:0:0:0:
450,326,17626,2,0,L|446:368,1,42.5,10|0,0:0|0:0,0:0:0:0:
368,376,17819,69,0,0:0:0:0:
368,369,17916,1,0,0:0:0:0:
369,361,18012,1,8,0:0:0:0:
370,353,18109,1,0,0:0:0:0:
370,346,18206,1,0,0:0:0:0:
371,338,18302,1,0,0:0:0:0:
372,330,18400,2,0,B|340:318|340:318|288:330,1,85,10|10,0:0|0:0,0:0:0:0:
136,344,18787,5,8,0:0:0:0:
136,344,18884,2,0,B|124:312|124:312|136:260,1,85,0|0,0:0|0:0,0:0:0:0:
158,187,19174,2,0,B|170:155|170:155|158:103,1,85,10|0,0:0|0:0,0:0:0:0:
148,72,19465,1,0,0:0:0:0:
148,72,19561,70,0,L|106:64,1,42.5,8|0,0:0|0:0,0:0:0:0:
40,164,19755,2,0,L|81:156,1,42.5,0|0,0:0|0:0,0:0:0:0:
244,120,19948,2,0,L|285:112,1,42.5,10|0,0:0|0:0,0:0:0:0:
352,212,20142,2,0,L|310:204,1,42.5,0|0,0:0|0:0,0:0:0:0:
138,232,20336,5,8,0:0:0:0:
130,190,20432,1,0,0:0:0:0:
122,148,20529,1,0,0:0:0:0:
114,106,20626,1,0,0:0:0:0:
106,64,20723,2,0,L|113:22,1,42.5,10|0,0:0|0:0,0:0:0:0:
202,116,20916,2,0,L|209:157,1,42.5,0|0,0:0|0:0,0:0:0:0:
234,288,21110,69,8,0:0:0:0:
234,288,21206,2,0,L|192:277,2,42.5,0|0|0,0:0|0:0|0:0,0:0:0:0:
306,328,21497,2,0,B|318:296|318:296|306:246,1,85,10|0,0:0|0:0,0:0:0:0:
215,113,21884,5,8,0:0:0:0:
215,113,21981,2,0,L|130:102,1,85,0|0,0:0|0:0,0:0:0:0:
72,176,22271,2,0,L|156:186,1,85,10|0,0:0|0:0,0:0:0:0:
188,204,22561,1,0,0:0:0:0:
188,204,22658,70,0,L|248:197,1,42.5,8|0,0:0|0:0,0:0:0:0:
352,188,22852,2,0,L|342:229,1,42.5,0|0,0:0|0:0,0:0:0:0:
260,332,23045,2,0,L|250:290,1,42.5,10|0,0:0|0:0,0:0:0:0:
215,113,23239,1,0,0:0:0:0:
215,113,23336,1,8,0:0:0:0:
215,113,23432,5,8,0:0:0:0:
352,188,23626,1,8,0:0:0:0:
352,188,23723,1,8,0:0:0:0:
144,180,23916,1,8,0:0:0:0:
144,180,24013,1,8,0:0:0:0:
393,101,24206,1,8,0:0:0:0:
393,101,24303,1,8,0:0:0:0:
311,275,24497,1,8,0:0:0:0:
311,275,24594,1,8,0:0:0:0:
204,244,24787,1,8,0:0:0:0:
216,356,24981,70,0,L|191:274,1,85,8|0,3:1|0:0,0:0:0:0:
160,168,25368,1,10,0:0:0:0:
116,316,25561,1,0,0:0:0:0:
300,256,25755,1,8,0:0:0:0:
76,224,25948,1,0,0:0:0:0:
260,164,26142,1,10,0:0:0:0:
116,316,26336,1,0,0:0:0:0:
160,168,26529,6,0,B|172:124|172:124|148:48|148:48|160:4,1,170,8|10,0:0|0:0,0:0:0:0:
236,48,27110,1,0,0:0:0:0:
80,128,27303,2,0,L|59:210,1,85,8|0,0:0|0:0,0:0:0:0:
204,328,27690,2,0,L|183:245,1,85,10|0,0:0|0:0,0:0:0:0:
172,212,27981,1,8,0:0:0:0:
172,212,28077,69,8,0:0:0:0:
120,332,28271,1,0,0:0:0:0:
280,276,28465,1,10,0:0:0:0:
238,151,28658,2,0,P|192:124|84:188,1,170,0|0,0:0|0:0,0:0:0:0:
80,200,29142,1,0,0:0:0:0:
80,200,29239,1,10,0:0:0:0:
268,328,29432,1,0,0:0:0:0:
268,328,29528,1,0,0:0:0:0:
268,328,29626,6,0,B|300:340|300:340|352:328,1,85,8|0,0:0|0:0,0:0:0:0:
417,205,30013,2,0,L|427:121,1,85,10|0,0:0|0:0,0:0:0:0:
293,170,30400,2,0,L|304:254,1,85,8|0,0:0|0:0,0:0:0:0:
464,46,30787,2,0,B|432:34|432:34|382:46,1,85,10|0,0:0|0:0,0:0:0:0:
348,56,31077,1,0,0:0:0:0:
316,64,31174,70,0,L|234:39,1,85,8|0,0:0|0:0,0:0:0:0:
132,4,31561,1,10,0:0:0:0:
92,168,31755,1,0,0:0:0:0:
204,116,31948,1,8,0:0:0:0:
222,283,32142,1,0,0:0:0:0:
92,168,32336,1,10,0:0:0:0:
304,140,32530,1,0,0:0:0:0:
40,68,32723,5,8,0:0:0:0:
0,232,32916,1,0,0:0:0:0:
222,283,33110,1,10,0:0:0:0:
204,116,33303,2,0,B|160:104|160:104|84:128|84:128|40:116,1,170
84,40,33884,1,10,0:0:0:0:
164,196,34077,1,0,0:0:0:0:
164,196,34174,1,8,0:0:0:0:
164,196,34271,70,0,B|196:208|196:208|246:196,1,85,8|0,0:0|0:0,0:0:0:0:
410,118,34658,1,10,0:0:0:0:
328,76,34852,2,0,B|308:120|328:156|328:156|348:192|328:240,1,170,0|0,0:0|0:0,0:0:0:0:
319,276,35336,1,0,0:0:0:0:
319,276,35432,1,10,0:0:0:0:
245,196,35626,1,0,0:0:0:0:
480,140,35819,5,8,0:0:0:0:
448,308,36013,1,8,0:0:0:0:
368,80,36400,1,8,0:0:0:0:
448,308,36787,1,8,0:0:0:0:
448,308,36884,1,0,0:0:0:0:
448,308,36981,2,0,L|480:300,6,21.25,8|8|8|8|8|8|8,0:0|0:0|0:0|0:0|0:0|0:0|0:0,0:0:0:0:
448,308,37368,70,0,B|436:276|436:276|448:226,1,85,8|0,3:1|0:0,0:0:0:0:
476,92,37755,2,0,L|393:113,1,85,10|0,0:0|0:0,0:0:0:0:
284,136,38142,1,8,0:0:0:0:
344,44,38336,1,0,0:0:0:0:
456,196,38529,2,0,L|434:278,1,85,10|0,0:0|0:0,0:0:0:0:
428,312,38819,1,0,0:0:0:0:
420,344,38916,6,0,L|332:332,1,85,8|0,0:0|0:0,0:0:0:0:
200,312,39303,2,0,L|252:244,1,85,10|0,0:0|0:0,0:0:0:0:
320,156,39690,1,8,0:0:0:0:
388,245,39884,1,0,0:0:0:0:
200,160,40077,2,0,L|115:171,1,85,10|0,0:0|0:0,0:0:0:0:
84,180,40368,1,0,0:0:0:0:
84,180,40465,69,8,0:0:0:0:
136,276,40658,1,0,0:0:0:0:
224,72,40852,1,10,0:0:0:0:
276,168,41045,1,0,0:0:0:0:
276,168,41239,1,8,0:0:0:0:
32,84,41432,5,8,0:0:0:0:
32,84,41819,1,8,0:0:0:0:
176,160,42013,69,8,0:0:0:0:
136,276,42206,1,8,0:0:0:0:
272,220,42400,1,8,0:0:0:0:
354,312,42594,1,8,0:0:0:0:
351,320,42690,1,0,0:0:0:0:
348,328,42786,1,0,0:0:0:0:
345,336,42883,1,0,0:0:0:0:
342,344,42980,1,8,0:0:0:0:
339,352,43077,1,0,0:0:0:0:
336,360,43174,6,0,L|384:368,1,42.5,0|0,0:0|0:0,0:0:0:0:
245,321,43368,2,0,L|204:328,1,42.5,8|0,0:0|0:0,0:0:0:0:
113,366,43561,70,0,L|91:283,1,85,8|0,0:0|0:0,0:0:0:0:
196,128,43948,2,0,L|174:210,1,85,10|0,0:0|0:0,0:0:0:0:
257,283,44336,1,8,0:0:0:0:
152,320,44529,1,0,0:0:0:0:
352,360,44723,2,0,L|373:277,1,85,10|0,0:0|0:0,0:0:0:0:
384,244,45013,1,0,0:0:0:0:
392,212,45110,6,0,B|360:200|360:200|310:212,1,85,8|0,0:0|0:0,0:0:0:0:
176,240,45497,2,0,L|197:157,1,85,10|0,0:0|0:0,0:0:0:0:
220,48,45884,1,8,0:0:0:0:
128,108,46078,1,0,0:0:0:0:
280,220,46271,2,0,L|362:198,1,85,10|0,0:0|0:0,0:0:0:0:
396,192,46561,1,0,0:0:0:0:
428,184,46658,70,0,P|452:264|427:348,1,170,8|10,0:0|0:0,0:0:0:0:
285,265,47239,1,0,0:0:0:0:
285,265,47336,1,8,0:0:0:0:
285,265,47432,1,8,0:0:0:0:
352,208,47626,2,0,P|372:256|340:336,1,127.5,8|8,0:0|0:0,0:0:0:0:
328,348,48013,1,8,0:0:0:0:
460,216,48206,5,12,0:0:0:0:
285,265,48400,1,12,0:0:0:0:
488,308,48594,1,12,0:0:0:0:
257,173,48787,2,0,L|276:240,1,63.75,12|0,0:0|0:0,0:0:0:0:
285,265,49174,69,12,0:0:0:0:
432,124,49368,2,0,B|396:120|396:120|364:128|364:128|312:120,1,100.29999647995,6|0,2:0|0:0,0:0:0:0:
300,116,49658,1,0,0:0:0:0:
300,116,49755,37,8,3:1:0:0:
400,208,49948,1,0,0:0:0:0:
352,44,50142,1,10,0:0:0:0:
285,265,50336,1,0,0:0:0:0:
481,207,50529,2,0,B|449:219|449:219|399:207,1,85,8|0,0:0|0:0,0:0:0:0:
292,180,50916,1,10,0:0:0:0:
428,48,51110,1,0,0:0:0:0:
428,48,51206,1,0,0:0:0:0:
428,48,51303,70,0,L|444:144,1,85,8|0,0:0|0:0,0:0:0:0:
304,248,51690,2,0,L|317:164,1,85,10|0,0:0|0:0,0:0:0:0:
344,8,52077,1,8,0:0:0:0:
441,131,52271,1,0,0:0:0:0:
272,64,52465,2,0,L|176:80,1,85,10|0,0:0|0:0,0:0:0:0:
156,84,52755,1,8,0:0:0:0:
124,88,52852,6,0,P|144:136|112:216,1,127.5,8|0,0:0|0:0,0:0:0:0:
104,236,53239,2,0,L|187:249,1,85,10|0,0:0|0:0,0:0:0:0:
56,146,53626,1,8,0:0:0:0:
0,260,53819,1,0,0:0:0:0:
224,180,54013,1,10,0:0:0:0:
237,306,54206,1,0,0:0:0:0:
104,236,54400,70,0,L|91:152,1,85,8|0,0:0|0:0,0:0:0:0:
78,43,54787,1,10,0:0:0:0:
0,184,54981,1,0,0:0:0:0:
204,116,55174,2,0,L|287:130,1,85,8|0,0:0|0:0,0:0:0:0:
436,156,55561,1,10,0:0:0:0:
196,236,55755,1,10,0:0:0:0:
320,48,55948,6,0,L|403:62,1,85,8|0,0:0|0:0,0:0:0:0:
312,192,56336,2,0,L|229:206,1,85,10|0,0:0|0:0,0:0:0:0:
120,224,56723,1,8,0:0:0:0:
204,116,56916,1,0,0:0:0:0:
300,300,57110,1,10,0:0:0:0:
300,300,57206,1,0,0:0:0:0:
300,300,57303,1,0,0:0:0:0:
300,300,57400,1,0,0:0:0:0:
300,300,57497,69,8,0:0:0:0:
176,328,57690,1,0,0:0:0:0:
312,216,57884,1,10,0:0:0:0:
120,224,58077,1,0,0:0:0:0:
300,300,58271,1,8,0:0:0:0:
256,148,58465,1,0,0:0:0:0:
120,224,58658,1,10,0:0:0:0:
172,41,58852,1,0,0:0:0:0:
300,300,59045,6,0,B|348:320|384:300|384:300|420:280|464:300,1,170,8|10,0:0|0:0,0:0:0:0:
422,382,59626,1,0,0:0:0:0:
340,211,59819,2,0,B|328:167|328:167|352:91|352:91|340:47,1,170,8|10,0:0|0:0,0:0:0:0:
256,88,60400,1,0,0:0:0:0:
420,168,60594,69,8,0:0:0:0:
252,252,60787,1,8,0:0:0:0:
252,252,60884,1,8,0:0:0:0:
252,252,60981,1,10,0:0:0:0:
340,211,61174,5,8,0:0:0:0:
172,127,61367,1,8,0:0:0:0:
172,127,61464,1,8,0:0:0:0:
172,127,61561,1,10,0:0:0:0:
260,168,61755,69,8,0:0:0:0:
92,252,61948,1,8,0:0:0:0:
92,252,62045,1,8,0:0:0:0:
92,252,62142,5,8,3:1:0:0:
220,296,62335,1,0,0:0:0:0:
56,344,62529,1,10,0:0:0:0:
188,200,62723,1,0,0:0:0:0:
65,63,62916,2,0,B|53:95|53:95|65:145,1,85,8|0,0:0|0:0,0:0:0:0:
92,252,63303,1,10,0:0:0:0:
224,116,63497,1,0,0:0:0:0:
224,116,63593,1,0,0:0:0:0:
224,116,63690,70,0,L|128:100,1,85,8|0,0:0|0:0,0:0:0:0:
184,256,64077,2,0,L|200:352,1,85,10|0,0:0|0:0,0:0:0:0:
328,220,64465,1,8,0:0:0:0:
224,116,64658,1,0,0:0:0:0:
408,40,64852,2,0,L|424:136,1,85,10|0,0:0|0:0,0:0:0:0:
428,156,65142,1,8,0:0:0:0:
435,189,65239,5,8,0:0:0:0:
224,116,65432,1,0,0:0:0:0:
432,4,65626,2,0,L|460:164,1,127.5,10|0,0:0|0:0,0:0:0:0:
460,162,66013,1,8,0:0:0:0:
336,136,66206,1,0,0:0:0:0:
488,72,66400,1,10,0:0:0:0:
432,256,66594,1,0,0:0:0:0:
308,44,66787,69,8,0:0:0:0:
449,94,66981,1,0,0:0:0:0:
454,128,67078,1,0,0:0:0:0:
460,162,67174,1,10,0:0:0:0:
312,240,67368,1,0,0:0:0:0:
318,206,67464,1,0,0:0:0:0:
323,172,67561,1,8,0:0:0:0:
432,256,67755,1,8,0:0:0:0:
308,44,67948,1,10,0:0:0:0:
230,239,68142,1,10,0:0:0:0:
230,239,68239,1,8,0:0:0:0:
230,239,68336,6,0,B|262:251|262:251|314:239,1,85,8|0,0:0|0:0,0:0:0:0:
448,212,68723,2,0,L|458:128,1,85,10|0,0:0|0:0,0:0:0:0:
304,60,69110,2,0,L|315:144,1,85,8|0,0:0|0:0,0:0:0:0:
356,328,69497,1,10,0:0:0:0:
356,328,69594,1,0,0:0:0:0:
356,328,69690,1,0,0:0:0:0:
356,328,69787,1,0,0:0:0:0:
356,328,69884,69,8,0:0:0:0:
400,208,70077,1,0,0:0:0:0:
448,340,70271,1,10,0:0:0:0:
308,196,70465,1,0,0:0:0:0:
120,332,70658,2,0,P|184:356|236:332,1,127.5,8|0,0:0|0:0,0:0:0:0:
292,280,71045,2,0,P|234:255|177:278,1,127.5,10|0,0:0|0:0,0:0:0:0:
76,296,71432,6,0,B|74:315|85:334|85:334|116:265|88:196,1,170,8|10,0:0|0:0,0:0:0:0:
48,48,72013,1,0,0:0:0:0:
8,128,72206,2,0,B|52:140|52:140|128:116|128:116|172:128,1,170,8|10,0:0|0:0,0:0:0:0:
296,156,72787,1,0,0:0:0:0:
196,44,72981,69,8,0:0:0:0:
132,208,73174,1,8,0:0:0:0:
140,240,73271,1,0,0:0:0:0:
148,272,73368,1,10,0:0:0:0:
280,220,73561,1,8,0:0:0:0:
288,188,73658,1,0,0:0:0:0:
296,156,73755,6,0,L|280:100,3,42.5,8|8|8|8,0:0|0:0|0:0|0:0,0:0:0:0:
380,144,74142,2,0,L|396:200,1,42.5,10|8,0:0|0:0,0:0:0:0:
432,72,74336,2,0,L|420:36,2,21.25,8|8|8,0:0|0:0|0:0,0:0:0:0:
512,108,74529,38,0,L|484:208,1,85,8|0,3:3|0:0,0:0:0:0:
484,224,74819,1,0,0:0:0:0:
484,224,74916,1,10,0:0:0:0:
380,144,75110,1,0,0:0:0:0:
380,144,75206,1,0,0:0:0:0:
380,144,75303,6,0,L|324:132,1,42.5,8|0,0:0|0:0,0:0:0:0:
200,108,75497,2,0,L|256:96,1,42.5,0|0,0:0|0:0,0:0:0:0:
348,12,75690,2,0,L|344:56,1,42.5,10|0,0:0|0:0,0:0:0:0:
268,184,75884,2,0,L|272:228,1,42.5,0|0,0:0|0:0,0:0:0:0:
352,356,76077,70,0,P|392:364|436:356,1,85,8|0,0:0|0:0,0:0:0:0:
468,348,76368,1,0,0:0:0:0:
468,348,76465,1,10,0:0:0:0:
392,260,76658,1,0,0:0:0:0:
248,344,76852,5,10,0:0:0:0:
231,316,76948,1,0,0:0:0:0:
225,283,77045,1,0,0:0:0:0:
231,249,77142,1,0,0:0:0:0:
248,221,77239,1,10,0:0:0:0:
207,234,77335,1,0,0:0:0:0:
165,235,77432,1,0,0:0:0:0:
125,223,77529,1,0,0:0:0:0:
88,200,77626,70,0,L|48:176,3,42.5,8|0|0|0,0:0|0:0|0:0|0:0,0:0:0:0:
124,113,78013,6,0,L|152:111,2,21.25,10|0|0,0:0|0:0|0:0,0:0:0:0:
103,22,78206,2,0,L|75:15,2,21.25,0|0|0,0:0|0:0|0:0,0:0:0:0:
202,33,78400,70,0,L|243:28,1,42.5,10|0,0:0|0:0,0:0:0:0:
380,64,78594,2,0,L|338:59,1,42.5,10|0,0:0|0:0,0:0:0:0:
252,132,78787,1,10,0:0:0:0:
244,173,78883,1,10,0:0:0:0:
236,215,78980,1,10,0:0:0:0:
229,257,79077,1,10,0:0:0:0:
221,299,79174,5,12,0:0:0:0:
380,151,79368,1,12,0:0:0:0:
168,68,79561,1,12,0:0:0:0:
221,299,79755,2,0,P|302:323|372:292,1,127.5,12|0,0:0|0:0,0:0:0:0:
184,208,80142,70,0,B|182:213|182:213|182:233|190:253|190:253|182:273|182:293|182:293|190:305|195:330,1,127.5,14|0,0:0|0:0,0:0:0:0:
143,302,85174,5,8,0:0:0:0:
350,229,85561,1,8,0:0:0:0:
117,192,85948,1,8,0:0:0:0:
376,338,86336,1,8,0:0:0:0:
324,120,86723,1,8,0:0:0:0:
324,120,86916,69,8,0:0:0:0:
256,192,87013,12,0,88271,0:0:0:0:
324,120,88465,5,8,0:0:0:0:
256,192,88561,12,0,89819,0:0:0:0:
324,120,90013,69,8,0:0:0:0:
256,192,90110,12,0,91368,0:0:0:0:
324,120,91561,5,8,0:0:0:0:
324,120,91755,70,0,P|348:184|324:236,1,127.5,10|0,0:0|0:0,0:0:0:0:
272,292,92142,2,0,P|247:234|270:177,1,127.5,10|0,0:0|0:0,0:0:0:0:
325,234,92529,1,10,0:0:0:0:
176,192,92723,2,0,L|152:200,6,21.25,8|8|8|8|8|8|8,0:0|0:0|0:0|0:0|0:0|0:0|0:0,0:0:0:0:
176,192,93110,37,8,3:1:0:0:
220,64,93303,1,0,0:0:0:0:
268,228,93497,1,10,0:0:0:0:
124,96,93690,1,0,0:0:0:0:
36,276,93884,2,0,B|68:288|68:288|118:276,1,85,8|0,0:0|0:0,0:0:0:0:
244,248,94271,1,10,0:0:0:0:
88,116,94465,1,0,0:0:0:0:
88,116,94561,1,0,0:0:0:0:
88,116,94658,70,0,L|72:212,1,85,8|0,0:0|0:0,0:0:0:0:
257,331,95045,2,0,L|244:248,1,85,10|0,0:0|0:0,0:0:0:0:
224,120,95432,1,8,0:0:0:0:
74,199,95626,1,0,0:0:0:0:
257,331,95819,2,0,L|341:317,1,85,10|0,0:0|0:0,0:0:0:0:
372,310,96110,1,8,0:0:0:0:
404,303,96207,5,8,0:0:0:0:
254,223,96400,1,0,0:0:0:0:
404,56,96594,2,0,P|451:96|461:158,1,127.5,10|0,0:0|0:0,0:0:0:0:
460,192,96981,2,0,L|377:205,1,85,8|0,0:0|0:0,0:0:0:0:
254,223,97368,1,10,0:0:0:0:
404,303,97561,1,0,0:0:0:0:
180,328,97755,69,8,0:0:0:0:
254,223,97948,1,0,0:0:0:0:
264,368,98142,1,10,0:0:0:0:
170,183,98336,1,0,0:0:0:0:
348,328,98529,1,8,0:0:0:0:
86,223,98723,1,0,0:0:0:0:
348,328,98916,1,10,0:0:0:0:
244,132,99110,1,10,0:0:0:0:
180,328,99303,6,0,L|97:342,1,85,8|0,0:0|0:0,0:0:0:0:
254,223,99690,2,0,L|337:237,1,85,10|0,0:0|0:0,0:0:0:0:
494,118,100077,2,0,L|411:132,1,85,8|0,0:0|0:0,0:0:0:0:
464,272,100465,1,10,0:0:0:0:
464,272,100561,1,0,0:0:0:0:
464,272,100658,1,0,0:0:0:0:
464,272,100755,1,0,0:0:0:0:
464,272,100852,69,8,0:0:0:0:
494,118,101045,1,0,0:0:0:0:
338,178,101239,1,10,0:0:0:0:
368,332,101432,1,0,0:0:0:0:
492,232,101626,2,0,P|516:168|492:116,1,127.5,8|0,0:0|0:0,0:0:0:0:
440,60,102013,2,0,P|415:118|438:175,1,127.5,10|0,0:0|0:0,0:0:0:0:
493,117,102400,6,0,L|313:105,1,170,8|10,0:0|0:0,0:0:0:0:
164,188,102981,1,0,0:0:0:0:
244,228,103174,2,0,B|256:184|256:184|232:108|232:108|244:64,1,170,8|10,0:0|0:0,0:0:0:0:
323,105,103755,1,0,0:0:0:0:
164,188,103948,69,8,0:0:0:0:
388,240,104142,1,8,0:0:0:0:
388,240,104239,1,0,0:0:0:0:
327,109,104432,1,8,0:0:0:0:
327,109,104529,1,8,0:0:0:0:
272,296,104723,1,8,0:0:0:0:
272,296,104819,2,0,L|336:304,1,42.5,8|8,0:0|0:0,0:0:0:0:
430,245,105013,1,8,0:0:0:0:
430,245,105109,2,0,L|366:237,1,42.5,10|8,0:0|0:0,0:0:0:0:
272,183,105303,2,0,L|244:187,2,21.25,8|8|8,0:0|0:0|0:0,0:0:0:0:
308,184,105497,21,8,3:1:0:0:
308,184,105594,2,0,B|320:152|320:152|308:100,1,85,0|0,0:0|0:0,0:0:0:0:
268,32,105884,2,0,B|300:20|300:20|350:31,1,85,10|0,0:0|0:0,0:0:0:0:
384,40,106174,1,0,0:0:0:0:
384,40,106271,6,0,L|400:-8,1,42.5,8|0,0:0|0:0,0:0:0:0:
480,128,106465,2,0,L|464:80,1,42.5,0|0,0:0|0:0,0:0:0:0:
384,216,106658,2,0,L|400:168,1,42.5,10|0,0:0|0:0,0:0:0:0:
480,304,106852,2,0,L|464:256,1,42.5,0|0,0:0|0:0,0:0:0:0:
364,336,107045,69,8,0:0:0:0:
328,356,107141,1,0,0:0:0:0:
286,364,107238,1,0,0:0:0:0:
244,356,107335,1,0,0:0:0:0:
208,335,107432,2,0,L|172:368,3,42.5,10|0|0|0,0:0|0:0|0:0|0:0,0:0:0:0:
288,256,107819,5,8,0:0:0:0:
308,220,107915,1,0,0:0:0:0:
316,178,108012,1,0,0:0:0:0:
308,136,108109,1,0,0:0:0:0:
287,100,108206,2,0,L|320:64,1,42.5,10|0,0:0|0:0,0:0:0:0:
432,160,108400,2,0,L|384:148,1,42.5,0|0,0:0|0:0,0:0:0:0:
208,180,108594,69,8,0:0:0:0:
208,180,108690,2,0,L|196:80,1,85,0|0,0:0|0:0,0:0:0:0:
108,56,108981,2,0,L|118:140,1,85,10|0,0:0|0:0,0:0:0:0:
124,176,109271,1,0,0:0:0:0:
124,176,109368,6,0,L|104:236,1,42.5,8|0,0:0|0:0,0:0:0:0:
156,332,109561,2,0,L|169:291,1,42.5,0|0,0:0|0:0,0:0:0:0:
264,212,109755,2,0,L|204:212,1,42.5,10|0,0:0|0:0,0:0:0:0:
16,304,109948,2,0,L|76:304,1,42.5,0|0,0:0|0:0,0:0:0:0:
156,332,110142,69,8,0:0:0:0:
156,325,110239,1,0,0:0:0:0:
155,317,110335,1,0,0:0:0:0:
154,309,110432,1,0,0:0:0:0:
154,302,110529,2,0,L|158:250,1,42.5,10|0,0:0|0:0,0:0:0:0:
236,252,110722,5,0,0:0:0:0:
236,259,110819,1,0,0:0:0:0:
235,267,110915,1,8,0:0:0:0:
234,275,111012,1,0,0:0:0:0:
234,282,111109,1,0,0:0:0:0:
233,290,111205,1,0,0:0:0:0:
232,298,111303,2,0,B|264:310|264:310|316:298,1,85,10|10,0:0|0:0,0:0:0:0:
460,276,111690,69,8,0:0:0:0:
460,276,111787,2,0,B|472:244|472:244|460:192,1,85,0|0,0:0|0:0,0:0:0:0:
496,124,112077,2,0,B|464:112|464:112|414:123,1,85,10|0,0:0|0:0,0:0:0:0:
380,132,112368,1,0,0:0:0:0:
380,132,112465,6,0,L|396:66,1,42.5,8|0,0:0|0:0,0:0:0:0:
316,200,112658,2,0,L|332:265,1,42.5,0|0,0:0|0:0,0:0:0:0:
352,348,112852,2,0,L|408:352,1,42.5,10|0,0:0|0:0,0:0:0:0:
464,256,113045,2,0,L|422:259,1,42.5,0|0,0:0|0:0,0:0:0:0:
240,272,113239,69,8,0:0:0:0:
197,268,113335,1,0,0:0:0:0:
154,264,113432,1,0,0:0:0:0:
111,260,113529,1,0,0:0:0:0:
68,256,113626,2,0,L|56:300,1,42.5,10|0,0:0|0:0,0:0:0:0:
140,180,113819,2,0,L|128:138,1,42.5,0|0,0:0|0:0,0:0:0:0:
104,36,114013,5,8,0:0:0:0:
104,36,114110,2,0,L|48:12,2,42.5,0|0|0,0:0|0:0|0:0,0:0:0:0:
180,72,114400,2,0,B|212:84|212:84|262:72,1,85,10|0,0:0|0:0,0:0:0:0:
400,48,114787,69,8,0:0:0:0:
400,48,114884,2,0,L|388:148,1,85,0|0,0:0|0:0,0:0:0:0:
428,204,115174,2,0,B|396:216|396:216|346:204,1,85,10|0,0:0|0:0,0:0:0:0:
312,200,115465,1,0,0:0:0:0:
312,200,115561,6,0,L|264:228,1,42.5,8|0,0:0|0:0,0:0:0:0:
180,268,115755,2,0,L|132:240,1,42.5,8|0,0:0|0:0,0:0:0:0:
64,188,115948,69,10,0:0:0:0:
44,152,116044,1,0,0:0:0:0:
36,110,116141,1,10,0:0:0:0:
44,68,116238,1,0,0:0:0:0:
65,32,116336,5,8,0:0:0:0:
256,8,116626,1,8,0:0:0:0:
16,168,116916,69,8,0:0:0:0:
216,228,117206,1,8,0:0:0:0:
80,40,117497,5,8,0:0:0:0:
16,168,117690,1,8,0:0:0:0:
256,8,117884,1,12,0:3:0:0:
