osu file format v14

[General]
AudioFilename: audio.mp3
AudioLeadIn: 0
PreviewTime: 49561
Countdown: 0
SampleSet: Normal
StackLeniency: 0.7
Mode: 1
LetterboxInBreaks: 0
WidescreenStoryboard: 1

[Editor]
Bookmarks: 12594,49755,93110
DistanceSpacing: 1.1
BeatDivisor: 4
GridSize: 8
TimelineZoom: 1.5

[Metadata]
Title:Sweet Rain
TitleUnicode:Sweet Rain
Artist:Y&Co. feat. Karin
ArtistUnicode:Y&Co. feat. Karin
Creator:Volta
Version:Muzukashii
Source:jubeat knit
Tags:english japanese eurobeat plus jukebeat reflec beat limelight dancedancerevolution
BeatmapID:1899184
BeatmapSetID:909487

[Difficulty]
HPDrainRate:6
CircleSize:5
OverallDifficulty:5
ApproachRate:5
SliderMultiplier:1.4
SliderTickRate:1

[Events]
//Background and Video events
0,0,"telolet.jpg",0,-60
//Break Periods
//Storyboard Layer 0 (Background)
//Storyboard Layer 1 (Fail)
//Storyboard Layer 2 (Pass)
//Storyboard Layer 3 (Foreground)
//Storyboard Layer 4 (Overlay)
//Storyboard Sound Samples

[TimingPoints]
207,387.096774193548,4,1,0,90,1,0
49755,-100,4,1,0,90,0,1
74529,-100,4,1,0,90,0,0
93110,-100,4,1,0,90,0,1
105497,-100,4,1,0,90,0,0

[HitObjects]
390,201,207,5,4,0:0:0:0:
403,198,400,1,12,0:0:0:0:
319,153,787,1,8,0:0:0:0:
245,155,981,1,0,0:0:0:0:
299,111,1174,1,8,0:0:0:0:
205,129,1368,1,8,0:0:0:0:
205,129,1465,1,8,0:0:0:0:
205,129,1561,1,8,0:0:0:0:
205,129,1755,1,0,0:0:0:0:
273,88,1948,1,8,0:0:0:0:
273,88,2336,1,8,0:0:0:0:
273,88,2529,1,0,0:0:0:0:
77,151,2626,1,0,0:0:0:0:
77,151,2819,1,8,0:0:0:0:
273,88,2916,1,8,0:0:0:0:
273,88,3110,1,0,0:0:0:0:
273,88,3303,1,8,0:0:0:0:
273,88,3400,1,8,0:0:0:0:
273,88,3497,1,8,0:0:0:0:
273,88,3690,1,0,0:0:0:0:
203,124,4271,1,8,0:0:0:0:
254,129,4465,1,0,0:0:0:0:
273,211,4658,1,8,0:0:0:0:
270,161,4852,1,0,0:0:0:0:
181,113,4948,1,0,0:0:0:0:
372,177,5045,1,0,0:0:0:0:
348,87,5239,1,8,0:0:0:0:
215,104,5626,1,8,0:0:0:0:
272,95,5819,1,0,0:0:0:0:
272,95,6013,1,0,0:0:0:0:
342,175,6110,1,0,0:0:0:0:
342,175,6206,1,0,0:0:0:0:
342,175,6400,1,0,0:0:0:0:
285,135,6594,1,12,0:0:0:0:
346,89,6981,5,8,0:0:0:0:
330,133,7174,1,0,0:0:0:0:
354,129,7368,1,8,0:0:0:0:
354,129,7561,1,0,0:0:0:0:
354,129,7658,1,0,0:0:0:0:
354,129,7755,1,0,0:0:0:0:
359,112,7948,1,8,0:0:0:0:
319,103,8336,1,8,0:0:0:0:
335,90,8529,1,0,0:0:0:0:
274,162,8723,1,8,0:0:0:0:
394,151,8819,1,8,0:0:0:0:
298,93,8916,1,8,0:0:0:0:
394,151,9110,1,0,0:0:0:0:
394,151,9303,1,8,0:0:0:0:
322,117,9497,1,0,0:0:0:0:
206,150,9884,1,8,0:0:0:0:
225,158,10077,1,0,0:0:0:0:
326,113,10271,1,8,0:0:0:0:
326,113,10465,1,0,0:0:0:0:
361,82,10658,1,0,0:0:0:0:
427,173,10755,5,0,0:0:0:0:
427,173,10852,1,0,0:0:0:0:
306,160,12206,5,12,0:0:0:0:
253,144,12594,1,4,0:0:0:0:
313,108,12981,1,8,0:0:0:0:
313,108,13271,1,8,0:0:0:0:
316,98,13561,1,0,0:0:0:0:
316,98,13755,1,8,0:0:0:0:
210,134,13948,1,0,0:0:0:0:
403,137,14142,1,8,0:0:0:0:
403,137,14239,1,8,0:0:0:0:
143,126,14432,1,8,0:0:0:0:
254,78,14626,1,0,0:0:0:0:
310,154,14723,1,0,0:0:0:0:
371,121,15110,1,8,0:0:0:0:
371,121,15303,1,0,0:0:0:0:
221,152,15497,1,8,0:0:0:0:
405,178,15690,1,8,0:0:0:0:
312,197,16368,1,8,0:0:0:0:
235,149,16658,1,8,0:0:0:0:
248,144,16852,1,8,0:0:0:0:
248,144,17045,1,0,0:0:0:0:
184,142,17239,1,8,0:0:0:0:
250,100,17336,1,8,0:0:0:0:
239,88,17529,1,0,0:0:0:0:
95,52,17723,1,8,0:0:0:0:
115,128,17819,1,8,0:0:0:0:
211,96,18013,1,0,0:0:0:0:
194,115,18400,1,8,0:0:0:0:
324,105,18594,1,0,0:0:0:0:
324,105,18787,1,4,0:0:0:0:
68,150,19174,1,8,0:0:0:0:
157,154,19465,1,8,0:0:0:0:
188,154,19755,1,0,0:0:0:0:
246,145,19948,1,8,0:0:0:0:
187,185,20142,1,0,0:0:0:0:
436,184,20336,1,8,0:0:0:0:
438,172,20432,1,8,0:0:0:0:
404,143,20626,1,0,0:0:0:0:
397,158,20916,1,8,0:0:0:0:
299,139,21110,1,8,0:0:0:0:
316,118,21206,1,8,0:0:0:0:
315,90,21400,1,0,0:0:0:0:
313,82,21497,1,0,0:0:0:0:
313,82,21690,1,0,0:0:0:0:
326,150,21884,1,8,0:0:0:0:
198,50,22561,1,8,0:0:0:0:
198,52,22852,1,8,0:0:0:0:
198,52,23045,1,8,0:0:0:0:
198,53,23239,1,0,0:0:0:0:
320,153,23432,5,12,0:0:0:0:
320,153,23723,1,4,0:0:0:0:
320,153,24013,1,12,0:0:0:0:
62,143,24303,1,4,0:0:0:0:
320,153,24594,1,12,0:0:0:0:
320,153,24787,1,12,0:0:0:0:
365,158,24981,1,4,0:0:0:0:
121,146,25368,1,8,0:0:0:0:
115,48,25755,1,8,0:0:0:0:
419,118,25948,1,0,0:0:0:0:
336,126,26142,1,8,0:0:0:0:
259,132,26336,1,0,0:0:0:0:
419,118,26529,1,8,0:0:0:0:
266,140,26916,1,8,0:0:0:0:
274,140,27110,1,0,0:0:0:0:
356,93,27497,1,8,0:0:0:0:
202,78,27884,1,0,0:0:0:0:
163,74,27981,1,0,0:0:0:0:
229,122,28077,1,0,0:0:0:0:
162,177,28271,1,8,0:0:0:0:
322,122,28465,1,0,0:0:0:0:
322,122,28658,1,8,0:0:0:0:
296,115,29045,1,8,0:0:0:0:
296,115,29239,1,0,0:0:0:0:
296,115,29432,1,8,0:0:0:0:
210,117,29819,1,0,0:0:0:0:
65,117,30013,1,8,0:0:0:0:
121,99,30206,1,0,0:0:0:0:
277,163,30400,1,8,0:0:0:0:
187,93,30787,1,0,0:0:0:0:
188,37,31561,1,8,0:0:0:0:
342,116,31948,1,8,0:0:0:0:
183,152,32142,1,0,0:0:0:0:
346,100,32336,1,8,0:0:0:0:
222,142,32723,1,8,0:0:0:0:
279,124,32916,1,0,0:0:0:0:
219,164,33110,1,0,0:0:0:0:
272,113,33303,1,8,0:0:0:0:
306,175,33690,1,8,0:0:0:0:
164,127,33884,1,0,0:0:0:0:
307,155,34077,1,0,0:0:0:0:
163,153,34174,1,0,0:0:0:0:
288,122,34271,1,0,0:0:0:0:
326,93,34465,1,8,0:0:0:0:
326,93,34658,1,0,0:0:0:0:
397,121,34852,1,8,0:0:0:0:
323,158,35239,1,0,0:0:0:0:
323,158,35432,1,8,0:0:0:0:
279,140,35626,1,0,0:0:0:0:
270,213,35819,5,12,0:0:0:0:
270,213,36013,1,12,0:0:0:0:
270,213,36400,1,4,0:0:0:0:
270,213,36787,1,4,0:0:0:0:
395,173,37368,1,12,0:0:0:0:
328,116,37755,1,0,0:0:0:0:
328,116,37948,1,8,0:0:0:0:
170,153,38142,1,0,0:0:0:0:
288,187,38336,1,8,0:0:0:0:
172,148,38723,1,8,0:0:0:0:
366,130,38916,1,0,0:0:0:0:
366,130,39110,1,8,0:0:0:0:
387,128,39497,1,8,0:0:0:0:
387,128,39690,1,0,0:0:0:0:
195,150,39884,1,8,0:0:0:0:
109,167,40077,1,8,0:0:0:0:
266,152,40174,1,8,0:0:0:0:
286,158,40271,1,8,0:0:0:0:
338,147,40465,1,0,0:0:0:0:
208,100,40658,1,8,0:0:0:0:
178,132,40852,1,0,0:0:0:0:
178,132,41432,1,8,0:0:0:0:
225,133,41819,1,8,0:0:0:0:
225,133,42013,1,0,0:0:0:0:
225,133,42206,1,0,0:0:0:0:
252,143,42400,1,0,0:0:0:0:
252,143,42594,1,8,0:0:0:0:
252,143,42981,1,8,0:0:0:0:
162,78,43368,1,8,0:0:0:0:
262,122,43561,1,4,0:0:0:0:
324,104,43948,1,0,0:0:0:0:
377,180,44142,1,8,0:0:0:0:
377,180,44336,1,0,0:0:0:0:
283,140,44529,1,8,0:0:0:0:
283,140,44916,1,8,0:0:0:0:
290,135,45110,1,0,0:0:0:0:
227,180,45303,1,8,0:0:0:0:
227,180,45690,1,8,0:0:0:0:
277,110,45884,1,0,0:0:0:0:
277,110,46077,1,8,0:0:0:0:
277,110,46271,1,8,0:0:0:0:
277,110,46465,1,0,0:0:0:0:
73,135,46852,1,0,0:0:0:0:
198,57,47239,1,0,0:0:0:0:
198,57,47432,1,0,0:0:0:0:
270,93,47626,1,8,0:0:0:0:
183,140,47819,1,0,0:0:0:0:
187,120,47916,1,0,0:0:0:0:
270,93,48013,1,0,0:0:0:0:
383,175,48206,5,12,0:0:0:0:
383,175,48400,1,12,0:0:0:0:
383,175,48594,1,12,0:0:0:0:
383,175,48787,1,12,0:0:0:0:
383,175,49174,1,12,0:0:0:0:
384,179,49755,1,4,0:0:0:0:
215,157,50142,1,0,0:0:0:0:
292,123,50336,1,8,0:0:0:0:
384,159,50529,1,0,0:0:0:0:
384,159,50723,1,8,0:0:0:0:
146,137,50916,1,8,0:0:0:0:
338,154,51110,1,0,0:0:0:0:
347,111,51497,1,8,0:0:0:0:
347,111,51690,1,0,0:0:0:0:
197,116,51884,1,8,0:0:0:0:
290,118,52271,1,8,0:0:0:0:
39,138,52465,1,8,0:0:0:0:
393,86,52658,1,0,0:0:0:0:
393,86,52755,1,0,0:0:0:0:
393,86,52852,1,0,0:0:0:0:
175,140,53239,1,0,0:0:0:0:
313,148,53626,1,0,0:0:0:0:
287,181,53819,1,8,0:0:0:0:
313,148,53916,1,8,0:0:0:0:
213,144,54013,1,8,0:0:0:0:
213,144,54206,1,0,0:0:0:0:
290,106,54594,1,8,0:0:0:0:
290,106,54787,1,0,0:0:0:0:
303,99,54981,1,8,0:0:0:0:
303,99,55077,1,8,0:0:0:0:
303,99,55174,1,8,0:0:0:0:
321,120,55368,1,8,0:0:0:0:
76,153,55561,1,0,0:0:0:0:
76,153,55658,1,0,0:0:0:0:
334,120,55755,1,0,0:0:0:0:
183,120,55948,1,0,0:0:0:0:
268,165,56336,1,0,0:0:0:0:
268,165,56529,1,8,0:0:0:0:
271,160,56723,1,0,0:0:0:0:
271,160,56916,1,8,0:0:0:0:
250,131,57303,1,0,0:0:0:0:
131,134,57690,1,8,0:0:0:0:
131,134,57884,1,8,0:0:0:0:
237,140,58077,1,0,0:0:0:0:
237,140,58271,1,8,0:0:0:0:
123,138,58465,1,0,0:0:0:0:
123,138,58658,1,8,0:0:0:0:
110,124,58755,1,8,0:0:0:0:
261,116,58852,1,8,0:0:0:0:
261,116,59045,1,0,0:0:0:0:
205,98,59432,1,8,0:0:0:0:
129,139,59626,1,8,0:0:0:0:
129,139,59819,1,0,0:0:0:0:
237,84,60594,1,0,0:0:0:0:
237,84,60787,1,8,0:0:0:0:
157,133,60981,1,0,0:0:0:0:
234,110,61174,1,8,0:0:0:0:
354,101,61368,1,0,0:0:0:0:
339,100,61465,1,0,0:0:0:0:
339,100,61561,1,0,0:0:0:0:
336,91,61755,1,8,0:0:0:0:
327,138,61852,1,8,0:0:0:0:
321,68,61948,1,8,0:0:0:0:
292,170,62142,1,4,0:0:0:0:
215,157,62529,1,0,0:0:0:0:
292,123,62723,1,8,0:0:0:0:
384,159,62916,1,0,0:0:0:0:
384,159,63110,1,8,0:0:0:0:
301,159,63303,1,8,0:0:0:0:
338,154,63497,1,0,0:0:0:0:
347,111,63884,1,8,0:0:0:0:
347,111,64077,1,0,0:0:0:0:
197,116,64271,1,8,0:0:0:0:
290,118,64658,1,8,0:0:0:0:
39,138,64852,1,8,0:0:0:0:
393,86,65045,1,0,0:0:0:0:
61,145,65142,1,0,0:0:0:0:
393,86,65239,1,0,0:0:0:0:
443,139,65432,1,8,0:0:0:0:
175,140,65626,1,0,0:0:0:0:
313,148,66013,1,0,0:0:0:0:
287,181,66206,1,8,0:0:0:0:
213,144,66594,1,8,0:0:0:0:
290,106,66981,1,8,0:0:0:0:
290,106,67174,1,0,0:0:0:0:
303,99,67368,1,8,0:0:0:0:
303,99,67465,1,8,0:0:0:0:
303,99,67561,1,8,0:0:0:0:
321,120,67755,1,8,0:0:0:0:
76,153,67948,1,0,0:0:0:0:
76,153,68045,1,0,0:0:0:0:
334,120,68142,1,0,0:0:0:0:
183,120,68336,1,0,0:0:0:0:
268,165,68723,1,0,0:0:0:0:
268,165,68916,1,8,0:0:0:0:
271,160,69110,1,0,0:0:0:0:
202,106,69303,1,0,0:0:0:0:
250,131,69497,1,8,0:0:0:0:
131,134,69690,1,0,0:0:0:0:
131,134,70077,1,8,0:0:0:0:
131,134,70271,1,8,0:0:0:0:
292,135,70465,1,0,0:0:0:0:
208,141,70658,1,8,0:0:0:0:
191,80,70755,1,8,0:0:0:0:
191,80,70852,1,8,0:0:0:0:
94,169,71045,1,0,0:0:0:0:
164,139,71432,1,0,0:0:0:0:
282,109,71626,1,8,0:0:0:0:
172,126,71819,1,0,0:0:0:0:
94,169,71916,1,0,0:0:0:0:
150,147,72013,1,0,0:0:0:0:
232,137,72206,1,8,0:0:0:0:
305,80,72981,1,0,0:0:0:0:
305,80,73174,1,8,0:0:0:0:
284,151,73561,1,8,0:0:0:0:
312,135,73755,1,0,0:0:0:0:
153,126,73852,1,0,0:0:0:0:
329,122,73948,1,0,0:0:0:0:
338,91,74142,1,0,0:0:0:0:
338,91,74336,1,0,0:0:0:0:
338,91,74529,1,8,0:0:0:0:
261,97,74626,1,8,0:0:0:0:
152,132,74819,1,8,0:0:0:0:
217,88,75013,1,0,0:0:0:0:
194,132,75110,1,0,0:0:0:0:
340,135,75303,1,8,0:0:0:0:
223,177,75690,1,0,0:0:0:0:
365,91,75884,1,8,0:0:0:0:
287,158,76077,1,0,0:0:0:0:
189,126,76174,1,0,0:0:0:0:
287,158,76368,1,8,0:0:0:0:
291,155,76465,1,8,0:0:0:0:
366,181,76658,1,0,0:0:0:0:
366,181,76852,1,8,0:0:0:0:
199,109,77045,1,0,0:0:0:0:
248,133,77239,1,8,0:0:0:0:
199,109,77336,1,8,0:0:0:0:
291,118,77432,1,8,0:0:0:0:
291,118,77626,1,4,0:0:0:0:
356,152,78013,1,8,0:0:0:0:
159,164,78206,1,0,0:0:0:0:
405,123,78400,1,8,0:0:0:0:
254,127,78594,1,0,0:0:0:0:
412,111,78787,1,0,0:0:0:0:
405,123,78884,1,0,0:0:0:0:
212,108,78981,1,0,0:0:0:0:
263,190,79174,1,12,0:0:0:0:
263,190,79368,1,12,0:0:0:0:
263,190,79561,1,12,0:0:0:0:
263,190,79755,1,12,0:0:0:0:
263,190,80142,1,12,0:0:0:0:
429,188,80723,1,4,0:0:0:0:
219,115,81497,1,8,0:0:0:0:
221,118,81690,1,8,0:0:0:0:
221,118,82077,1,8,0:0:0:0:
289,71,82465,1,8,0:0:0:0:
295,83,82852,1,8,0:0:0:0:
162,129,83239,1,8,0:0:0:0:
295,83,83432,1,8,0:0:0:0:
243,108,83819,1,8,0:0:0:0:
295,83,84594,1,8,0:0:0:0:
295,83,84787,1,8,0:0:0:0:
311,208,85174,5,0,0:0:0:0:
311,208,85561,1,0,0:0:0:0:
311,208,85948,1,0,0:0:0:0:
311,208,86336,1,0,0:0:0:0:
228,109,86529,1,8,0:0:0:0:
345,192,86723,1,0,0:0:0:0:
345,192,86916,1,12,0:0:0:0:
197,161,88465,1,8,0:0:0:0:
197,161,90013,1,8,0:0:0:0:
197,161,90594,1,8,0:0:0:0:
223,149,91561,1,4,0:0:0:0:
223,149,91755,1,12,0:0:0:0:
223,149,92142,1,12,0:0:0:0:
223,149,92529,1,12,0:0:0:0:
296,222,92723,1,0,0:0:0:0:
296,222,92819,1,0,0:0:0:0:
296,222,92916,1,0,0:0:0:0:
165,122,93110,1,4,0:0:0:0:
215,157,93497,1,0,0:0:0:0:
292,123,93691,1,8,0:0:0:0:
384,159,93884,1,0,0:0:0:0:
384,159,94078,1,8,0:0:0:0:
146,137,94271,1,8,0:0:0:0:
338,154,94465,1,0,0:0:0:0:
347,111,94852,1,8,0:0:0:0:
347,111,95045,1,0,0:0:0:0:
197,116,95239,1,8,0:0:0:0:
290,118,95626,1,8,0:0:0:0:
39,138,95820,1,8,0:0:0:0:
393,86,96013,1,0,0:0:0:0:
61,145,96110,1,0,0:0:0:0:
393,86,96207,1,0,0:0:0:0:
443,139,96400,1,8,0:0:0:0:
175,140,96594,1,0,0:0:0:0:
313,148,96981,1,0,0:0:0:0:
287,181,97174,1,8,0:0:0:0:
213,144,97562,1,8,0:0:0:0:
290,106,97949,1,8,0:0:0:0:
290,106,98142,1,0,0:0:0:0:
303,99,98336,1,8,0:0:0:0:
303,99,98433,1,8,0:0:0:0:
303,99,98529,1,8,0:0:0:0:
321,120,98723,1,8,0:0:0:0:
76,153,98916,1,0,0:0:0:0:
76,153,99013,1,0,0:0:0:0:
334,120,99110,1,0,0:0:0:0:
183,120,99304,1,0,0:0:0:0:
268,165,99691,1,0,0:0:0:0:
198,153,99884,1,8,0:0:0:0:
271,160,100078,1,0,0:0:0:0:
271,160,100271,1,0,0:0:0:0:
250,131,100465,1,8,0:0:0:0:
131,134,100658,1,0,0:0:0:0:
131,134,101045,1,8,0:0:0:0:
131,134,101239,1,8,0:0:0:0:
292,135,101433,1,0,0:0:0:0:
208,141,101626,1,8,0:0:0:0:
191,80,101723,1,8,0:0:0:0:
191,80,101820,1,8,0:0:0:0:
94,169,102013,1,0,0:0:0:0:
164,139,102400,5,0,0:0:0:0:
282,109,102594,1,8,0:0:0:0:
172,126,102787,1,0,0:0:0:0:
94,169,102884,1,0,0:0:0:0:
150,147,102981,1,0,0:0:0:0:
232,137,103174,1,8,0:0:0:0:
292,164,103948,1,0,0:0:0:0:
292,164,104142,1,8,0:0:0:0:
277,144,104432,1,8,0:0:0:0:
235,109,104626,1,8,0:0:0:0:
235,109,104723,1,8,0:0:0:0:
241,86,104819,1,8,0:0:0:0:
203,100,105013,1,8,0:0:0:0:
235,109,105110,1,8,0:0:0:0:
403,134,105303,1,8,0:0:0:0:
253,144,105497,1,0,0:0:0:0:
313,108,105884,1,8,0:0:0:0:
313,108,106174,1,8,0:0:0:0:
316,98,106464,1,0,0:0:0:0:
316,98,106658,1,8,0:0:0:0:
210,134,106851,1,0,0:0:0:0:
403,137,107045,1,8,0:0:0:0:
403,137,107142,1,8,0:0:0:0:
143,126,107336,1,8,0:0:0:0:
254,78,107529,1,0,0:0:0:0:
310,154,107626,1,0,0:0:0:0:
371,121,108013,1,8,0:0:0:0:
371,121,108206,1,0,0:0:0:0:
221,152,108400,1,8,0:0:0:0:
405,178,108593,1,8,0:0:0:0:
312,197,109271,1,8,0:0:0:0:
235,149,109561,1,8,0:0:0:0:
248,144,109755,1,8,0:0:0:0:
248,144,109948,1,0,0:0:0:0:
184,142,110142,1,8,0:0:0:0:
250,100,110239,1,8,0:0:0:0:
239,88,110432,1,0,0:0:0:0:
95,52,110626,1,8,0:0:0:0:
115,128,110722,1,8,0:0:0:0:
211,96,110916,1,0,0:0:0:0:
194,115,111303,1,8,0:0:0:0:
324,105,111497,1,0,0:0:0:0:
324,105,111690,1,4,0:0:0:0:
68,150,112077,1,8,0:0:0:0:
157,154,112368,1,8,0:0:0:0:
188,154,112658,1,0,0:0:0:0:
246,145,112851,1,8,0:0:0:0:
187,185,113045,1,0,0:0:0:0:
436,184,113239,1,8,0:0:0:0:
438,172,113335,1,8,0:0:0:0:
404,143,113529,1,0,0:0:0:0:
397,158,113819,1,8,0:0:0:0:
299,139,114013,1,8,0:0:0:0:
316,118,114109,1,8,0:0:0:0:
315,90,114303,1,0,0:0:0:0:
313,82,114400,1,0,0:0:0:0:
313,82,114593,1,0,0:0:0:0:
326,150,114787,1,8,0:0:0:0:
198,50,115464,1,8,0:0:0:0:
198,52,115755,1,8,0:0:0:0:
198,52,115948,1,8,0:0:0:0:
198,53,116142,1,0,0:0:0:0:
320,153,116335,5,12,0:0:0:0:
320,153,116626,1,4,0:0:0:0:
320,153,116916,1,12,0:0:0:0:
320,153,117206,1,4,0:0:0:0:
320,153,117497,1,12,0:0:0:0:
320,153,117690,1,12,0:0:0:0:
365,158,117884,1,4,0:0:0:0:
