osu file format v14

[General]
AudioFilename: audio.mp3
AudioLeadIn: 0
PreviewTime: 49561
Countdown: 0
SampleSet: Normal
StackLeniency: 0.7
Mode: 1
LetterboxInBreaks: 0
WidescreenStoryboard: 1

[Editor]
Bookmarks: 12594,49755,93110
DistanceSpacing: 1.1
BeatDivisor: 2
GridSize: 8
TimelineZoom: 0.6999999

[Metadata]
Title:Sweet Rain
TitleUnicode:Sweet Rain
Artist:Y&Co. feat. Karin
ArtistUnicode:Y&Co. feat. Karin
Creator:Volta
Version:Futsuu
Source:jubeat knit
Tags:english japanese eurobeat plus jukebeat reflec beat limelight dancedancerevolution
BeatmapID:1938485
BeatmapSetID:909487

[Difficulty]
HPDrainRate:7
CircleSize:5
OverallDifficulty:4
ApproachRate:5
SliderMultiplier:1.4
SliderTickRate:1

[Events]
//Background and Video events
0,0,"telolet.jpg",0,-60
//Break Periods
//Storyboard Layer 0 (Background)
//Storyboard Layer 1 (Fail)
//Storyboard Layer 2 (Pass)
//Storyboard Layer 3 (Foreground)
//Storyboard Layer 4 (Overlay)
//Storyboard Sound Samples

[TimingPoints]
207,387.096774193548,4,1,0,90,1,0
49755,-100,4,1,0,90,0,1
74529,-100,4,1,0,90,0,0
93110,-100,4,1,0,90,0,1
105497,-100,4,1,0,90,0,0

[HitObjects]
319,153,207,5,4,0:0:0:0:
319,153,787,1,8,0:0:0:0:
299,111,1174,1,8,0:0:0:0:
205,129,1368,1,0,0:0:0:0:
205,129,1755,1,8,0:0:0:0:
273,88,2142,1,8,0:0:0:0:
273,88,2529,1,8,0:0:0:0:
273,88,2723,1,0,0:0:0:0:
273,88,2916,1,8,0:0:0:0:
273,88,3110,1,8,0:0:0:0:
273,88,3303,1,0,0:0:0:0:
128,128,3690,1,0,0:0:0:0:
254,129,4465,1,0,0:0:0:0:
270,161,4852,1,0,0:0:0:0:
372,177,5045,1,0,0:0:0:0:
348,87,5239,1,8,0:0:0:0:
215,104,5626,1,8,0:0:0:0:
348,87,5819,1,0,0:0:0:0:
272,95,6013,1,8,0:0:0:0:
342,175,6400,1,4,0:0:0:0:
346,89,6981,5,8,0:0:0:0:
354,129,7368,1,8,0:0:0:0:
354,129,7561,1,0,0:0:0:0:
359,112,7948,1,8,0:0:0:0:
319,103,8336,1,8,0:0:0:0:
274,162,8723,1,8,0:0:0:0:
298,93,8916,1,8,0:0:0:0:
394,151,9110,1,0,0:0:0:0:
394,151,9303,1,8,0:0:0:0:
322,117,9497,1,0,0:0:0:0:
206,150,9884,1,8,0:0:0:0:
326,113,10271,1,8,0:0:0:0:
326,113,10465,1,0,0:0:0:0:
427,173,10852,1,0,0:0:0:0:
306,160,12206,5,12,0:0:0:0:
253,144,12594,1,4,0:0:0:0:
313,108,13368,1,8,0:0:0:0:
316,98,13755,1,8,0:0:0:0:
210,134,13948,1,0,0:0:0:0:
403,137,14142,1,8,0:0:0:0:
137,180,14529,1,8,0:0:0:0:
310,154,14723,1,0,0:0:0:0:
371,121,15110,1,0,0:0:0:0:
371,121,15303,1,0,0:0:0:0:
405,178,15690,1,8,0:0:0:0:
312,197,16465,1,8,0:0:0:0:
248,144,16852,1,8,0:0:0:0:
248,144,17045,1,0,0:0:0:0:
184,142,17239,1,8,0:0:0:0:
172,136,17626,1,0,0:0:0:0:
95,52,17819,1,8,0:0:0:0:
174,136,18206,1,0,0:0:0:0:
194,115,18400,1,8,0:0:0:0:
324,105,18787,1,4,0:0:0:0:
157,154,19561,1,8,0:0:0:0:
246,145,19948,1,8,0:0:0:0:
187,185,20142,1,0,0:0:0:0:
436,184,20336,1,8,0:0:0:0:
124,139,20723,1,0,0:0:0:0:
397,158,20916,1,8,0:0:0:0:
299,139,21110,1,8,0:0:0:0:
313,82,21497,1,0,0:0:0:0:
326,150,21884,1,8,0:0:0:0:
198,50,22658,1,8,0:0:0:0:
198,52,23045,1,8,0:0:0:0:
203,148,23239,1,0,0:0:0:0:
320,153,23432,5,12,0:0:0:0:
320,153,24013,1,12,0:0:0:0:
320,153,24594,1,12,0:0:0:0:
365,158,24981,1,4,0:0:0:0:
201,105,25755,1,8,0:0:0:0:
336,126,26142,1,0,0:0:0:0:
419,118,26529,1,8,0:0:0:0:
266,140,26916,1,8,0:0:0:0:
183,122,27110,1,0,0:0:0:0:
356,93,27497,1,8,0:0:0:0:
213,143,27884,1,0,0:0:0:0:
229,122,28077,1,0,0:0:0:0:
45,129,28852,1,8,0:0:0:0:
296,115,29239,1,0,0:0:0:0:
159,148,29626,1,0,0:0:0:0:
289,102,29819,1,8,0:0:0:0:
192,162,30013,1,0,0:0:0:0:
277,163,30400,1,8,0:0:0:0:
187,93,30787,1,0,0:0:0:0:
81,148,31174,1,4,0:0:0:0:
342,116,31948,1,8,0:0:0:0:
346,100,32336,1,0,0:0:0:0:
222,142,32723,1,8,0:0:0:0:
219,164,33110,1,8,0:0:0:0:
272,113,33303,1,0,0:0:0:0:
306,175,33690,1,8,0:0:0:0:
307,155,34077,1,0,0:0:0:0:
288,122,34271,1,0,0:0:0:0:
397,121,35045,1,8,0:0:0:0:
323,158,35432,1,0,0:0:0:0:
270,213,35819,5,12,0:0:0:0:
270,213,36013,1,12,0:0:0:0:
270,213,36400,1,4,0:0:0:0:
270,213,36787,1,4,0:0:0:0:
395,173,37368,1,12,0:0:0:0:
170,153,38142,1,0,0:0:0:0:
288,187,38336,1,8,0:0:0:0:
366,130,38723,1,0,0:0:0:0:
366,130,39110,1,8,0:0:0:0:
387,128,39497,1,8,0:0:0:0:
109,167,39884,1,8,0:0:0:0:
188,123,40077,1,0,0:0:0:0:
286,158,40271,1,8,0:0:0:0:
208,100,40658,1,0,0:0:0:0:
178,132,41432,1,8,0:0:0:0:
225,133,41819,1,8,0:0:0:0:
119,144,42206,1,0,0:0:0:0:
252,143,42400,1,0,0:0:0:0:
252,143,42594,1,8,0:0:0:0:
252,143,42981,1,8,0:0:0:0:
127,112,43368,1,8,0:0:0:0:
262,122,43561,1,0,0:0:0:0:
377,180,44336,1,0,0:0:0:0:
283,140,44529,1,8,0:0:0:0:
283,140,44916,1,0,0:0:0:0:
227,180,45303,1,8,0:0:0:0:
227,180,45690,1,8,0:0:0:0:
277,110,46077,1,0,0:0:0:0:
277,110,46271,1,8,0:0:0:0:
277,110,46465,1,0,0:0:0:0:
73,135,46852,1,0,0:0:0:0:
270,93,47626,1,0,0:0:0:0:
270,93,48013,1,0,0:0:0:0:
383,175,48206,5,12,0:0:0:0:
383,175,48594,1,12,0:0:0:0:
383,175,48787,1,12,0:0:0:0:
383,175,49174,1,12,0:0:0:0:
384,179,49755,1,4,0:0:0:0:
215,157,50142,1,0,0:0:0:0:
384,159,50529,1,0,0:0:0:0:
384,159,50723,1,8,0:0:0:0:
338,154,51110,1,0,0:0:0:0:
347,111,51497,1,8,0:0:0:0:
347,111,51690,1,0,0:0:0:0:
197,116,51884,1,8,0:0:0:0:
290,118,52271,1,8,0:0:0:0:
39,138,52465,1,8,0:0:0:0:
393,86,52852,1,0,0:0:0:0:
313,148,53626,1,0,0:0:0:0:
287,181,53819,1,8,0:0:0:0:
213,144,54206,1,0,0:0:0:0:
290,106,54594,1,8,0:0:0:0:
81,113,54787,1,0,0:0:0:0:
303,99,54981,1,8,0:0:0:0:
321,120,55368,1,8,0:0:0:0:
76,153,55561,1,0,0:0:0:0:
183,120,55948,1,0,0:0:0:0:
268,165,56336,1,8,0:0:0:0:
271,160,56723,1,0,0:0:0:0:
271,160,56916,1,8,0:0:0:0:
250,131,57303,1,0,0:0:0:0:
131,134,57690,1,8,0:0:0:0:
131,134,57884,1,8,0:0:0:0:
237,140,58271,1,8,0:0:0:0:
123,138,58465,1,0,0:0:0:0:
123,138,58658,1,8,0:0:0:0:
261,116,59045,1,0,0:0:0:0:
205,98,59432,1,8,0:0:0:0:
128,104,59626,1,8,0:0:0:0:
129,139,59819,1,0,0:0:0:0:
237,84,60594,1,0,0:0:0:0:
237,84,60787,1,8,0:0:0:0:
234,110,61174,1,8,0:0:0:0:
339,100,61561,1,0,0:0:0:0:
292,170,62142,1,4,0:0:0:0:
215,157,62529,1,0,0:0:0:0:
384,159,62916,1,0,0:0:0:0:
384,159,63110,1,8,0:0:0:0:
338,154,63497,1,0,0:0:0:0:
347,111,63884,1,8,0:0:0:0:
347,111,64077,1,0,0:0:0:0:
197,116,64271,1,8,0:0:0:0:
290,118,64658,1,8,0:0:0:0:
39,138,64852,1,8,0:0:0:0:
61,145,65239,1,0,0:0:0:0:
313,148,66013,1,0,0:0:0:0:
287,181,66206,1,8,0:0:0:0:
213,144,66594,1,8,0:0:0:0:
290,106,66981,1,8,0:0:0:0:
290,106,67174,1,0,0:0:0:0:
303,99,67368,1,8,0:0:0:0:
120,132,67755,1,8,0:0:0:0:
186,130,67948,1,0,0:0:0:0:
183,120,68336,1,0,0:0:0:0:
268,165,68723,1,0,0:0:0:0:
271,160,69110,1,8,0:0:0:0:
250,131,69497,1,8,0:0:0:0:
131,134,69690,1,0,0:0:0:0:
131,134,70077,1,8,0:0:0:0:
131,134,70271,1,8,0:0:0:0:
292,135,70465,1,0,0:0:0:0:
208,141,70658,1,8,0:0:0:0:
94,169,71045,1,0,0:0:0:0:
164,139,71432,1,8,0:0:0:0:
172,126,71819,1,0,0:0:0:0:
150,147,72013,1,0,0:0:0:0:
232,137,72206,1,8,0:0:0:0:
305,80,72981,1,0,0:0:0:0:
305,80,73174,1,8,0:0:0:0:
284,151,73561,1,8,0:0:0:0:
329,122,73948,1,0,0:0:0:0:
338,91,74142,1,0,0:0:0:0:
338,91,74529,1,12,0:0:0:0:
140,70,75110,1,8,0:0:0:0:
319,188,75497,1,8,0:0:0:0:
319,188,75690,1,0,0:0:0:0:
319,188,76077,1,0,0:0:0:0:
179,135,76658,1,8,0:0:0:0:
179,135,77045,1,0,0:0:0:0:
215,164,77239,1,8,0:0:0:0:
179,135,77626,1,4,0:0:0:0:
218,72,78206,1,8,0:0:0:0:
165,106,78594,1,0,0:0:0:0:
165,106,78787,1,0,0:0:0:0:
263,190,79174,1,12,0:0:0:0:
263,190,79561,1,12,0:0:0:0:
263,190,79755,1,12,0:0:0:0:
263,190,80142,1,12,0:0:0:0:
429,188,80723,1,4,0:0:0:0:
219,115,81497,1,8,0:0:0:0:
221,118,82077,1,8,0:0:0:0:
289,71,82465,1,8,0:0:0:0:
295,83,82852,1,8,0:0:0:0:
162,129,83239,1,8,0:0:0:0:
295,83,83432,1,8,0:0:0:0:
243,108,83819,1,8,0:0:0:0:
295,83,84594,1,8,0:0:0:0:
311,208,85174,5,0,0:0:0:0:
311,208,85561,1,0,0:0:0:0:
311,208,85948,1,0,0:0:0:0:
311,208,86336,1,0,0:0:0:0:
345,192,86723,1,0,0:0:0:0:
345,192,86916,1,12,0:0:0:0:
197,161,88465,1,8,0:0:0:0:
197,161,90013,1,8,0:0:0:0:
197,161,90594,1,8,0:0:0:0:
223,149,91561,1,4,0:0:0:0:
223,149,91755,1,12,0:0:0:0:
223,149,92142,1,12,0:0:0:0:
223,149,92529,1,12,0:0:0:0:
292,170,93110,1,4,0:0:0:0:
215,157,93497,1,0,0:0:0:0:
384,159,93884,1,0,0:0:0:0:
384,159,94078,1,8,0:0:0:0:
338,154,94465,1,0,0:0:0:0:
347,111,94852,1,8,0:0:0:0:
347,111,95045,1,0,0:0:0:0:
197,116,95239,1,8,0:0:0:0:
290,118,95626,1,8,0:0:0:0:
39,138,95820,1,8,0:0:0:0:
61,145,96207,1,0,0:0:0:0:
313,148,96981,1,0,0:0:0:0:
287,181,97174,1,8,0:0:0:0:
213,144,97562,1,8,0:0:0:0:
290,106,97949,1,8,0:0:0:0:
290,106,98142,1,0,0:0:0:0:
303,99,98336,1,8,0:0:0:0:
120,132,98723,1,8,0:0:0:0:
186,130,98916,1,0,0:0:0:0:
183,120,99304,1,0,0:0:0:0:
268,165,99691,1,0,0:0:0:0:
271,160,100078,1,8,0:0:0:0:
250,131,100465,1,8,0:0:0:0:
131,134,100658,1,0,0:0:0:0:
131,134,101045,1,8,0:0:0:0:
131,134,101239,1,8,0:0:0:0:
292,135,101433,1,0,0:0:0:0:
208,141,101626,1,8,0:0:0:0:
94,169,102013,1,0,0:0:0:0:
164,139,102400,1,8,0:0:0:0:
172,126,102787,5,0,0:0:0:0:
150,147,102981,1,0,0:0:0:0:
232,137,103174,1,8,0:0:0:0:
108,126,103948,1,0,0:0:0:0:
251,150,104142,1,0,0:0:0:0:
324,162,104529,1,8,0:0:0:0:
235,109,104723,1,0,0:0:0:0:
235,109,105110,1,8,0:0:0:0:
253,144,105497,1,0,0:0:0:0:
313,108,106271,1,8,0:0:0:0:
316,98,106658,1,8,0:0:0:0:
210,134,106851,1,0,0:0:0:0:
403,137,107045,1,8,0:0:0:0:
137,180,107432,1,8,0:0:0:0:
310,154,107626,1,0,0:0:0:0:
371,121,108013,1,0,0:0:0:0:
371,121,108206,1,0,0:0:0:0:
405,178,108593,1,8,0:0:0:0:
312,197,109368,1,8,0:0:0:0:
248,144,109755,1,8,0:0:0:0:
248,144,109948,1,0,0:0:0:0:
184,142,110142,1,8,0:0:0:0:
172,136,110529,1,0,0:0:0:0:
95,52,110722,1,8,0:0:0:0:
174,136,111109,1,0,0:0:0:0:
194,115,111303,1,8,0:0:0:0:
324,105,111690,1,4,0:0:0:0:
157,154,112464,1,8,0:0:0:0:
246,145,112851,1,8,0:0:0:0:
187,185,113045,1,0,0:0:0:0:
436,184,113239,1,8,0:0:0:0:
124,139,113626,1,0,0:0:0:0:
397,158,113819,1,8,0:0:0:0:
299,139,114013,1,8,0:0:0:0:
313,82,114400,1,0,0:0:0:0:
326,150,114787,1,8,0:0:0:0:
198,50,115561,1,8,0:0:0:0:
198,52,115948,1,8,0:0:0:0:
198,53,116142,1,0,0:0:0:0:
320,153,116335,5,12,0:0:0:0:
320,153,116916,1,12,0:0:0:0:
320,153,117497,1,12,0:0:0:0:
365,158,117884,1,4,0:0:0:0:
