osu file format v14

[General]
AudioFilename: audio.mp3
AudioLeadIn: 0
PreviewTime: 49755
Countdown: 0
SampleSet: Drum
StackLeniency: 0.7
Mode: 2
LetterboxInBreaks: 0
WidescreenStoryboard: 1

[Editor]
Bookmarks: 12594,24981,37368,49755,62142,74529,80723,86916,93110,105497
DistanceSpacing: 0.6
BeatDivisor: 4
GridSize: 4
TimelineZoom: 1.5

[Metadata]
Title:Sweet Rain
TitleUnicode:Sweet Rain
Artist:Y&Co. feat. Karin
ArtistUnicode:Y&Co. feat. Karin
Creator:Sorcerer
Version:Salad
Source:jubeat knit
Tags:knit eurobeat plus jukebeat reflec beat limelight dancedancerevolution ZiRoX 横田商会 田村哲也 Tetsuya Tamura Y&Co. Remo-con BEST HIT YCO Akira Yokota 横田聡
BeatmapID:1587423
BeatmapSetID:738169

[Difficulty]
HPDrainRate:4
CircleSize:3
OverallDifficulty:6.8
ApproachRate:6.8
SliderMultiplier:1.6
SliderTickRate:1

[Events]
//Background and Video events
0,0,"bg.jpg",0,0
//Break Periods
2,80923,84245
//Storyboard Layer 0 (Background)
//Storyboard Layer 1 (Fail)
//Storyboard Layer 2 (Pass)
//Storyboard Layer 3 (Foreground)
//Storyboard Layer 4 (Overlay)
//Storyboard Sound Samples

[TimingPoints]
207,387.096774193548,4,3,1,60,1,0
11819,-100,4,3,0,60,0,0
12594,-100,4,3,1,75,0,0
49755,-100,4,3,1,80,0,1
61755,-100,4,3,1,60,0,0
62142,-100,4,3,1,80,0,1
74529,-100,4,3,1,75,0,0
85174,-100,4,2,1,70,0,0
91561,-100,4,3,1,70,0,0
93110,-100,4,3,1,80,0,1
105497,-100,4,3,1,75,0,0
117884,-100,4,3,1,65,0,0
118271,-100,4,3,1,55,0,0
118658,-100,4,3,1,45,0,0
119045,-100,4,3,1,35,0,0
119432,-100,4,3,1,25,0,0
119819,-100,4,3,1,15,0,0
120206,-100,4,3,1,10,0,0
120594,-100,4,3,1,5,0,0

[Colours]
Combo1 : 255,77,119
Combo2 : 159,136,251
Combo3 : 253,79,248
Combo4 : 255,250,28

[HitObjects]
180,276,207,6,0,P|140:244|208:164,1,160,4|0,0:1|0:0,0:0:0:0:
332,276,981,2,0,P|372:244|304:164,1,160,0|0,0:0|0:0,0:0:0:0:
160,272,1755,2,0,P|77:240|56:168,2,160,8|8|8,0:0|0:0|0:0,0:0:0:0:
332,216,2916,1,8,0:0:0:0:
160,228,3303,6,0,L|148:56,1,160,4|0,0:2|0:0,0:0:0:0:
324,216,4077,2,0,L|336:44,1,160,0|0,0:0|0:0,0:0:0:0:
164,44,4852,2,0,L|336:88,2,160,8|8|8,0:0|0:0|0:0,0:0:0:0:
340,52,6013,2,0,L|352:148,1,80,8|0,0:0|0:0,0:0:0:0:
156,152,6400,6,0,P|108:200|180:260,1,160,4|2,0:2|0:2,0:0:0:0:
332,260,7174,2,0,L|136:260,1,160,2|2,0:2|0:2,0:0:0:0:
340,248,7948,2,0,P|423:216|444:144,2,160,2|2|2,0:2|0:2|0:2,0:0:0:0:
168,192,9109,1,2,0:2:0:0:
340,192,9497,6,0,P|376:164|328:68,1,160,2|2,0:2|0:2,0:0:0:0:
168,88,10271,2,0,L|88:252,1,160,2|2,0:2|0:2,0:0:0:0:
412,316,11045,6,0,P|484:260|408:164,1,240,0|0,0:0|0:0,0:0:0:0:
335,246,11819,1,2,0:2:0:0:
310,172,12013,1,2,0:2:0:0:
342,101,12206,1,2,0:2:0:0:
415,71,12400,1,2,0:2:0:0:
220,68,12594,5,4,0:2:0:0:
56,100,12981,2,0,L|240:100,2,160,8|2|8,0:2|0:0|0:2,0:0:0:0:
248,192,14142,6,0,L|348:116,2,120,2|0|0,0:0|0:0|0:0,0:0:0:0:
148,260,14916,1,2,0:0:0:0:
80,216,15109,1,0,0:0:0:0:
80,152,15303,1,8,0:2:0:0:
148,200,15496,1,0,0:0:0:0:
340,256,15690,5,4,0:2:0:0:
448,204,16077,2,0,L|268:204,2,160,8|2|8,0:2|0:0|0:2,0:0:0:0:
128,216,17239,6,0,P|64:180|56:120,1,120,2|0,0:0|0:0,0:0:0:0:
184,172,17820,2,0,L|332:172,1,120
424,160,18400,1,8,0:0:0:0:
368,96,18594,1,0,0:0:0:0:
176,60,18787,5,4,0:2:0:0:
24,104,19174,2,0,L|208:104,2,160,8|2|8,0:2|0:0|0:2,0:0:0:0:
232,144,20336,5,2,0:0:0:0:
176,124,20529,1,0,0:0:0:0:
120,104,20723,1,8,0:2:0:0:
280,128,21110,2,0,L|296:206,1,80,2|0,0:0|0:0,0:0:0:0:
368,204,21497,2,0,L|388:300,1,80,8|0,0:2|0:0,0:0:0:0:
188,292,21884,5,4,0:2:0:0:
28,308,22271,2,0,L|196:308,2,160,8|2|8,0:2|0:0|0:2,0:0:0:0:
360,224,23432,6,0,P|396:164|376:88,1,120,4|4,0:2|0:2,0:0:0:0:
260,192,24013,2,0,P|224:132|244:56,1,120,4|4,0:2|0:2,0:0:0:0:
372,220,24594,2,0,L|472:220,1,80,4|4,0:2|0:2,0:0:0:0:
252,260,24981,6,0,P|208:228|268:140,1,160,4|8,0:1|0:0,0:0:0:0:
432,208,25755,2,0,P|476:176|416:88,1,160,2|8,0:0|0:0,0:0:0:0:
244,100,26529,6,0,L|424:100,1,160,2|8,0:0|0:0,0:0:0:0:
224,228,27303,2,0,P|164:216|184:116,1,160,2|8,0:0|0:0,0:0:0:0:
224,176,27884,1,0,0:0:0:0:
416,128,28077,6,0,P|460:148|408:224,1,160,2|8,0:0|0:0,0:0:0:0:
244,236,28852,2,0,L|220:72,1,160,2|8,0:0|0:0,0:0:0:0:
412,64,29626,6,0,L|472:116,2,80,2|0|8,0:0|0:0|0:0,0:0:0:0:
256,224,30400,2,0,L|248:140,1,80,2|0,0:0|0:0,0:0:0:0:
336,136,30787,2,0,L|344:52,1,80,8|0,0:0|0:0,0:0:0:0:
144,40,31174,6,0,P|100:72|176:144,1,160,4|8,0:1|0:0,0:0:0:0:
316,52,31948,2,0,L|336:220,1,160,2|8,0:0|0:0,0:0:0:0:
132,160,32723,6,0,L|112:328,1,160,2|8,0:0|0:0,0:0:0:0:
309,301,33497,2,0,L|142:323,1,160,2|8,0:0|0:0,0:0:0:0:
212,272,34077,1,0,0:0:0:0:
408,264,34271,6,0,P|448:248|400:168,1,160,2|8,0:0|0:0,0:0:0:0:
232,104,35045,2,0,L|243:183,1,80,2|0,0:0|0:0,0:0:0:0:
332,116,35432,2,0,L|344:32,1,80,8|0,0:0|0:0,0:0:0:0:
140,176,35819,6,0,L|56:176,1,80,2|2,0:0|0:0,0:0:0:0:
392,172,36400,2,0,P|464:144|472:56,1,160,2|2,0:0|0:0,0:0:0:0:
424,48,36981,2,0,L|340:76,1,80
124,84,37368,5,4,0:1:0:0:
260,128,37755,1,8,0:0:0:0:
124,84,38142,1,2,0:0:0:0:
324,124,38336,2,0,P|364:148|308:232,1,160,4|0,0:2|0:0,0:0:0:0:
232,228,38916,5,2,0:0:0:0:
77,188,39303,1,8,0:0:0:0:
232,228,39690,1,2,0:0:0:0:
432,184,39884,2,0,P|472:208|416:292,1,160,4|0,0:2|0:0,0:0:0:0:
344,296,40465,5,2,0:0:0:0:
204,217,40852,1,8,0:0:0:0:
344,296,41239,1,2,0:0:0:0:
148,308,41432,2,0,P|112:284|160:184,1,160,4|2,0:2|0:0,0:0:0:0:
240,192,42013,6,0,L|252:100,1,80,2|2,0:0|0:0,0:0:0:0:
160,144,42400,1,2,0:0:0:0:
68,144,42594,2,0,P|28:112|88:20,1,160,2|0,0:0|0:0,0:0:0:0:
392,52,43368,6,0,P|440:72|388:136,1,160,4|0,0:2|0:0,0:0:0:0:
308,128,43948,1,8,0:0:0:0:
476,128,44335,1,2,0:0:0:0:
272,164,44529,2,0,P|232:188|288:272,1,160,4|0,0:2|0:0,0:0:0:0:
364,268,45109,5,2,0:0:0:0:
208,228,45496,1,8,0:0:0:0:
364,268,45883,1,0,0:0:0:0:
164,188,46077,2,0,P|124:212|180:296,1,160,4|0,0:2|0:0,0:0:0:0:
252,300,46658,5,2,0:0:0:0:
392,221,47045,1,8,0:0:0:0:
252,300,47432,1,2,0:0:0:0:
344,300,47626,2,0,L|376:136,1,160,2|4,0:2|0:2,0:0:0:0:
176,136,48206,6,0,L|96:88,2,80,4|4|4,0:0|0:0|0:0,0:0:0:0:
376,212,48787,2,0,P|448:184|400:108,1,160,4|4,0:0|0:0,0:0:0:0:
372,88,49368,2,0,L|300:132,1,80,0|0,0:0|0:0,0:0:0:0:
104,128,49755,6,0,P|56:172|116:236,1,160,4|8,0:1|0:0,0:0:0:0:
280,244,50529,2,0,L|136:152,1,160,2|8,0:0|0:0,0:0:0:0:
328,128,51110,6,0,P|376:172|316:236,1,160,4|0,0:2|0:0,0:0:0:0:
152,220,51884,1,0,0:0:0:0:
340,252,52271,2,0,L|392:192,2,80,0|8|0,0:0|0:0|0:0,0:0:0:0:
136,252,52852,6,0,P|96:216|152:128,1,160,4|8,0:2|0:0,0:0:0:0:
216,112,53432,1,0,0:0:0:0:
304,104,53626,1,2,0:0:0:0:
392,108,53819,2,0,L|396:24,1,80,0|8,0:0|0:0,0:0:0:0:
192,216,54206,6,0,P|141:179|200:124,1,160,4|0,0:2|0:0,0:0:0:0:
384,60,54981,2,0,L|404:228,1,160,0|0,0:0|0:0,0:0:0:0:
332,240,55561,2,0,L|256:284,1,80,8|0,0:0|0:0,0:0:0:0:
64,280,55948,6,0,P|24:248|76:168,1,160,4|8,0:2|0:0,0:0:0:0:
252,192,56723,2,0,L|420:152,1,160,0|8,0:0|0:0,0:0:0:0:
204,76,57304,6,0,P|156:120|216:184,1,160,4|0,0:2|0:0,0:0:0:0:
296,188,57884,1,8,0:0:0:0:
128,252,58271,1,2,0:0:0:0:
48,228,58465,1,0,0:0:0:0:
48,160,58658,1,8,0:0:0:0:
128,136,58852,1,0,0:0:0:0:
332,284,59045,6,0,P|400:264|388:180,1,160,2|8,0:0|0:0,0:0:0:0:
200,216,59819,2,0,L|36:184,2,160,2|8|2,0:0|0:0|0:0,0:0:0:0:
404,216,60787,6,0,P|472:160|496:76,2,160,4|4|4,0:0|0:0|0:0,0:0:0:0:
320,224,61755,1,2,0:0:0:0:
240,224,61948,1,2,0:0:0:0:
436,224,62142,6,0,P|484:188|424:120,1,160,4|8,0:1|0:0,0:0:0:0:
256,212,62916,2,0,L|424:172,1,160,2|8,0:0|0:0,0:0:0:0:
208,96,63497,6,0,P|160:140|220:204,1,160,4|0,0:2|0:0,0:0:0:0:
392,224,64271,2,0,L|228:224,1,160,0|0,0:0|0:0,0:0:0:0:
168,272,64852,2,0,L|248:212,1,80,8|0,0:0|0:0,0:0:0:0:
436,212,65239,5,4,0:2:0:0:
486,160,65432,1,0,0:0:0:0:
435,108,65626,1,8,0:0:0:0:
232,120,66013,2,0,L|156:72,1,80,2|0,0:0|0:0,0:0:0:0:
96,44,66400,1,8,0:0:0:0:
300,48,66594,6,0,L|476:92,1,160,4|0,0:2|0:0,0:0:0:0:
136,76,67368,2,0,P|76:160|112:204,1,160
144,236,67948,1,8,0:0:0:0:
212,256,68142,1,0,0:0:0:0:
416,208,68336,6,0,P|460:176|404:96,1,160,4|8,0:2|0:0,0:0:0:0:
240,88,69110,2,0,L|408:56,1,160,2|8,0:0|0:0,0:0:0:0:
196,152,69690,6,0,P|100:184|76:252,1,160,4|0,0:2|0:0,0:0:0:0:
168,280,70271,2,0,L|252:328,2,80,8|0|2,0:0|0:0|0:0,0:0:0:0:
356,328,71045,2,0,L|372:244,1,80,8|0,0:0|0:0,0:0:0:0:
168,280,71432,6,0,P|124:248|184:180,1,160,2|8,0:0|0:0,0:0:0:0:
344,216,72206,2,0,L|180:176,2,160,2|8|2,0:0|0:0|0:0,0:0:0:0:
140,216,73174,6,0,P|72:168|52:80,2,160,4|4|4,0:0|0:0|0:0,0:0:0:0:
216,232,74142,1,2,0:0:0:0:
292,236,74336,1,0,0:0:0:0:
100,248,74529,6,0,P|68:172|116:92,1,160,4|2,0:1|0:0,0:0:0:0:
284,84,75303,2,0,L|296:180,1,80,2|0,0:0|0:0,0:0:0:0:
208,172,75690,2,0,L|136:232,1,80,2|0,0:0|0:0,0:0:0:0:
344,264,76077,6,0,L|512:212,1,160,2|2,0:0|0:0,0:0:0:0:
316,184,76852,1,2,0:0:0:0:
250,139,77045,1,0,0:0:0:0:
250,139,77239,1,2,0:0:0:0:
316,184,77432,1,0,0:0:0:0:
108,184,77626,6,0,P|56:228|124:280,1,160,2|2,0:0|0:0,0:0:0:0:
284,192,78400,1,2,0:0:0:0:
350,147,78593,1,2,0:0:0:0:
350,147,78787,1,2,0:0:0:0:
284,192,78980,1,4,0:2:0:0:
88,196,79174,5,4,0:0:0:0:
21,153,79368,1,4,0:0:0:0:
88,196,79561,1,4,0:0:0:0:
288,200,79755,2,0,P|324:176|276:84,1,160,4|4,0:0|0:0,0:0:0:0:
204,68,80336,1,0,0:0:0:0:
122,54,80529,1,0,0:0:0:0:
328,72,80723,1,4,0:1:0:0:
220,228,85174,5,4,0:3:0:0:
292,228,85561,1,4,0:3:0:0:
192,184,85948,1,4,0:3:0:0:
320,184,86335,1,4,0:3:0:0:
168,144,86723,1,4,0:3:0:0:
368,144,86916,6,0,P|412:208|364:264,1,160,4|0,0:0|0:0,0:0:0:0:
200,248,87690,2,0,L|368:200,1,160,0|0,0:0|0:0,0:0:0:0:
164,240,88465,6,0,P|120:176|168:120,1,160,4|0,0:0|0:0,0:0:0:0:
336,172,89239,2,0,L|168:124,1,160,0|0,0:0|0:0,0:0:0:0:
368,104,90013,6,0,P|416:136|440:248,1,160,4|0,0:0|0:0,0:0:0:0:
368,180,90594,1,0,0:0:0:0:
292,172,90787,2,0,L|144:112,2,160,0|0|2,0:0|0:0|0:0,0:0:0:0:
96,212,91755,6,0,P|28:156|4:72,2,160,4|4|4,0:0|0:0|0:0,0:0:0:0:
160,260,92723,1,0,0:0:0:0:
95,211,92916,1,0,0:0:0:0:
272,204,93110,6,0,L|420:140,1,160,4|8,0:1|0:0,0:0:0:0:
244,192,93884,2,0,L|88:144,1,160,2|8,0:0|0:0,0:0:0:0:
296,144,94465,6,0,P|344:112|276:52,1,160,4|0,0:2|0:0,0:0:0:0:
116,144,95239,2,0,L|280:144,1,160,0|0,0:0|0:0,0:0:0:0:
340,192,95820,2,0,L|260:132,1,80,8|0,0:0|0:0,0:0:0:0:
72,132,96207,5,4,0:2:0:0:
22,80,96400,1,0,0:0:0:0:
73,28,96594,1,8,0:0:0:0:
276,32,96981,2,0,L|260:128,1,80,2|0,0:0|0:0,0:0:0:0:
176,120,97368,1,8,0:0:0:0:
376,120,97561,6,0,P|424:152|352:212,1,160,0|0,0:0|0:0,0:0:0:0:
192,232,98336,2,0,L|360:212,1,160
421,251,98916,2,0,L|333:203,1,80,8|2,0:0|0:0,0:0:0:0:
144,204,99303,6,0,P|92:168|168:120,1,160,4|8,0:2|0:0,0:0:0:0:
312,84,100077,2,0,L|480:100,1,160,2|8,0:0|0:0,0:0:0:0:
264,108,100658,6,0,L|232:284,1,160,4|0,0:2|0:0,0:0:0:0:
332,288,101239,2,0,L|444:280,2,80,8|0|2,0:0|0:0|0:0,0:0:0:0:
172,288,102013,2,0,L|232:200,1,80,8|0,0:0|0:0,0:0:0:0:
420,280,102400,6,0,P|464:244|408:168,1,160,2|8,0:0|0:0,0:0:0:0:
252,188,103174,2,0,L|88:148,2,160,2|8|2,0:0|0:0|0:0,0:0:0:0:
148,112,104142,5,2,0:0:0:0:
248,132,104432,1,2,0:0:0:0:
348,168,104723,1,2,0:0:0:0:
180,200,105110,2,0,L|76:200,1,80,2|0,0:0|0:0,0:0:0:0:
300,64,105497,5,4,0:2:0:0:
460,100,105884,2,0,L|276:100,2,160,8|2|8,0:2|0:0|0:2,0:0:0:0:
256,192,107045,6,0,L|156:116,2,120,2|0|0,0:0|0:0|0:0,0:0:0:0:
356,260,107819,1,2,0:0:0:0:
424,216,108012,1,0,0:0:0:0:
424,152,108206,1,8,0:2:0:0:
356,200,108399,1,0,0:0:0:0:
164,256,108593,5,4,0:2:0:0:
56,204,108980,2,0,L|236:204,2,160,8|2|8,0:2|0:0|0:2,0:0:0:0:
372,216,110142,6,0,P|436:180|444:120,1,120,2|0,0:0|0:0,0:0:0:0:
316,172,110723,2,0,L|168:172,1,120
76,160,111303,1,8,0:0:0:0:
132,96,111497,1,0,0:0:0:0:
328,60,111690,5,4,0:2:0:0:
488,104,112077,2,0,L|304:104,2,160,8|2|8,0:2|0:0|0:2,0:0:0:0:
280,144,113239,5,2,0:0:0:0:
336,124,113432,1,0,0:0:0:0:
392,104,113626,1,8,0:2:0:0:
232,128,114013,2,0,L|216:206,1,80,2|0,0:0|0:0,0:0:0:0:
144,204,114400,2,0,L|124:300,1,80,8|0,0:2|0:0,0:0:0:0:
324,292,114787,5,4,0:2:0:0:
484,308,115174,2,0,L|316:308,2,160,8|2|8,0:2|0:0|0:2,0:0:0:0:
152,224,116335,6,0,P|120:176|128:112,1,120,4|4,0:2|0:2,0:0:0:0:
264,284,116916,2,0,P|296:236|288:172,1,120,4|4,0:2|0:2,0:0:0:0:
140,220,117497,1,4,0:2:0:0:
72,220,117690,1,4,0:2:0:0:
264,192,117884,5,4,0:1:0:0:
256,192,118271,12,0,120981,0:0:0:0:
