osu file format v14

[General]
AudioFilename: audio.mp3
AudioLeadIn: 0
PreviewTime: 49755
Countdown: 0
SampleSet: Drum
StackLeniency: 0.7
Mode: 2
LetterboxInBreaks: 0
WidescreenStoryboard: 1

[Editor]
Bookmarks: 12594,24981,37368,49755,62142,74529,80723,86916,93110,105497
DistanceSpacing: 0.6
BeatDivisor: 4
GridSize: 4
TimelineZoom: 1.5

[Metadata]
Title:Sweet Rain
TitleUnicode:Sweet Rain
Artist:Y&Co. feat. Karin
ArtistUnicode:Y&Co. feat. Karin
Creator:Sorcerer
Version:Platter
Source:jubeat knit
Tags:knit eurobeat plus jukebeat reflec beat limelight dancedancerevolution ZiRoX 横田商会 田村哲也 Tetsuya Tamura Y&Co. Remo-con BEST HIT YCO Akira Yokota 横田聡
BeatmapID:1587421
BeatmapSetID:738169

[Difficulty]
HPDrainRate:5
CircleSize:3.4
OverallDifficulty:8
ApproachRate:8
SliderMultiplier:1.7
SliderTickRate:2

[Events]
//Background and Video events
0,0,"bg.jpg",0,0
//Break Periods
2,80923,84424
//Storyboard Layer 0 (Background)
//Storyboard Layer 1 (Fail)
//Storyboard Layer 2 (Pass)
//Storyboard Layer 3 (Foreground)
//Storyboard Layer 4 (Overlay)
//Storyboard Sound Samples

[TimingPoints]
207,387.096774193548,4,3,1,60,1,0
11819,-100,4,3,0,60,0,0
12594,-100,4,3,1,75,0,0
49755,-100,4,3,1,80,0,1
61755,-100,4,3,1,60,0,0
62142,-100,4,3,1,80,0,1
74529,-100,4,3,1,75,0,0
85174,-100,4,2,1,70,0,0
91561,-100,4,3,1,70,0,0
93110,-100,4,3,1,80,0,1
105497,-100,4,3,1,75,0,0
117884,-100,4,3,1,65,0,0
118271,-100,4,3,1,55,0,0
118658,-100,4,3,1,45,0,0
119045,-100,4,3,1,35,0,0
119432,-100,4,3,1,25,0,0
119819,-100,4,3,1,15,0,0
120206,-100,4,3,1,10,0,0
120594,-100,4,3,1,5,0,0

[Colours]
Combo1 : 255,77,119
Combo2 : 159,136,251
Combo3 : 253,79,248
Combo4 : 255,250,28

[HitObjects]
404,216,207,6,0,L|504:216,1,85,4|4,0:1|0:2,0:0:0:0:
404,216,594,1,0,0:0:0:0:
324,184,787,1,0,0:0:0:0:
324,92,981,1,0,0:0:0:0:
404,60,1174,1,0,0:0:0:0:
489,60,1368,2,0,L|365:60,1,85,0|0,0:0|0:0,0:0:0:0:
240,144,1755,6,0,L|168:156,1,42.5,8|0,0:0|0:0,0:0:0:0:
198,150,1948,2,0,L|240:144,1,42.5,0|0,0:0|0:0,0:0:0:0:
280,140,2142,2,0,L|352:164,2,42.5,8|0|0,0:0|0:0|0:0,0:0:0:0:
116,140,2529,5,8,0:0:0:0:
78,158,2625,1,0,0:0:0:0:
51,191,2722,1,0,0:0:0:0:
42,232,2819,1,0,0:0:0:0:
51,273,2916,1,8,0:0:0:0:
77,306,3012,1,0,0:0:0:0:
114,325,3109,1,0,0:0:0:0:
276,332,3303,6,0,L|368:332,1,85,4|0,0:2|0:0,0:0:0:0:
252,284,3690,2,0,L|156:284,1,85,0|0,0:0|0:0,0:0:0:0:
280,176,4077,2,0,L|270:91,1,85,0|0,0:0|0:0,0:0:0:0:
160,276,4465,2,0,L|150:191,1,85,0|0,0:0|0:0,0:0:0:0:
332,92,4852,6,0,L|376:128,6,42.5,8|0|0|0|8|0|0,0:0|0:0|0:0|0:0|0:0|0:0|0:0,0:0:0:0:
164,96,5626,5,8,0:0:0:0:
126,114,5722,1,0,0:0:0:0:
99,147,5819,1,0,0:0:0:0:
90,188,5916,1,0,0:0:0:0:
99,229,6013,1,8,0:0:0:0:
125,262,6109,1,0,0:0:0:0:
162,281,6206,1,0,0:0:0:0:
420,276,6400,6,0,L|504:276,1,85,4|0,0:2|0:0,0:0:0:0:
328,232,6787,2,0,L|312:124,1,85,2|0,0:2|0:0,0:0:0:0:
416,148,7174,2,0,L|436:32,1,85,2|0,0:2|0:0,0:0:0:0:
260,100,7561,2,0,L|345:100,1,85,2|0,0:2|0:0,0:0:0:0:
168,128,7949,5,2,0:2:0:0:
152,176,8045,1,0,0:0:0:0:
136,228,8142,1,0,0:0:0:0:
312,232,8336,1,2,0:2:0:0:
340,272,8432,1,0,0:0:0:0:
312,300,8529,1,0,0:0:0:0:
136,228,8723,5,2,0:2:0:0:
152,276,8819,1,0,0:0:0:0:
168,328,8916,1,0,0:0:0:0:
340,324,9110,1,2,0:2:0:0:
384,324,9206,1,0,0:0:0:0:
428,324,9303,1,0,0:0:0:0:
248,172,9497,6,0,L|176:184,1,42.5,2|0,0:2|0:0,0:0:0:0:
206,178,9690,2,0,L|248:172,1,42.5,0|0,0:0|0:0,0:0:0:0:
288,168,9884,2,0,L|344:204,2,42.5,2|0|0,0:2|0:0|0:0,0:0:0:0:
116,108,10271,5,2,0:2:0:0:
78,126,10367,1,0,0:0:0:0:
51,159,10464,1,2,0:0:0:0:
42,200,10561,1,0,0:0:0:0:
51,241,10658,1,2,0:2:0:0:
77,274,10754,1,0,0:0:0:0:
114,293,10851,1,2,0:0:0:0:
296,112,11045,6,0,L|340:148,6,42.5,0|0|0|0|0|0|0,0:0|0:0|0:0|0:0|0:0|0:0|0:0,0:0:0:0:
120,96,11819,5,2,0:2:0:0:
158,114,11915,1,0,0:0:0:0:
185,147,12012,1,2,0:2:0:0:
194,188,12109,1,0,0:0:0:0:
185,229,12206,1,2,0:2:0:0:
159,262,12302,1,0,0:0:0:0:
122,281,12399,1,2,0:2:0:0:
392,276,12594,6,0,L|508:276,1,85,4|0,0:2|0:0,0:0:0:0:
296,232,12981,2,0,L|200:232,1,85,8|0,0:2|0:0,0:0:0:0:
312,200,13368,2,0,L|323:116,1,85,2|0,0:0|0:0,0:0:0:0:
148,128,13755,2,0,L|136:28,1,85,8|0,0:2|0:0,0:0:0:0:
320,80,14142,5,2,0:0:0:0:
357,98,14239,1,0,0:0:0:0:
384,131,14336,1,0,0:0:0:0:
393,172,14432,1,0,0:0:0:0:
384,213,14529,1,8,0:2:0:0:
358,247,14625,1,0,0:0:0:0:
321,266,14722,1,0,0:0:0:0:
136,84,14916,5,2,0:0:0:0:
99,102,15013,1,0,0:0:0:0:
72,135,15110,1,0,0:0:0:0:
63,176,15206,1,0,0:0:0:0:
72,217,15303,1,8,0:2:0:0:
98,251,15399,1,0,0:0:0:0:
135,270,15496,1,0,0:0:0:0:
392,260,15690,6,0,L|496:256,1,85,4|0,0:2|0:0,0:0:0:0:
304,200,16077,2,0,L|288:80,1,85,8|0,0:2|0:0,0:0:0:0:
404,112,16465,2,0,L|308:112,1,85,2|0,0:0|0:0,0:0:0:0:
144,112,16852,2,0,L|48:112,1,85,8|0,0:2|0:0,0:0:0:0:
240,140,17239,6,0,L|284:172,4,42.5,2|0|0|0|8,0:0|0:0|0:0|0:0|0:2,0:0:0:0:
60,184,17819,2,0,L|16:216,4,42.5,0|0|2|0|0,0:0|0:0|0:0|0:0|0:0,0:0:0:0:
164,256,18400,2,0,L|60:256,1,85,8|0,0:2|0:0,0:0:0:0:
336,260,18787,6,0,L|456:260,1,85,4|0,0:2|0:0,0:0:0:0:
236,224,19174,2,0,L|224:104,1,85,8|0,0:2|0:0,0:0:0:0:
316,124,19561,2,0,L|324:8,1,85,2|0,0:0|0:0,0:0:0:0:
140,116,19948,2,0,L|128:0,1,85,8|0,0:2|0:0,0:0:0:0:
312,56,20336,5,2,0:0:0:0:
350,74,20432,1,0,0:0:0:0:
377,107,20529,1,0,0:0:0:0:
386,148,20626,1,0,0:0:0:0:
377,189,20723,1,8,0:2:0:0:
351,222,20819,1,0,0:0:0:0:
314,241,20916,1,0,0:0:0:0:
136,84,21110,5,2,0:0:0:0:
174,102,21206,1,0,0:0:0:0:
201,135,21303,1,0,0:0:0:0:
210,176,21400,1,0,0:0:0:0:
201,217,21497,1,8,0:2:0:0:
175,250,21593,1,0,0:0:0:0:
138,269,21690,1,0,0:0:0:0:
400,64,21884,6,0,L|416:160,1,85,4|0,0:2|0:0,0:0:0:0:
240,152,22271,2,0,L|224:248,1,85,8|0,0:2|0:0,0:0:0:0:
320,240,22658,2,0,L|308:360,1,85,2|0,0:0|0:0,0:0:0:0:
140,240,23045,2,0,L|44:240,1,85,8|0,0:2|0:0,0:0:0:0:
324,264,23432,6,0,L|480:264,1,127.5,4|4,0:2|0:2,0:0:0:0:
196,224,24013,2,0,L|40:224,1,127.5,4|4,0:2|0:2,0:0:0:0:
328,172,24594,2,0,L|424:172,1,85,4|4,0:2|0:2,0:0:0:0:
156,144,24981,6,0,L|44:144,1,85,4|0,0:1|0:0,0:0:0:0:
244,140,25368,2,0,L|252:248,1,85,8|0,0:0|0:0,0:0:0:0:
148,224,25755,2,0,L|140:332,1,85,2|0,0:0|0:0,0:0:0:0:
320,316,26142,2,0,L|432:316,1,85,8|0,0:0|0:0,0:0:0:0:
144,292,26529,6,0,L|132:172,1,85,2|0,0:0|0:0,0:0:0:0:
236,192,26916,1,8,0:0:0:0:
408,168,27110,2,0,P|456:132|396:56,1,170
236,40,27690,2,0,L|140:40,1,85,8|0,0:0|0:0,0:0:0:0:
128,60,27981,1,0,0:0:0:0:
152,84,28077,6,0,L|237:84,1,85,2|0,0:0|0:0,0:0:0:0:
408,124,28465,2,0,L|300:124,1,85,8|0,0:0|0:0,0:0:0:0:
408,168,28852,2,0,L|420:272,1,85,2|0,0:0|0:0,0:0:0:0:
248,320,29239,2,0,L|356:320,1,85,8|0,0:0|0:0,0:0:0:0:
156,296,29626,6,0,L|144:172,1,85,2|0,0:0|0:0,0:0:0:0:
324,184,30013,2,0,L|336:72,1,85,8|0,0:0|0:0,0:0:0:0:
152,72,30400,1,2,0:0:0:0:
115,90,30496,1,0,0:0:0:0:
88,123,30593,1,0,0:0:0:0:
79,164,30690,1,0,0:0:0:0:
88,205,30787,1,8,0:0:0:0:
114,239,30883,1,0,0:0:0:0:
151,258,30980,1,0,0:0:0:0:
408,272,31174,6,0,P|428:224|400:176,1,85,4|0,0:1|0:0,0:0:0:0:
244,180,31561,2,0,L|160:180,1,85,8|0,0:0|0:0,0:0:0:0:
256,136,31948,2,0,L|240:28,1,85,2|0,0:0|0:0,0:0:0:0:
72,52,32336,2,0,L|84:136,1,85,8|0,0:0|0:0,0:0:0:0:
368,92,32723,6,0,L|464:92,2,85,2|0|8,0:0|0:0|0:0,0:0:0:0:
200,104,33303,2,0,P|148:148|216:216,1,170
372,296,33884,2,0,L|496:296,1,85,8|0,0:0|0:0,0:0:0:0:
480,268,34174,1,0,0:0:0:0:
456,252,34271,6,0,L|356:252,1,85,2|0,0:0|0:0,0:0:0:0:
200,256,34658,2,0,L|212:160,1,85,8|0,0:0|0:0,0:0:0:0:
308,168,35045,2,0,L|324:60,1,85,2|0,0:0|0:0,0:0:0:0:
148,84,35432,2,0,L|60:84,1,85,8|0,0:0|0:0,0:0:0:0:
352,88,35819,5,2,0:0:0:0:
480,176,36013,2,0,L|316:268,2,170,2|2|2,0:0|0:0|0:0,0:0:0:0:
412,112,36981,1,0,0:0:0:0:
368,72,37077,1,0,0:0:0:0:
324,40,37174,1,0,0:0:0:0:
68,120,37368,6,0,L|48:240,1,85,4|0,0:1|0:0,0:0:0:0:
148,236,37755,2,0,L|248:236,2,85,8|0|2,0:0|0:0|0:0,0:0:0:0:
404,232,38336,2,0,P|448:196|392:112,1,170,4|0,0:2|0:0,0:0:0:0:
224,104,38916,6,0,L|124:104,1,85,2|0,0:0|0:0,0:0:0:0:
236,168,39303,2,0,L|352:168,1,85,8|0,0:0|0:0,0:0:0:0:
404,168,39690,1,2,0:0:0:0:
144,240,39884,2,0,P|100:204|156:120,1,170,4|0,0:2|0:0,0:0:0:0:
324,120,40465,6,0,L|336:16,1,85,2|0,0:0|0:0,0:0:0:0:
160,48,40852,2,0,L|64:48,2,85,8|0|2,0:0|0:0|0:0,0:0:0:0:
416,212,41432,2,0,P|460:176|404:92,1,170,4|2,0:2|0:0,0:0:0:0:
232,88,42013,6,0,L|192:188,1,85,2|2,0:0|0:0,0:0:0:0:
372,184,42400,2,0,L|332:280,1,85,2|2,0:0|0:0,0:0:0:0:
160,236,42787,1,0,0:0:0:0:
124,215,42883,1,0,0:0:0:0:
111,176,42981,1,2,0:0:0:0:
127,138,43077,1,0,0:0:0:0:
164,120,43174,1,0,0:0:0:0:
420,224,43368,6,0,P|464:188|408:104,1,170,4|0,0:2|0:0,0:0:0:0:
320,136,43948,2,0,L|332:44,1,85,8|0,0:0|0:0,0:0:0:0:
424,44,44336,1,2,0:0:0:0:
160,200,44529,2,0,P|116:164|172:80,1,170,4|0,0:2|0:0,0:0:0:0:
332,76,45110,6,0,L|424:76,1,85,2|0,0:0|0:0,0:0:0:0:
332,140,45497,2,0,L|228:140,1,85,8|0,0:0|0:0,0:0:0:0:
164,132,45884,1,2,0:0:0:0:
424,200,46077,2,0,P|468:164|412:80,1,170,4|0,0:2|0:0,0:0:0:0:
248,72,46658,6,0,L|236:184,1,85,2|0,0:0|0:0,0:0:0:0:
340,172,47045,2,0,L|352:268,1,85,8|0,0:0|0:0,0:0:0:0:
176,268,47432,2,0,L|240:212,2,85,2|2|0,0:0|0:2|0:0,0:0:0:0:
72,268,48013,1,4,0:2:0:0:
384,252,48206,6,0,L|492:252,2,85,4|4|4,0:0|0:0|0:0,0:0:0:0:
104,256,48787,2,0,P|68:232|124:128,1,170,4|4,0:0|0:0,0:0:0:0:
188,104,49368,1,0,0:0:0:0:
144,104,49465,1,0,0:0:0:0:
100,104,49561,1,0,0:0:0:0:
356,220,49755,6,0,L|464:216,1,85,4|0,0:1|0:0,0:0:0:0:
272,168,50142,2,0,L|176:164,1,85,8|0,0:0|0:0,0:0:0:0:
356,128,50529,2,0,L|452:128,2,85,2|0|8,0:0|0:0|0:0,0:0:0:0:
92,192,51110,6,0,P|44:160|108:88,1,170,4|0,0:2|0:0,0:0:0:0:
180,76,51690,1,8,0:0:0:0:
352,72,51884,2,0,L|260:72,1,85,0|2,0:0|0:0,0:0:0:0:
180,152,52271,1,0,0:0:0:0:
360,156,52465,2,0,L|456:156,1,85,8|0,0:0|0:0,0:0:0:0:
180,264,52852,6,0,L|88:264,1,85,4|0,0:2|0:0,0:0:0:0:
272,224,53239,2,0,L|368:224,1,85,8|0,0:0|0:0,0:0:0:0:
272,160,53626,1,2,0:0:0:0:
100,164,53819,2,0,L|84:64,1,85,0|8,0:0|0:0,0:0:0:0:
376,220,54206,6,0,P|424:200|364:128,1,170,4|0,0:2|0:0,0:0:0:0:
208,124,54787,2,0,L|100:124,1,85,8|0,0:0|0:0,0:0:0:0:
220,224,55174,2,0,L|264:196,1,42.5,2|0,0:0|0:0,0:0:0:0:
256,201,55368,2,0,L|221:223,1,42.5,0|0,0:0|0:0,0:0:0:0:
176,216,55561,2,0,L|141:193,2,42.5,8|0|0,0:0|0:0|0:0,0:0:0:0:
432,228,55948,6,0,L|440:112,1,85,4|0,0:2|0:0,0:0:0:0:
264,152,56336,2,0,L|248:36,1,85,8|0,0:0|0:0,0:0:0:0:
332,56,56723,2,0,L|216:56,1,85,2|0,0:0|0:0,0:0:0:0:
160,56,57110,1,8,0:0:0:0:
424,48,57303,6,0,P|476:80|416:144,1,170,4|0,0:2|0:0,0:0:0:0:
248,140,57884,2,0,L|232:260,1,85,8|0,0:0|0:0,0:0:0:0:
136,220,58271,2,0,L|148:328,1,85,2|0,0:0|0:0,0:0:0:0:
324,312,58658,2,0,L|424:312,1,85,8|0,0:0|0:0,0:0:0:0:
148,268,59045,6,0,P|100:236|168:160,1,170,2|8,0:0|0:0,0:0:0:0:
240,152,59626,1,0,0:0:0:0:
416,160,59819,2,0,P|376:104|252:84,1,170,2|8,0:0|0:0,0:0:0:0:
192,160,60400,1,0,0:0:0:0:
104,172,60594,5,2,0:0:0:0:
376,208,60787,2,0,P|464:160|512:88,2,170,4|4|4,0:0|0:0|0:0,0:0:0:0:
304,184,61755,1,2,0:0:0:0:
348,184,61852,1,0,0:0:0:0:
392,184,61948,1,2,0:0:0:0:
132,208,62142,6,0,L|24:208,1,85,4|0,0:1|0:0,0:0:0:0:
220,164,62529,2,0,L|308:164,1,85,8|0,0:0|0:0,0:0:0:0:
132,56,62916,2,0,L|28:56,2,85,2|0|8,0:0|0:0|0:0,0:0:0:0:
392,188,63497,6,0,P|436:164|376:80,1,170,4|0,0:2|0:0,0:0:0:0:
308,52,64077,1,8,0:0:0:0:
140,88,64271,2,0,L|240:88,1,85,0|2,0:0|0:0,0:0:0:0:
312,104,64658,1,0,0:0:0:0:
140,176,64852,2,0,L|124:280,1,85,8|0,0:0|0:0,0:0:0:0:
392,240,65239,6,0,L|496:240,1,85,4|0,0:2|0:0,0:0:0:0:
304,192,65626,2,0,L|212:192,1,85,8|0,0:0|0:0,0:0:0:0:
132,224,66013,1,2,0:0:0:0:
307,240,66206,2,0,L|395:240,1,85,0|8,0:0|0:0,0:0:0:0:
132,216,66594,6,0,P|88:192|148:108,1,170,4|0,0:2|0:0,0:0:0:0:
308,112,67174,2,0,L|320:216,1,85,8|0,0:0|0:0,0:0:0:0:
132,96,67561,1,2,0:0:0:0:
95,114,67657,1,0,0:0:0:0:
68,147,67754,1,0,0:0:0:0:
59,188,67851,1,0,0:0:0:0:
68,229,67948,1,8,0:0:0:0:
94,263,68044,1,0,0:0:0:0:
131,282,68141,1,0,0:0:0:0:
392,284,68336,6,0,L|404:160,1,85,4|0,0:2|0:0,0:0:0:0:
228,192,68723,2,0,L|132:188,1,85,8|0,0:0|0:0,0:0:0:0:
236,104,69110,2,0,L|340:92,1,85,2|0,0:0|0:0,0:0:0:0:
404,84,69497,1,0,0:0:0:0:
144,224,69690,6,0,P|100:200|160:116,1,170,4|0,0:2|0:0,0:0:0:0:
320,108,70271,2,0,L|332:224,1,85,8|0,0:0|0:0,0:0:0:0:
224,200,70658,2,0,L|212:316,1,85,2|0,0:0|0:0,0:0:0:0:
393,281,71045,2,0,L|297:281,1,85,8|0,0:0|0:0,0:0:0:0:
52,280,71432,6,0,L|44:188,1,85,2|0,0:0|0:0,0:0:0:0:
212,188,71819,2,0,L|312:188,1,85,8|0,0:0|0:0,0:0:0:0:
200,156,72206,2,0,L|216:44,1,85,2|0,0:0|0:0,0:0:0:0:
380,108,72594,2,0,L|464:108,1,85,8|0,0:0|0:0,0:0:0:0:
380,108,72981,5,2,0:0:0:0:
124,212,73174,2,0,P|56:160|8:80,2,170,4|4|4,0:0|0:0|0:0,0:0:0:0:
212,192,74142,1,2,0:0:0:0:
168,192,74239,1,0,0:0:0:0:
124,192,74336,1,0,0:0:0:0:
384,280,74529,5,4,0:1:0:0:
420,260,74626,1,0,0:0:0:0:
452,228,74723,1,0,0:0:0:0:
461,189,74819,1,0,0:0:0:0:
450,148,74916,1,2,0:0:0:0:
420,116,75012,1,0,0:0:0:0:
384,104,75109,1,0,0:0:0:0:
204,240,75303,5,2,0:0:0:0:
136,192,75497,1,0,0:0:0:0:
126,152,75593,1,0,0:0:0:0:
137,111,75690,1,2,0:0:0:0:
166,80,75786,1,0,0:0:0:0:
206,67,75883,1,0,0:0:0:0:
404,64,76077,6,0,L|452:96,6,42.5,2|0|0|0|2|0|0,0:0|0:0|0:0|0:0|0:0|0:0|0:0,0:0:0:0:
212,148,76852,6,0,L|168:120,1,42.5,2|0,0:0|0:0,0:0:0:0:
176,125,77046,2,0,L|211:147,1,42.5,0|0,0:0|0:0,0:0:0:0:
256,140,77239,2,0,L|291:117,2,42.5,2|0|0,0:0|0:0|0:0,0:0:0:0:
84,256,77626,5,2,0:0:0:0:
45,241,77723,1,0,0:0:0:0:
17,209,77819,1,0,0:0:0:0:
7,169,77916,1,0,0:0:0:0:
18,128,78013,1,2,0:0:0:0:
47,97,78109,1,0,0:0:0:0:
87,84,78206,1,0,0:0:0:0:
264,88,78400,6,0,L|308:60,1,42.5,2|0,0:0|0:0,0:0:0:0:
300,65,78594,2,0,L|265:87,1,42.5,2|0,0:0|0:0,0:0:0:0:
220,80,78787,2,0,L|185:57,2,42.5,2|2|4,0:0|0:2|0:2,0:0:0:0:
476,80,79174,6,0,L|492:168,1,85,4|4,0:0|0:0,0:0:0:0:
384,184,79561,1,4,0:0:0:0:
124,200,79755,2,0,P|72:176|140:120,1,170,4|4,0:0|0:0,0:0:0:0:
220,112,80336,1,0,0:0:0:0:
264,100,80432,1,0,0:0:0:0:
308,88,80529,1,0,0:0:0:0:
40,112,80723,1,4,0:1:0:0:
212,192,85174,5,4,0:3:0:0:
296,192,85561,1,4,0:3:0:0:
180,144,85948,1,4,0:3:0:0:
332,144,86335,1,4,0:3:0:0:
128,104,86723,1,4,0:3:0:0:
388,108,86916,6,0,L|472:108,1,85,4|0,0:0|0:0,0:0:0:0:
368,132,87303,1,0,0:0:0:0:
292,188,87497,1,0,0:0:0:0:
292,272,87690,1,0,0:0:0:0:
368,328,87884,1,0,0:0:0:0:
473,108,88077,2,0,L|388:108,1,85,0|0,0:0|0:0,0:0:0:0:
212,104,88465,6,0,L|128:104,1,85,4|0,0:0|0:0,0:0:0:0:
232,128,88852,1,0,0:0:0:0:
308,184,89046,1,0,0:0:0:0:
308,268,89239,1,0,0:0:0:0:
232,324,89433,1,0,0:0:0:0:
127,104,89626,2,0,L|212:104,1,85,0|0,0:0|0:0,0:0:0:0:
388,100,90013,6,0,L|480:100,2,85,4|0|0,0:0|0:0|0:0,0:0:0:0:
216,112,90594,1,0,0:0:0:0:
140,168,90788,1,0,0:0:0:0:
140,252,90981,1,0,0:0:0:0:
216,292,91174,2,0,L|124:292,1,85,0|0,0:0|0:0,0:0:0:0:
48,292,91561,5,2,0:0:0:0:
308,264,91755,2,0,L|472:208,2,170,4|4|4,0:0|0:0|0:0,0:0:0:0:
216,268,92723,1,0,0:0:0:0:
176,252,92819,1,0,0:0:0:0:
136,236,92916,1,0,0:0:0:0:
408,268,93110,6,0,L|496:260,1,85,4|0,0:1|0:0,0:0:0:0:
320,220,93497,2,0,L|228:216,1,85,8|0,0:0|0:0,0:0:0:0:
408,144,93884,2,0,L|500:140,2,85,2|0|8,0:0|0:0|0:0,0:0:0:0:
148,108,94465,6,0,P|96:156|156:216,1,170,4|0,0:2|0:0,0:0:0:0:
236,212,95045,1,8,0:0:0:0:
408,208,95239,2,0,L|424:100,1,85,0|2,0:0|0:0,0:0:0:0:
332,88,95626,1,0,0:0:0:0:
160,284,95819,2,0,L|148:164,1,85,8|0,0:0|0:0,0:0:0:0:
464,336,96206,6,0,L|472:240,1,85,4|0,0:2|0:0,0:0:0:0:
296,240,96594,2,0,L|200:236,2,85,8|0|2,0:0|0:0|0:0,0:0:0:0:
472,236,97174,2,0,L|364:236,1,85,0|8,0:0|0:0,0:0:0:0:
128,180,97561,6,0,P|80:152|136:76,1,170,0|0,0:0|0:0,0:0:0:0:
304,68,98142,2,0,L|200:68,1,85,8|0,0:0|0:0,0:0:0:0:
392,64,98529,1,2,0:0:0:0:
429,82,98625,1,0,0:0:0:0:
456,115,98722,1,0,0:0:0:0:
465,156,98819,1,0,0:0:0:0:
456,197,98916,1,8,0:0:0:0:
430,231,99012,1,0,0:0:0:0:
393,250,99109,1,2,0:0:0:0:
132,176,99303,6,0,L|40:176,1,85,4|0,0:2|0:0,0:0:0:0:
224,224,99690,2,0,L|232:128,1,85,8|0,0:0|0:0,0:0:0:0:
136,268,100077,2,0,L|40:268,2,85,2|0|8,0:0|0:0|0:0,0:0:0:0:
392,268,100658,6,0,P|440:240|384:164,1,170,4|0,0:2|0:0,0:0:0:0:
216,184,101239,2,0,L|232:80,1,85,8|0,0:0|0:0,0:0:0:0:
328,136,101626,2,0,L|312:32,1,85,2|0,0:0|0:0,0:0:0:0:
140,52,102013,2,0,L|36:52,1,85,8|0,0:0|0:0,0:0:0:0:
312,108,102400,6,0,L|408:108,1,85,2|0,0:0|0:0,0:0:0:0:
220,116,102787,2,0,L|212:216,1,85,8|0,0:0|0:0,0:0:0:0:
308,208,103174,2,0,L|316:308,1,85,2|0,0:0|0:0,0:0:0:0:
140,312,103561,2,0,L|16:312,1,85,8|0,0:0|0:0,0:0:0:0:
232,280,103948,5,2,0:0:0:0:
276,268,104044,1,0,0:0:0:0:
320,256,104141,1,2,0:0:0:0:
224,216,104336,2,0,L|180:232,2,42.5,0|2|0,0:0|0:0|0:0,0:0:0:0:
400,64,104723,1,2,0:0:0:0:
437,82,104819,1,0,0:0:0:0:
464,115,104916,1,2,0:0:0:0:
473,156,105013,1,0,0:0:0:0:
464,197,105110,1,2,0:0:0:0:
438,231,105206,1,0,0:0:0:0:
401,250,105303,1,0,0:0:0:0:
120,276,105497,6,0,L|4:276,1,85,4|0,0:2|0:0,0:0:0:0:
216,232,105884,2,0,L|312:232,1,85,8|0,0:2|0:0,0:0:0:0:
200,200,106271,2,0,L|189:116,1,85,2|0,0:0|0:0,0:0:0:0:
364,128,106658,2,0,L|376:28,1,85,8|0,0:2|0:0,0:0:0:0:
192,80,107045,5,2,0:0:0:0:
155,98,107142,1,0,0:0:0:0:
128,131,107239,1,0,0:0:0:0:
119,172,107335,1,0,0:0:0:0:
128,213,107432,1,8,0:2:0:0:
154,247,107528,1,0,0:0:0:0:
191,266,107625,1,0,0:0:0:0:
376,84,107819,5,2,0:0:0:0:
413,102,107916,1,0,0:0:0:0:
440,135,108013,1,0,0:0:0:0:
449,176,108109,1,0,0:0:0:0:
440,217,108206,1,8,0:2:0:0:
414,251,108302,1,0,0:0:0:0:
377,270,108399,1,0,0:0:0:0:
120,260,108593,6,0,L|16:256,1,85,4|0,0:2|0:0,0:0:0:0:
208,200,108980,2,0,L|224:80,1,85,8|0,0:2|0:0,0:0:0:0:
108,112,109368,2,0,L|204:112,1,85,2|0,0:0|0:0,0:0:0:0:
368,112,109755,2,0,L|464:112,1,85,8|0,0:2|0:0,0:0:0:0:
272,140,110142,6,0,L|228:172,4,42.5,2|0|0|0|8,0:0|0:0|0:0|0:0|0:2,0:0:0:0:
452,184,110722,6,0,L|496:216,4,42.5,0|0|2|0|0,0:0|0:0|0:0|0:0|0:0,0:0:0:0:
348,256,111303,2,0,L|452:256,1,85,8|0,0:2|0:0,0:0:0:0:
176,260,111690,6,0,L|56:260,1,85,4|0,0:2|0:0,0:0:0:0:
276,224,112077,2,0,L|288:104,1,85,8|0,0:2|0:0,0:0:0:0:
196,124,112464,2,0,L|188:8,1,85,2|0,0:0|0:0,0:0:0:0:
372,116,112851,2,0,L|384:0,1,85,8|0,0:2|0:0,0:0:0:0:
200,56,113239,5,2,0:0:0:0:
162,74,113335,1,0,0:0:0:0:
135,107,113432,1,0,0:0:0:0:
126,148,113529,1,0,0:0:0:0:
135,189,113626,1,8,0:2:0:0:
161,222,113722,1,0,0:0:0:0:
198,241,113819,1,0,0:0:0:0:
376,84,114013,5,2,0:0:0:0:
338,102,114109,1,0,0:0:0:0:
311,135,114206,1,0,0:0:0:0:
302,176,114303,1,0,0:0:0:0:
311,217,114400,1,8,0:2:0:0:
337,250,114496,1,0,0:0:0:0:
374,269,114593,1,0,0:0:0:0:
112,64,114787,6,0,L|96:160,1,85,4|0,0:2|0:0,0:0:0:0:
272,152,115174,2,0,L|288:248,1,85,8|0,0:2|0:0,0:0:0:0:
192,240,115561,2,0,L|204:360,1,85,2|0,0:0|0:0,0:0:0:0:
372,240,115948,2,0,L|468:240,1,85,8|0,0:2|0:0,0:0:0:0:
188,264,116335,6,0,L|32:264,1,127.5,4|4,0:2|0:2,0:0:0:0:
316,224,116916,2,0,L|472:224,1,127.5,4|4,0:2|0:2,0:0:0:0:
188,172,117497,1,4,0:2:0:0:
103,172,117690,1,4,0:2:0:0:
360,176,117884,5,4,0:1:0:0:
256,192,118077,12,0,120981,0:0:0:0:
