osu file format v14

[General]
AudioFilename: new.mp3
AudioLeadIn: 0
PreviewTime: 68962
Countdown: 0
SampleSet: Soft
StackLeniency: 0.7
Mode: 0
LetterboxInBreaks: 0
WidescreenStoryboard: 0

[Editor]
Bookmarks: 13357,27115,68771,82147,95905,97816,104504,112720
DistanceSpacing: 1
BeatDivisor: 4
GridSize: 8
TimelineZoom: 2.899999

[Metadata]
Title:Daisuke
TitleUnicode:Daisuke
Artist:Y&Co.
ArtistUnicode:Y&Co.
Creator:kwk
Version:SourPls
Source:beatmania IIDX 10th style
Tags:moph saturnalize eurobeat Tetsuya Tamura BeatStream Dance Evolution Arcade jubeat plus Qubell
BeatmapID:1476582
BeatmapSetID:697087

[Difficulty]
HPDrainRate:4
CircleSize:4
OverallDifficulty:9
ApproachRate:9.4
SliderMultiplier:1.8
SliderTickRate:1

[Events]
//Background and Video events
0,0,"57336576_p0.jpg",0,0
Video,1148,"meme.avi"
//Break Periods
//Storyboard Layer 0 (Background)
//Storyboard Layer 1 (Fail)
//Storyboard Layer 2 (Pass)
//Storyboard Layer 3 (Foreground)
//Storyboard Sound Samples

[TimingPoints]
2657,382.165605095541,4,2,0,50,1,0
9392,-100,4,2,0,30,0,0
9488,-100,4,2,0,50,0,0
9583,-100,4,2,0,30,0,0
9679,-100,4,2,0,50,0,0
10921,-100,4,2,0,30,0,0
11016,-100,4,2,0,50,0,0
11112,-100,4,2,0,30,0,0
11207,-100,4,2,0,50,0,0
12163,-100,4,2,0,30,0,0
12258,-100,4,2,0,50,0,0
12449,-100,4,2,0,30,0,0
12545,-100,4,2,0,50,0,0
12641,-100,4,2,0,30,0,0
12736,-100,4,2,0,50,0,0
13357,-200,4,2,0,50,0,0
14886,-57.1428571428571,4,2,1,50,0,1
27115,-80,4,2,1,50,0,0
69918,-57.1428571428571,4,2,1,50,0,1
82147,-80,4,2,1,50,0,0
106606,-57.1428571428571,4,2,1,50,0,1
118835,-57.1428571428571,4,2,1,50,0,0

[Colours]
Combo1 : 34,34,255
Combo2 : 64,128,128
Combo3 : 164,164,255
Combo4 : 115,185,185

[HitObjects]
100,114,2657,5,4,0:2:0:0:
167,7,2848,1,0,0:0:0:0:
80,257,3039,1,2,0:0:0:0:
235,176,3230,2,0,P|256:168|278:167,3,45,0|0|0|0,0:0|0:0|0:0|0:0,0:0:0:0:
199,256,3612,1,0,0:0:0:0:
343,351,3803,2,0,P|343:308|321:273,1,45
278,167,3994,2,0,P|278:210|300:245,1,45
426,314,4185,5,0,0:2:0:0:
243,370,4376,1,0,0:0:0:0:
68,315,4567,1,0,0:0:0:0:
276,366,4758,2,0,L|326:353,3,45
195,379,5141,1,0,0:0:0:0:
404,368,5332,2,0,L|412:294,1,45
316,151,5523,2,0,L|309:232,1,45
181,302,5714,6,0,B|228:303|228:303|276:271,1,90,0|0,1:0|0:0,0:0:0:0:
127,182,6096,1,0,0:0:0:0:
93,364,6287,2,0,B|85:286,3,45,0|0|0|0,1:2|0:0|0:0|0:0,0:0:0:0:
28,256,6669,1,0,1:2:0:0:
181,302,6860,2,0,P|233:305|269:273,1,90,0|2,0:0|0:3,0:0:0:0:
328,39,7242,6,0,P|351:76|346:120,1,90,0|0,1:0|0:0,0:0:0:0:
194,176,7625,1,0,0:0:0:0:
358,219,7816,2,0,P|388:213|435:231,3,45,0|0|0|0,1:0|1:0|1:0|0:0,0:0:0:0:
475,271,8198,1,0,1:0:0:0:
374,370,8389,1,0,1:2:0:0:
348,362,8485,1,0,1:2:0:0:
321,355,8580,1,0,1:2:0:0:
294,348,8676,1,0,1:2:0:0:
268,341,8771,6,0,L|170:355,1,90,4|0,1:2|0:0,0:0:0:0:
19,110,9153,5,10,1:2:0:0:
99,221,9344,1,0,0:0:0:0:
104,194,9440,1,8,0:0:0:0:
109,167,9535,1,0,1:0:0:0:
114,140,9631,1,8,0:0:0:0:
119,113,9727,1,0,0:0:0:0:
0,204,9918,1,0,1:0:0:0:
204,142,10109,1,8,0:2:0:0:
189,341,10300,2,0,P|209:278|259:248,1,90,0|0,1:0|0:0,0:0:0:0:
373,318,10682,5,8,1:2:0:0:
421,185,10873,1,0,0:0:0:0:
410,159,10969,1,8,0:0:0:0:
398,134,11064,1,0,1:0:0:0:
384,110,11160,1,8,0:0:0:0:
373,85,11255,1,0,0:0:0:0:
336,213,11446,1,0,1:0:0:0:
474,104,11637,1,8,0:2:0:0:
293,29,11828,5,8,1:3:0:0:
272,35,11924,1,8,0:3:0:0:
251,41,12020,1,0,0:3:0:0:
230,48,12115,1,8,0:3:0:0:
160,111,12211,5,8,1:2:0:0:
177,117,12306,1,0,0:0:0:0:
194,121,12402,1,8,0:3:0:0:
210,126,12497,1,8,0:2:0:0:
286,183,12593,5,0,1:0:0:0:
274,187,12688,1,8,0:2:0:0:
262,190,12784,1,4,0:3:0:0:
250,194,12879,1,0,0:0:0:0:
194,252,12975,5,0,1:0:0:0:
202,255,13071,1,0,0:0:0:0:
210,257,13166,1,8,0:2:0:0:
218,260,13262,1,0,0:0:0:0:
266,321,13357,5,4,1:3:0:0:
256,192,13453,12,0,14695,0:0:0:0:
0,85,14886,5,4,1:0:0:0:
61,36,14981,1,2,0:2:0:0:
139,41,15077,1,2,0:0:0:0:
184,104,15172,1,2,0:0:0:0:
169,178,15268,5,10,1:2:0:0:
166,194,15364,1,0,0:0:0:0:
220,248,15459,1,2,0:2:0:0:
216,263,15555,1,0,0:0:0:0:
272,317,15650,5,0,1:0:0:0:
351,314,15746,1,2,0:0:0:0:
386,243,15841,1,0,0:0:0:0:
345,174,15937,1,2,0:0:0:0:
266,172,16032,6,0,P|254:125|267:80,1,78.7500007510185,10|0,1:2|0:0,0:0:0:0:
138,10,16223,2,0,P|150:57|137:102,1,78.7500007510185,2|0,0:0|0:0,0:0:0:0:
40,127,16414,5,0,1:0:0:0:
0,195,16510,1,2,0:2:0:0:
15,272,16606,1,2,0:2:0:0:
80,315,16701,1,2,0:2:0:0:
157,300,16797,5,10,1:2:0:0:
171,294,16892,1,0,0:0:0:0:
223,221,16988,1,2,0:2:0:0:
237,215,17083,1,8,0:0:0:0:
313,193,17179,5,2,1:2:0:0:
406,199,17274,1,0,0:0:0:0:
443,286,17370,1,0,0:0:0:0:
398,368,17465,1,2,0:0:0:0:
303,364,17561,6,0,P|273:317|279:258,1,78.7500007510185,10|0,1:2|0:0,0:0:0:0:
106,203,17752,2,0,P|131:153|185:129,1,78.7500007510185,2|0,0:0|0:0,0:0:0:0:
299,24,17943,5,0,1:0:0:0:
378,22,18039,1,2,0:0:0:0:
430,79,18134,1,2,0:0:0:0:
432,158,18230,1,2,0:0:0:0:
386,221,18325,5,10,1:2:0:0:
375,209,18421,1,0,0:0:0:0:
291,219,18516,1,2,0:2:0:0:
288,203,18612,1,0,0:0:0:0:
224,157,18707,5,0,1:0:0:0:
145,165,18803,1,2,0:2:0:0:
95,226,18899,1,0,0:0:0:0:
108,303,18994,1,2,0:2:0:0:
173,346,19090,6,0,L|256:328,1,78.7500007510185,10|0,1:2|0:0,0:0:0:0:
479,317,19281,2,0,L|375:286,1,78.7500007510185,2|0,0:0|0:0,0:0:0:0:
391,104,19472,5,0,1:0:0:0:
466,80,19567,1,2,0:2:0:0:
512,144,19663,1,2,0:2:0:0:
466,208,19758,1,2,0:2:0:0:
391,183,19854,1,10,1:2:0:0:
80,52,20045,5,0,1:0:0:0:
24,128,20141,1,10,1:2:0:0:
80,206,20236,1,2,1:2:0:0:
170,176,20332,1,10,0:2:0:0:
170,81,20427,1,2,0:2:0:0:
404,27,20618,5,8,1:2:0:0:
395,73,20714,1,2,0:2:0:0:
384,118,20809,1,10,1:2:0:0:
374,164,20905,1,10,1:2:0:0:
451,154,21000,5,4,1:0:0:0:
494,219,21096,1,2,0:0:0:0:
474,295,21192,1,2,0:0:0:0:
396,306,21287,1,2,0:0:0:0:
327,270,21383,5,10,1:2:0:0:
327,254,21478,1,0,0:0:0:0:
254,301,21574,1,2,0:2:0:0:
254,316,21669,1,0,0:0:0:0:
182,349,21765,5,0,1:0:0:0:
104,334,21860,1,2,0:2:0:0:
77,259,21956,1,0,0:0:0:0:
118,191,22051,1,2,0:2:0:0:
196,195,22147,6,0,B|280:174,1,78.7500007510185,10|0,1:2|0:0,0:0:0:0:
362,32,22338,2,0,P|339:72|343:127,1,78.7500007510185,2|0,0:0|0:0,0:0:0:0:
359,211,22529,5,0,1:0:0:0:
432,240,22625,1,2,0:0:0:0:
499,200,22720,1,2,0:0:0:0:
503,120,22816,1,2,0:0:0:0:
433,84,22911,5,10,1:2:0:0:
423,96,23007,1,0,0:0:0:0:
344,102,23102,1,2,0:2:0:0:
333,113,23198,1,8,0:0:0:0:
289,178,23293,5,2,1:2:0:0:
202,216,23389,1,0,0:0:0:0:
115,177,23485,1,0,0:0:0:0:
104,83,23580,1,2,0:0:0:0:
181,27,23676,6,0,L|270:37,1,78.7500007510185,10|0,1:2|0:0,0:0:0:0:
369,172,23867,2,0,L|280:182,1,78.7500007510185,2|0,0:0|0:0,0:0:0:0:
111,179,24058,5,0,1:0:0:0:
55,233,24153,1,0,0:0:0:0:
55,312,24249,1,2,0:0:0:0:
112,365,24344,1,0,0:0:0:0:
193,359,24440,5,10,1:2:0:0:
192,342,24535,1,0,0:0:0:0:
265,302,24631,1,2,0:2:0:0:
268,318,24727,1,0,0:0:0:0:
340,354,24822,5,0,1:0:0:0:
397,301,24918,1,2,0:0:0:0:
397,222,25013,1,0,0:0:0:0:
341,168,25109,1,2,0:0:0:0:
261,179,25204,6,0,P|220:152|196:95,1,78.7500007510185,10|0,1:2|0:0,0:0:0:0:
102,11,25395,2,0,P|99:60|61:109,1,78.7500007510185,2|2,0:0|0:0,0:0:0:0:
0,208,25586,5,0,1:0:0:0:
79,197,25682,1,2,1:2:0:0:
153,224,25778,1,2,1:2:0:0:
182,296,25873,1,2,1:2:0:0:
166,373,25969,1,2,1:2:0:0:
495,144,26160,5,0,1:0:0:0:
402,124,26255,1,2,1:2:0:0:
316,164,26351,1,2,1:2:0:0:
277,249,26446,1,2,1:2:0:0:
293,342,26542,1,2,1:2:0:0:
0,147,26733,5,0,1:2:0:0:
108,130,26828,1,2,1:2:0:0:
217,113,26924,1,2,1:2:0:0:
326,96,27020,1,2,1:2:0:0:
435,79,27115,5,4,1:0:0:0:
347,225,27306,1,0,0:0:0:0:
257,20,27497,1,10,1:2:0:0:
152,234,27688,1,0,0:0:0:0:
326,96,27879,1,2,1:2:0:0:
282,278,28071,2,0,P|363:304|412:259,1,112.5,2|8,0:2|1:2,0:0:0:0:
480,59,28453,1,2,0:2:0:0:
477,235,28644,6,0,L|415:116,1,112.5,0|2,1:0|0:0,0:0:0:0:
215,67,29026,1,8,1:2:0:0:
346,224,29217,1,2,0:0:0:0:
101,98,29408,1,0,1:2:0:0:
281,135,29599,2,0,P|307:72|294:14,1,112.5,2|8,0:2|1:2,0:0:0:0:
189,187,29981,1,2,0:0:0:0:
484,124,30172,5,0,1:0:0:0:
195,285,30364,1,2,0:3:0:0:
465,321,30555,1,10,1:3:0:0:
214,88,30746,1,0,0:0:0:0:
268,195,30841,1,2,0:3:0:0:
353,15,31032,1,2,0:3:0:0:
53,200,31223,1,0,0:0:0:0:
107,93,31319,1,10,1:3:0:0:
161,318,31510,1,2,0:3:0:0:
461,45,31701,5,2,1:3:0:0:
15,358,32083,1,10,1:3:0:0:
376,245,32465,1,2,1:3:0:0:
118,157,32656,1,10,1:3:0:0:
376,245,33039,1,10,1:3:0:0:
140,365,33230,5,4,1:0:0:0:
246,163,33421,1,0,0:0:0:0:
273,308,33612,1,10,1:2:0:0:
146,84,33803,1,0,0:0:0:0:
119,242,33994,1,2,1:2:0:0:
337,152,34185,2,0,P|396:141|459:174,1,112.5,2|8,0:2|1:2,0:0:0:0:
487,243,34472,1,0,0:0:0:0:
487,243,34567,1,2,0:0:0:0:
332,60,34758,5,2,1:2:0:0:
381,243,34949,1,2,2:0:0:0:
202,163,35141,1,10,1:2:0:0:
237,362,35332,1,2,0:0:0:0:
0,263,35523,1,0,1:0:0:0:
132,289,35714,2,0,P|165:274|176:188,1,112.5,2|8,0:0|1:2,0:0:0:0:
92,57,36096,1,2,0:0:0:0:
302,209,36287,5,0,1:0:0:0:
245,51,36478,1,2,0:3:0:0:
250,324,36669,1,10,1:3:0:0:
437,138,36860,1,0,0:0:0:0:
473,240,36956,1,2,0:3:0:0:
511,42,37147,1,2,0:3:0:0:
279,245,37338,1,0,0:0:0:0:
315,143,37434,1,10,1:3:0:0:
410,360,37625,1,2,0:3:0:0:
31,51,37816,5,10,1:3:0:0:
466,233,38198,1,10,1:3:0:0:
85,361,38580,1,10,1:3:0:0:
198,146,38771,1,10,1:3:0:0:
396,229,39058,1,0,0:0:0:0:
396,229,39153,2,0,P|361:233|336:250,1,56.25,4|0,1:2|0:0,0:0:0:0:
305,340,39344,6,0,P|319:264|368:235,1,112.5,4|2,1:0|0:0,0:0:0:0:
471,201,39727,1,8,1:2:0:0:
471,66,39918,1,2,0:0:0:0:
342,24,40109,1,2,1:2:0:0:
263,133,40300,1,0,0:0:0:0:
470,64,40491,1,10,1:2:0:0:
210,60,40682,6,0,P|172:118|191:189,1,112.5,2|0,0:0|1:0,0:0:0:0:
199,310,41064,1,2,0:0:0:0:
263,133,41255,1,8,1:2:0:0:
95,217,41446,1,2,0:2:0:0:
424,212,41637,2,0,L|289:230,1,112.5,2|0,1:2|0:0,0:0:0:0:
199,310,41924,1,0,0:0:0:0:
199,310,42020,1,12,1:2:0:0:
65,132,42211,1,2,0:0:0:0:
302,37,42402,6,0,P|288:113|239:142,1,112.5,0|2,1:0|0:0,0:0:0:0:
136,176,42784,1,8,1:2:0:0:
136,311,42975,1,2,0:0:0:0:
265,353,43166,1,2,1:2:0:0:
344,244,43357,1,2,0:0:0:0:
136,311,43548,1,8,1:2:0:0:
283,154,43739,6,0,P|341:138|402:152,1,112.5,2|0,0:0|1:0,0:0:0:0:
255,45,44121,1,2,0:0:0:0:
347,238,44313,1,10,1:2:0:0:
355,29,44504,1,2,0:0:0:0:
197,161,44695,2,0,L|47:134,1,112.5,6|0,1:2|0:0,0:0:0:0:
347,238,45077,2,0,B|475:226,1,112.5,6|2,1:2|0:2,0:0:0:0:
255,277,45364,1,0,0:0:0:0:
255,277,45459,5,4,1:0:0:0:
222,72,45650,1,2,0:0:0:0:
179,335,45841,1,8,1:2:0:0:
90,22,46032,1,2,0:0:0:0:
337,158,46223,1,2,1:2:0:0:
184,184,46414,1,0,0:0:0:0:
421,253,46606,2,0,L|345:262,1,56.25,12|0,1:2|0:0,0:0:0:0:
512,285,46797,1,2,0:0:0:0:
404,72,46988,5,0,1:0:0:0:
327,356,47179,1,2,0:0:0:0:
219,165,47370,1,8,1:2:0:0:
421,253,47561,1,2,0:0:0:0:
136,244,47752,1,2,1:2:0:0:
475,155,47943,1,0,0:0:0:0:
61,151,48134,2,12,L|124:158,1,56.25,12|0,1:2|0:2,1:2:0:0:
287,224,48325,1,0,0:0:0:0:
117,62,48516,5,0,1:0:0:0:
262,307,48707,1,2,0:0:0:0:
197,32,48899,1,8,1:2:0:0:
177,350,49090,1,0,0:0:0:0:
276,66,49281,1,0,1:0:0:0:
276,66,49376,1,0,0:0:0:0:
276,66,49472,1,2,0:0:0:0:
238,234,49663,1,8,1:2:0:0:
199,30,49854,1,0,0:0:0:0:
56,216,50045,5,0,1:0:0:0:
62,200,50141,1,0,1:0:0:0:
147,166,50236,5,10,1:2:0:0:
141,182,50332,1,0,1:0:0:0:
226,148,50427,5,8,1:2:0:0:
232,132,50523,1,0,1:0:0:0:
317,98,50618,5,2,1:2:0:0:
311,114,50714,1,8,1:2:0:0:
305,130,50809,1,0,1:0:0:0:
299,146,50905,1,8,1:2:0:0:
367,188,51000,5,10,1:2:0:0:
352,266,51096,1,8,1:2:0:0:
279,293,51192,1,8,1:2:0:0:
216,247,51287,1,8,1:2:0:0:
143,221,51383,1,8,1:2:0:0:
70,250,51478,1,8,1:2:0:0:
55,327,51574,5,4,1:2:0:0:
18,73,53102,6,0,P|66:117|54:187,1,112.5,4|0,1:0|0:0,0:0:0:0:
494,73,53485,2,0,P|446:117|458:187,1,112.5,12|0,1:2|0:0,0:0:0:0:
442,294,53771,1,8,0:0:0:0:
442,294,53867,1,2,1:2:0:0:
339,130,54058,1,2,0:2:0:0:
260,328,54249,1,8,1:2:0:0:
23,169,54440,6,0,L|155:160,1,112.5,2|0,0:0|1:2,0:0:0:0:
445,226,54822,2,0,L|332:233,1,112.5,2|8,0:0|1:2,0:0:0:0:
169,375,55204,1,0,0:0:0:0:
169,375,55300,1,0,0:0:0:0:
169,375,55395,1,0,1:0:0:0:
226,168,55586,1,2,0:2:0:0:
119,250,55778,1,10,1:2:0:0:
169,375,55969,1,2,0:2:0:0:
333,195,56160,6,0,L|340:57,1,112.5,2|0,1:2|0:0,0:0:0:0:
512,347,56542,2,0,L|376:322,1,112.5,12|0,1:2|0:0,0:0:0:0:
145,298,56924,1,2,1:2:0:0:
333,222,57115,1,2,0:0:0:0:
161,208,57306,1,10,1:2:0:0:
276,384,57497,6,0,L|239:250,1,112.5,2|0,0:0|1:0,0:0:0:0:
162,0,57879,2,0,L|132:108,1,112.5,2|8,0:0|1:2,0:0:0:0:
84,275,58166,1,0,0:0:0:0:
84,275,58262,1,2,0:0:0:0:
197,148,58453,1,0,1:0:0:0:
27,198,58644,1,2,0:0:0:0:
253,243,58835,1,8,1:2:0:0:
0,195,59026,1,0,1:0:0:0:
280,358,59217,6,0,P|292:293|264:225,1,112.5,2|0,1:2|0:0,0:0:0:0:
137,37,59599,2,0,P|124:91|136:145,1,112.5,14|0,1:2|0:0,0:0:0:0:
279,249,59981,1,2,1:2:0:0:
231,89,60172,1,2,0:2:0:0:
182,341,60364,1,8,1:2:0:0:
317,143,60555,6,0,P|375:129|447:155,1,112.5,2|0,0:0|1:0,0:0:0:0:
235,225,60937,2,0,P|177:239|105:213,1,112.5,2|8,0:2|1:2,0:0:0:0:
25,74,61319,1,2,0:0:0:0:
25,74,61414,1,8,0:0:0:0:
25,74,61510,1,0,1:0:0:0:
39,296,61701,5,2,0:0:0:0:
113,134,61892,1,10,1:2:0:0:
213,350,62083,1,2,0:0:0:0:
487,74,62274,5,0,1:0:0:0:
473,296,62465,1,2,0:3:0:0:
399,134,62656,1,10,1:3:0:0:
299,350,62848,1,2,0:3:0:0:
299,350,62943,1,8,0:0:0:0:
299,350,63039,1,0,1:0:0:0:
82,131,63230,5,2,0:0:0:0:
303,189,63421,1,10,1:2:0:0:
82,265,63612,1,2,0:0:0:0:
239,12,63803,5,0,1:0:0:0:
430,131,63994,1,2,0:3:0:0:
209,189,64185,1,10,1:3:0:0:
430,265,64376,1,2,0:3:0:0:
430,265,64472,1,8,0:0:0:0:
430,265,64567,1,0,1:0:0:0:
298,107,64758,1,2,0:0:0:0:
295,375,64949,1,10,1:2:0:0:
197,95,65141,1,2,0:0:0:0:
478,355,65332,5,0,1:0:0:0:
149,264,65523,1,2,0:0:0:0:
425,280,65714,1,8,1:2:0:0:
108,341,65905,1,2,0:0:0:0:
106,78,66096,1,0,1:0:0:0:
146,268,66287,1,2,0:0:0:0:
169,22,66478,1,8,1:2:0:0:
108,343,66669,1,2,0:0:0:0:
379,209,66860,5,0,1:0:0:0:
124,159,67051,1,2,0:0:0:0:
395,105,67242,1,8,1:2:0:0:
78,261,67434,1,2,0:0:0:0:
296,37,67625,5,0,1:0:0:0:
242,53,67720,1,8,1:2:0:0:
189,73,67816,1,8,1:2:0:0:
136,92,67911,1,8,1:2:0:0:
82,110,68007,5,8,1:2:0:0:
136,126,68102,1,8,1:2:0:0:
189,146,68198,1,8,1:2:0:0:
242,165,68293,1,8,1:2:0:0:
296,181,68389,5,4,1:3:0:0:
221,206,68580,1,0,3:0:0:0:
147,233,68771,1,0,3:0:0:0:
418,46,69918,5,4,1:0:0:0:
463,109,70013,1,2,0:0:0:0:
418,174,70109,1,2,0:0:0:0:
343,149,70204,1,2,0:0:0:0:
270,179,70300,5,10,1:2:0:0:
266,194,70395,1,0,0:0:0:0:
191,219,70491,1,2,0:2:0:0:
188,234,70586,1,0,0:0:0:0:
112,257,70682,5,0,1:0:0:0:
67,194,70778,1,2,0:0:0:0:
112,129,70873,1,0,0:0:0:0:
187,154,70969,1,2,0:0:0:0:
188,234,71064,6,0,P|196:278|156:320,1,78.7500007510185,10|0,1:2|0:0,0:0:0:0:
357,183,71255,2,0,L|446:158,1,78.7500007510185,2|0,0:0|0:0,0:0:0:0:
511,85,71446,5,0,1:0:0:0:
468,18,71542,1,2,0:0:0:0:
389,17,71637,1,2,0:0:0:0:
338,77,71733,1,2,0:0:0:0:
371,156,71828,5,10,1:2:0:0:
386,152,71924,1,0,0:0:0:0:
349,222,72020,1,2,0:2:0:0:
333,218,72115,1,8,0:0:0:0:
393,287,72211,5,2,1:2:0:0:
365,377,72306,1,0,0:0:0:0:
267,380,72402,1,0,0:0:0:0:
228,293,72497,1,2,0:2:0:0:
273,211,72593,6,0,P|275:151|223:104,1,78.7500007510185,10|0,1:2|0:0,0:0:0:0:
17,20,72784,2,0,L|72:100,1,78.7500007510185,2|0,0:2|0:0,0:0:0:0:
0,186,72975,5,0,1:0:0:0:
57,239,73071,1,2,0:0:0:0:
135,237,73166,1,2,0:0:0:0:
189,179,73262,1,2,0:0:0:0:
193,95,73357,5,10,1:2:0:0:
199,80,73453,1,0,0:0:0:0:
275,58,73548,1,2,0:2:0:0:
280,43,73644,1,0,0:0:0:0:
356,25,73739,5,0,1:0:0:0:
435,23,73835,1,2,0:0:0:0:
491,75,73930,1,0,0:0:0:0:
494,153,74026,1,2,0:0:0:0:
449,217,74121,6,0,L|343:198,1,78.7500007510185,10|0,1:2|0:0,0:0:0:0:
293,289,74313,2,0,L|187:270,1,78.7500007510185,2|0,0:0|0:0,0:0:0:0:
84,358,74504,5,0,1:0:0:0:
102,281,74599,1,2,0:2:0:0:
120,204,74695,1,2,0:2:0:0:
137,127,74790,1,2,0:2:0:0:
158,50,74886,1,10,1:2:0:0:
416,384,75077,5,0,1:0:0:0:
394,292,75172,1,10,1:2:0:0:
372,199,75268,1,2,1:2:0:0:
350,107,75364,1,10,0:2:0:0:
323,15,75459,1,2,0:2:0:0:
67,139,75650,5,8,1:2:0:0:
105,147,75746,1,2,0:2:0:0:
142,156,75841,1,10,1:2:0:0:
180,164,75937,1,10,1:2:0:0:
235,108,76032,5,4,1:0:0:0:
310,96,76128,1,2,0:0:0:0:
372,142,76223,1,2,0:0:0:0:
382,218,76319,1,2,0:0:0:0:
335,279,76414,5,10,1:2:0:0:
323,269,76510,1,0,0:0:0:0:
247,294,76606,1,2,0:2:0:0:
250,278,76701,1,0,0:0:0:0:
195,219,76797,5,0,1:0:0:0:
121,205,76892,1,2,0:0:0:0:
57,249,76988,1,0,0:0:0:0:
45,324,77083,1,2,0:0:0:0:
104,376,77179,6,0,L|181:349,1,78.7500007510185,10|0,1:2|0:0,0:0:0:0:
412,344,77370,2,0,P|423:294|408:242,1,78.7500007510185,2|0,0:0|0:0,0:0:0:0:
310,179,77561,5,0,1:0:0:0:
282,107,77656,1,2,0:0:0:0:
321,40,77752,1,2,0:0:0:0:
395,25,77848,1,2,0:0:0:0:
455,74,77943,5,10,1:2:0:0:
447,88,78039,1,0,0:0:0:0:
419,162,78134,1,2,0:2:0:0:
412,176,78230,1,8,0:0:0:0:
364,258,78325,5,2,1:2:0:0:
269,269,78421,1,0,0:0:0:0:
217,190,78516,1,0,0:0:0:0:
257,103,78612,1,2,0:0:0:0:
234,11,78707,6,0,P|193:0|102:12,1,78.7500007510185,10|0,1:2|0:0,0:0:0:0:
310,179,78899,2,0,P|351:187|441:168,1,78.7500007510185,2|0,0:0|0:0,0:0:0:0:
512,291,79090,5,0,1:0:0:0:
448,246,79185,1,2,0:0:0:0:
372,270,79281,1,2,0:0:0:0:
345,344,79376,1,2,0:0:0:0:
266,360,79472,5,10,1:2:0:0:
250,357,79567,1,0,0:0:0:0:
232,280,79663,1,2,0:2:0:0:
216,276,79758,1,0,0:0:0:0:
167,344,79854,5,0,1:0:0:0:
140,270,79949,1,2,0:0:0:0:
64,246,80045,1,0,0:0:0:0:
0,291,80141,1,2,0:0:0:0:
7,367,80236,6,0,P|44:356|70:327,1,78.7500007510185,10|0,1:2|0:0,0:0:0:0:
232,280,80427,2,0,P|240:242|227:205,1,78.7500007510185,2|0,0:0|0:0,0:0:0:0:
7,100,80618,5,0,1:0:0:0:
70,144,80714,1,2,1:2:0:0:
148,148,80809,1,2,1:2:0:0:
219,113,80905,1,2,1:2:0:0:
251,41,81000,1,2,1:2:0:0:
0,276,81192,5,0,1:0:0:0:
79,221,81287,1,2,1:2:0:0:
173,226,81383,1,2,1:2:0:0:
256,273,81478,1,2,1:2:0:0:
287,361,81574,1,2,1:2:0:0:
505,108,81765,5,0,1:2:0:0:
399,137,81860,1,2,1:2:0:0:
292,164,81956,1,6,1:2:0:0:
185,193,82051,1,2,1:2:0:0:
80,220,82147,5,2,1:2:0:0:
211,75,82338,1,0,0:0:0:0:
284,261,82529,1,8,0:0:0:0:
367,30,82720,2,0,L|374:107,1,56.25
462,185,82911,1,0,0:0:0:0:
462,185,83007,1,0,0:0:0:0:
462,185,83102,2,0,B|407:161|407:161|330:177|329:177,1,112.5,0|8,1:0|0:0,0:0:0:0:
186,263,83485,1,0,0:0:0:0:
212,92,83676,6,0,L|256:213,1,112.5,0|0,1:0|0:0,0:0:0:0:
215,367,84058,1,8,0:0:0:0:
389,287,84249,2,0,B|316:257,2,56.25,2|0|0,1:3|0:0|0:0,0:0:0:0:
472,317,84535,1,0,0:0:0:0:
472,317,84631,1,2,1:3:0:0:
397,174,84822,1,12,0:0:0:0:
372,378,85013,1,2,1:3:0:0:
484,136,85204,5,2,1:3:0:0:
311,47,85395,1,0,0:0:0:0:
456,55,85586,1,8,0:0:0:0:
253,108,85778,1,0,1:0:0:0:
442,217,85969,1,0,0:0:0:0:
442,217,86064,1,0,0:0:0:0:
442,217,86160,2,0,P|472:264|467:322,1,112.5,0|8,1:0|0:0,0:0:0:0:
255,275,86542,5,0,0:0:0:0:
255,275,86733,2,0,L|364:212,1,112.5,0|2,1:0|0:3,0:0:0:0:
377,344,87115,1,8,0:0:0:0:
255,164,87306,1,4,1:2:0:0:
208,370,87497,5,4,1:2:0:0:
86,11,87879,1,4,1:2:0:0:
324,141,88262,5,4,1:0:0:0:
307,163,88357,1,0,0:0:0:0:
291,186,88453,1,2,0:0:0:0:
504,263,88644,1,8,1:2:0:0:
497,235,88739,1,0,0:0:0:0:
491,207,88835,1,2,0:2:0:0:
293,19,89026,1,2,1:2:0:0:
486,183,89217,1,0,0:0:0:0:
382,11,89408,1,12,1:2:0:0:
360,252,89599,1,2,0:0:0:0:
78,110,89790,5,0,1:0:0:0:
105,105,89886,1,0,0:0:0:0:
132,101,89981,1,2,0:0:0:0:
278,201,90172,1,8,1:2:0:0:
250,194,90268,1,0,0:0:0:0:
222,187,90364,1,2,0:0:0:0:
146,6,90555,1,2,1:2:0:0:
167,251,90746,1,0,0:0:0:0:
217,49,90937,1,12,1:2:0:0:
91,307,91128,1,0,0:0:0:0:
389,203,91319,6,0,B|331:192|331:192|265:204,1,112.5,0|2,1:0|0:0,0:0:0:0:
426,283,91701,1,8,1:2:0:0:
266,96,91892,2,0,B|276:118|276:118|263:170|263:170|277:201,1,112.5,0|0,0:0|1:0,0:0:0:0:
191,321,92274,1,2,0:0:0:0:
368,159,92465,1,8,1:2:0:0:
185,219,92656,1,0,0:0:0:0:
367,237,92848,5,0,1:0:0:0:
361,253,92943,1,0,1:0:0:0:
276,287,93039,5,10,1:2:0:0:
282,271,93134,1,0,1:0:0:0:
197,305,93230,5,8,1:2:0:0:
191,321,93325,1,0,1:0:0:0:
106,355,93421,5,2,1:2:0:0:
112,339,93516,1,8,1:2:0:0:
118,323,93612,1,0,1:0:0:0:
124,307,93707,1,8,1:2:0:0:
56,265,93803,5,10,1:2:0:0:
71,187,93899,1,8,1:2:0:0:
144,160,93994,1,8,1:2:0:0:
207,206,94090,1,8,1:2:0:0:
280,232,94185,1,8,1:2:0:0:
353,203,94281,1,8,1:2:0:0:
368,126,94376,5,4,1:2:0:0:
69,268,95905,6,0,P|113:220|183:232,1,112.5,0|0,1:0|0:0,0:0:0:0:
443,268,96287,2,0,P|399:220|329:232,1,112.5,12|0,1:2|0:0,0:0:0:0:
150,304,96669,1,2,1:2:0:0:
167,93,96860,1,2,0:0:0:0:
231,267,97051,1,8,1:2:0:0:
343,84,97242,6,0,L|227:170,1,112.5,2|0,0:0|1:0,0:0:0:0:
0,276,97625,2,0,L|90:208,1,112.5,2|8,0:0|1:2,0:0:0:0:
177,356,98007,1,0,0:3:0:0:
177,356,98102,1,8,0:0:0:0:
177,356,98198,1,0,1:3:0:0:
253,210,98389,5,2,0:0:0:0:
80,315,98580,1,10,1:2:0:0:
342,262,98771,1,2,0:0:0:0:
212,115,98962,5,0,1:0:0:0:
474,168,99153,1,2,0:3:0:0:
301,63,99344,1,10,1:3:0:0:
378,209,99535,1,2,0:3:0:0:
378,209,99631,1,8,0:0:0:0:
378,209,99727,1,0,1:0:0:0:
110,125,99918,5,2,0:0:0:0:
174,258,100109,1,10,1:2:0:0:
207,52,100300,1,2,0:0:0:0:
418,257,100491,5,0,1:0:0:0:
354,124,100682,1,2,0:3:0:0:
321,330,100873,1,10,1:3:0:0:
219,113,101064,1,2,0:3:0:0:
219,113,101160,1,8,0:0:0:0:
219,113,101255,1,0,1:3:0:0:
115,247,101446,1,2,0:0:0:0:
134,28,101637,1,10,1:2:0:0:
260,275,101828,1,2,0:0:0:0:
32,159,102020,5,0,1:0:0:0:
292,98,102211,1,2,0:0:0:0:
65,260,102402,1,8,1:2:0:0:
212,39,102593,1,2,0:0:0:0:
344,308,102784,1,0,1:0:0:0:
143,101,102975,1,2,0:0:0:0:
400,207,103166,1,8,1:2:0:0:
106,191,103357,1,2,0:0:0:0:
373,18,103548,5,0,1:0:0:0:
247,262,103739,1,2,0:0:0:0:
220,47,103930,1,8,1:2:0:0:
345,327,104121,1,2,0:0:0:0:
108,263,104313,5,0,1:0:0:0:
162,247,104408,1,8,1:2:0:0:
215,227,104504,1,8,1:2:0:0:
268,208,104599,1,8,1:2:0:0:
322,190,104695,5,8,1:2:0:0:
268,174,104790,1,8,1:2:0:0:
215,154,104886,1,8,1:2:0:0:
162,135,104981,1,8,1:2:0:0:
108,119,105077,5,4,1:3:0:0:
183,94,105268,1,0,0:0:0:0:
257,67,105459,1,0,0:0:0:0:
482,290,106606,5,4,1:0:0:0:
464,213,106701,1,2,0:0:0:0:
399,169,106797,1,2,0:0:0:0:
325,191,106892,1,2,0:0:0:0:
291,259,106988,5,10,1:2:0:0:
284,273,107083,1,0,0:0:0:0:
208,283,107179,1,2,0:0:0:0:
202,297,107274,1,0,0:0:0:0:
124,305,107370,5,0,1:0:0:0:
64,254,107465,1,2,0:0:0:0:
75,176,107561,1,0,0:0:0:0:
149,149,107656,1,2,0:0:0:0:
222,176,107752,6,0,P|260:146|277:102,1,78.7500007510185,10|0,1:2|0:0,0:0:0:0:
447,34,107943,2,0,P|408:63|391:107,1,78.7500007510185,2|0,0:0|0:0,0:0:0:0:
423,229,108134,5,0,1:0:0:0:
412,306,108230,1,2,0:0:0:0:
341,342,108325,1,2,0:0:0:0:
262,337,108421,1,2,0:0:0:0:
217,271,108516,5,10,1:2:0:0:
223,256,108612,1,0,0:0:0:0:
222,178,108707,1,2,0:2:0:0:
217,162,108803,1,8,0:0:0:0:
267,82,108899,5,2,1:2:0:0:
216,1,108994,1,0,0:0:0:0:
122,1,109090,1,0,0:0:0:0:
76,84,109185,1,2,0:0:0:0:
120,166,109281,6,0,L|208:133,1,78.7500007510185,10|0,1:2|0:0,0:0:0:0:
401,244,109472,2,0,L|494:206,1,78.7500007510185,2|0,0:0|0:0,0:0:0:0:
340,375,109663,5,0,1:0:0:0:
262,368,109758,1,2,0:0:0:0:
241,292,109854,1,2,0:0:0:0:
309,251,109949,1,2,0:0:0:0:
333,176,110045,5,10,1:2:0:0:
324,163,110141,1,0,0:0:0:0:
353,89,110236,1,2,0:2:0:0:
343,77,110332,1,0,0:0:0:0:
375,4,110427,5,0,1:0:0:0:
452,10,110523,1,2,0:0:0:0:
473,87,110618,1,0,0:0:0:0:
405,128,110714,1,2,0:0:0:0:
343,77,110809,6,0,P|293:79|247:109,1,78.7500007510185,10|0,1:2|0:0,0:0:0:0:
188,261,111000,2,0,P|212:200|185:143,1,78.7500007510185,2|0,0:0|0:0,0:0:0:0:
27,33,111192,5,0,1:0:0:0:
33,111,111287,1,2,0:0:0:0:
105,139,111383,1,2,0:0:0:0:
175,103,111478,1,2,0:0:0:0:
179,24,111574,1,8,1:2:0:0:
472,320,111765,5,0,1:0:0:0:
464,226,111860,1,10,1:2:0:0:
378,192,111956,1,2,1:2:0:0:
291,231,112051,1,10,0:2:0:0:
283,325,112147,1,0,0:0:0:0:
112,56,112338,5,8,1:2:0:0:
150,60,112434,1,2,0:2:0:0:
189,66,112529,1,10,1:2:0:0:
227,72,112625,1,10,1:2:0:0:
295,25,112720,5,4,1:0:0:0:
362,68,112816,1,2,0:0:0:0:
363,147,112911,1,2,0:0:0:0:
303,198,113007,1,2,0:0:0:0:
233,161,113102,5,10,1:2:0:0:
237,146,113198,1,0,0:0:0:0:
158,187,113293,1,2,0:2:0:0:
162,203,113389,1,0,0:0:0:0:
85,191,113485,5,0,1:2:0:0:
25,140,113580,1,2,0:0:0:0:
26,61,113676,1,0,0:0:0:0:
93,18,113771,1,2,0:0:0:0:
168,42,113867,6,0,P|208:47|281:30,1,78.7500007510185,10|0,1:2|0:0,0:0:0:0:
375,224,114058,2,0,P|335:219|262:236,1,78.7500007510185,2|0,0:0|0:0,0:0:0:0:
214,274,114249,5,0,1:0:0:0:
141,303,114344,1,2,0:0:0:0:
74,263,114440,1,2,0:0:0:0:
70,183,114535,1,2,0:0:0:0:
140,147,114631,5,10,1:2:0:0:
150,159,114727,1,0,0:0:0:0:
229,165,114822,1,2,0:2:0:0:
240,176,114918,1,8,0:0:0:0:
284,241,115013,5,2,1:2:0:0:
371,279,115109,1,0,0:0:0:0:
458,240,115204,1,0,0:0:0:0:
469,146,115300,1,2,0:0:0:0:
392,90,115395,6,0,L|303:100,1,78.7500007510185,10|0,1:2|0:0,0:0:0:0:
162,263,115586,2,0,L|241:272,1,78.7500007510185,2|0,0:0|0:0,0:0:0:0:
467,286,115778,5,0,1:0:0:0:
410,339,115873,1,2,0:0:0:0:
332,337,115969,1,2,0:0:0:0:
278,279,116064,1,2,0:0:0:0:
274,195,116160,5,10,1:2:0:0:
268,180,116255,1,0,0:0:0:0:
190,182,116351,1,2,0:0:0:0:
185,197,116446,1,0,0:0:0:0:
193,277,116542,5,0,1:0:0:0:
139,335,116637,1,2,0:0:0:0:
61,337,116733,1,0,0:0:0:0:
4,284,116828,1,2,0:0:0:0:
0,206,116924,6,0,L|106:187,1,78.7500007510185,10|0,1:2|0:0,0:0:0:0:
151,82,117115,2,0,L|257:63,1,78.7500007510185,2|0,0:0|0:0,0:0:0:0:
356,159,117306,5,0,1:0:0:0:
371,235,117402,1,2,1:2:0:0:
329,301,117497,1,2,1:2:0:0:
255,323,117593,1,2,1:2:0:0:
180,300,117688,1,2,1:2:0:0:
165,281,117784,1,0,0:0:0:0:
164,189,117879,5,0,1:0:0:0:
246,141,117975,1,2,1:2:0:0:
339,153,118071,1,2,1:2:0:0:
411,213,118166,1,2,1:2:0:0:
422,307,118262,1,2,1:2:0:0:
410,327,118357,1,0,0:0:0:0:
300,364,118453,5,0,1:0:0:0:
240,272,118548,1,2,1:2:0:0:
178,179,118644,1,2,1:2:0:0:
116,88,118739,1,2,1:2:0:0:
51,0,118835,1,4,1:0:0:0:
