osu file format v14

[General]
AudioFilename: new.mp3
AudioLeadIn: 0
PreviewTime: 68962
Countdown: 0
SampleSet: Soft
StackLeniency: 0.7
Mode: 0
LetterboxInBreaks: 0
WidescreenStoryboard: 1

[Editor]
Bookmarks: 13357,27115,68771,82147,95905,98198,104504,112720
DistanceSpacing: 0.9
BeatDivisor: 4
GridSize: 8
TimelineZoom: 0.8

[Metadata]
Title:Daisuke
TitleUnicode:Daisuke
Artist:Y&Co.
ArtistUnicode:Y&Co.
Creator:kwk
Version:Normal
Source:beatmania IIDX 10th style
Tags:moph saturnalize eurobeat Tetsuya Tamura BeatStream Dance Evolution Arcade jubeat plus Qubell
BeatmapID:1480694
BeatmapSetID:697087

[Difficulty]
HPDrainRate:4
CircleSize:3
OverallDifficulty:5
ApproachRate:6
SliderMultiplier:1.2
SliderTickRate:1

[Events]
//Background and Video events
0,0,"57336576_p0.jpg",0,0
Video,1148,"meme.avi"
//Break Periods
//Storyboard Layer 0 (Background)
//Storyboard Layer 1 (Fail)
//Storyboard Layer 2 (Pass)
//Storyboard Layer 3 (Foreground)
//Storyboard Sound Samples

[TimingPoints]
2657,382.165605095541,4,2,0,50,1,0
9392,-100,4,2,0,30,0,0
9488,-100,4,2,0,50,0,0
9583,-100,4,2,0,30,0,0
9679,-100,4,2,0,50,0,0
10921,-100,4,2,0,30,0,0
11016,-100,4,2,0,50,0,0
11112,-100,4,2,0,30,0,0
11207,-100,4,2,0,50,0,0
12163,-100,4,2,0,30,0,0
12258,-100,4,2,0,50,0,0
12449,-100,4,2,0,30,0,0
12545,-100,4,2,0,50,0,0
12641,-100,4,2,0,30,0,0
12736,-100,4,2,0,50,0,0
13357,-100,4,2,0,50,0,0
14886,-100,4,2,1,50,0,1
27115,-100,4,2,1,50,0,0
69918,-100,4,2,1,50,0,1
82147,-100,4,2,1,50,0,0
106606,-100,4,2,1,50,0,1
118835,-100,4,2,1,50,0,0

[Colours]
Combo1 : 34,34,255
Combo2 : 64,128,128
Combo3 : 164,164,255
Combo4 : 115,185,185

[HitObjects]
11,105,2657,5,4,0:2:0:0:
87,180,3039,2,0,P|148:194|210:180,1,120,2|0,0:0|0:0,0:0:0:0:
281,108,3803,1,0,0:0:0:0:
388,98,4185,2,0,P|441:141|453:213,1,120,0|0,0:2|0:0,0:0:0:0:
422,291,4949,2,0,L|274:328,1,120,0|0,0:0|0:0,0:0:0:0:
202,351,5714,5,0,1:0:0:0:
103,305,6096,1,0,0:0:0:0:
92,252,6287,2,0,L|100:112,1,120,0|0,1:2|1:2,0:0:0:0:
196,177,7051,1,2,0:3:0:0:
239,209,7242,2,0,L|385:179,1,120,0|0,1:0|0:0,0:0:0:0:
406,206,7816,2,0,P|442:101|328:74,1,240,0|0,1:0|1:2,0:0:0:0:
299,98,8771,6,0,P|190:105|166:62,1,120,4|10,1:2|1:2,0:0:0:0:
146,76,9344,1,0,0:0:0:0:
93,92,9535,2,0,P|75:148|95:203,1,120,0|0,1:0|1:0,0:0:0:0:
46,299,10300,2,0,L|178:270,1,120,0|8,1:0|1:2,0:0:0:0:
211,297,10873,1,0,0:0:0:0:
260,318,11064,2,0,P|278:256|242:190,1,120,0|0,1:0|1:0,0:0:0:0:
188,123,11828,6,0,L|215:70,2,60,8|0|8,1:3|0:3|1:2,0:0:0:0:
121,201,12593,2,0,P|51:214|-3:173,1,120,0|0,1:0|1:0,0:0:0:0:
0,138,13166,1,8,0:2:0:0:
20,88,13357,1,4,1:3:0:0:
335,8,14886,6,0,P|334:104|301:139,1,120,4|10,1:0|1:2,0:0:0:0:
271,134,15459,1,2,0:2:0:0:
218,145,15650,2,0,L|157:153,2,60,0|0|10,1:0|0:0|1:2,0:0:0:0:
170,241,16414,2,0,L|20:260,1,120,0|10,1:0|1:2,0:0:0:0:
12,357,17179,1,2,1:2:0:0:
119,350,17561,1,10,1:2:0:0:
226,339,17943,6,0,P|264:290|258:190,1,120,0|10,1:0|1:2,0:0:0:0:
247,185,18516,1,2,0:2:0:0:
214,142,18707,2,0,L|150:99,2,60,0|0|10,1:0|0:0|1:2,0:0:0:0:
321,154,19472,1,0,1:0:0:0:
374,144,19663,1,2,0:2:0:0:
426,133,19854,1,10,1:2:0:0:
348,57,20236,2,0,L|294:22,1,60,2|2,1:2|0:2,0:0:0:0:
249,0,20618,1,8,1:2:0:0:
149,42,21000,6,0,P|125:102|159:176,1,120,4|10,1:0|1:2,0:0:0:0:
190,171,21574,1,2,0:2:0:0:
245,173,21765,2,0,L|302:143,2,60,0|0|10,1:0|0:0|1:2,0:0:0:0:
319,251,22529,2,0,P|329:312|291:383,1,120,0|10,1:0|1:2,0:0:0:0:
200,378,23293,1,2,1:2:0:0:
110,317,23676,1,10,1:2:0:0:
14,367,24058,6,0,L|39:223,1,120,0|10,1:0|1:2,0:0:0:0:
44,195,24631,1,2,0:2:0:0:
48,141,24822,2,0,L|10:89,2,60,0|0|10,1:0|0:0|1:2,0:0:0:0:
140,200,25586,2,0,P|201:188|261:200,1,120,0|2,1:0|1:2,0:0:0:0:
291,240,26160,2,0,P|353:255|425:208,1,120,0|2,1:0|1:2,0:0:0:0:
446,201,26733,2,0,L|464:127,1,60,0|2,1:2|1:2,0:0:0:0:
433,96,27115,6,0,P|375:69|295:101,1,120,4|10,1:0|1:2,0:0:0:0:
238,148,27879,2,0,P|160:159|109:115,1,120,2|8,1:2|1:2,0:0:0:0:
74,128,28453,1,2,0:2:0:0:
27,156,28644,2,0,P|5:221|20:290,1,120,0|8,1:0|1:2,0:0:0:0:
97,336,29408,2,0,L|222:306,1,120,0|8,1:2|1:2,0:0:0:0:
310,356,30172,5,0,1:0:0:0:
417,345,30555,1,10,1:3:0:0:
467,249,30937,1,0,0:0:0:0:
442,143,31319,1,10,1:3:0:0:
356,76,31701,2,0,L|206:50,1,120,2|10,1:3|1:3,0:0:0:0:
131,34,32465,1,2,1:3:0:0:
131,34,32656,1,10,1:3:0:0:
102,138,33039,1,10,1:3:0:0:
85,189,33230,6,0,L|236:161,1,120,4|10,1:0|1:2,0:0:0:0:
213,274,33994,2,0,L|364:246,1,120,2|8,1:2|1:2,0:0:0:0:
382,236,34567,1,2,0:0:0:0:
433,221,34758,2,0,P|442:169|385:91,1,120,2|10,1:2|1:2,0:0:0:0:
309,80,35523,2,0,L|191:101,1,120,0|8,1:0|1:2,0:0:0:0:
87,137,36287,5,0,1:0:0:0:
52,238,36669,1,10,1:3:0:0:
104,332,37051,1,0,0:0:0:0:
211,316,37434,1,10,1:3:0:0:
310,357,37816,2,0,L|380:235,1,120,10|10,1:3|1:3,0:0:0:0:
429,163,38580,1,10,1:3:0:0:
429,163,38771,1,10,1:3:0:0:
384,64,39153,1,4,1:2:0:0:
331,77,39344,6,0,P|294:149|325:226,1,120,4|8,1:0|1:2,0:0:0:0:
391,243,40109,2,0,P|392:302|359:351,1,120,2|10,1:2|1:2,0:0:0:0:
305,352,40682,1,2,0:0:0:0:
252,338,40873,2,0,L|144:284,1,120,0|8,1:0|1:2,0:0:0:0:
37,295,41637,2,0,P|41:188|71:150,1,120,2|12,1:2|1:2,0:0:0:0:
85,143,42211,1,2,0:0:0:0:
135,124,42402,6,0,L|265:116,1,120,0|8,1:0|1:2,0:0:0:0:
355,77,43166,1,2,1:2:0:0:
418,164,43548,1,8,1:2:0:0:
385,207,43739,2,0,P|368:268|451:361,1,180,2|10,0:0|1:2,0:0:0:0:
479,258,44695,1,6,1:2:0:0:
475,150,45077,1,6,1:2:0:0:
376,105,45459,6,0,L|242:108,1,120,4|8,1:0|1:2,0:0:0:0:
212,138,46032,1,2,0:0:0:0:
212,138,46223,2,0,L|78:141,1,120,2|12,1:2|1:2,0:0:0:0:
26,226,46988,2,0,L|160:229,1,120,0|8,1:0|1:2,0:0:0:0:
190,259,47561,1,2,0:0:0:0:
190,259,47752,2,0,L|324:262,1,120,2|12,1:2|1:2,0:0:0:0:
256,192,48516,12,4,51574,1:2:0:0:
0,51,53102,5,4,1:0:0:0:
100,90,53485,1,12,1:2:0:0:
200,51,53867,2,0,P|309:48|380:153,1,240,2|0,1:2|1:2,0:0:0:0:
318,235,55013,1,8,1:2:0:0:
210,249,55395,2,0,L|77:186,1,120,0|10,1:0|1:2,0:0:0:0:
48,186,55969,1,2,0:2:0:0:
8,222,56160,6,0,P|-11:289|21:374,1,120,2|12,1:2|1:2,0:0:0:0:
100,373,56924,2,0,L|234:344,1,120,2|10,1:2|1:2,0:0:0:0:
240,299,57497,2,0,L|306:286,1,60,2|0,0:0|1:0,0:0:0:0:
339,321,57879,2,0,L|405:308,1,60,2|8,0:0|1:2,0:0:0:0:
438,345,58262,2,0,P|413:257|449:163,1,180,2|8,0:0|1:2,0:0:0:0:
457,68,59217,5,2,1:2:0:0:
356,106,59599,1,14,1:2:0:0:
263,34,59981,2,0,L|134:92,1,120,2|8,1:2|1:2,0:0:0:0:
104,110,60555,2,0,P|49:60|72:-23,2,120,2|2|2,0:0|0:2|0:0,0:0:0:0:
199,160,61701,2,0,P|254:210|231:293,1,120,2|2,0:0|0:0,0:0:0:0:
246,304,62274,6,0,L|126:363,1,120,0|10,1:0|1:3,0:0:0:0:
84,351,62848,1,2,0:3:0:0:
31,336,63039,2,0,L|42:201,1,120,0|10,1:0|1:2,0:0:0:0:
50,108,63803,1,0,1:0:0:0:
137,44,64185,1,10,1:3:0:0:
244,44,64567,1,0,1:0:0:0:
318,122,64949,1,10,1:2:0:0:
298,228,65332,6,0,L|154:253,1,120,0|8,1:0|1:2,0:0:0:0:
136,346,66096,2,0,L|259:325,1,120,0|8,1:0|1:2,0:0:0:0:
256,192,66860,12,4,68389,1:3:0:0:
11,210,69918,6,0,L|136:180,1,120,4|10,1:0|1:2,0:0:0:0:
163,142,70491,1,2,0:2:0:0:
193,97,70682,2,0,L|181:10,2,60,0|0|10,1:0|0:0|1:2,0:0:0:0:
267,177,71446,2,0,P|327:181|394:113,1,120,0|10,1:0|1:2,0:0:0:0:
459,81,72211,1,2,1:2:0:0:
498,181,72593,1,10,1:2:0:0:
456,280,72975,6,0,L|316:307,1,120,0|10,1:0|1:2,0:0:0:0:
288,324,73548,1,2,0:2:0:0:
235,336,73739,2,0,L|162:308,2,60,0|0|10,1:0|0:0|1:2,0:0:0:0:
283,239,74504,1,0,1:0:0:0:
287,185,74695,1,2,0:2:0:0:
289,131,74886,1,10,1:2:0:0:
376,63,75268,2,0,L|384:143,1,60,2|2,1:2|0:2,0:0:0:0:
389,176,75650,1,8,1:2:0:0:
341,271,76032,6,0,P|281:295|207:261,1,120,4|10,1:0|1:2,0:0:0:0:
196,237,76606,1,2,0:2:0:0:
172,189,76797,2,0,L|202:132,2,60,0|0|10,1:0|0:0|1:2,0:0:0:0:
65,181,77561,2,0,L|139:42,1,120,0|10,1:0|1:2,0:0:0:0:
221,34,78325,1,2,1:2:0:0:
322,71,78707,1,10,1:2:0:0:
427,47,79090,6,0,L|381:181,1,120,0|10,1:0|1:2,0:0:0:0:
335,170,79663,1,2,0:2:0:0:
282,180,79854,2,0,L|195:194,2,60,0|0|10,1:0|0:0|1:2,0:0:0:0:
361,252,80618,2,0,P|379:308|359:369,1,120,0|2,1:0|1:2,0:0:0:0:
308,368,81192,2,0,L|169:351,1,120,0|2,1:0|1:2,0:0:0:0:
136,367,81765,2,0,L|110:300,1,60,0|6,1:2|1:2,0:0:0:0:
60,305,82147,6,0,P|92:145|128:125,1,180,2|0,0:0|0:0,0:0:0:0:
201,136,83102,1,0,1:0:0:0:
196,248,83485,1,0,0:0:0:0:
196,248,83676,2,0,P|283:281|398:211,1,180,0|2,1:0|1:3,0:0:0:0:
423,165,84631,1,2,1:3:0:0:
360,76,85013,1,2,1:3:0:0:
360,76,85204,6,0,L|161:69,1,180,2|0,1:3|1:0,0:0:0:0:
100,143,86160,1,0,1:0:0:0:
203,174,86542,1,0,0:0:0:0:
203,174,86733,2,0,P|286:215|274:354,1,240,0|4,1:0|1:2,0:0:0:0:
177,319,87879,1,4,1:2:0:0:
80,370,88262,6,0,L|74:235,1,120,4|8,1:0|1:2,0:0:0:0:
69,142,89026,1,2,1:2:0:0:
167,185,89408,1,12,1:2:0:0:
271,156,89790,2,0,P|380:114|382:113,1,120,0|8,1:0|1:2,0:0:0:0:
469,177,90555,1,2,1:2:0:0:
454,283,90937,1,12,1:2:0:0:
349,309,91319,5,0,1:0:0:0:
254,256,91701,1,8,1:2:0:0:
146,261,92083,1,0,1:0:0:0:
57,322,92465,1,8,1:2:0:0:
256,192,92848,12,4,94376,1:2:0:0:
48,172,95905,5,0,1:0:0:0:
55,280,96287,1,12,1:2:0:0:
154,321,96669,2,0,P|263:324|334:219,1,240,2|0,1:2|1:0,0:0:0:0:
325,111,97816,1,8,1:2:0:0:
219,133,98198,1,0,1:3:0:0:
167,149,98389,2,0,L|139:278,1,120,2|2,0:0|0:0,0:0:0:0:
182,303,98962,6,0,L|313:281,1,120,0|10,1:0|1:3,0:0:0:0:
353,293,99535,1,2,0:3:0:0:
406,302,99727,2,0,P|421:233|378:176,1,120,0|10,1:0|1:2,0:0:0:0:
300,146,100491,1,0,1:0:0:0:
198,182,100873,1,10,1:3:0:0:
122,259,101255,1,0,1:3:0:0:
18,229,101637,1,10,1:2:0:0:
0,122,102020,6,0,L|20:3,1,120,0|8,1:0|1:2,0:0:0:0:
152,0,102784,2,0,L|187:120,1,120,0|8,1:0|1:2,0:0:0:0:
256,192,103548,12,4,105077,1:3:0:0:
481,91,106606,6,0,L|356:121,1,120,4|10,1:0|1:2,0:0:0:0:
311,128,107179,1,2,0:0:0:0:
261,106,107370,2,0,L|226:50,2,60,0|0|10,1:0|0:0|1:2,0:0:0:0:
266,213,108134,2,0,L|242:343,1,120,0|10,1:0|1:2,0:0:0:0:
146,377,108899,1,2,1:2:0:0:
40,355,109281,1,10,1:2:0:0:
3,253,109663,6,0,P|8:195|58:143,1,120,0|10,1:0|1:2,0:0:0:0:
90,117,110236,1,2,0:2:0:0:
135,87,110427,2,0,L|155:-10,2,60,0|0|10,1:0|0:0|1:2,0:0:0:0:
118,193,111192,1,0,1:0:0:0:
171,186,111383,1,2,0:0:0:0:
224,178,111574,1,8,1:2:0:0:
290,93,111956,2,0,L|230:79,1,60,2|0,1:2|0:0,0:0:0:0:
178,68,112338,1,8,1:2:0:0:
99,142,112720,6,0,P|75:202|109:276,1,120,4|10,1:0|1:2,0:0:0:0:
132,285,113293,1,2,0:2:0:0:
181,263,113485,2,0,L|211:206,2,60,0|0|10,1:2|0:0|1:2,0:0:0:0:
263,331,114249,2,0,L|332:181,1,120,0|10,1:0|1:2,0:0:0:0:
259,128,115013,1,2,1:2:0:0:
161,174,115395,1,10,1:2:0:0:
56,145,115778,6,0,P|35:80|72:19,1,120,0|10,1:0|1:2,0:0:0:0:
106,23,116351,1,2,0:0:0:0:
159,32,116542,2,0,L|240:-3,2,60,0|0|10,1:0|0:0|1:2,0:0:0:0:
152,139,117306,2,0,L|284:90,1,120,0|2,1:0|1:2,0:0:0:0:
318,91,117879,2,0,L|460:133,1,120,0|2,1:0|1:2,0:0:0:0:
463,169,118453,2,0,L|480:248,1,60,0|2,1:0|1:2,0:0:0:0:
461,279,118835,1,4,1:0:0:0:
