osu file format v14

[General]
AudioFilename: new.mp3
AudioLeadIn: 0
PreviewTime: 68962
Countdown: 0
SampleSet: Soft
StackLeniency: 0.7
Mode: 0
LetterboxInBreaks: 0
WidescreenStoryboard: 1

[Editor]
Bookmarks: 13357,27115,53102,68771,82147,95905,98389,104504,112720
DistanceSpacing: 1.2
BeatDivisor: 4
GridSize: 8
TimelineZoom: 2

[Metadata]
Title:Daisuke
TitleUnicode:Daisuke
Artist:Y&Co.
ArtistUnicode:Y&Co.
Creator:kwk
Version:Hyper
Source:beatmania IIDX 10th style
Tags:moph saturnalize eurobeat Tetsuya Tamura BeatStream Dance Evolution Arcade jubeat plus Qubell
BeatmapID:1481150
BeatmapSetID:697087

[Difficulty]
HPDrainRate:5
CircleSize:4
OverallDifficulty:6
ApproachRate:8
SliderMultiplier:1.4
SliderTickRate:1

[Events]
//Background and Video events
0,0,"57336576_p0.jpg",0,0
Video,1148,"meme.avi"
//Break Periods
//Storyboard Layer 0 (Background)
//Storyboard Layer 1 (Fail)
//Storyboard Layer 2 (Pass)
//Storyboard Layer 3 (Foreground)
//Storyboard Sound Samples

[TimingPoints]
2657,382.165605095541,4,2,0,50,1,0
9392,-100,4,2,0,30,0,0
9488,-100,4,2,0,50,0,0
9583,-100,4,2,0,30,0,0
9679,-100,4,2,0,50,0,0
10921,-100,4,2,0,30,0,0
11016,-100,4,2,0,50,0,0
11112,-100,4,2,0,30,0,0
11207,-100,4,2,0,50,0,0
12163,-100,4,2,0,30,0,0
12258,-100,4,2,0,50,0,0
12449,-100,4,2,0,30,0,0
12545,-100,4,2,0,50,0,0
12641,-100,4,2,0,30,0,0
12736,-100,4,2,0,50,0,0
13357,-100,4,2,0,50,0,0
14886,-100,4,2,1,50,0,1
27115,-100,4,2,1,50,0,0
69918,-100,4,2,1,50,0,1
82147,-100,4,2,1,50,0,0
106606,-100,4,2,1,50,0,1
118835,-100,4,2,1,50,0,0

[Colours]
Combo1 : 34,34,255
Combo2 : 64,128,128
Combo3 : 164,164,255
Combo4 : 115,185,185

[HitObjects]
246,100,2657,6,0,L|336:78,2,70,4|0|2,0:2|0:0|0:0,0:0:0:0:
166,125,3230,1,0,0:0:0:0:
85,101,3421,2,0,L|9:60,2,70,0|0|0,0:0|0:0|0:0,0:0:0:0:
100,183,3994,1,0,0:0:0:0:
108,266,4185,2,0,L|32:307,2,70,0|0|0,0:2|0:0|0:0,0:0:0:0:
183,228,4758,1,0,0:0:0:0:
260,259,4949,2,0,L|336:300,2,70,0|0|0,0:0|0:0|0:0,0:0:0:0:
256,174,5523,1,0,0:0:0:0:
252,90,5714,6,0,P|328:64|395:87,1,140,0|0,1:0|0:0,0:0:0:0:
468,105,6287,2,0,L|459:35,1,70,0|0,1:2|0:0,0:0:0:0:
398,160,6669,2,0,L|383:253,1,70,0|0,1:2|0:0,0:0:0:0:
374,312,7051,1,2,0:3:0:0:
312,369,7242,6,0,P|272:376|225:350,1,70,0|0,1:0|0:0,0:0:0:0:
173,321,7625,1,0,0:0:0:0:
159,238,7816,2,0,L|174:191,2,35,0|0|0,1:0|1:0|1:0,0:0:0:0:
95,293,8198,1,0,1:0:0:0:
41,218,8389,1,0,1:2:0:0:
39,200,8485,1,0,1:2:0:0:
35,182,8580,1,0,1:2:0:0:
71,106,8771,5,4,1:2:0:0:
144,146,8962,1,0,0:0:0:0:
213,98,9153,2,0,P|250:88|305:111,1,70,10|0,1:2|0:0,0:0:0:0:
347,145,9535,1,0,1:0:0:0:
342,161,9631,1,8,0:0:0:0:
338,178,9727,1,0,0:0:0:0:
379,249,9918,6,0,P|423:255|468:231,1,70,0|8,1:0|0:2,0:0:0:0:
489,174,10300,1,0,1:0:0:0:
470,92,10491,1,0,0:0:0:0:
387,105,10682,2,0,L|288:80,1,70,8|0,1:2|0:0,0:0:0:0:
275,16,11064,1,0,1:0:0:0:
258,22,11160,1,8,0:0:0:0:
241,28,11255,1,0,0:0:0:0:
163,60,11446,2,0,P|155:93|175:140,1,70,0|8,1:0|0:2,0:0:0:0:
205,200,11828,6,0,L|186:243,3,35,8|8|0|8,1:3|0:3|0:3|0:3,0:0:0:0:
220,262,12211,2,0,L|225:308,3,35,8|0|8|8,1:2|0:0|0:3|0:2,0:0:0:0:
264,309,12593,2,0,L|291:346,3,35,0|8|4|0,1:0|0:2|0:3|0:0,0:0:0:0:
325,327,12975,2,0,L|367:345,3,35,0|0|8|0,1:0|0:0|0:2|0:0,0:0:0:0:
395,323,13357,1,4,1:3:0:0:
256,192,13453,12,0,14504,0:0:0:0:
38,173,14886,6,0,P|49:212|45:271,1,70,4|2,1:0|0:0,0:0:0:0:
21,271,15172,1,2,0:0:0:0:
21,271,15268,1,10,1:2:0:0:
82,330,15459,1,2,0:2:0:0:
154,289,15650,1,0,1:0:0:0:
154,289,15746,1,2,0:0:0:0:
189,378,15937,1,2,0:0:0:0:
189,378,16032,1,10,1:2:0:0:
257,329,16223,1,2,0:0:0:0:
330,368,16414,6,0,P|371:376|415:360,1,70,0|2,1:0|0:2,0:0:0:0:
432,345,16701,1,2,0:2:0:0:
432,345,16797,1,10,1:2:0:0:
463,267,16988,1,2,0:2:0:0:
456,183,17179,2,0,L|504:161,2,35,2|0|0,1:2|0:0|0:0,0:0:0:0:
414,187,17465,1,2,0:0:0:0:
414,187,17561,2,0,P|401:141|422:94,1,70,10|2,1:2|0:0,0:0:0:0:
341,42,17943,6,0,P|298:17|250:18,1,70,0|2,1:0|0:0,0:0:0:0:
242,37,18230,1,2,0:0:0:0:
242,37,18325,1,10,1:2:0:0:
182,95,18516,1,2,0:2:0:0:
247,147,18707,1,0,1:0:0:0:
247,147,18803,1,2,0:2:0:0:
147,174,18994,1,2,0:2:0:0:
147,174,19090,1,10,1:2:0:0:
210,229,19281,1,2,0:0:0:0:
185,309,19472,6,0,L|91:313,1,70,0|2,1:0|0:2,0:0:0:0:
79,334,19758,1,2,0:2:0:0:
79,334,19854,2,0,L|61:250,1,70,10|0,1:2|1:0,0:0:0:0:
31,239,20141,1,10,1:2:0:0:
31,239,20236,2,0,L|31:179,2,35,2|10|2,1:2|0:2|0:2,0:0:0:0:
113,203,20618,2,0,L|213:193,1,70,8|10,1:2|1:2,0:0:0:0:
215,169,20905,1,10,1:2:0:0:
215,169,21000,6,0,L|291:174,1,70,4|2,1:0|0:0,0:0:0:0:
320,196,21287,1,2,0:0:0:0:
320,196,21383,1,10,1:2:0:0:
351,273,21574,1,2,0:2:0:0:
305,343,21765,1,0,1:0:0:0:
305,343,21860,1,2,0:2:0:0:
227,279,22051,1,2,0:2:0:0:
227,279,22147,1,10,1:2:0:0:
179,348,22338,1,2,0:0:0:0:
105,307,22529,6,0,L|109:227,1,70,0|2,1:0|0:0,0:0:0:0:
89,199,22816,1,2,0:0:0:0:
89,199,22911,1,10,1:2:0:0:
125,123,23102,1,2,0:2:0:0:
87,47,23293,2,0,L|44:50,2,35,2|0|0,1:2|0:0|0:0,0:0:0:0:
126,31,23580,1,2,0:0:0:0:
126,31,23676,2,0,P|168:39|205:76,1,70,10|2,1:2|0:0,0:0:0:0:
272,145,24058,6,0,L|361:116,1,70,0|2,1:0|0:0,0:0:0:0:
366,91,24344,1,0,0:0:0:0:
366,91,24440,1,10,1:2:0:0:
447,112,24631,1,2,0:2:0:0:
472,191,24822,1,0,1:0:0:0:
472,191,24918,1,2,0:0:0:0:
404,273,25109,1,2,0:0:0:0:
404,273,25204,1,10,1:2:0:0:
367,197,25395,1,2,0:0:0:0:
295,276,25586,6,0,L|303:341,4,35,0|2|2|2|2,1:0|1:2|1:2|1:2|1:2,0:0:0:0:
204,331,26160,2,0,L|196:386,4,35,0|2|2|2|2,1:0|1:2|1:2|1:2|1:2,0:0:0:0:
111,288,26733,2,0,L|107:245,2,35,0|2|2,1:2|1:2|1:2,0:0:0:0:
28,360,27115,6,0,L|21:261,1,70,4|0,1:0|0:0,0:0:0:0:
34,207,27497,1,10,1:2:0:0:
9,126,27688,1,0,0:0:0:0:
29,44,27879,1,2,1:2:0:0:
111,63,28071,2,0,P|160:67|202:43,1,70,2|8,0:2|1:2,0:0:0:0:
252,19,28453,1,2,0:2:0:0:
336,24,28644,6,0,P|365:69|365:115,1,70,0|2,1:0|0:0,0:0:0:0:
329,159,29026,2,0,L|244:133,1,70,8|2,1:2|0:0,0:0:0:0:
178,149,29408,2,0,P|149:194|149:240,1,70,0|2,1:2|0:2,0:0:0:0:
174,288,29790,1,8,1:2:0:0:
256,303,29981,1,2,0:0:0:0:
324,254,30172,6,0,B|361:241|361:241|415:252,1,70,0|2,1:0|0:3,0:0:0:0:
508,302,30555,2,0,B|478:276|478:276|460:224,1,70,10|0,1:3|0:0,0:0:0:0:
476,206,30841,2,0,L|452:128,1,70,2|2,0:3|0:3,0:0:0:0:
404,72,31223,1,0,0:0:0:0:
404,72,31319,2,0,B|386:62|386:62|322:91,1,70,10|2,1:3|0:3,0:0:0:0:
269,125,31701,5,2,1:3:0:0:
137,18,32083,1,10,1:3:0:0:
84,179,32465,1,2,1:3:0:0:
152,131,32656,1,10,1:3:0:0:
189,295,33039,1,10,1:3:0:0:
261,252,33230,6,0,P|273:284|269:318,1,70,4|0,1:0|0:0,0:0:0:0:
210,375,33612,1,10,1:2:0:0:
127,359,33803,1,0,0:0:0:0:
103,278,33994,1,2,1:2:0:0:
151,209,34185,2,0,P|148:166|142:121,1,70,2|8,0:2|1:2,0:0:0:0:
230,15,34567,6,0,P|226:49|223:84,1,70,2|2,0:0|1:2,0:0:0:0:
272,154,34949,1,2,2:0:0:0:
355,160,35141,1,10,1:2:0:0:
422,110,35332,1,2,0:0:0:0:
430,26,35523,1,0,1:0:0:0:
500,72,35714,2,0,P|522:101|497:211,1,140,2|2,0:0|0:0,0:0:0:0:
430,225,36287,6,0,L|337:216,1,70,0|2,1:0|0:3,0:0:0:0:
296,309,36669,2,0,L|226:302,1,70,10|0,1:3|0:0,0:0:0:0:
189,323,36956,2,0,B|195:285|195:285|182:240,1,70,2|2,0:3|0:3,0:0:0:0:
106,228,37338,1,0,0:0:0:0:
106,228,37434,2,0,B|100:190|100:190|113:145,1,70,10|2,1:3|0:3,0:0:0:0:
145,83,37816,5,10,1:3:0:0:
312,72,38198,1,10,1:3:0:0:
162,0,38580,1,10,1:3:0:0:
226,53,38771,1,10,1:3:0:0:
225,220,39153,1,4,1:2:0:0:
152,263,39344,6,0,L|60:249,1,70,4|2,1:0|0:0,0:0:0:0:
20,195,39727,1,8,1:2:0:0:
25,111,39918,1,2,0:0:0:0:
97,153,40109,1,2,1:2:0:0:
167,108,40300,1,0,0:0:0:0:
154,24,40491,1,10,1:2:0:0:
70,16,40682,6,0,L|38:80,1,70,2|0,0:0|1:0,0:0:0:0:
42,162,41064,1,2,0:0:0:0:
51,245,41255,1,8,1:2:0:0:
60,328,41446,1,2,0:2:0:0:
129,280,41637,2,0,P|162:272|203:284,1,70,2|0,1:2|0:0,0:0:0:0:
258,337,42020,2,0,P|297:349|346:335,1,70,12|2,1:2|0:0,0:0:0:0:
373,276,42402,6,0,L|359:184,1,70,0|2,1:0|0:0,0:0:0:0:
305,144,42784,1,8,1:2:0:0:
318,61,42975,1,2,0:0:0:0:
385,111,43166,1,2,1:2:0:0:
305,144,43357,1,2,0:0:0:0:
241,88,43548,1,8,1:2:0:0:
179,144,43739,6,0,P|169:182|186:231,1,70,2|0,0:0|1:0,0:0:0:0:
253,236,44121,1,2,0:0:0:0:
253,320,44313,1,10,1:2:0:0:
173,346,44504,1,2,0:0:0:0:
124,278,44695,1,6,1:2:0:0:
186,121,45077,1,6,1:2:0:0:
349,84,45459,6,0,P|432:121|441:173,1,140,4|8,1:0|1:2,0:0:0:0:
376,215,46032,2,0,P|366:253|396:307,2,70,2|2|0,0:0|1:2|0:0,0:0:0:0:
449,255,46606,2,0,P|459:293|429:347,1,70,12|2,1:2|0:0,0:0:0:0:
340,359,46988,2,0,P|277:350|249:359,1,70,0|2,1:0|0:0,0:0:0:0:
190,371,47370,1,8,1:2:0:0:
107,354,47561,1,2,0:0:0:0:
85,272,47752,2,0,L|85:177,1,70,2|0,1:2|0:0,0:0:0:0:
87,118,48134,1,12,1:2:0:0:
156,70,48325,6,0,L|242:63,1,70,0|0,0:0|1:0,0:0:0:0:
304,93,48707,2,0,P|312:51|298:12,1,70,2|8,0:0|1:2,0:0:0:0:
265,178,49090,2,0,L|347:170,1,70,0|0,0:0|1:0,0:0:0:0:
412,140,49472,2,0,P|418:174|410:207,1,70,2|8,0:0|1:2,0:0:0:0:
339,253,49854,1,0,0:0:0:0:
256,192,50045,12,4,51574,1:2:0:0:
81,296,53102,5,4,1:0:0:0:
121,132,53485,1,12,1:2:0:0:
248,241,53867,2,0,L|330:195,2,70,2|2|8,1:2|0:2|1:2,0:0:0:0:
208,315,54440,6,0,P|246:326|305:306,1,70,2|0,0:0|1:2,0:0:0:0:
349,281,54822,2,0,L|362:111,1,140,2|0,0:0|0:0,0:0:0:0:
322,64,55395,1,0,1:0:0:0:
239,63,55586,1,2,0:2:0:0:
196,135,55778,1,10,1:2:0:0:
112,137,55969,1,2,0:2:0:0:
62,69,56160,5,2,1:2:0:0:
214,0,56542,2,0,P|233:28|239:63,1,70,12|0,1:2|0:0,0:0:0:0:
196,135,56924,2,0,P|191:171|217:231,2,70,2|2|10,1:2|0:0|1:2,0:0:0:0:
273,167,57497,6,0,L|361:149,1,70,2|0,0:0|1:0,0:0:0:0:
420,223,57879,2,0,L|351:237,1,70,2|8,0:0|1:2,0:0:0:0:
302,330,58262,2,0,L|370:315,1,70,2|0,0:0|1:0,0:0:0:0:
458,372,58644,2,0,L|466:217,1,140,2|0,0:0|1:0,0:0:0:0:
467,148,59217,5,2,1:2:0:0:
359,233,59599,1,14,1:2:0:0:
297,106,59981,2,0,L|304:37,2,70,2|2|8,1:2|0:2|1:2,0:0:0:0:
248,175,60555,6,0,P|215:186|180:180,1,70,2|0,0:0|1:0,0:0:0:0:
100,206,60937,2,0,P|77:243|78:287,1,70,2|8,0:2|1:2,0:0:0:0:
115,341,61319,2,0,L|195:322,1,70,2|0,0:0|1:0,0:0:0:0:
249,375,61701,1,2,0:0:0:0:
265,292,61892,1,10,1:2:0:0:
330,345,62083,2,0,L|354:274,1,70,2|0,0:0|1:0,0:0:0:0:
413,221,62465,5,2,0:3:0:0:
431,302,62656,1,10,1:3:0:0:
352,278,62848,2,0,L|278:250,1,70,2|0,0:3|1:0,0:0:0:0:
205,232,63230,1,2,0:0:0:0:
139,284,63421,1,10,1:2:0:0:
63,248,63612,2,0,L|51:161,1,70,2|0,0:0|1:0,0:0:0:0:
40,95,63994,5,2,0:3:0:0:
106,43,64185,1,10,1:3:0:0:
182,79,64376,2,0,L|194:166,1,70,2|0,0:3|1:0,0:0:0:0:
242,215,64758,2,0,P|278:223|331:201,1,70,2|10,0:0|1:2,0:0:0:0:
380,169,65141,6,0,P|412:164|459:183,1,70,2|0,0:0|1:0,0:0:0:0:
496,243,65523,2,0,L|509:324,1,70,2|8,0:0|1:2,0:0:0:0:
448,372,65905,2,0,L|359:339,1,70,2|0,0:0|1:0,0:0:0:0:
302,322,66287,2,0,P|267:317|234:326,1,70,2|8,0:0|1:2,0:0:0:0:
157,358,66669,6,0,L|91:382,1,70,2|0,0:0|1:0,0:0:0:0:
256,192,67051,12,4,68389,1:3:0:0:
271,36,69918,6,0,P|260:75|264:134,1,70,4|2,1:0|0:0,0:0:0:0:
288,134,70204,1,2,0:0:0:0:
288,134,70300,1,10,1:2:0:0:
265,214,70491,1,2,0:2:0:0:
347,200,70682,1,0,1:0:0:0:
347,200,70778,1,2,0:0:0:0:
321,294,70969,1,2,0:0:0:0:
321,294,71064,1,10,1:2:0:0:
395,332,71255,1,2,0:0:0:0:
469,293,71446,6,0,P|477:252|461:208,1,70,0|2,1:0|0:0,0:0:0:0:
445,191,71733,1,2,0:0:0:0:
445,191,71828,1,10,1:2:0:0:
366,220,72020,1,2,0:2:0:0:
303,164,72211,2,0,L|308:126,2,35,2|0|0,1:2|0:0|0:0,0:0:0:0:
269,188,72497,1,2,0:2:0:0:
269,188,72593,2,0,L|261:266,1,70,10|2,1:2|0:2,0:0:0:0:
178,361,72975,6,0,P|168:320|135:281,1,70,0|2,1:0|0:0,0:0:0:0:
111,299,73262,1,2,0:0:0:0:
111,299,73357,1,10,1:2:0:0:
37,340,73548,1,2,0:2:0:0:
8,260,73739,1,0,1:0:0:0:
8,260,73835,1,2,0:0:0:0:
62,176,74026,1,2,0:0:0:0:
62,176,74121,1,10,1:2:0:0:
40,94,74313,1,2,0:0:0:0:
121,115,74504,6,0,L|219:124,1,70,0|2,1:0|0:2,0:0:0:0:
213,86,74790,1,2,0:2:0:0:
213,86,74886,2,0,L|304:71,1,70,10|0,1:2|1:0,0:0:0:0:
318,95,75172,1,10,1:2:0:0:
318,95,75268,2,0,L|374:101,2,35,2|10|2,1:2|0:2|0:2,0:0:0:0:
261,156,75650,2,0,L|251:256,1,70,8|10,1:2|1:2,0:0:0:0:
227,258,75937,1,10,1:2:0:0:
227,258,76032,6,0,L|247:352,1,70,4|2,1:0|0:0,0:0:0:0:
277,348,76319,1,2,0:0:0:0:
277,348,76414,1,10,1:2:0:0:
339,291,76606,1,2,0:2:0:0:
398,349,76797,1,0,1:0:0:0:
398,349,76892,1,2,0:0:0:0:
434,250,77083,1,2,0:0:0:0:
434,250,77179,1,10,1:2:0:0:
384,182,77370,1,2,0:0:0:0:
427,109,77561,6,0,L|404:21,1,70,0|2,1:0|0:0,0:0:0:0:
369,28,77848,1,2,0:0:0:0:
369,28,77943,1,10,1:2:0:0:
312,89,78134,1,2,0:2:0:0:
233,60,78325,2,0,L|188:43,2,35,2|0|0,1:2|0:0|0:0,0:0:0:0:
243,100,78612,1,2,0:0:0:0:
243,100,78707,2,0,P|255:132|253:167,1,70,10|2,1:2|0:0,0:0:0:0:
182,251,79090,6,0,L|93:222,1,70,0|2,1:0|0:0,0:0:0:0:
79,250,79376,1,2,0:0:0:0:
79,250,79472,1,10,1:2:0:0:
54,330,79663,1,2,0:2:0:0:
134,307,79854,1,0,1:0:0:0:
134,307,79949,1,2,0:0:0:0:
217,359,80141,1,2,0:0:0:0:
217,359,80236,1,10,1:2:0:0:
298,339,80427,1,2,0:0:0:0:
379,357,80618,6,0,L|438:342,4,35,0|2|2|2|2,1:0|1:2|1:2|1:2|1:2,0:0:0:0:
418,257,81192,2,0,L|464:268,4,35,0|2|2|2|2,1:0|1:2|1:2|1:2|1:2,0:0:0:0:
382,169,81765,2,0,L|343:169,2,35,0|2|6,1:2|1:2|1:2,0:0:0:0:
449,82,82147,6,0,L|371:55,1,70,2|0,0:0|0:0,0:0:0:0:
310,100,82529,1,8,0:0:0:0:
226,96,82720,1,0,0:0:0:0:
163,39,82911,2,0,P|145:71|186:169,1,140,0|8,0:0|0:0,0:0:0:0:
258,181,83485,6,0,P|298:228|273:308,1,140,0|0,0:0|0:0,0:0:0:0:
202,326,84058,1,8,0:0:0:0:
122,307,84249,2,0,L|96:160,1,140,2|2,1:3|1:3,0:0:0:0:
80,86,84822,1,12,0:0:0:0:
160,109,85013,1,2,1:3:0:0:
228,61,85204,6,0,B|265:8|265:8|359:6,1,140,2|8,1:3|0:0,0:0:0:0:
415,45,85778,2,0,P|439:108|407:193,1,140,0|0,1:0|1:0,0:0:0:0:
340,201,86351,1,8,0:0:0:0:
308,278,86542,1,0,0:0:0:0:
370,333,86733,6,0,L|442:281,1,70,0|2,1:0|0:3,0:0:0:0:
491,238,87115,1,8,0:0:0:0:
498,154,87306,1,4,1:2:0:0:
503,70,87497,1,4,1:2:0:0:
409,209,87879,1,4,1:2:0:0:
287,92,88262,5,4,1:0:0:0:
219,141,88453,1,2,0:0:0:0:
245,221,88644,1,8,1:2:0:0:
329,221,88835,1,2,0:2:0:0:
355,141,89026,1,2,1:2:0:0:
227,31,89408,1,12,1:2:0:0:
117,158,89790,5,0,1:0:0:0:
164,88,89981,1,2,0:0:0:0:
244,111,90172,1,8,1:2:0:0:
247,196,90364,1,2,0:0:0:0:
168,224,90555,1,2,1:2:0:0:
77,82,90937,1,12,1:2:0:0:
20,267,91319,6,0,P|104:258|152:302,1,140,0|8,1:0|1:2,0:0:0:0:
175,367,91892,2,0,P|251:379|319:337,1,140,2|2,0:0|0:0,0:0:0:0:
323,269,92465,1,8,1:2:0:0:
263,111,92848,6,0,L|219:77,3,35,0|0|10|0,1:0|1:0|1:2|1:0,0:0:0:0:
193,96,93230,2,0,L|142:123,3,35,8|0|2|8,1:2|1:0|1:2|1:2,0:0:0:0:
119,114,93612,2,0,L|63:88,3,35,0|8|10|8,1:0|1:2|1:2|1:2,0:0:0:0:
54,125,93994,2,0,L|20:165,3,35,8|8|8|8,1:2|1:2|1:2|1:2,0:0:0:0:
0,147,94376,1,4,1:2:0:0:
23,383,95905,5,0,1:0:0:0:
180,322,96287,1,12,1:2:0:0:
60,204,96669,2,0,L|79:119,2,70,2|2|8,1:2|0:0|1:2,0:0:0:0:
14,273,97242,6,0,P|52:284|111:264,1,70,2|0,0:0|1:0,0:0:0:0:
145,224,97625,2,0,P|219:195|305:207,1,140,2|0,0:0|0:3,0:0:0:0:
341,254,98198,1,0,1:3:0:0:
344,339,98389,5,2,0:0:0:0:
418,378,98580,1,10,1:2:0:0:
484,327,98771,2,0,L|494:231,1,70,2|0,0:0|1:0,0:0:0:0:
505,174,99153,1,2,0:3:0:0:
431,135,99344,1,10,1:3:0:0:
365,186,99535,2,0,L|355:282,1,70,2|0,0:3|1:0,0:0:0:0:
278,284,99918,5,2,0:0:0:0:
197,306,100109,1,10,1:2:0:0:
115,327,100300,2,0,L|86:242,1,70,2|0,0:0|1:0,0:0:0:0:
74,178,100682,5,2,0:3:0:0:
97,97,100873,1,10,1:3:0:0:
121,16,101064,2,0,L|208:34,1,70,2|0,0:3|1:3,0:0:0:0:
220,108,101446,6,0,P|256:116|309:94,1,70,2|10,0:0|1:2,0:0:0:0:
366,80,101828,2,0,P|398:79|442:104,1,70,2|0,0:0|1:0,0:0:0:0:
464,172,102211,2,0,L|479:260,1,70,2|8,0:0|1:2,0:0:0:0:
424,307,102593,2,0,L|333:296,1,70,2|0,0:0|1:0,0:0:0:0:
290,243,102975,2,0,L|220:251,1,70,2|8,0:0|1:2,0:0:0:0:
179,324,103357,6,0,L|88:313,1,70,2|0,0:0|1:0,0:0:0:0:
256,192,103739,12,4,105077,1:3:0:0:
412,318,106606,6,0,P|373:307|314:311,1,70,4|2,1:0|0:0,0:0:0:0:
303,318,106892,1,2,0:0:0:0:
303,318,106988,1,10,1:2:0:0:
228,357,107179,1,2,0:0:0:0:
226,272,107370,1,0,1:0:0:0:
226,272,107465,1,2,0:0:0:0:
140,321,107656,1,2,0:0:0:0:
140,321,107752,1,10,1:2:0:0:
141,237,107943,1,2,0:0:0:0:
146,153,108134,6,0,P|187:145|231:161,1,70,0|2,1:0|0:0,0:0:0:0:
244,180,108421,1,2,0:0:0:0:
244,180,108516,1,10,1:2:0:0:
322,149,108707,1,2,0:2:0:0:
397,185,108899,2,0,L|419:137,2,35,2|0|0,1:2|0:0|0:0,0:0:0:0:
399,226,109185,1,2,0:0:0:0:
399,226,109281,2,0,L|483:214,1,70,10|2,1:2|0:0,0:0:0:0:
477,95,109663,6,0,P|450:73|416:62,1,70,0|2,1:0|0:0,0:0:0:0:
374,58,109949,1,2,0:0:0:0:
374,58,110045,1,10,1:2:0:0:
315,120,110236,1,2,0:2:0:0:
256,59,110427,1,0,1:0:0:0:
256,59,110523,1,2,0:0:0:0:
158,58,110714,1,2,0:0:0:0:
158,58,110809,1,10,1:2:0:0:
103,121,111000,1,2,0:0:0:0:
138,197,111192,6,0,P|151:239|134:291,1,70,0|2,1:0|0:0,0:0:0:0:
128,301,111478,1,2,0:0:0:0:
128,301,111574,2,0,L|37:270,1,70,8|0,1:2|1:0,0:0:0:0:
31,308,111860,1,10,1:2:0:0:
31,308,111956,2,0,L|31:368,2,35,2|10|0,1:2|0:2|0:0,0:0:0:0:
6,227,112338,2,0,L|5:127,1,70,8|10,1:2|1:2,0:0:0:0:
39,132,112625,1,10,1:2:0:0:
39,132,112720,6,0,L|41:54,1,70,4|2,1:0|0:0,0:0:0:0:
63,26,113007,1,2,0:0:0:0:
63,26,113102,1,10,1:2:0:0:
129,77,113293,1,2,0:2:0:0:
209,52,113485,1,0,1:2:0:0:
209,52,113580,1,2,0:0:0:0:
289,110,113771,1,2,0:0:0:0:
289,110,113867,1,10,1:2:0:0:
366,77,114058,1,2,0:0:0:0:
428,133,114249,6,0,L|414:234,1,70,0|2,1:0|0:0,0:0:0:0:
388,232,114535,1,2,0:0:0:0:
388,232,114631,1,10,1:2:0:0:
307,207,114822,1,2,0:2:0:0:
245,263,115013,2,0,L|242:306,2,35,2|0|0,1:2|0:0|0:0,0:0:0:0:
216,231,115300,1,2,0:0:0:0:
216,231,115395,2,0,P|190:196|140:178,1,70,10|2,1:2|0:0,0:0:0:0:
87,286,115778,6,0,L|114:374,1,70,0|2,1:0|0:0,0:0:0:0:
148,362,116064,1,2,0:0:0:0:
148,362,116160,1,10,1:2:0:0:
213,309,116351,1,2,0:0:0:0:
284,353,116542,1,0,1:0:0:0:
284,353,116637,1,2,0:0:0:0:
368,302,116828,1,2,0:0:0:0:
368,302,116924,1,10,1:2:0:0:
437,349,117115,1,2,0:0:0:0:
500,293,117306,6,0,L|508:228,4,35,0|2|2|2|2,1:0|1:2|1:2|1:2|1:2,0:0:0:0:
417,227,117879,2,0,L|409:162,4,35,0|2|2|2|2,1:0|1:2|1:2|1:2|1:2,0:0:0:0:
346,311,118453,2,0,L|345:352,2,35,0|2|2,1:0|1:2|1:2,0:0:0:0:
262,248,118835,1,4,1:0:0:0:
