osu file format v14

[General]
AudioFilename: new.mp3
AudioLeadIn: 0
PreviewTime: 68962
Countdown: 0
SampleSet: Soft
StackLeniency: 0.7
Mode: 0
LetterboxInBreaks: 0
WidescreenStoryboard: 1

[Editor]
Bookmarks: 13357,27115,68771,82147,95905,98198,104504,112720
DistanceSpacing: 0.6
BeatDivisor: 4
GridSize: 8
TimelineZoom: 0.8

[Metadata]
Title:Daisuke
TitleUnicode:Daisuke
Artist:Y&Co.
ArtistUnicode:Y&Co.
Creator:kwk
Version:Beginner
Source:beatmania IIDX 10th style
Tags:moph saturnalize eurobeat Tetsuya Tamura BeatStream Dance Evolution Arcade jubeat plus Qubell
BeatmapID:1480576
BeatmapSetID:697087

[Difficulty]
HPDrainRate:2
CircleSize:2.9
OverallDifficulty:2
ApproachRate:3
SliderMultiplier:1
SliderTickRate:1

[Events]
//Background and Video events
0,0,"57336576_p0.jpg",0,0
Video,1148,"meme.avi"
//Break Periods
//Storyboard Layer 0 (Background)
//Storyboard Layer 1 (Fail)
//Storyboard Layer 2 (Pass)
//Storyboard Layer 3 (Foreground)
//Storyboard Sound Samples

[TimingPoints]
2657,382.165605095541,4,2,0,50,1,0
9392,-100,4,2,0,30,0,0
9488,-100,4,2,0,50,0,0
9583,-100,4,2,0,30,0,0
9679,-100,4,2,0,50,0,0
10921,-100,4,2,0,30,0,0
11016,-100,4,2,0,50,0,0
11112,-100,4,2,0,30,0,0
11207,-100,4,2,0,50,0,0
12163,-100,4,2,0,30,0,0
12258,-100,4,2,0,50,0,0
12449,-100,4,2,0,30,0,0
12545,-100,4,2,0,50,0,0
12641,-100,4,2,0,30,0,0
12736,-100,4,2,0,50,0,0
13357,-100,4,2,0,50,0,0
14886,-100,4,2,1,50,0,1
27115,-100,4,2,1,50,0,0
69918,-100,4,2,1,50,0,1
82147,-100,4,2,1,50,0,0
106606,-100,4,2,1,50,0,1
118835,-100,4,2,1,50,0,0

[Colours]
Combo1 : 34,34,255
Combo2 : 64,128,128
Combo3 : 164,164,255
Combo4 : 115,185,185

[HitObjects]
42,77,2657,6,0,P|140:68|223:119,1,200,4|0,0:2|0:0,0:0:0:0:
235,209,3803,1,0,0:0:0:0:
323,224,4185,2,0,P|411:128|393:57,2,200,0|0|0,0:2|0:0|1:0,0:0:0:0:
235,209,6096,6,0,P|184:208|169:218,1,50,0|0,0:0|1:2,0:0:0:0:
102,174,6669,2,0,P|70:205|63:227,1,50,0|0,1:2|0:0,0:0:0:0:
72,299,7242,1,0,1:0:0:0:
197,349,7816,2,0,B|263:315|263:315|344:326,1,150,0|0,1:0|1:2,0:0:0:0:
413,374,8771,6,0,P|427:326|401:263,1,100,4|10,1:2|1:2,0:0:0:0:
334,236,9535,1,0,1:0:0:0:
305,150,9918,1,0,1:0:0:0:
326,62,10300,2,0,P|376:42|437:53,1,100,0|8,1:0|1:2,0:0:0:0:
489,105,11064,1,0,1:0:0:0:
481,194,11446,1,0,1:0:0:0:
473,283,11828,6,0,P|426:327|229:249,1,300,8|0,1:3|1:0,0:0:0:0:
250,168,13357,1,4,1:3:0:0:
25,61,14886,6,0,P|120:92|226:42,1,200,4|0,1:0|1:0,0:0:0:0:
293,23,16032,1,10,1:2:0:0:
379,47,16414,2,0,P|391:89|383:146,1,100,0|10,1:0|1:2,0:0:0:0:
302,183,17179,2,0,B|286:227|286:227|305:292,1,100,2|10,1:2|1:2,0:0:0:0:
388,296,17943,6,0,P|317:366|223:323,1,200,0|0,1:0|1:0,0:0:0:0:
173,267,19090,1,10,1:2:0:0:
122,192,19472,2,0,P|129:125|107:77,2,100,0|10|2,1:0|1:2|1:2,0:0:0:0:
80,272,20618,1,8,1:2:0:0:
131,345,21000,6,0,P|227:311|327:345,1,200,4|0,1:0|1:0,0:0:0:0:
404,361,22147,1,10,1:2:0:0:
458,289,22529,2,0,P|434:234|451:176,1,100,0|10,1:0|1:2,0:0:0:0:
475,113,23293,2,0,B|471:59|471:59|442:15,1,100,2|10,1:2|1:2,0:0:0:0:
366,62,24058,6,0,P|259:91|186:33,1,200,0|0,1:0|1:0,0:0:0:0:
103,27,25204,1,10,1:2:0:0:
23,69,25586,2,0,P|-1:107|23:216,2,150,0|0|0,1:0|1:0|1:2,0:0:0:0:
110,28,27115,6,0,L|226:21,1,100,4|10,1:0|1:2,0:0:0:0:
288,64,27879,2,0,L|450:9,2,150,2|2|8,1:2|0:2|1:2,0:0:0:0:
280,153,29408,2,0,L|166:136,1,100,0|8,1:2|1:2,0:0:0:0:
94,121,30172,6,0,P|38:211|97:289,1,200,0|0,1:0|0:0,0:0:0:0:
169,304,31319,1,10,1:3:0:0:
258,304,31701,2,0,L|370:277,1,100,2|10,1:3|1:3,0:0:0:0:
443,299,32465,1,2,1:3:0:0:
465,123,33230,6,0,L|351:146,1,100,4|10,1:0|1:2,0:0:0:0:
279,162,33994,2,0,P|244:211|266:308,2,150,2|2|10,1:2|0:0|1:2,0:0:0:0:
366,142,35523,2,0,P|374:70|351:32,1,100,0|8,1:0|1:2,0:0:0:0:
279,15,36287,2,0,L|128:3,2,150,0|0|10,1:0|0:0|1:3,0:0:0:0:
363,47,37816,2,0,B|378:100|378:100|356:161,1,100,10|10,1:3|1:3,0:0:0:0:
332,226,38580,1,10,1:3:0:0:
222,304,39153,6,0,L|151:321,1,50,4|4,1:2|1:0,0:0:0:0:
84,330,39727,1,8,1:2:0:0:
12,274,40109,2,0,P|-6:193|29:119,2,150,2|2|8,1:2|0:0|1:2,0:0:0:0:
95,241,41637,2,0,P|143:225|200:237,1,100,2|12,1:2|1:2,0:0:0:0:
247,303,42402,6,0,L|360:291,1,100,0|8,1:0|1:2,0:0:0:0:
420,343,43166,2,0,P|436:280|372:208,2,150,2|2|10,1:2|0:0|1:2,0:0:0:0:
332,364,44695,1,6,1:2:0:0:
248,331,45077,1,6,1:2:0:0:
167,371,45459,6,0,L|154:237,1,100,4|8,1:0|1:2,0:0:0:0:
68,255,46223,2,0,L|81:121,1,100,2|12,1:2|1:2,0:0:0:0:
130,82,46988,2,0,P|289:83|324:115,1,200,0|2,1:0|1:2,0:0:0:0:
256,192,48516,12,4,51574,1:2:0:0:
56,282,53102,6,0,L|48:151,1,100,4|12,1:0|1:2,0:0:0:0:
87,102,53867,2,0,P|232:90|252:127,1,200,2|0,1:2|1:2,0:0:0:0:
236,205,55013,1,8,1:2:0:0:
320,174,55395,2,0,L|386:76,1,100,0|10,1:0|1:2,0:0:0:0:
465,103,56160,5,2,1:2:0:0:
511,180,56542,1,12,1:2:0:0:
481,265,56924,2,0,P|408:286|319:233,1,150,2|2,1:2|0:0,0:0:0:0:
273,201,57879,1,2,0:0:0:0:
198,149,58262,2,0,P|129:122|58:143,1,150,2|8,0:0|1:2,0:0:0:0:
9,218,59217,6,0,L|32:348,1,100,2|14,1:2|1:2,0:0:0:0:
108,352,59981,2,0,B|200:312|200:312|249:336,1,150,2|2,1:2|0:0,0:0:0:0:
329,366,60937,1,2,0:2:0:0:
405,319,61319,2,0,P|432:247|404:165,1,150,2|10,0:0|1:2,0:0:0:0:
343,121,62274,6,0,L|129:92,1,200,0|0,1:0|1:0,0:0:0:0:
58,115,63421,1,10,1:2:0:0:
37,202,63803,2,0,L|155:384,1,200,0|0,1:0|1:0,0:0:0:0:
256,192,65332,12,4,68389,1:3:0:0:
490,153,69918,6,0,P|395:184|289:134,1,200,4|0,1:0|1:0,0:0:0:0:
260,71,71064,1,10,1:2:0:0:
179,29,71446,2,0,P|137:17|80:25,1,100,0|10,1:0|1:2,0:0:0:0:
19,89,72211,2,0,B|3:133|3:133|22:198,1,100,2|10,1:2|1:2,0:0:0:0:
98,224,72975,6,0,P|197:194|313:218,1,200,0|0,1:0|1:0,0:0:0:0:
374,174,74121,1,10,1:2:0:0:
454,134,74504,2,0,L|490:11,2,100,0|10|2,1:0|1:2|1:2,0:0:0:0:
454,223,75650,1,8,1:2:0:0:
374,174,76032,6,0,P|289:161|178:217,1,200,4|0,1:0|1:0,0:0:0:0:
135,280,77179,1,10,1:2:0:0:
173,361,77561,2,0,L|306:376,1,100,0|10,1:0|1:2,0:0:0:0:
362,379,78325,2,0,B|409:352|409:352|436:307,1,100,2|10,1:2|1:2,0:0:0:0:
460,227,79090,6,0,P|392:148|275:157,1,200,0|0,1:0|1:0,0:0:0:0:
219,179,80236,1,10,1:2:0:0:
130,161,80618,2,0,P|108:90|138:24,2,150,0|0|0,1:0|1:0|1:2,0:0:0:0:
219,168,82147,6,0,P|370:140|504:248,1,300,2|8,0:0|0:0,0:0:0:0:
464,304,83676,2,0,P|352:343|258:313,1,200,0|0,1:0|0:0,0:0:0:0:
194,285,84822,1,12,0:0:0:0:
110,317,85204,2,0,P|80:169|179:57,1,300,2|8,1:3|0:0,0:0:0:0:
258,53,86733,1,0,1:0:0:0:
424,122,87497,2,0,P|433:175|387:252,1,100,4|4,1:2|1:2,0:0:0:0:
345,165,88262,6,0,P|271:149|173:187,2,150,4|2|12,1:0|0:2|1:2,0:0:0:0:
335,254,89790,2,0,P|407:270|479:251,2,150,0|2|12,1:0|0:0|1:2,0:0:0:0:
308,340,91319,6,0,P|235:323|163:342,2,150,0|2|8,1:0|0:0|1:2,0:0:0:0:
389,384,92848,2,0,B|451:270|343:202|341:194|339:186|231:117|299:1,1,400,0|4,1:0|1:2,0:0:0:0:
371,178,95905,6,0,L|257:248,1,100,0|12,1:0|1:2,0:0:0:0:
254,314,96669,2,0,P|197:236|244:154,1,200,2|0,1:2|1:0,0:0:0:0:
318,107,97816,2,0,L|421:39,1,100,8|0,1:2|1:3,0:0:0:0:
481,93,98580,1,10,1:2:0:0:
474,184,98962,6,0,P|402:257|295:219,1,200,0|0,1:0|1:0,0:0:0:0:
256,172,100109,1,10,1:2:0:0:
243,82,100491,2,0,P|159:21|61:77,1,200,0|0,1:0|1:3,0:0:0:0:
256,192,102020,12,4,105077,1:3:0:0:
46,357,106606,6,0,P|15:262|65:156,1,200,4|0,1:0|1:0,0:0:0:0:
129,131,107752,1,10,1:2:0:0:
214,159,108134,2,0,P|221:208|209:256,1,100,0|10,1:0|1:2,0:0:0:0:
163,333,108899,2,0,B|207:349|207:349|272:330,1,100,2|10,1:2|1:2,0:0:0:0:
305,257,109663,6,0,P|398:224|501:275,1,200,0|0,1:0|1:0,0:0:0:0:
486,351,110809,1,10,1:2:0:0:
398,372,111192,2,0,L|292:349,2,100,0|8|2,1:0|1:2|1:2,0:0:0:0:
422,285,112338,1,8,1:2:0:0:
447,198,112720,6,0,P|484:116|404:2,1,200,4|0,1:0|1:2,0:0:0:0:
368,79,113867,1,10,1:2:0:0:
278,79,114249,2,0,L|199:3,1,100,0|10,1:0|1:2,0:0:0:0:
116,19,115013,2,0,B|69:46|69:46|42:91,1,100,2|10,1:2|1:2,0:0:0:0:
35,174,115778,6,0,P|96:249|193:257,1,200,0|0,1:0|1:0,0:0:0:0:
266,205,116924,1,10,1:2:0:0:
355,199,117306,2,0,P|393:262|380:333,2,150,0|0|0,1:0|1:0|1:0,0:0:0:0:
297,129,118835,1,4,1:0:0:0:
