osu file format v14

[General]
AudioFilename: audio.mp3
AudioLeadIn: 0
PreviewTime: 69063
Countdown: 0
SampleSet: Normal
StackLeniency: 0.7
Mode: 1
LetterboxInBreaks: 0
WidescreenStoryboard: 0

[Editor]
DistanceSpacing: 0.4
BeatDivisor: 4
GridSize: 32
TimelineZoom: 2.5

[Metadata]
Title:Daisuke
TitleUnicode:Daisuke
Artist:Y&Co.
ArtistUnicode:Y&Co.
Creator:duski
Version:Oni
Source:beatmania IIDX 10th style
Tags:eurobeat Akira Yokota Tetsuya Tamura BeatStream アニムトライヴ animtribe DanceEvolution Arcade jubeat plus qubell rhythm konami bemani english japanese video game kqrth
BeatmapID:1844125
BeatmapSetID:882060

[Difficulty]
HPDrainRate:5.5
CircleSize:6
OverallDifficulty:5.5
ApproachRate:6
SliderMultiplier:1.4
SliderTickRate:1

[Events]
//Background and Video events
0,0,"57336576_p0.jpg",0,0
//Break Periods
//Storyboard Layer 0 (Background)
//Storyboard Layer 1 (Fail)
//Storyboard Layer 2 (Pass)
//Storyboard Layer 3 (Foreground)
//Storyboard Layer 4 (Overlay)
//Storyboard Sound Samples

[TimingPoints]
2662,382.165605095541,4,1,0,70,1,0
14795,-100,4,1,0,80,0,0
14891,-95.2380952380952,4,1,0,80,0,1
27120,-95.2380952380952,4,1,0,80,0,0
27216,-100,4,1,0,70,0,0
51865,-100,4,1,0,50,0,0
53012,-100,4,1,0,70,0,0
68490,-100,4,1,0,40,0,0
69827,-100,4,1,0,80,0,0
69923,-95.2380952380952,4,1,0,80,0,1
82152,-95.2380952380952,4,1,0,80,0,0
82247,-100,4,1,0,70,0,0
94668,-100,4,1,0,50,0,0
95814,-100,4,1,0,70,0,0
105177,-100,4,1,0,40,0,0
106515,-100,4,1,0,80,0,0
106611,-95.2380952380952,4,1,0,80,0,1
118840,-95.2380952380952,4,1,0,80,0,0

[HitObjects]
256,192,2662,5,4,0:0:0:0:
256,192,2853,1,0,0:0:0:0:
256,192,3044,1,8,0:0:0:0:
256,192,3235,1,0,0:0:0:0:
256,192,3330,1,0,0:0:0:0:
256,192,3426,1,8,0:0:0:0:
256,192,3617,1,0,0:0:0:0:
256,192,3808,1,8,0:0:0:0:
256,192,3999,1,8,0:0:0:0:
256,192,4190,1,0,0:0:0:0:
256,192,4381,1,0,0:0:0:0:
256,192,4572,1,8,0:0:0:0:
256,192,4763,1,0,0:0:0:0:
256,192,4859,1,8,0:0:0:0:
256,192,4954,1,0,0:0:0:0:
256,192,5146,1,0,0:0:0:0:
256,192,5337,1,8,0:0:0:0:
256,192,5528,1,8,0:0:0:0:
256,192,5719,1,0,0:0:0:0:
256,192,6101,1,8,0:0:0:0:
256,192,6292,1,0,0:0:0:0:
256,192,6388,1,0,0:0:0:0:
256,192,6483,1,8,0:0:0:0:
256,192,6674,1,0,0:0:0:0:
256,192,6865,1,8,0:0:0:0:
256,192,7056,1,8,0:0:0:0:
256,192,7247,1,0,0:0:0:0:
256,192,7630,1,8,0:0:0:0:
256,192,7821,1,0,0:0:0:0:
256,192,7916,1,8,0:0:0:0:
256,192,8012,1,8,0:0:0:0:
256,192,8203,1,0,0:0:0:0:
256,192,8394,1,0,0:0:0:0:
256,192,8490,1,0,0:0:0:0:
256,192,8585,1,0,0:0:0:0:
256,192,8776,1,12,0:0:0:0:
256,192,9158,1,8,0:0:0:0:
256,192,9349,1,0,0:0:0:0:
256,192,9445,1,8,0:0:0:0:
256,192,9540,1,0,0:0:0:0:
256,192,9732,1,0,0:0:0:0:
256,192,9923,1,8,0:0:0:0:
256,192,10114,1,8,0:0:0:0:
256,192,10305,1,0,0:0:0:0:
256,192,10496,1,0,0:0:0:0:
256,192,10687,1,8,0:0:0:0:
256,192,10878,1,0,0:0:0:0:
256,192,10974,1,8,0:0:0:0:
256,192,11069,1,0,0:0:0:0:
256,192,11260,1,0,0:0:0:0:
256,192,11451,1,8,0:0:0:0:
256,192,11642,1,8,0:0:0:0:
256,192,11833,1,0,0:0:0:0:
256,192,11929,1,0,0:0:0:0:
256,192,12025,1,0,0:0:0:0:
256,192,12120,1,0,0:0:0:0:
256,192,12216,1,8,0:0:0:0:
256,192,12407,1,8,0:0:0:0:
256,192,12502,1,8,0:0:0:0:
256,192,12598,1,0,0:0:0:0:
256,192,12789,1,8,0:0:0:0:
256,192,12884,1,8,0:0:0:0:
256,192,12980,1,0,0:0:0:0:
256,192,13076,1,0,0:0:0:0:
256,192,13171,1,8,0:0:0:0:
256,192,13267,1,8,0:0:0:0:
256,192,13362,1,0,0:0:0:0:
256,192,13744,1,8,0:0:0:0:
256,192,13935,1,0,0:0:0:0:
256,192,14031,1,8,0:0:0:0:
256,192,14318,1,0,0:0:0:0:
256,192,14509,1,8,0:0:0:0:
256,192,14891,1,4,0:0:0:0:
256,192,15082,1,8,0:0:0:0:
256,192,15177,1,8,0:0:0:0:
256,192,15273,1,0,0:0:0:0:
256,192,15369,1,0,0:0:0:0:
256,192,15464,1,8,0:0:0:0:
256,192,15655,1,0,0:0:0:0:
256,192,15751,1,8,0:0:0:0:
256,192,15942,1,8,0:0:0:0:
256,192,16037,1,0,0:0:0:0:
256,192,16228,1,8,0:0:0:0:
256,192,16419,1,0,0:0:0:0:
256,192,16515,1,0,0:0:0:0:
256,192,16611,1,8,0:0:0:0:
256,192,16706,1,0,0:0:0:0:
256,192,16802,1,8,0:0:0:0:
256,192,16993,1,0,0:0:0:0:
256,192,17184,1,8,0:0:0:0:
256,192,17279,1,0,0:0:0:0:
256,192,17470,1,8,0:0:0:0:
256,192,17566,1,0,0:0:0:0:
256,192,17757,1,8,0:0:0:0:
256,192,17948,1,0,0:0:0:0:
256,192,18139,1,8,0:0:0:0:
256,192,18235,1,8,0:0:0:0:
256,192,18330,1,0,0:0:0:0:
256,192,18426,1,0,0:0:0:0:
256,192,18521,1,8,0:0:0:0:
256,192,18712,1,0,0:0:0:0:
256,192,18808,1,8,0:0:0:0:
256,192,18999,1,8,0:0:0:0:
256,192,19095,1,0,0:0:0:0:
256,192,19286,1,8,0:0:0:0:
256,192,19477,1,0,0:0:0:0:
256,192,19572,1,0,0:0:0:0:
256,192,19668,1,0,0:0:0:0:
256,192,19763,1,0,0:0:0:0:
256,192,19859,1,8,0:0:0:0:
256,192,20050,1,0,0:0:0:0:
256,192,20146,1,0,0:0:0:0:
256,192,20241,1,0,0:0:0:0:
256,192,20337,1,0,0:0:0:0:
256,192,20432,1,8,0:0:0:0:
256,192,20623,1,0,0:0:0:0:
256,192,21005,1,4,0:0:0:0:
256,192,21197,1,8,0:0:0:0:
256,192,21292,1,8,0:0:0:0:
256,192,21388,1,0,0:0:0:0:
256,192,21483,1,0,0:0:0:0:
256,192,21579,1,8,0:0:0:0:
256,192,21770,1,0,0:0:0:0:
256,192,21865,1,8,0:0:0:0:
256,192,22056,1,8,0:0:0:0:
256,192,22152,1,0,0:0:0:0:
256,192,22343,1,8,0:0:0:0:
256,192,22534,1,0,0:0:0:0:
256,192,22630,1,0,0:0:0:0:
256,192,22725,1,8,0:0:0:0:
256,192,22821,1,0,0:0:0:0:
256,192,22916,1,8,0:0:0:0:
256,192,23107,1,0,0:0:0:0:
256,192,23298,1,8,0:0:0:0:
256,192,23394,1,0,0:0:0:0:
256,192,23585,1,8,0:0:0:0:
256,192,23681,1,0,0:0:0:0:
256,192,23872,1,8,0:0:0:0:
256,192,24063,1,0,0:0:0:0:
256,192,24254,1,8,0:0:0:0:
256,192,24349,1,8,0:0:0:0:
256,192,24445,1,0,0:0:0:0:
256,192,24540,1,0,0:0:0:0:
256,192,24636,1,8,0:0:0:0:
256,192,24827,1,0,0:0:0:0:
256,192,24923,1,8,0:0:0:0:
256,192,25114,1,8,0:0:0:0:
256,192,25209,1,0,0:0:0:0:
256,192,25400,1,8,0:0:0:0:
256,192,25591,1,0,0:0:0:0:
256,192,25687,1,8,0:0:0:0:
256,192,25783,1,0,0:0:0:0:
256,192,25878,1,0,0:0:0:0:
256,192,25974,1,8,0:0:0:0:
256,192,26165,1,0,0:0:0:0:
256,192,26260,1,8,0:0:0:0:
256,192,26356,1,0,0:0:0:0:
256,192,26451,1,0,0:0:0:0:
256,192,26547,1,8,0:0:0:0:
256,192,26738,1,8,0:0:0:0:
256,192,26833,1,0,0:0:0:0:
256,192,26929,1,8,0:0:0:0:
256,192,27120,1,4,0:0:0:0:
256,192,27502,1,8,0:0:0:0:
256,192,27693,1,0,0:0:0:0:
256,192,27789,1,0,0:0:0:0:
256,192,27884,1,0,0:0:0:0:
256,192,28076,1,0,0:0:0:0:
256,192,28267,1,8,0:0:0:0:
256,192,28458,1,8,0:0:0:0:
256,192,28649,1,0,0:0:0:0:
256,192,29031,1,8,0:0:0:0:
256,192,29222,1,8,0:0:0:0:
256,192,29413,1,0,0:0:0:0:
256,192,29604,1,8,0:0:0:0:
256,192,29700,1,8,0:0:0:0:
256,192,29795,1,0,0:0:0:0:
256,192,29986,1,8,0:0:0:0:
256,192,30177,1,0,0:0:0:0:
256,192,30369,1,0,0:0:0:0:
256,192,30560,1,8,0:0:0:0:
256,192,30751,1,0,0:0:0:0:
256,192,30846,1,8,0:0:0:0:
256,192,31037,1,8,0:0:0:0:
256,192,31228,1,0,0:0:0:0:
256,192,31324,1,8,0:0:0:0:
256,192,31515,1,8,0:0:0:0:
256,192,31706,1,12,0:0:0:0:
256,192,32088,1,12,0:0:0:0:
256,192,32470,1,12,0:0:0:0:
256,192,32661,1,12,0:0:0:0:
256,192,33044,1,12,0:0:0:0:
256,192,33235,1,4,0:0:0:0:
256,192,33617,1,8,0:0:0:0:
256,192,33808,1,0,0:0:0:0:
256,192,33904,1,0,0:0:0:0:
256,192,33999,1,8,0:0:0:0:
256,192,34190,1,8,0:0:0:0:
256,192,34381,1,0,0:0:0:0:
256,192,34572,1,8,0:0:0:0:
256,192,34763,1,0,0:0:0:0:
256,192,35146,1,8,0:0:0:0:
256,192,35337,1,8,0:0:0:0:
256,192,35432,1,8,0:0:0:0:
256,192,35528,1,0,0:0:0:0:
256,192,35719,1,0,0:0:0:0:
256,192,35910,1,8,0:0:0:0:
256,192,36101,1,0,0:0:0:0:
256,192,36197,1,8,0:0:0:0:
256,192,36292,1,0,0:0:0:0:
256,192,36483,1,0,0:0:0:0:
256,192,36674,1,8,0:0:0:0:
256,192,36865,1,0,0:0:0:0:
256,192,36961,1,8,0:0:0:0:
256,192,37152,1,8,0:0:0:0:
256,192,37343,1,0,0:0:0:0:
256,192,37439,1,8,0:0:0:0:
256,192,37630,1,8,0:0:0:0:
256,192,37821,1,12,0:0:0:0:
256,192,38203,1,12,0:0:0:0:
256,192,38585,1,12,0:0:0:0:
256,192,38776,1,12,0:0:0:0:
256,192,39158,1,8,0:0:0:0:
256,192,39349,1,4,0:0:0:0:
256,192,39732,1,8,0:0:0:0:
256,192,39923,1,0,0:0:0:0:
256,192,40018,1,8,0:0:0:0:
256,192,40114,1,0,0:0:0:0:
256,192,40305,1,0,0:0:0:0:
256,192,40496,1,8,0:0:0:0:
256,192,40687,1,8,0:0:0:0:
256,192,40878,1,0,0:0:0:0:
256,192,41069,1,0,0:0:0:0:
256,192,41260,1,8,0:0:0:0:
256,192,41642,1,0,0:0:0:0:
256,192,41833,1,0,0:0:0:0:
256,192,41929,1,0,0:0:0:0:
256,192,42025,1,8,0:0:0:0:
256,192,42216,1,8,0:0:0:0:
256,192,42407,1,0,0:0:0:0:
256,192,42789,1,8,0:0:0:0:
256,192,42980,1,8,0:0:0:0:
256,192,43076,1,8,0:0:0:0:
256,192,43171,1,0,0:0:0:0:
256,192,43362,1,0,0:0:0:0:
256,192,43553,1,8,0:0:0:0:
256,192,43744,1,0,0:0:0:0:
256,192,43840,1,0,0:0:0:0:
256,192,43935,1,0,0:0:0:0:
256,192,44126,1,0,0:0:0:0:
256,192,44318,1,8,0:0:0:0:
256,192,44509,1,0,0:0:0:0:
256,192,44700,1,12,0:0:0:0:
256,192,45082,1,12,0:0:0:0:
256,192,45464,1,4,0:0:0:0:
256,192,45655,1,0,0:0:0:0:
256,192,45846,1,8,0:0:0:0:
256,192,46037,1,8,0:0:0:0:
256,192,46133,1,8,0:0:0:0:
256,192,46228,1,0,0:0:0:0:
256,192,46419,1,0,0:0:0:0:
256,192,46611,1,8,0:0:0:0:
256,192,46993,1,0,0:0:0:0:
256,192,47184,1,0,0:0:0:0:
256,192,47279,1,0,0:0:0:0:
256,192,47375,1,8,0:0:0:0:
256,192,47566,1,0,0:0:0:0:
256,192,47661,1,8,0:0:0:0:
256,192,47757,1,0,0:0:0:0:
256,192,48139,1,0,0:0:0:0:
256,192,48330,1,8,0:0:0:0:
256,192,48521,1,0,0:0:0:0:
256,192,48712,1,0,0:0:0:0:
256,192,48808,1,0,0:0:0:0:
256,192,48904,1,8,0:0:0:0:
256,192,49095,1,8,0:0:0:0:
256,192,49286,1,0,0:0:0:0:
256,192,49477,1,8,0:0:0:0:
256,192,49668,1,8,0:0:0:0:
256,192,49859,1,0,0:0:0:0:
256,192,50050,1,0,0:0:0:0:
256,192,50146,1,0,0:0:0:0:
256,192,50241,1,0,0:0:0:0:
256,192,50337,1,0,0:0:0:0:
256,192,50432,1,8,0:0:0:0:
256,192,50623,1,8,0:0:0:0:
256,192,50719,1,8,0:0:0:0:
256,192,50814,1,0,0:0:0:0:
256,192,51005,1,0,0:0:0:0:
256,192,51101,1,0,0:0:0:0:
256,192,51197,1,8,0:0:0:0:
256,192,51292,1,8,0:0:0:0:
256,192,51388,1,8,0:0:0:0:
256,192,51579,1,4,0:0:0:0:
256,192,51961,1,8,0:0:0:0:
256,192,52152,1,0,0:0:0:0:
256,192,52247,1,8,0:0:0:0:
256,192,52534,1,0,0:0:0:0:
256,192,52725,1,8,0:0:0:0:
256,192,53107,1,4,0:0:0:0:
256,192,53490,1,8,0:0:0:0:
256,192,53872,1,0,0:0:0:0:
256,192,54063,1,0,0:0:0:0:
256,192,54254,1,8,0:0:0:0:
256,192,54445,1,8,0:0:0:0:
256,192,54636,1,0,0:0:0:0:
256,192,54827,1,8,0:0:0:0:
256,192,55018,1,0,0:0:0:0:
256,192,55209,1,8,0:0:0:0:
256,192,55305,1,8,0:0:0:0:
256,192,55400,1,8,0:0:0:0:
256,192,55591,1,0,0:0:0:0:
256,192,55783,1,8,0:0:0:0:
256,192,55974,1,8,0:0:0:0:
256,192,56069,1,8,0:0:0:0:
256,192,56165,1,0,0:0:0:0:
256,192,56547,1,8,0:0:0:0:
256,192,56738,1,8,0:0:0:0:
256,192,56929,1,0,0:0:0:0:
256,192,57120,1,8,0:0:0:0:
256,192,57216,1,8,0:0:0:0:
256,192,57311,1,8,0:0:0:0:
256,192,57502,1,8,0:0:0:0:
256,192,57693,1,0,0:0:0:0:
256,192,57884,1,0,0:0:0:0:
256,192,58076,1,8,0:0:0:0:
256,192,58267,1,8,0:0:0:0:
256,192,58362,1,8,0:0:0:0:
256,192,58458,1,0,0:0:0:0:
256,192,58649,1,0,0:0:0:0:
256,192,58840,1,8,0:0:0:0:
256,192,59031,1,0,0:0:0:0:
256,192,59126,1,8,0:0:0:0:
256,192,59222,1,0,0:0:0:0:
256,192,59604,1,8,0:0:0:0:
256,192,59795,1,8,0:0:0:0:
256,192,59891,1,8,0:0:0:0:
256,192,59986,1,0,0:0:0:0:
256,192,60177,1,0,0:0:0:0:
256,192,60369,1,8,0:0:0:0:
256,192,60560,1,8,0:0:0:0:
256,192,60751,1,0,0:0:0:0:
256,192,60942,1,8,0:0:0:0:
256,192,61133,1,8,0:0:0:0:
256,192,61324,1,8,0:0:0:0:
256,192,61419,1,8,0:0:0:0:
256,192,61515,1,0,0:0:0:0:
256,192,61706,1,0,0:0:0:0:
256,192,61802,1,0,0:0:0:0:
256,192,61897,1,8,0:0:0:0:
256,192,62088,1,8,0:0:0:0:
256,192,62279,1,0,0:0:0:0:
256,192,62661,1,8,0:0:0:0:
256,192,62853,1,8,0:0:0:0:
256,192,62948,1,8,0:0:0:0:
256,192,63044,1,0,0:0:0:0:
256,192,63235,1,0,0:0:0:0:
256,192,63426,1,8,0:0:0:0:
256,192,63617,1,8,0:0:0:0:
256,192,63712,1,8,0:0:0:0:
256,192,63808,1,8,0:0:0:0:
256,192,64190,1,8,0:0:0:0:
256,192,64381,1,8,0:0:0:0:
256,192,64572,1,0,0:0:0:0:
256,192,64763,1,0,0:0:0:0:
256,192,64859,1,0,0:0:0:0:
256,192,64954,1,8,0:0:0:0:
256,192,65146,1,8,0:0:0:0:
256,192,65337,1,0,0:0:0:0:
256,192,65528,1,0,0:0:0:0:
256,192,65623,1,0,0:0:0:0:
256,192,65719,1,8,0:0:0:0:
256,192,65910,1,8,0:0:0:0:
256,192,66005,1,8,0:0:0:0:
256,192,66101,1,0,0:0:0:0:
256,192,66292,1,0,0:0:0:0:
256,192,66483,1,8,0:0:0:0:
256,192,66674,1,8,0:0:0:0:
256,192,66770,1,8,0:0:0:0:
256,192,66865,1,8,0:0:0:0:
256,192,67056,1,0,0:0:0:0:
256,192,67247,1,8,0:0:0:0:
256,192,67439,1,0,0:0:0:0:
256,192,67630,1,8,0:0:0:0:
256,192,67725,1,8,0:0:0:0:
256,192,67821,1,0,0:0:0:0:
256,192,67916,1,0,0:0:0:0:
256,192,68012,1,8,0:0:0:0:
256,192,68107,1,8,0:0:0:0:
256,192,68203,1,0,0:0:0:0:
256,192,68394,1,8,0:0:0:0:
256,192,68585,1,0,0:0:0:0:
256,192,68681,1,0,0:0:0:0:
256,192,68776,1,0,0:0:0:0:
256,192,69923,1,4,0:0:0:0:
256,192,70114,1,8,0:0:0:0:
256,192,70209,1,8,0:0:0:0:
256,192,70305,1,0,0:0:0:0:
256,192,70400,1,0,0:0:0:0:
256,192,70496,1,8,0:0:0:0:
256,192,70687,1,0,0:0:0:0:
256,192,70783,1,8,0:0:0:0:
256,192,70974,1,8,0:0:0:0:
256,192,71069,1,0,0:0:0:0:
256,192,71260,1,8,0:0:0:0:
256,192,71451,1,0,0:0:0:0:
256,192,71547,1,0,0:0:0:0:
256,192,71642,1,8,0:0:0:0:
256,192,71738,1,0,0:0:0:0:
256,192,71833,1,8,0:0:0:0:
256,192,72025,1,0,0:0:0:0:
256,192,72216,1,8,0:0:0:0:
256,192,72311,1,0,0:0:0:0:
256,192,72502,1,8,0:0:0:0:
256,192,72598,1,0,0:0:0:0:
256,192,72789,1,8,0:0:0:0:
256,192,72980,1,0,0:0:0:0:
256,192,73171,1,8,0:0:0:0:
256,192,73267,1,8,0:0:0:0:
256,192,73362,1,0,0:0:0:0:
256,192,73458,1,0,0:0:0:0:
256,192,73553,1,8,0:0:0:0:
256,192,73744,1,0,0:0:0:0:
256,192,73840,1,8,0:0:0:0:
256,192,74031,1,8,0:0:0:0:
256,192,74126,1,0,0:0:0:0:
256,192,74318,1,8,0:0:0:0:
256,192,74509,1,0,0:0:0:0:
256,192,74604,1,0,0:0:0:0:
256,192,74700,1,0,0:0:0:0:
256,192,74795,1,0,0:0:0:0:
256,192,74891,1,8,0:0:0:0:
256,192,75082,1,0,0:0:0:0:
256,192,75177,1,0,0:0:0:0:
256,192,75273,1,0,0:0:0:0:
256,192,75369,1,0,0:0:0:0:
256,192,75464,1,8,0:0:0:0:
256,192,75655,1,0,0:0:0:0:
256,192,76037,1,4,0:0:0:0:
256,192,76228,1,8,0:0:0:0:
256,192,76324,1,8,0:0:0:0:
256,192,76419,1,0,0:0:0:0:
256,192,76515,1,0,0:0:0:0:
256,192,76611,1,8,0:0:0:0:
256,192,76802,1,0,0:0:0:0:
256,192,76897,1,8,0:0:0:0:
256,192,77088,1,8,0:0:0:0:
256,192,77184,1,0,0:0:0:0:
256,192,77375,1,8,0:0:0:0:
256,192,77566,1,0,0:0:0:0:
256,192,77661,1,0,0:0:0:0:
256,192,77757,1,8,0:0:0:0:
256,192,77853,1,0,0:0:0:0:
256,192,77948,1,8,0:0:0:0:
256,192,78139,1,0,0:0:0:0:
256,192,78330,1,8,0:0:0:0:
256,192,78426,1,0,0:0:0:0:
256,192,78617,1,8,0:0:0:0:
256,192,78712,1,0,0:0:0:0:
256,192,78904,1,8,0:0:0:0:
256,192,79095,1,0,0:0:0:0:
256,192,79286,1,8,0:0:0:0:
256,192,79381,1,8,0:0:0:0:
256,192,79477,1,0,0:0:0:0:
256,192,79572,1,0,0:0:0:0:
256,192,79668,1,8,0:0:0:0:
256,192,79859,1,0,0:0:0:0:
256,192,79954,1,8,0:0:0:0:
256,192,80146,1,8,0:0:0:0:
256,192,80241,1,0,0:0:0:0:
256,192,80432,1,8,0:0:0:0:
256,192,80623,1,0,0:0:0:0:
256,192,80719,1,8,0:0:0:0:
256,192,80814,1,0,0:0:0:0:
256,192,80910,1,0,0:0:0:0:
256,192,81005,1,8,0:0:0:0:
256,192,81197,1,0,0:0:0:0:
256,192,81292,1,8,0:0:0:0:
256,192,81388,1,0,0:0:0:0:
256,192,81483,1,0,0:0:0:0:
256,192,81579,1,8,0:0:0:0:
256,192,81770,1,8,0:0:0:0:
256,192,81865,1,0,0:0:0:0:
256,192,81961,1,8,0:0:0:0:
256,192,82152,1,4,0:0:0:0:
256,192,82725,1,0,0:0:0:0:
256,192,83107,1,0,0:0:0:0:
256,192,83681,1,0,0:0:0:0:
256,192,84063,1,8,0:0:0:0:
256,192,84254,1,0,0:0:0:0:
256,192,84349,1,8,0:0:0:0:
256,192,84540,1,8,0:0:0:0:
256,192,84636,1,0,0:0:0:0:
256,192,84827,1,8,0:0:0:0:
256,192,85018,1,0,0:0:0:0:
256,192,85209,1,0,0:0:0:0:
256,192,85783,1,0,0:0:0:0:
256,192,86165,1,0,0:0:0:0:
256,192,86738,1,0,0:0:0:0:
256,192,86929,1,0,0:0:0:0:
256,192,87025,1,0,0:0:0:0:
256,192,87120,1,8,0:0:0:0:
256,192,87311,1,0,0:0:0:0:
256,192,87502,1,12,0:0:0:0:
256,192,87884,1,12,0:0:0:0:
256,192,88267,1,4,0:0:0:0:
256,192,88458,1,0,0:0:0:0:
256,192,88649,1,8,0:0:0:0:
256,192,88840,1,8,0:0:0:0:
256,192,88935,1,8,0:0:0:0:
256,192,89031,1,8,0:0:0:0:
256,192,89222,1,0,0:0:0:0:
256,192,89413,1,8,0:0:0:0:
256,192,89604,1,8,0:0:0:0:
256,192,89795,1,0,0:0:0:0:
256,192,90177,1,8,0:0:0:0:
256,192,90369,1,0,0:0:0:0:
256,192,90464,1,0,0:0:0:0:
256,192,90560,1,0,0:0:0:0:
256,192,90751,1,0,0:0:0:0:
256,192,90942,1,8,0:0:0:0:
256,192,91133,1,8,0:0:0:0:
256,192,91324,1,0,0:0:0:0:
256,192,91706,1,0,0:0:0:0:
256,192,91897,1,8,0:0:0:0:
256,192,91993,1,8,0:0:0:0:
256,192,92088,1,8,0:0:0:0:
256,192,92279,1,8,0:0:0:0:
256,192,92470,1,8,0:0:0:0:
256,192,92566,1,8,0:0:0:0:
256,192,92661,1,0,0:0:0:0:
256,192,92853,1,0,0:0:0:0:
256,192,92948,1,0,0:0:0:0:
256,192,93044,1,0,0:0:0:0:
256,192,93139,1,0,0:0:0:0:
256,192,93235,1,8,0:0:0:0:
256,192,93426,1,8,0:0:0:0:
256,192,93521,1,8,0:0:0:0:
256,192,93617,1,0,0:0:0:0:
256,192,93808,1,0,0:0:0:0:
256,192,93904,1,0,0:0:0:0:
256,192,93999,1,8,0:0:0:0:
256,192,94095,1,8,0:0:0:0:
256,192,94190,1,8,0:0:0:0:
256,192,94381,1,4,0:0:0:0:
256,192,94763,1,8,0:0:0:0:
256,192,94954,1,0,0:0:0:0:
256,192,95050,1,8,0:0:0:0:
256,192,95337,1,0,0:0:0:0:
256,192,95528,1,8,0:0:0:0:
256,192,95910,1,4,0:0:0:0:
256,192,96292,1,8,0:0:0:0:
256,192,96674,1,0,0:0:0:0:
256,192,96865,1,0,0:0:0:0:
256,192,97056,1,8,0:0:0:0:
256,192,97247,1,8,0:0:0:0:
256,192,97439,1,0,0:0:0:0:
256,192,97630,1,8,0:0:0:0:
256,192,97821,1,0,0:0:0:0:
256,192,98012,1,8,0:0:0:0:
256,192,98107,1,8,0:0:0:0:
256,192,98203,1,8,0:0:0:0:
256,192,98394,1,0,0:0:0:0:
256,192,98585,1,8,0:0:0:0:
256,192,98776,1,8,0:0:0:0:
256,192,98872,1,8,0:0:0:0:
256,192,98967,1,0,0:0:0:0:
256,192,99349,1,8,0:0:0:0:
256,192,99540,1,8,0:0:0:0:
256,192,99732,1,0,0:0:0:0:
256,192,99923,1,8,0:0:0:0:
256,192,100018,1,8,0:0:0:0:
256,192,100114,1,8,0:0:0:0:
256,192,100305,1,8,0:0:0:0:
256,192,100496,1,0,0:0:0:0:
256,192,100878,1,8,0:0:0:0:
256,192,101069,1,8,0:0:0:0:
256,192,101260,1,0,0:0:0:0:
256,192,101451,1,0,0:0:0:0:
256,192,101547,1,0,0:0:0:0:
256,192,101642,1,8,0:0:0:0:
256,192,101833,1,8,0:0:0:0:
256,192,102025,1,0,0:0:0:0:
256,192,102216,1,0,0:0:0:0:
256,192,102311,1,0,0:0:0:0:
256,192,102407,1,8,0:0:0:0:
256,192,102598,1,8,0:0:0:0:
256,192,102693,1,8,0:0:0:0:
256,192,102789,1,0,0:0:0:0:
256,192,102980,1,0,0:0:0:0:
256,192,103171,1,8,0:0:0:0:
256,192,103362,1,8,0:0:0:0:
256,192,103458,1,8,0:0:0:0:
256,192,103553,1,8,0:0:0:0:
256,192,103744,1,0,0:0:0:0:
256,192,103935,1,8,0:0:0:0:
256,192,104126,1,0,0:0:0:0:
256,192,104318,1,8,0:0:0:0:
256,192,104413,1,8,0:0:0:0:
256,192,104509,1,0,0:0:0:0:
256,192,104604,1,0,0:0:0:0:
256,192,104700,1,8,0:0:0:0:
256,192,104795,1,8,0:0:0:0:
256,192,104891,1,0,0:0:0:0:
256,192,105082,1,8,0:0:0:0:
256,192,105273,1,0,0:0:0:0:
256,192,105369,1,0,0:0:0:0:
256,192,105464,1,0,0:0:0:0:
256,192,106611,1,4,0:0:0:0:
256,192,106802,1,8,0:0:0:0:
256,192,106897,1,8,0:0:0:0:
256,192,106993,1,0,0:0:0:0:
256,192,107088,1,0,0:0:0:0:
256,192,107184,1,8,0:0:0:0:
256,192,107375,1,0,0:0:0:0:
256,192,107470,1,8,0:0:0:0:
256,192,107661,1,8,0:0:0:0:
256,192,107757,1,0,0:0:0:0:
256,192,107948,1,8,0:0:0:0:
256,192,108139,1,0,0:0:0:0:
256,192,108235,1,0,0:0:0:0:
256,192,108330,1,8,0:0:0:0:
256,192,108426,1,0,0:0:0:0:
256,192,108521,1,8,0:0:0:0:
256,192,108712,1,0,0:0:0:0:
256,192,108904,1,8,0:0:0:0:
256,192,108999,1,0,0:0:0:0:
256,192,109190,1,8,0:0:0:0:
256,192,109286,1,0,0:0:0:0:
256,192,109477,1,8,0:0:0:0:
256,192,109668,1,0,0:0:0:0:
256,192,109859,1,8,0:0:0:0:
256,192,109954,1,8,0:0:0:0:
256,192,110050,1,0,0:0:0:0:
256,192,110146,1,0,0:0:0:0:
256,192,110241,1,8,0:0:0:0:
256,192,110432,1,0,0:0:0:0:
256,192,110528,1,8,0:0:0:0:
256,192,110719,1,8,0:0:0:0:
256,192,110814,1,0,0:0:0:0:
256,192,111005,1,8,0:0:0:0:
256,192,111197,1,0,0:0:0:0:
256,192,111292,1,0,0:0:0:0:
256,192,111388,1,0,0:0:0:0:
256,192,111483,1,0,0:0:0:0:
256,192,111579,1,8,0:0:0:0:
256,192,111770,1,0,0:0:0:0:
256,192,111865,1,0,0:0:0:0:
256,192,111961,1,0,0:0:0:0:
256,192,112056,1,0,0:0:0:0:
256,192,112152,1,8,0:0:0:0:
256,192,112343,1,0,0:0:0:0:
256,192,112725,1,0,0:0:0:0:
256,192,112916,1,8,0:0:0:0:
256,192,113012,1,8,0:0:0:0:
256,192,113107,1,0,0:0:0:0:
256,192,113203,1,0,0:0:0:0:
256,192,113298,1,8,0:0:0:0:
256,192,113490,1,0,0:0:0:0:
256,192,113585,1,8,0:0:0:0:
256,192,113776,1,8,0:0:0:0:
256,192,113872,1,0,0:0:0:0:
256,192,114063,1,8,0:0:0:0:
256,192,114254,1,0,0:0:0:0:
256,192,114349,1,0,0:0:0:0:
256,192,114445,1,8,0:0:0:0:
256,192,114540,1,0,0:0:0:0:
256,192,114636,1,8,0:0:0:0:
256,192,114827,1,0,0:0:0:0:
256,192,115018,1,8,0:0:0:0:
256,192,115114,1,0,0:0:0:0:
256,192,115305,1,8,0:0:0:0:
256,192,115400,1,0,0:0:0:0:
256,192,115591,1,8,0:0:0:0:
256,192,115783,1,0,0:0:0:0:
256,192,115974,1,8,0:0:0:0:
256,192,116069,1,8,0:0:0:0:
256,192,116165,1,0,0:0:0:0:
256,192,116260,1,0,0:0:0:0:
256,192,116356,1,8,0:0:0:0:
256,192,116547,1,0,0:0:0:0:
256,192,116642,1,8,0:0:0:0:
256,192,116833,1,8,0:0:0:0:
256,192,116929,1,0,0:0:0:0:
256,192,117120,1,8,0:0:0:0:
256,192,117311,1,0,0:0:0:0:
256,192,117407,1,8,0:0:0:0:
256,192,117502,1,0,0:0:0:0:
256,192,117598,1,0,0:0:0:0:
256,192,117693,1,8,0:0:0:0:
256,192,117884,1,0,0:0:0:0:
256,192,117980,1,8,0:0:0:0:
256,192,118076,1,0,0:0:0:0:
256,192,118171,1,0,0:0:0:0:
256,192,118267,1,8,0:0:0:0:
256,192,118458,1,8,0:0:0:0:
256,192,118553,1,0,0:0:0:0:
256,192,118649,1,8,0:0:0:0:
256,192,118840,1,4,0:0:0:0:
