osu file format v14

[General]
AudioFilename: audio.mp3
AudioLeadIn: 0
PreviewTime: 69063
Countdown: 0
SampleSet: Normal
StackLeniency: 0.7
Mode: 1
LetterboxInBreaks: 0
WidescreenStoryboard: 0

[Editor]
Bookmarks: 2657,8771,14886,27115,39344,53102,69918,82147,95905,106606,118835
DistanceSpacing: 0.4
BeatDivisor: 4
GridSize: 32
TimelineZoom: 1

[Metadata]
Title:Daisuke
TitleUnicode:Daisuke
Artist:Y&Co.
ArtistUnicode:Y&Co.
Creator:duski
Version:Kqrth's Kantan
Source:beatmania IIDX 10th style
Tags:eurobeat Akira Yokota Tetsuya Tamura BeatStream アニムトライヴ animtribe DanceEvolution Arcade jubeat plus qubell rhythm konami bemani english japanese video game kqrth
BeatmapID:1867450
BeatmapSetID:882060

[Difficulty]
HPDrainRate:7
CircleSize:2
OverallDifficulty:3
ApproachRate:6
SliderMultiplier:1.4
SliderTickRate:1

[Events]
//Background and Video events
0,0,"57336576_p0.jpg",0,0
//Break Periods
//Storyboard Layer 0 (Background)
//Storyboard Layer 1 (Fail)
//Storyboard Layer 2 (Pass)
//Storyboard Layer 3 (Foreground)
//Storyboard Layer 4 (Overlay)
//Storyboard Sound Samples

[TimingPoints]
2662,382.165605095541,4,1,0,70,1,0
14795,-100,4,1,0,80,0,0
14891,-100,4,1,0,80,0,1
27120,-100,4,1,0,80,0,0
27216,-100,4,1,0,70,0,0
69827,-100,4,1,0,80,0,0
69923,-100,4,1,0,80,0,1
82152,-100,4,1,0,80,0,0
82247,-100,4,1,0,70,0,0
106515,-100,4,1,0,80,0,0
106611,-100,4,1,0,80,0,1
118840,-100,4,1,0,80,0,0

[HitObjects]
256,192,2662,5,4,0:0:0:0:
256,192,3044,1,8,0:0:0:0:
256,192,3808,1,8,0:0:0:0:
256,192,4190,1,0,0:0:0:0:
256,192,4954,1,8,0:0:0:0:
256,192,5719,1,0,0:0:0:0:
256,192,6101,1,8,0:0:0:0:
256,192,6865,1,8,0:0:0:0:
256,192,7247,1,0,0:0:0:0:
256,192,8776,1,4,0:0:0:0:
256,192,9158,1,8,0:0:0:0:
256,192,9923,1,8,0:0:0:0:
256,192,10305,1,0,0:0:0:0:
256,192,10687,1,8,0:0:0:0:
256,192,11451,1,8,0:0:0:0:
256,192,11833,1,0,0:0:0:0:
256,192,12216,1,8,0:0:0:0:
256,192,12789,1,8,0:0:0:0:
256,192,13362,1,0,0:0:0:0:
256,192,14891,1,4,0:0:0:0:
256,192,15655,1,8,0:0:0:0:
256,192,16037,1,8,0:0:0:0:
256,192,16419,1,0,0:0:0:0:
256,192,17184,1,8,0:0:0:0:
256,192,17948,1,0,0:0:0:0:
256,192,18330,1,0,0:0:0:0:
256,192,18712,1,8,0:0:0:0:
256,192,19477,1,0,0:0:0:0:
256,192,19859,1,8,0:0:0:0:
256,192,21005,1,4,0:0:0:0:
256,192,21770,1,8,0:0:0:0:
256,192,22152,1,8,0:0:0:0:
256,192,22534,1,0,0:0:0:0:
256,192,23298,1,8,0:0:0:0:
256,192,24063,1,0,0:0:0:0:
256,192,24445,1,0,0:0:0:0:
256,192,24827,1,8,0:0:0:0:
256,192,25591,1,0,0:0:0:0:
256,192,25974,1,8,0:0:0:0:
256,192,26547,1,8,0:0:0:0:
256,192,27120,1,4,0:0:0:0:
256,192,27502,1,0,0:0:0:0:
256,192,28649,1,8,0:0:0:0:
256,192,29031,1,8,0:0:0:0:
256,192,29413,1,0,0:0:0:0:
256,192,30177,1,8,0:0:0:0:
256,192,30942,1,0,0:0:0:0:
256,192,31706,1,12,0:0:0:0:
256,192,32088,1,12,0:0:0:0:
256,192,32470,1,12,0:0:0:0:
256,192,33235,1,4,0:0:0:0:
256,192,33617,1,0,0:0:0:0:
256,192,34763,1,8,0:0:0:0:
256,192,35146,1,8,0:0:0:0:
256,192,35528,1,0,0:0:0:0:
256,192,36292,1,8,0:0:0:0:
256,192,37056,1,0,0:0:0:0:
256,192,37821,1,12,0:0:0:0:
256,192,38203,1,12,0:0:0:0:
256,192,38585,1,12,0:0:0:0:
256,192,39349,1,4,0:0:0:0:
256,192,40687,1,8,0:0:0:0:
256,192,41260,1,0,0:0:0:0:
256,192,41642,1,8,0:0:0:0:
256,192,42407,1,0,0:0:0:0:
256,192,43171,1,0,0:0:0:0:
256,192,43744,1,8,0:0:0:0:
256,192,44318,1,0,0:0:0:0:
256,192,45464,1,4,0:0:0:0:
256,192,46037,1,8,0:0:0:0:
256,192,46993,1,0,0:0:0:0:
256,192,47566,1,8,0:0:0:0:
256,192,48521,1,0,0:0:0:0:
256,192,48904,1,8,0:0:0:0:
256,192,49477,1,8,0:0:0:0:
256,192,50050,1,0,0:0:0:0:
256,192,50623,1,8,0:0:0:0:
256,192,51005,1,8,0:0:0:0:
256,192,51579,1,0,0:0:0:0:
256,192,53107,1,12,0:0:0:0:
256,192,53872,1,8,0:0:0:0:
256,192,54254,1,0,0:0:0:0:
256,192,54636,1,8,0:0:0:0:
256,192,55400,1,0,0:0:0:0:
256,192,56165,1,8,0:0:0:0:
256,192,56929,1,8,0:0:0:0:
256,192,57311,1,8,0:0:0:0:
256,192,57693,1,0,0:0:0:0:
256,192,59222,1,8,0:0:0:0:
256,192,59604,1,8,0:0:0:0:
256,192,59986,1,0,0:0:0:0:
256,192,60751,1,0,0:0:0:0:
256,192,61515,1,0,0:0:0:0:
256,192,61897,1,0,0:0:0:0:
256,192,62279,1,8,0:0:0:0:
256,192,63426,1,0,0:0:0:0:
256,192,63808,1,8,0:0:0:0:
256,192,64954,1,8,0:0:0:0:
256,192,65337,1,8,0:0:0:0:
256,192,65910,1,8,0:0:0:0:
256,192,66674,1,8,0:0:0:0:
256,192,67056,1,8,0:0:0:0:
256,192,67439,1,8,0:0:0:0:
256,192,68394,1,0,0:0:0:0:
256,192,69923,1,4,0:0:0:0:
256,192,70687,1,8,0:0:0:0:
256,192,71069,1,8,0:0:0:0:
256,192,71451,1,0,0:0:0:0:
256,192,72216,1,8,0:0:0:0:
256,192,72980,1,0,0:0:0:0:
256,192,73362,1,0,0:0:0:0:
256,192,73744,1,8,0:0:0:0:
256,192,74509,1,0,0:0:0:0:
256,192,74891,1,8,0:0:0:0:
256,192,76037,1,4,0:0:0:0:
256,192,76802,1,8,0:0:0:0:
256,192,77184,1,8,0:0:0:0:
256,192,77566,1,0,0:0:0:0:
256,192,78330,1,8,0:0:0:0:
256,192,79095,1,0,0:0:0:0:
256,192,79477,1,0,0:0:0:0:
256,192,79859,1,8,0:0:0:0:
256,192,80623,1,0,0:0:0:0:
256,192,81005,1,8,0:0:0:0:
256,192,81579,1,8,0:0:0:0:
256,192,82152,1,4,0:0:0:0:
256,192,83490,1,8,0:0:0:0:
256,192,84063,1,0,0:0:0:0:
256,192,84445,1,8,0:0:0:0:
256,192,85209,1,0,0:0:0:0:
256,192,85974,1,8,0:0:0:0:
256,192,86547,1,0,0:0:0:0:
256,192,87120,1,0,0:0:0:0:
256,192,88267,1,4,0:0:0:0:
256,192,88840,1,8,0:0:0:0:
256,192,89795,1,0,0:0:0:0:
256,192,90369,1,8,0:0:0:0:
256,192,91324,1,0,0:0:0:0:
256,192,91706,1,8,0:0:0:0:
256,192,92279,1,8,0:0:0:0:
256,192,92853,1,0,0:0:0:0:
256,192,93426,1,8,0:0:0:0:
256,192,93808,1,8,0:0:0:0:
256,192,94381,1,0,0:0:0:0:
256,192,95910,1,12,0:0:0:0:
256,192,96674,1,8,0:0:0:0:
256,192,97056,1,0,0:0:0:0:
256,192,97439,1,8,0:0:0:0:
256,192,98203,1,0,0:0:0:0:
256,192,98585,1,0,0:0:0:0:
256,192,98967,1,8,0:0:0:0:
256,192,100114,1,0,0:0:0:0:
256,192,100496,1,8,0:0:0:0:
256,192,101642,1,8,0:0:0:0:
256,192,102025,1,8,0:0:0:0:
256,192,102598,1,8,0:0:0:0:
256,192,103362,1,8,0:0:0:0:
256,192,103744,1,8,0:0:0:0:
256,192,104126,1,8,0:0:0:0:
256,192,105082,1,0,0:0:0:0:
256,192,106611,1,4,0:0:0:0:
256,192,107375,1,8,0:0:0:0:
256,192,107757,1,8,0:0:0:0:
256,192,108139,1,0,0:0:0:0:
256,192,108904,1,8,0:0:0:0:
256,192,109668,1,0,0:0:0:0:
256,192,110050,1,0,0:0:0:0:
256,192,110432,1,8,0:0:0:0:
256,192,111197,1,0,0:0:0:0:
256,192,111579,1,8,0:0:0:0:
256,192,112725,1,0,0:0:0:0:
256,192,113490,1,8,0:0:0:0:
256,192,113872,1,8,0:0:0:0:
256,192,114254,1,0,0:0:0:0:
256,192,115018,1,8,0:0:0:0:
256,192,115783,1,0,0:0:0:0:
256,192,116165,1,0,0:0:0:0:
256,192,116547,1,8,0:0:0:0:
256,192,117311,1,0,0:0:0:0:
256,192,117693,1,8,0:0:0:0:
256,192,118267,1,8,0:0:0:0:
256,192,118840,1,4,0:0:0:0:
