osu file format v14

[General]
AudioFilename: audio.mp3
AudioLeadIn: 0
PreviewTime: 69063
Countdown: 0
SampleSet: Normal
StackLeniency: 0.7
Mode: 1
LetterboxInBreaks: 0
WidescreenStoryboard: 0

[Editor]
Bookmarks: 2657,8771,14886,27115,39344,53102,69918,82147,95905,106606,118835
DistanceSpacing: 0.4
BeatDivisor: 4
GridSize: 32
TimelineZoom: 1.5

[Metadata]
Title:Daisuke
TitleUnicode:Daisuke
Artist:Y&Co.
ArtistUnicode:Y&Co.
Creator:duski
Version:Kqrth's Futsuu
Source:beatmania IIDX 10th style
Tags:eurobeat Akira Yokota Tetsuya Tamura BeatStream アニムトライヴ animtribe DanceEvolution Arcade jubeat plus qubell rhythm konami bemani english japanese video game kqrth
BeatmapID:1967552
BeatmapSetID:882060

[Difficulty]
HPDrainRate:6
CircleSize:2
OverallDifficulty:4
ApproachRate:6
SliderMultiplier:1.4
SliderTickRate:1

[Events]
//Background and Video events
0,0,"57336576_p0.jpg",0,0
//Break Periods
//Storyboard Layer 0 (Background)
//Storyboard Layer 1 (Fail)
//Storyboard Layer 2 (Pass)
//Storyboard Layer 3 (Foreground)
//Storyboard Layer 4 (Overlay)
//Storyboard Sound Samples

[TimingPoints]
2662,382.165605095541,4,1,0,70,1,0
14795,-100,4,1,0,80,0,0
14891,-100,4,1,0,80,0,1
27120,-100,4,1,0,80,0,0
27216,-100,4,1,0,70,0,0
51865,-100,4,1,0,50,0,0
53012,-100,4,1,0,70,0,0
69827,-100,4,1,0,80,0,0
69923,-100,4,1,0,80,0,1
82152,-100,4,1,0,80,0,0
82247,-100,4,1,0,70,0,0
94668,-100,4,1,0,50,0,0
95814,-100,4,1,0,70,0,0
106515,-100,4,1,0,80,0,0
106611,-100,4,1,0,80,0,1
118840,-100,4,1,0,80,0,0

[HitObjects]
256,192,2662,5,4,0:0:0:0:
256,192,3044,1,8,0:0:0:0:
256,192,3617,1,0,0:0:0:0:
256,192,3808,1,8,0:0:0:0:
256,192,4190,1,0,0:0:0:0:
256,192,4572,1,8,0:0:0:0:
256,192,5337,1,8,0:0:0:0:
256,192,5719,1,0,0:0:0:0:
256,192,6101,1,8,0:0:0:0:
256,192,6292,1,0,0:0:0:0:
256,192,6674,1,0,0:0:0:0:
256,192,6865,1,8,0:0:0:0:
256,192,7247,1,0,0:0:0:0:
256,192,7630,1,8,0:0:0:0:
256,192,8394,1,8,0:0:0:0:
256,192,8776,1,4,0:0:0:0:
256,192,9158,1,8,0:0:0:0:
256,192,9349,1,0,0:0:0:0:
256,192,9732,1,0,0:0:0:0:
256,192,9923,1,8,0:0:0:0:
256,192,10305,1,0,0:0:0:0:
256,192,10687,1,8,0:0:0:0:
256,192,11069,1,0,0:0:0:0:
256,192,11260,1,0,0:0:0:0:
256,192,11451,1,8,0:0:0:0:
256,192,11833,1,0,0:0:0:0:
256,192,12216,1,8,0:0:0:0:
256,192,12598,1,0,0:0:0:0:
256,192,12789,1,8,0:0:0:0:
256,192,13171,1,8,0:0:0:0:
256,192,13362,1,0,0:0:0:0:
256,192,14891,1,4,0:0:0:0:
256,192,15273,1,8,0:0:0:0:
256,192,16037,1,8,0:0:0:0:
256,192,16419,1,0,0:0:0:0:
256,192,16611,1,0,0:0:0:0:
256,192,16802,1,8,0:0:0:0:
256,192,17184,1,8,0:0:0:0:
256,192,17566,1,0,0:0:0:0:
256,192,17757,1,8,0:0:0:0:
256,192,17948,1,0,0:0:0:0:
256,192,18330,1,0,0:0:0:0:
256,192,18521,1,8,0:0:0:0:
256,192,18904,1,8,0:0:0:0:
256,192,19095,1,0,0:0:0:0:
256,192,19477,1,0,0:0:0:0:
256,192,19859,1,8,0:0:0:0:
256,192,20432,1,8,0:0:0:0:
256,192,20814,1,8,0:0:0:0:
256,192,21005,1,4,0:0:0:0:
256,192,21388,1,8,0:0:0:0:
256,192,22152,1,8,0:0:0:0:
256,192,22534,1,0,0:0:0:0:
256,192,22725,1,0,0:0:0:0:
256,192,22916,1,8,0:0:0:0:
256,192,23298,1,8,0:0:0:0:
256,192,23681,1,0,0:0:0:0:
256,192,23872,1,8,0:0:0:0:
256,192,24063,1,0,0:0:0:0:
256,192,24445,1,0,0:0:0:0:
256,192,24636,1,8,0:0:0:0:
256,192,25018,1,8,0:0:0:0:
256,192,25209,1,0,0:0:0:0:
256,192,25591,1,0,0:0:0:0:
256,192,25783,1,0,0:0:0:0:
256,192,25974,1,8,0:0:0:0:
256,192,26547,1,8,0:0:0:0:
256,192,26929,1,8,0:0:0:0:
256,192,27120,1,4,0:0:0:0:
256,192,27502,1,0,0:0:0:0:
256,192,28649,1,8,0:0:0:0:
256,192,29031,1,8,0:0:0:0:
256,192,29413,1,0,0:0:0:0:
256,192,29795,1,0,0:0:0:0:
256,192,30177,1,8,0:0:0:0:
256,192,30369,1,0,0:0:0:0:
256,192,30560,1,8,0:0:0:0:
256,192,30942,1,0,0:0:0:0:
256,192,31324,1,0,0:0:0:0:
256,192,31515,1,0,0:0:0:0:
256,192,31706,1,12,0:0:0:0:
256,192,32088,1,12,0:0:0:0:
256,192,32470,1,12,0:0:0:0:
256,192,32661,1,12,0:0:0:0:
256,192,33235,1,4,0:0:0:0:
256,192,33617,1,0,0:0:0:0:
256,192,34763,1,8,0:0:0:0:
256,192,35146,1,8,0:0:0:0:
256,192,35528,1,0,0:0:0:0:
256,192,35910,1,0,0:0:0:0:
256,192,36292,1,8,0:0:0:0:
256,192,36483,1,8,0:0:0:0:
256,192,36674,1,8,0:0:0:0:
256,192,37056,1,0,0:0:0:0:
256,192,37439,1,8,0:0:0:0:
256,192,37630,1,0,0:0:0:0:
256,192,37821,1,12,0:0:0:0:
256,192,38203,1,12,0:0:0:0:
256,192,38585,1,12,0:0:0:0:
256,192,38776,1,12,0:0:0:0:
256,192,39349,1,4,0:0:0:0:
256,192,39732,1,0,0:0:0:0:
256,192,40114,1,8,0:0:0:0:
256,192,40496,1,0,0:0:0:0:
256,192,40687,1,8,0:0:0:0:
256,192,41260,1,0,0:0:0:0:
256,192,41642,1,8,0:0:0:0:
256,192,42407,1,0,0:0:0:0:
256,192,42789,1,0,0:0:0:0:
256,192,43171,1,8,0:0:0:0:
256,192,43553,1,0,0:0:0:0:
256,192,43744,1,8,0:0:0:0:
256,192,44126,1,8,0:0:0:0:
256,192,44318,1,0,0:0:0:0:
256,192,44700,1,12,0:0:0:0:
256,192,45464,1,4,0:0:0:0:
256,192,45846,1,0,0:0:0:0:
256,192,46037,1,8,0:0:0:0:
256,192,46611,1,8,0:0:0:0:
256,192,46993,1,0,0:0:0:0:
256,192,47375,1,8,0:0:0:0:
256,192,47566,1,0,0:0:0:0:
256,192,48139,1,8,0:0:0:0:
256,192,48521,1,0,0:0:0:0:
256,192,48904,1,8,0:0:0:0:
256,192,49095,1,8,0:0:0:0:
256,192,49477,1,8,0:0:0:0:
256,192,50050,1,0,0:0:0:0:
256,192,50241,1,8,0:0:0:0:
256,192,50623,1,8,0:0:0:0:
256,192,51005,1,8,0:0:0:0:
256,192,51388,1,8,0:0:0:0:
256,192,51579,1,0,0:0:0:0:
256,192,52343,1,0,0:0:0:0:
256,192,52725,1,0,0:0:0:0:
256,192,53107,1,12,0:0:0:0:
256,192,53872,1,8,0:0:0:0:
256,192,54063,1,8,0:0:0:0:
256,192,54254,1,0,0:0:0:0:
256,192,54445,1,8,0:0:0:0:
256,192,54827,1,8,0:0:0:0:
256,192,55400,1,0,0:0:0:0:
256,192,55783,1,0,0:0:0:0:
256,192,55974,1,0,0:0:0:0:
256,192,56165,1,8,0:0:0:0:
256,192,56929,1,8,0:0:0:0:
256,192,57120,1,0,0:0:0:0:
256,192,57311,1,8,0:0:0:0:
256,192,57502,1,8,0:0:0:0:
256,192,57884,1,8,0:0:0:0:
256,192,58267,1,0,0:0:0:0:
256,192,58649,1,8,0:0:0:0:
256,192,59222,1,8,0:0:0:0:
256,192,59986,1,8,0:0:0:0:
256,192,60177,1,8,0:0:0:0:
256,192,60369,1,0,0:0:0:0:
256,192,60560,1,8,0:0:0:0:
256,192,60942,1,8,0:0:0:0:
256,192,61324,1,0,0:0:0:0:
256,192,61706,1,0,0:0:0:0:
256,192,61897,1,8,0:0:0:0:
256,192,62088,1,0,0:0:0:0:
256,192,62470,1,0,0:0:0:0:
256,192,62853,1,8,0:0:0:0:
256,192,63235,1,0,0:0:0:0:
256,192,63426,1,0,0:0:0:0:
256,192,63617,1,8,0:0:0:0:
256,192,63999,1,8,0:0:0:0:
256,192,64381,1,0,0:0:0:0:
256,192,64763,1,0,0:0:0:0:
256,192,64954,1,8,0:0:0:0:
256,192,65146,1,0,0:0:0:0:
256,192,65528,1,8,0:0:0:0:
256,192,65910,1,8,0:0:0:0:
256,192,66101,1,0,0:0:0:0:
256,192,66292,1,8,0:0:0:0:
256,192,66674,1,8,0:0:0:0:
256,192,67056,1,8,0:0:0:0:
256,192,67439,1,8,0:0:0:0:
256,192,68394,1,8,0:0:0:0:
256,192,68585,1,0,0:0:0:0:
256,192,69923,1,4,0:0:0:0:
256,192,70305,1,8,0:0:0:0:
256,192,71069,1,8,0:0:0:0:
256,192,71451,1,0,0:0:0:0:
256,192,71642,1,0,0:0:0:0:
256,192,71833,1,8,0:0:0:0:
256,192,72216,1,8,0:0:0:0:
256,192,72598,1,0,0:0:0:0:
256,192,72789,1,8,0:0:0:0:
256,192,72980,1,0,0:0:0:0:
256,192,73362,1,0,0:0:0:0:
256,192,73553,1,8,0:0:0:0:
256,192,73935,1,8,0:0:0:0:
256,192,74126,1,0,0:0:0:0:
256,192,74509,1,0,0:0:0:0:
256,192,74891,1,8,0:0:0:0:
256,192,75464,1,8,0:0:0:0:
256,192,75846,1,8,0:0:0:0:
256,192,76037,1,4,0:0:0:0:
256,192,76419,1,8,0:0:0:0:
256,192,77184,1,8,0:0:0:0:
256,192,77566,1,0,0:0:0:0:
256,192,77757,1,0,0:0:0:0:
256,192,77948,1,8,0:0:0:0:
256,192,78330,1,8,0:0:0:0:
256,192,78712,1,0,0:0:0:0:
256,192,78904,1,8,0:0:0:0:
256,192,79095,1,0,0:0:0:0:
256,192,79477,1,0,0:0:0:0:
256,192,79668,1,8,0:0:0:0:
256,192,80050,1,8,0:0:0:0:
256,192,80241,1,0,0:0:0:0:
256,192,80623,1,0,0:0:0:0:
256,192,80814,1,0,0:0:0:0:
256,192,81005,1,8,0:0:0:0:
256,192,81579,1,8,0:0:0:0:
256,192,81961,1,8,0:0:0:0:
256,192,82152,1,4,0:0:0:0:
256,192,82916,1,8,0:0:0:0:
256,192,83298,1,0,0:0:0:0:
256,192,83490,1,8,0:0:0:0:
256,192,83872,1,8,0:0:0:0:
256,192,84063,1,0,0:0:0:0:
256,192,84445,1,8,0:0:0:0:
256,192,85209,1,0,0:0:0:0:
256,192,85591,1,0,0:0:0:0:
256,192,85974,1,8,0:0:0:0:
256,192,86356,1,8,0:0:0:0:
256,192,86547,1,0,0:0:0:0:
256,192,86929,1,8,0:0:0:0:
256,192,87120,1,0,0:0:0:0:
256,192,87311,1,0,0:0:0:0:
256,192,87502,1,12,0:0:0:0:
256,192,88267,1,4,0:0:0:0:
256,192,88840,1,8,0:0:0:0:
256,192,89795,1,0,0:0:0:0:
256,192,90177,1,0,0:0:0:0:
256,192,90369,1,8,0:0:0:0:
256,192,90942,1,8,0:0:0:0:
256,192,91324,1,0,0:0:0:0:
256,192,91515,1,8,0:0:0:0:
256,192,91897,1,8,0:0:0:0:
256,192,92088,1,0,0:0:0:0:
256,192,92279,1,8,0:0:0:0:
256,192,92661,1,0,0:0:0:0:
256,192,92853,1,0,0:0:0:0:
256,192,93044,1,8,0:0:0:0:
256,192,93426,1,8,0:0:0:0:
256,192,93808,1,8,0:0:0:0:
256,192,94190,1,8,0:0:0:0:
256,192,94381,1,0,0:0:0:0:
256,192,95146,1,0,0:0:0:0:
256,192,95528,1,0,0:0:0:0:
256,192,95910,1,12,0:0:0:0:
256,192,96674,1,8,0:0:0:0:
256,192,96865,1,8,0:0:0:0:
256,192,97056,1,0,0:0:0:0:
256,192,97247,1,8,0:0:0:0:
256,192,97630,1,8,0:0:0:0:
256,192,98394,1,0,0:0:0:0:
256,192,98585,1,8,0:0:0:0:
256,192,98776,1,0,0:0:0:0:
256,192,99158,1,0,0:0:0:0:
256,192,99540,1,8,0:0:0:0:
256,192,99923,1,0,0:0:0:0:
256,192,100114,1,0,0:0:0:0:
256,192,100305,1,8,0:0:0:0:
256,192,100687,1,8,0:0:0:0:
256,192,101069,1,0,0:0:0:0:
256,192,101451,1,0,0:0:0:0:
256,192,101642,1,8,0:0:0:0:
256,192,101833,1,0,0:0:0:0:
256,192,102216,1,8,0:0:0:0:
256,192,102598,1,8,0:0:0:0:
256,192,102789,1,0,0:0:0:0:
256,192,102980,1,8,0:0:0:0:
256,192,103362,1,8,0:0:0:0:
256,192,103744,1,8,0:0:0:0:
256,192,104126,1,8,0:0:0:0:
256,192,105082,1,8,0:0:0:0:
256,192,105273,1,0,0:0:0:0:
256,192,106611,1,4,0:0:0:0:
256,192,106993,1,8,0:0:0:0:
256,192,107757,1,8,0:0:0:0:
256,192,108139,1,0,0:0:0:0:
256,192,108330,1,0,0:0:0:0:
256,192,108521,1,8,0:0:0:0:
256,192,108904,1,8,0:0:0:0:
256,192,109286,1,0,0:0:0:0:
256,192,109477,1,8,0:0:0:0:
256,192,109668,1,0,0:0:0:0:
256,192,110050,1,0,0:0:0:0:
256,192,110241,1,8,0:0:0:0:
256,192,110623,1,8,0:0:0:0:
256,192,110814,1,0,0:0:0:0:
256,192,111197,1,0,0:0:0:0:
256,192,111579,1,8,0:0:0:0:
256,192,112152,1,8,0:0:0:0:
256,192,112534,1,8,0:0:0:0:
256,192,112725,1,0,0:0:0:0:
256,192,113107,1,8,0:0:0:0:
256,192,113872,1,8,0:0:0:0:
256,192,114254,1,0,0:0:0:0:
256,192,114445,1,0,0:0:0:0:
256,192,114636,1,8,0:0:0:0:
256,192,115018,1,8,0:0:0:0:
256,192,115400,1,0,0:0:0:0:
256,192,115591,1,8,0:0:0:0:
256,192,115783,1,0,0:0:0:0:
256,192,116165,1,0,0:0:0:0:
256,192,116356,1,8,0:0:0:0:
256,192,116738,1,8,0:0:0:0:
256,192,116929,1,0,0:0:0:0:
256,192,117311,1,0,0:0:0:0:
256,192,117502,1,0,0:0:0:0:
256,192,117693,1,8,0:0:0:0:
256,192,118267,1,8,0:0:0:0:
256,192,118649,1,8,0:0:0:0:
256,192,118840,1,4,0:0:0:0:
