osu file format v14

[General]
AudioFilename: audio.mp3
AudioLeadIn: 0
PreviewTime: 67499
Countdown: 0
SampleSet: Soft
StackLeniency: 0.7
Mode: 3
LetterboxInBreaks: 0
SpecialStyle: 0
WidescreenStoryboard: 1

[Editor]
DistanceSpacing: 0.8
BeatDivisor: 4
GridSize: 16
TimelineZoom: 1.5

[Metadata]
Title:Daisuke
TitleUnicode:Daisuke
Artist:Y&Co.
ArtistUnicode:Y&Co.
Creator:Marirose
Version:Biesuke
Source:beatmania IIDX
Tags:EUROBEAT KAHORI 10th Style jubeat
BeatmapID:1142357
BeatmapSetID:539086

[Difficulty]
HPDrainRate:8
CircleSize:4
OverallDifficulty:8
ApproachRate:5
SliderMultiplier:1.4
SliderTickRate:1

[Events]
//Background and Video events
Video,-555,"bga.mp4"
0,0,"BG bie.jpg",0,0
//Break Periods
//Storyboard Layer 0 (Background)
//Storyboard Layer 1 (Fail)
//Storyboard Layer 2 (Pass)
//Storyboard Layer 3 (Foreground)
//Storyboard Sound Samples

[TimingPoints]
1003,382.165605095541,4,2,0,0,1,0
51448,-100,4,2,0,0,0,1
66735,-100,4,2,0,0,0,0
68264,-100,4,2,0,0,0,1
80493,-100,4,2,0,0,0,0
94251,-100,4,2,0,0,0,1
109538,-100,4,2,0,0,0,0
111066,-100,4,2,0,0,0,1
123295,-100,4,2,0,0,0,0

[HitObjects]
64,192,1003,5,0,0:0:0:0:
320,192,1003,1,0,0:0:0:0:
448,192,1385,128,0,1576:0:0:0:0:
192,192,1385,1,0,0:0:0:0:
448,192,2149,1,0,0:0:0:0:
448,192,2913,1,0,0:0:0:0:
448,192,3678,1,0,0:0:0:0:
64,192,4060,1,0,0:0:0:0:
448,192,4442,1,0,0:0:0:0:
64,192,4633,1,0,0:0:0:0:
448,192,5206,1,0,0:0:0:0:
64,192,5588,1,0,0:0:0:0:
448,192,5971,1,0,0:0:0:0:
64,192,6162,1,0,0:0:0:0:
192,192,6544,1,0,0:0:0:0:
448,192,6544,1,0,0:0:0:0:
64,192,6735,1,0,0:0:0:0:
192,192,6926,1,0,0:0:0:0:
448,192,6926,1,0,0:0:0:0:
64,192,7117,1,0,0:0:0:0:
320,192,7117,1,0,0:0:0:0:
448,192,7308,1,0,0:0:0:0:
64,192,7499,1,0,0:0:0:0:
448,192,7499,128,0,7690:0:0:0:0:
320,192,7499,1,0,0:0:0:0:
192,192,7690,1,0,0:0:0:0:
64,192,7881,1,0,0:0:0:0:
320,192,8073,1,0,0:0:0:0:
64,192,8264,1,0,0:0:0:0:
448,192,8264,1,0,0:0:0:0:
320,192,8455,1,0,0:0:0:0:
64,192,8646,1,0,0:0:0:0:
448,192,8837,1,0,0:0:0:0:
64,192,9028,1,0,0:0:0:0:
320,192,9028,1,0,0:0:0:0:
448,192,9219,1,0,0:0:0:0:
64,192,9410,1,0,0:0:0:0:
320,192,9601,1,0,0:0:0:0:
64,192,9792,1,0,0:0:0:0:
448,192,9792,1,0,0:0:0:0:
320,192,9983,1,0,0:0:0:0:
64,192,10174,1,0,0:0:0:0:
320,192,10366,1,0,0:0:0:0:
64,192,10557,1,0,0:0:0:0:
448,192,10557,1,0,0:0:0:0:
320,192,10748,1,0,0:0:0:0:
64,192,10939,1,0,0:0:0:0:
448,192,11130,1,0,0:0:0:0:
64,192,11321,1,0,0:0:0:0:
320,192,11321,1,0,0:0:0:0:
448,192,11512,1,0,0:0:0:0:
64,192,11703,1,0,0:0:0:0:
64,192,13232,1,0,0:0:0:0:
448,192,13232,1,0,0:0:0:0:
320,192,13327,1,0,0:0:0:0:
192,192,13423,1,0,0:0:0:0:
448,192,13518,1,0,0:0:0:0:
320,192,13614,1,0,0:0:0:0:
64,192,13710,1,0,0:0:0:0:
448,192,13805,1,0,0:0:0:0:
192,192,13996,1,0,0:0:0:0:
448,192,14092,1,0,0:0:0:0:
320,192,14187,1,0,0:0:0:0:
64,192,14283,1,0,0:0:0:0:
448,192,14378,1,0,0:0:0:0:
192,192,14474,1,0,0:0:0:0:
320,192,14569,1,0,0:0:0:0:
64,192,14665,1,0,0:0:0:0:
192,192,14760,1,0,0:0:0:0:
448,192,14856,1,0,0:0:0:0:
64,192,14952,1,0,0:0:0:0:
320,192,15047,1,0,0:0:0:0:
64,192,15143,1,0,0:0:0:0:
192,192,15238,1,0,0:0:0:0:
320,192,15334,1,0,0:0:0:0:
448,192,15525,1,0,0:0:0:0:
192,192,15620,1,0,0:0:0:0:
64,192,15716,1,0,0:0:0:0:
192,192,15811,1,0,0:0:0:0:
448,192,15907,1,0,0:0:0:0:
64,192,16002,1,0,0:0:0:0:
320,192,16098,1,0,0:0:0:0:
192,192,16194,1,0,0:0:0:0:
64,192,16289,1,0,0:0:0:0:
192,192,16385,1,0,0:0:0:0:
320,192,16480,1,0,0:0:0:0:
448,192,16576,1,0,0:0:0:0:
320,192,16671,1,0,0:0:0:0:
64,192,16767,1,0,0:0:0:0:
448,192,16862,1,0,0:0:0:0:
192,192,17053,1,0,0:0:0:0:
448,192,17149,1,0,0:0:0:0:
320,192,17245,1,0,0:0:0:0:
64,192,17340,1,0,0:0:0:0:
448,192,17436,1,0,0:0:0:0:
192,192,17531,1,0,0:0:0:0:
320,192,17627,1,0,0:0:0:0:
64,192,17722,1,0,0:0:0:0:
192,192,17818,1,0,0:0:0:0:
448,192,17913,1,0,0:0:0:0:
64,192,18009,1,0,0:0:0:0:
320,192,18104,1,0,0:0:0:0:
448,192,18200,1,0,0:0:0:0:
192,192,18391,1,0,0:0:0:0:
448,192,18487,1,0,0:0:0:0:
64,192,18582,1,0,0:0:0:0:
320,192,18678,1,0,0:0:0:0:
448,192,18773,1,0,0:0:0:0:
64,192,18964,1,0,0:0:0:0:
320,192,19060,1,0,0:0:0:0:
448,192,19155,1,0,0:0:0:0:
192,192,19251,1,0,0:0:0:0:
64,192,19346,1,0,0:0:0:0:
448,192,19346,1,0,0:0:0:0:
320,192,19442,1,0,0:0:0:0:
192,192,19538,1,0,0:0:0:0:
448,192,19633,1,0,0:0:0:0:
64,192,19729,1,0,0:0:0:0:
320,192,19824,1,0,0:0:0:0:
448,192,19920,1,0,0:0:0:0:
64,192,20111,1,0,0:0:0:0:
320,192,20206,1,0,0:0:0:0:
448,192,20302,1,0,0:0:0:0:
192,192,20397,1,0,0:0:0:0:
64,192,20493,1,0,0:0:0:0:
320,192,20588,1,0,0:0:0:0:
448,192,20684,1,0,0:0:0:0:
192,192,20780,1,0,0:0:0:0:
64,192,20875,1,0,0:0:0:0:
320,192,20971,1,0,0:0:0:0:
192,192,21066,1,0,0:0:0:0:
448,192,21162,1,0,0:0:0:0:
64,192,21257,1,0,0:0:0:0:
320,192,21353,1,0,0:0:0:0:
448,192,21448,1,0,0:0:0:0:
448,192,21639,1,0,0:0:0:0:
64,192,21735,1,0,0:0:0:0:
320,192,21831,1,0,0:0:0:0:
192,192,21926,1,0,0:0:0:0:
448,192,22022,1,0,0:0:0:0:
64,192,22117,1,0,0:0:0:0:
320,192,22213,1,0,0:0:0:0:
192,192,22308,1,0,0:0:0:0:
64,192,22404,1,0,0:0:0:0:
320,192,22499,1,0,0:0:0:0:
192,192,22595,1,0,0:0:0:0:
448,192,22690,1,0,0:0:0:0:
64,192,22786,1,0,0:0:0:0:
320,192,22881,1,0,0:0:0:0:
448,192,22977,1,0,0:0:0:0:
192,192,23168,1,0,0:0:0:0:
448,192,23264,1,0,0:0:0:0:
320,192,23359,1,0,0:0:0:0:
64,192,23455,1,0,0:0:0:0:
448,192,23550,1,0,0:0:0:0:
192,192,23646,1,0,0:0:0:0:
320,192,23741,1,0,0:0:0:0:
64,192,23837,1,0,0:0:0:0:
192,192,23932,1,0,0:0:0:0:
448,192,24028,1,0,0:0:0:0:
64,192,24124,1,0,0:0:0:0:
320,192,24219,1,0,0:0:0:0:
448,192,24315,1,0,0:0:0:0:
64,192,24410,1,0,0:0:0:0:
192,192,24506,1,0,0:0:0:0:
448,192,24601,1,0,0:0:0:0:
64,192,24697,1,0,0:0:0:0:
320,192,24792,1,0,0:0:0:0:
448,192,24888,1,0,0:0:0:0:
192,192,25079,1,0,0:0:0:0:
448,192,25174,1,0,0:0:0:0:
64,192,25270,1,0,0:0:0:0:
320,192,25366,1,0,0:0:0:0:
64,192,25461,1,0,0:0:0:0:
448,192,25461,128,0,25652:0:0:0:0:
192,192,25461,1,0,0:0:0:0:
64,192,25843,1,0,0:0:0:0:
448,192,25843,128,0,26034:0:0:0:0:
64,192,26225,1,0,0:0:0:0:
64,192,26608,1,0,0:0:0:0:
64,192,26990,1,0,0:0:0:0:
320,192,26990,128,0,27181:0:0:0:0:
64,192,27372,1,0,0:0:0:0:
320,192,27372,128,0,27563:0:0:0:0:
192,192,27754,128,0,27945:0:0:0:0:
448,192,27754,1,0,0:0:0:0:
448,192,28136,1,0,0:0:0:0:
192,192,28136,128,0,28327:0:0:0:0:
64,192,28518,1,0,0:0:0:0:
320,192,28518,1,0,0:0:0:0:
192,192,28710,1,0,0:0:0:0:
64,192,28901,1,0,0:0:0:0:
448,192,28901,1,0,0:0:0:0:
192,192,29092,1,0,0:0:0:0:
320,192,29187,1,0,0:0:0:0:
64,192,29283,1,0,0:0:0:0:
448,192,29378,1,0,0:0:0:0:
192,192,29569,1,0,0:0:0:0:
320,192,29665,1,0,0:0:0:0:
64,192,29665,1,0,0:0:0:0:
448,192,29856,1,0,0:0:0:0:
64,192,30047,1,0,0:0:0:0:
320,192,30047,128,0,30238:0:0:0:0:
64,192,30429,1,0,0:0:0:0:
320,192,30429,128,0,30620:0:0:0:0:
448,192,30811,1,0,0:0:0:0:
192,192,30811,1,0,0:0:0:0:
192,192,31002,128,0,31194:0:0:0:0:
448,192,31002,1,0,0:0:0:0:
192,192,31385,128,0,31576:0:0:0:0:
448,192,31385,1,0,0:0:0:0:
320,192,31576,1,0,0:0:0:0:
448,192,31576,1,0,0:0:0:0:
64,192,31576,128,0,31767:0:0:0:0:
448,192,31958,1,0,0:0:0:0:
64,192,31958,128,0,32149:0:0:0:0:
448,192,32340,1,0,0:0:0:0:
448,192,32722,1,0,0:0:0:0:
448,192,33104,1,0,0:0:0:0:
192,192,33104,128,0,33295:0:0:0:0:
448,192,33487,1,0,0:0:0:0:
192,192,33487,128,0,33678:0:0:0:0:
64,192,33869,128,0,34060:0:0:0:0:
320,192,33869,1,0,0:0:0:0:
64,192,34251,128,0,34442:0:0:0:0:
320,192,34251,1,0,0:0:0:0:
64,192,34633,1,0,0:0:0:0:
192,192,34633,1,0,0:0:0:0:
320,192,34824,1,0,0:0:0:0:
448,192,35015,1,0,0:0:0:0:
64,192,35015,1,0,0:0:0:0:
192,192,35206,1,0,0:0:0:0:
320,192,35302,1,0,0:0:0:0:
64,192,35397,1,0,0:0:0:0:
448,192,35493,1,0,0:0:0:0:
192,192,35684,1,0,0:0:0:0:
320,192,35780,1,0,0:0:0:0:
64,192,35780,1,0,0:0:0:0:
448,192,35971,1,0,0:0:0:0:
320,192,36162,1,0,0:0:0:0:
64,192,36162,128,0,36353:0:0:0:0:
64,192,36544,128,0,36735:0:0:0:0:
320,192,36544,1,0,0:0:0:0:
192,192,36926,1,0,0:0:0:0:
448,192,36926,1,0,0:0:0:0:
192,192,37117,1,0,0:0:0:0:
448,192,37117,128,0,37308:0:0:0:0:
320,192,37499,1,0,0:0:0:0:
64,192,37499,1,0,0:0:0:0:
64,192,37690,1,0,0:0:0:0:
192,192,37690,1,0,0:0:0:0:
448,192,37690,1,0,0:0:0:0:
320,192,37881,1,0,0:0:0:0:
64,192,38073,1,0,0:0:0:0:
448,192,38073,1,0,0:0:0:0:
192,192,38264,1,0,0:0:0:0:
64,192,38455,1,0,0:0:0:0:
320,192,38455,1,0,0:0:0:0:
320,192,38646,1,0,0:0:0:0:
64,192,38837,1,0,0:0:0:0:
320,192,38837,1,0,0:0:0:0:
448,192,39028,1,0,0:0:0:0:
64,192,39219,1,0,0:0:0:0:
192,192,39410,1,0,0:0:0:0:
64,192,39601,1,0,0:0:0:0:
448,192,39601,1,0,0:0:0:0:
320,192,39792,128,0,40174:0:0:0:0:
64,192,39983,1,0,0:0:0:0:
192,192,40174,1,0,0:0:0:0:
64,192,40366,1,0,0:0:0:0:
320,192,40366,1,0,0:0:0:0:
448,192,40557,1,0,0:0:0:0:
64,192,40748,1,0,0:0:0:0:
320,192,40748,128,0,42467:0:0:0:0:
64,192,41130,1,0,0:0:0:0:
64,192,41512,1,0,0:0:0:0:
64,192,41894,1,0,0:0:0:0:
64,192,42276,1,0,0:0:0:0:
448,192,42467,128,0,42850:0:0:0:0:
64,192,42659,1,0,0:0:0:0:
448,192,43041,1,0,0:0:0:0:
192,192,43041,1,0,0:0:0:0:
64,192,43423,1,0,0:0:0:0:
320,192,43423,1,0,0:0:0:0:
64,192,43805,1,0,0:0:0:0:
192,192,43805,1,0,0:0:0:0:
448,192,43805,128,0,43996:0:0:0:0:
64,192,44187,1,0,0:0:0:0:
320,192,44378,128,0,44569:0:0:0:0:
64,192,44569,1,0,0:0:0:0:
192,192,44952,1,0,0:0:0:0:
448,192,44952,1,0,0:0:0:0:
64,192,45334,1,0,0:0:0:0:
320,192,45334,128,0,45525:0:0:0:0:
64,192,45716,1,0,0:0:0:0:
320,192,45907,128,0,46098:0:0:0:0:
64,192,46098,1,0,0:0:0:0:
320,192,46480,1,0,0:0:0:0:
448,192,46480,1,0,0:0:0:0:
64,192,46862,1,0,0:0:0:0:
448,192,47053,128,0,47436:0:0:0:0:
64,192,47245,1,0,0:0:0:0:
64,192,47627,1,0,0:0:0:0:
320,192,47818,128,0,48200:0:0:0:0:
64,192,48009,1,0,0:0:0:0:
192,192,48391,128,0,48582:0:0:0:0:
448,192,48391,1,0,0:0:0:0:
320,192,48582,128,0,48773:0:0:0:0:
448,192,48773,1,0,0:0:0:0:
192,192,48964,128,0,49155:0:0:0:0:
448,192,49155,1,0,0:0:0:0:
64,192,49346,128,0,49920:0:0:0:0:
448,192,49538,1,0,0:0:0:0:
192,192,49920,1,0,0:0:0:0:
448,192,49920,1,0,0:0:0:0:
64,192,51448,1,0,0:0:0:0:
448,192,51448,1,0,0:0:0:0:
320,192,51448,1,0,0:0:0:0:
192,192,51831,1,0,0:0:0:0:
448,192,51831,1,0,0:0:0:0:
448,192,52213,1,0,0:0:0:0:
64,192,52213,1,0,0:0:0:0:
320,192,52404,1,0,0:0:0:0:
320,192,52595,1,0,0:0:0:0:
64,192,52595,1,0,0:0:0:0:
192,192,52786,1,0,0:0:0:0:
64,192,52977,1,0,0:0:0:0:
320,192,53168,1,0,0:0:0:0:
64,192,53359,1,0,0:0:0:0:
320,192,53550,1,0,0:0:0:0:
64,192,53741,1,0,0:0:0:0:
448,192,53741,1,0,0:0:0:0:
192,192,53932,1,0,0:0:0:0:
64,192,54124,1,0,0:0:0:0:
320,192,54124,1,0,0:0:0:0:
448,192,54315,1,0,0:0:0:0:
64,192,54506,1,0,0:0:0:0:
320,192,54506,1,0,0:0:0:0:
192,192,54888,1,0,0:0:0:0:
448,192,54888,1,0,0:0:0:0:
64,192,55270,1,0,0:0:0:0:
320,192,55270,1,0,0:0:0:0:
448,192,55461,1,0,0:0:0:0:
448,192,55652,1,0,0:0:0:0:
64,192,55652,1,0,0:0:0:0:
320,192,55843,1,0,0:0:0:0:
64,192,56034,1,0,0:0:0:0:
192,192,56225,1,0,0:0:0:0:
64,192,56417,1,0,0:0:0:0:
448,192,56608,1,0,0:0:0:0:
64,192,56799,1,0,0:0:0:0:
320,192,56990,1,0,0:0:0:0:
64,192,57181,1,0,0:0:0:0:
64,192,57372,1,0,0:0:0:0:
64,192,57563,1,0,0:0:0:0:
320,192,57563,1,0,0:0:0:0:
448,192,57945,1,0,0:0:0:0:
192,192,57945,1,0,0:0:0:0:
64,192,58327,1,0,0:0:0:0:
448,192,58327,1,0,0:0:0:0:
320,192,58518,1,0,0:0:0:0:
320,192,58710,1,0,0:0:0:0:
64,192,58710,1,0,0:0:0:0:
192,192,58901,1,0,0:0:0:0:
64,192,59092,1,0,0:0:0:0:
320,192,59283,1,0,0:0:0:0:
64,192,59474,1,0,0:0:0:0:
448,192,59665,1,0,0:0:0:0:
64,192,59856,1,0,0:0:0:0:
320,192,59856,1,0,0:0:0:0:
64,192,60238,1,0,0:0:0:0:
448,192,60238,1,0,0:0:0:0:
64,192,60620,128,0,62149:0:0:0:0:
192,192,60811,1,0,0:0:0:0:
320,192,61002,1,0,0:0:0:0:
448,192,61194,128,0,61958:0:0:0:0:
192,192,62149,128,0,63678:0:0:0:0:
64,192,62340,1,0,0:0:0:0:
320,192,62531,1,0,0:0:0:0:
448,192,62722,128,0,63487:0:0:0:0:
64,192,63487,1,0,0:0:0:0:
320,192,63582,1,0,0:0:0:0:
64,192,63678,128,0,65206:0:0:0:0:
448,192,63678,128,0,64633:0:0:0:0:
320,192,64633,1,0,0:0:0:0:
192,192,64824,1,0,0:0:0:0:
320,192,65015,1,0,0:0:0:0:
448,192,65206,128,0,66735:0:0:0:0:
192,192,65206,128,0,65780:0:0:0:0:
64,192,65780,128,0,66735:0:0:0:0:
64,192,68264,1,0,0:0:0:0:
448,192,68264,1,0,0:0:0:0:
320,192,68359,1,0,0:0:0:0:
192,192,68455,1,0,0:0:0:0:
448,192,68550,1,0,0:0:0:0:
64,192,68646,1,0,0:0:0:0:
320,192,68741,1,0,0:0:0:0:
448,192,68837,1,0,0:0:0:0:
192,192,69028,1,0,0:0:0:0:
448,192,69124,1,0,0:0:0:0:
64,192,69219,1,0,0:0:0:0:
320,192,69315,1,0,0:0:0:0:
448,192,69410,1,0,0:0:0:0:
192,192,69506,1,0,0:0:0:0:
320,192,69601,1,0,0:0:0:0:
64,192,69697,1,0,0:0:0:0:
192,192,69792,1,0,0:0:0:0:
448,192,69888,1,0,0:0:0:0:
64,192,69983,1,0,0:0:0:0:
320,192,70079,1,0,0:0:0:0:
64,192,70174,1,0,0:0:0:0:
192,192,70270,1,0,0:0:0:0:
320,192,70366,1,0,0:0:0:0:
448,192,70557,1,0,0:0:0:0:
192,192,70652,1,0,0:0:0:0:
320,192,70748,1,0,0:0:0:0:
64,192,70843,1,0,0:0:0:0:
320,192,70939,1,0,0:0:0:0:
448,192,71034,1,0,0:0:0:0:
192,192,71130,1,0,0:0:0:0:
320,192,71225,1,0,0:0:0:0:
64,192,71321,1,0,0:0:0:0:
320,192,71417,1,0,0:0:0:0:
192,192,71512,1,0,0:0:0:0:
448,192,71608,1,0,0:0:0:0:
64,192,71703,1,0,0:0:0:0:
320,192,71799,1,0,0:0:0:0:
448,192,71894,1,0,0:0:0:0:
192,192,72085,1,0,0:0:0:0:
448,192,72181,1,0,0:0:0:0:
320,192,72276,1,0,0:0:0:0:
64,192,72372,1,0,0:0:0:0:
448,192,72467,1,0,0:0:0:0:
192,192,72563,1,0,0:0:0:0:
320,192,72659,1,0,0:0:0:0:
64,192,72754,1,0,0:0:0:0:
192,192,72850,1,0,0:0:0:0:
448,192,72945,1,0,0:0:0:0:
64,192,73041,1,0,0:0:0:0:
320,192,73136,1,0,0:0:0:0:
448,192,73232,1,0,0:0:0:0:
192,192,73423,1,0,0:0:0:0:
448,192,73518,1,0,0:0:0:0:
64,192,73614,1,0,0:0:0:0:
320,192,73710,1,0,0:0:0:0:
448,192,73805,1,0,0:0:0:0:
64,192,73996,1,0,0:0:0:0:
320,192,74092,1,0,0:0:0:0:
448,192,74187,1,0,0:0:0:0:
192,192,74283,1,0,0:0:0:0:
64,192,74378,1,0,0:0:0:0:
320,192,74474,1,0,0:0:0:0:
192,192,74569,1,0,0:0:0:0:
448,192,74665,1,0,0:0:0:0:
64,192,74760,1,0,0:0:0:0:
320,192,74856,1,0,0:0:0:0:
448,192,74952,1,0,0:0:0:0:
64,192,75143,1,0,0:0:0:0:
320,192,75238,1,0,0:0:0:0:
448,192,75334,1,0,0:0:0:0:
192,192,75429,1,0,0:0:0:0:
448,192,75525,1,0,0:0:0:0:
320,192,75620,1,0,0:0:0:0:
192,192,75716,1,0,0:0:0:0:
64,192,75811,1,0,0:0:0:0:
192,192,75907,1,0,0:0:0:0:
448,192,76002,1,0,0:0:0:0:
64,192,76098,1,0,0:0:0:0:
320,192,76194,1,0,0:0:0:0:
64,192,76289,1,0,0:0:0:0:
192,192,76385,1,0,0:0:0:0:
448,192,76480,1,0,0:0:0:0:
448,192,76671,1,0,0:0:0:0:
192,192,76767,1,0,0:0:0:0:
320,192,76862,1,0,0:0:0:0:
64,192,76958,1,0,0:0:0:0:
448,192,77053,1,0,0:0:0:0:
192,192,77149,1,0,0:0:0:0:
320,192,77245,1,0,0:0:0:0:
64,192,77340,1,0,0:0:0:0:
192,192,77436,1,0,0:0:0:0:
448,192,77531,1,0,0:0:0:0:
64,192,77627,1,0,0:0:0:0:
320,192,77722,1,0,0:0:0:0:
64,192,77818,1,0,0:0:0:0:
192,192,77913,1,0,0:0:0:0:
448,192,78009,1,0,0:0:0:0:
192,192,78200,1,0,0:0:0:0:
448,192,78295,1,0,0:0:0:0:
320,192,78391,1,0,0:0:0:0:
64,192,78487,1,0,0:0:0:0:
448,192,78582,1,0,0:0:0:0:
192,192,78678,1,0,0:0:0:0:
320,192,78773,1,0,0:0:0:0:
64,192,78869,1,0,0:0:0:0:
192,192,78964,1,0,0:0:0:0:
448,192,79060,1,0,0:0:0:0:
64,192,79155,1,0,0:0:0:0:
320,192,79251,1,0,0:0:0:0:
448,192,79346,1,0,0:0:0:0:
192,192,79538,1,0,0:0:0:0:
448,192,79633,1,0,0:0:0:0:
64,192,79729,1,0,0:0:0:0:
320,192,79824,1,0,0:0:0:0:
448,192,79920,1,0,0:0:0:0:
192,192,80111,1,0,0:0:0:0:
448,192,80206,1,0,0:0:0:0:
64,192,80302,1,0,0:0:0:0:
320,192,80397,1,0,0:0:0:0:
64,192,80493,1,0,0:0:0:0:
448,192,80493,1,0,0:0:0:0:
192,192,80493,1,0,0:0:0:0:
320,192,80684,1,0,0:0:0:0:
448,192,80875,1,0,0:0:0:0:
192,192,80875,1,0,0:0:0:0:
64,192,81066,1,0,0:0:0:0:
320,192,81066,1,0,0:0:0:0:
320,192,81257,1,0,0:0:0:0:
64,192,81448,1,0,0:0:0:0:
320,192,81448,1,0,0:0:0:0:
448,192,81639,1,0,0:0:0:0:
192,192,81639,1,0,0:0:0:0:
320,192,81831,1,0,0:0:0:0:
64,192,82022,1,0,0:0:0:0:
320,192,82213,1,0,0:0:0:0:
448,192,82404,1,0,0:0:0:0:
192,192,82404,1,0,0:0:0:0:
64,192,82595,1,0,0:0:0:0:
320,192,82595,1,0,0:0:0:0:
64,192,82977,1,0,0:0:0:0:
320,192,82977,1,0,0:0:0:0:
448,192,83168,1,0,0:0:0:0:
192,192,83168,1,0,0:0:0:0:
64,192,83359,1,0,0:0:0:0:
320,192,83359,1,0,0:0:0:0:
64,192,83550,1,0,0:0:0:0:
320,192,83741,1,0,0:0:0:0:
448,192,83932,1,0,0:0:0:0:
192,192,83932,1,0,0:0:0:0:
64,192,84124,1,0,0:0:0:0:
320,192,84124,1,0,0:0:0:0:
320,192,84315,1,0,0:0:0:0:
64,192,84506,1,0,0:0:0:0:
320,192,84506,1,0,0:0:0:0:
448,192,84697,1,0,0:0:0:0:
192,192,84697,1,0,0:0:0:0:
320,192,84888,1,0,0:0:0:0:
64,192,85079,1,0,0:0:0:0:
320,192,85270,1,0,0:0:0:0:
448,192,85461,1,0,0:0:0:0:
192,192,85461,1,0,0:0:0:0:
64,192,85652,1,0,0:0:0:0:
320,192,85652,1,0,0:0:0:0:
192,192,85843,1,0,0:0:0:0:
448,192,85843,1,0,0:0:0:0:
64,192,86225,1,0,0:0:0:0:
320,192,86225,1,0,0:0:0:0:
64,192,86608,1,0,0:0:0:0:
192,192,86608,1,0,0:0:0:0:
448,192,86608,1,0,0:0:0:0:
64,192,86990,1,0,0:0:0:0:
448,192,87181,128,0,87372:0:0:0:0:
64,192,87372,1,0,0:0:0:0:
448,192,87563,1,0,0:0:0:0:
320,192,87754,1,0,0:0:0:0:
64,192,87754,1,0,0:0:0:0:
192,192,87754,1,0,0:0:0:0:
448,192,87945,1,0,0:0:0:0:
64,192,88136,1,0,0:0:0:0:
320,192,88136,128,0,88710:0:0:0:0:
64,192,88518,1,0,0:0:0:0:
448,192,88710,128,0,89665:0:0:0:0:
64,192,88901,1,0,0:0:0:0:
64,192,89283,1,0,0:0:0:0:
192,192,89283,1,0,0:0:0:0:
64,192,89665,1,0,0:0:0:0:
320,192,89665,128,0,90047:0:0:0:0:
64,192,90047,1,0,0:0:0:0:
192,192,90047,128,0,90238:0:0:0:0:
448,192,90238,128,0,91002:0:0:0:0:
64,192,90429,1,0,0:0:0:0:
64,192,90811,1,0,0:0:0:0:
320,192,91002,128,0,91194:0:0:0:0:
64,192,91194,1,0,0:0:0:0:
192,192,91194,128,0,91385:0:0:0:0:
448,192,91385,128,0,91576:0:0:0:0:
64,192,91576,1,0,0:0:0:0:
192,192,91576,128,0,91767:0:0:0:0:
448,192,91767,128,0,92149:0:0:0:0:
64,192,91958,1,0,0:0:0:0:
320,192,92149,128,0,92722:0:0:0:0:
64,192,92340,1,0,0:0:0:0:
64,192,92722,1,0,0:0:0:0:
448,192,92722,1,0,0:0:0:0:
64,192,94251,1,0,0:0:0:0:
448,192,94251,1,0,0:0:0:0:
192,192,94251,128,0,94442:0:0:0:0:
448,192,94633,1,0,0:0:0:0:
64,192,94633,1,0,0:0:0:0:
320,192,94633,128,0,94824:0:0:0:0:
64,192,95015,1,0,0:0:0:0:
448,192,95015,1,0,0:0:0:0:
320,192,95206,1,0,0:0:0:0:
64,192,95397,1,0,0:0:0:0:
320,192,95397,1,0,0:0:0:0:
192,192,95588,128,0,95780:0:0:0:0:
64,192,95780,1,0,0:0:0:0:
320,192,95971,128,0,96162:0:0:0:0:
64,192,96162,1,0,0:0:0:0:
320,192,96353,1,0,0:0:0:0:
64,192,96544,1,0,0:0:0:0:
448,192,96544,1,0,0:0:0:0:
192,192,96735,1,0,0:0:0:0:
64,192,96926,1,0,0:0:0:0:
320,192,96926,1,0,0:0:0:0:
448,192,97117,1,0,0:0:0:0:
64,192,97308,1,0,0:0:0:0:
320,192,97308,128,0,97499:0:0:0:0:
64,192,97690,1,0,0:0:0:0:
192,192,97690,1,0,0:0:0:0:
448,192,97690,128,0,97881:0:0:0:0:
64,192,98073,1,0,0:0:0:0:
448,192,98073,1,0,0:0:0:0:
320,192,98264,1,0,0:0:0:0:
64,192,98455,1,0,0:0:0:0:
320,192,98455,1,0,0:0:0:0:
192,192,98646,128,0,98837:0:0:0:0:
64,192,98837,1,0,0:0:0:0:
320,192,99028,128,0,99219:0:0:0:0:
64,192,99219,1,0,0:0:0:0:
448,192,99410,128,0,99792:0:0:0:0:
64,192,99601,1,0,0:0:0:0:
320,192,99792,128,0,100174:0:0:0:0:
64,192,99983,1,0,0:0:0:0:
64,192,100174,1,0,0:0:0:0:
64,192,100366,1,0,0:0:0:0:
448,192,100366,128,0,100557:0:0:0:0:
64,192,100748,1,0,0:0:0:0:
320,192,100748,128,0,100939:0:0:0:0:
64,192,101130,1,0,0:0:0:0:
448,192,101130,1,0,0:0:0:0:
320,192,101321,1,0,0:0:0:0:
64,192,101512,1,0,0:0:0:0:
320,192,101512,1,0,0:0:0:0:
192,192,101703,128,0,101894:0:0:0:0:
64,192,101894,1,0,0:0:0:0:
320,192,102085,128,0,102276:0:0:0:0:
64,192,102276,1,0,0:0:0:0:
448,192,102467,1,0,0:0:0:0:
64,192,102659,1,0,0:0:0:0:
320,192,102659,128,0,102850:0:0:0:0:
64,192,103041,1,0,0:0:0:0:
448,192,103041,128,0,103232:0:0:0:0:
64,192,103423,128,0,104952:0:0:0:0:
192,192,103614,128,0,103805:0:0:0:0:
320,192,103805,128,0,103996:0:0:0:0:
448,192,103996,128,0,104760:0:0:0:0:
192,192,104952,128,0,106480:0:0:0:0:
64,192,105143,128,0,105334:0:0:0:0:
320,192,105334,128,0,105525:0:0:0:0:
448,192,105525,128,0,106289:0:0:0:0:
64,192,106289,1,0,0:0:0:0:
320,192,106385,1,0,0:0:0:0:
64,192,106480,128,0,108009:0:0:0:0:
448,192,106480,128,0,107436:0:0:0:0:
320,192,107436,128,0,107627:0:0:0:0:
192,192,107627,128,0,107818:0:0:0:0:
320,192,107818,128,0,108009:0:0:0:0:
448,192,108009,128,0,109538:0:0:0:0:
192,192,108009,128,0,108582:0:0:0:0:
64,192,108582,128,0,109538:0:0:0:0:
64,192,111066,1,0,0:0:0:0:
320,192,111066,1,0,0:0:0:0:
448,192,111066,1,0,0:0:0:0:
192,192,111162,1,0,0:0:0:0:
320,192,111257,1,0,0:0:0:0:
448,192,111353,1,0,0:0:0:0:
64,192,111448,1,0,0:0:0:0:
320,192,111448,1,0,0:0:0:0:
192,192,111544,1,0,0:0:0:0:
448,192,111639,1,0,0:0:0:0:
64,192,111831,1,0,0:0:0:0:
320,192,111831,1,0,0:0:0:0:
448,192,111926,1,0,0:0:0:0:
320,192,112022,1,0,0:0:0:0:
192,192,112117,1,0,0:0:0:0:
64,192,112213,1,0,0:0:0:0:
448,192,112213,1,0,0:0:0:0:
320,192,112308,1,0,0:0:0:0:
192,192,112404,1,0,0:0:0:0:
448,192,112499,1,0,0:0:0:0:
64,192,112595,1,0,0:0:0:0:
320,192,112595,1,0,0:0:0:0:
448,192,112690,1,0,0:0:0:0:
192,192,112786,1,0,0:0:0:0:
320,192,112881,1,0,0:0:0:0:
64,192,112977,1,0,0:0:0:0:
448,192,112977,1,0,0:0:0:0:
192,192,113073,1,0,0:0:0:0:
320,192,113168,1,0,0:0:0:0:
64,192,113359,1,0,0:0:0:0:
448,192,113359,1,0,0:0:0:0:
320,192,113455,1,0,0:0:0:0:
192,192,113550,1,0,0:0:0:0:
448,192,113646,1,0,0:0:0:0:
64,192,113741,1,0,0:0:0:0:
320,192,113741,1,0,0:0:0:0:
192,192,113837,1,0,0:0:0:0:
448,192,113932,1,0,0:0:0:0:
192,192,114028,1,0,0:0:0:0:
64,192,114124,1,0,0:0:0:0:
320,192,114124,1,0,0:0:0:0:
448,192,114219,1,0,0:0:0:0:
192,192,114315,1,0,0:0:0:0:
448,192,114410,1,0,0:0:0:0:
64,192,114506,1,0,0:0:0:0:
320,192,114506,1,0,0:0:0:0:
192,192,114601,1,0,0:0:0:0:
448,192,114697,1,0,0:0:0:0:
64,192,114888,1,0,0:0:0:0:
320,192,114888,1,0,0:0:0:0:
448,192,114983,1,0,0:0:0:0:
320,192,115079,1,0,0:0:0:0:
192,192,115174,1,0,0:0:0:0:
64,192,115270,1,0,0:0:0:0:
448,192,115270,1,0,0:0:0:0:
320,192,115366,1,0,0:0:0:0:
192,192,115461,1,0,0:0:0:0:
320,192,115557,1,0,0:0:0:0:
64,192,115652,1,0,0:0:0:0:
448,192,115652,1,0,0:0:0:0:
192,192,115748,1,0,0:0:0:0:
320,192,115843,1,0,0:0:0:0:
448,192,115939,1,0,0:0:0:0:
64,192,116034,1,0,0:0:0:0:
320,192,116034,1,0,0:0:0:0:
192,192,116225,1,0,0:0:0:0:
320,192,116321,1,0,0:0:0:0:
64,192,116417,1,0,0:0:0:0:
448,192,116417,1,0,0:0:0:0:
192,192,116512,1,0,0:0:0:0:
320,192,116608,1,0,0:0:0:0:
64,192,116799,1,0,0:0:0:0:
320,192,116799,1,0,0:0:0:0:
448,192,116894,1,0,0:0:0:0:
64,192,116990,1,0,0:0:0:0:
320,192,116990,1,0,0:0:0:0:
192,192,117085,1,0,0:0:0:0:
64,192,117181,1,0,0:0:0:0:
448,192,117181,1,0,0:0:0:0:
320,192,117276,1,0,0:0:0:0:
192,192,117372,1,0,0:0:0:0:
448,192,117467,1,0,0:0:0:0:
64,192,117563,1,0,0:0:0:0:
320,192,117563,1,0,0:0:0:0:
192,192,117659,1,0,0:0:0:0:
448,192,117754,1,0,0:0:0:0:
64,192,117945,1,0,0:0:0:0:
320,192,117945,1,0,0:0:0:0:
448,192,118041,1,0,0:0:0:0:
320,192,118136,1,0,0:0:0:0:
192,192,118232,1,0,0:0:0:0:
64,192,118327,1,0,0:0:0:0:
320,192,118327,1,0,0:0:0:0:
192,192,118423,1,0,0:0:0:0:
448,192,118518,1,0,0:0:0:0:
320,192,118614,1,0,0:0:0:0:
64,192,118710,1,0,0:0:0:0:
448,192,118710,1,0,0:0:0:0:
192,192,118805,1,0,0:0:0:0:
320,192,118901,1,0,0:0:0:0:
448,192,118996,1,0,0:0:0:0:
64,192,119092,1,0,0:0:0:0:
320,192,119092,1,0,0:0:0:0:
192,192,119187,1,0,0:0:0:0:
448,192,119283,1,0,0:0:0:0:
64,192,119474,1,0,0:0:0:0:
448,192,119474,1,0,0:0:0:0:
320,192,119569,1,0,0:0:0:0:
192,192,119665,1,0,0:0:0:0:
448,192,119760,1,0,0:0:0:0:
64,192,119856,1,0,0:0:0:0:
320,192,119856,1,0,0:0:0:0:
192,192,119952,1,0,0:0:0:0:
448,192,120047,1,0,0:0:0:0:
192,192,120143,1,0,0:0:0:0:
64,192,120238,1,0,0:0:0:0:
320,192,120238,1,0,0:0:0:0:
448,192,120334,1,0,0:0:0:0:
192,192,120429,1,0,0:0:0:0:
448,192,120525,1,0,0:0:0:0:
64,192,120620,1,0,0:0:0:0:
320,192,120620,1,0,0:0:0:0:
192,192,120716,1,0,0:0:0:0:
448,192,120811,1,0,0:0:0:0:
64,192,121002,1,0,0:0:0:0:
320,192,121002,1,0,0:0:0:0:
448,192,121098,1,0,0:0:0:0:
320,192,121194,1,0,0:0:0:0:
192,192,121289,1,0,0:0:0:0:
64,192,121385,1,0,0:0:0:0:
448,192,121385,1,0,0:0:0:0:
192,192,121480,1,0,0:0:0:0:
320,192,121576,1,0,0:0:0:0:
64,192,121671,1,0,0:0:0:0:
192,192,121767,128,0,121862:0:0:0:0:
448,192,121862,128,0,121958:0:0:0:0:
64,192,121958,128,0,122053:0:0:0:0:
320,192,122053,128,0,122149:0:0:0:0:
448,192,122149,128,0,122245:0:0:0:0:
192,192,122340,128,0,122436:0:0:0:0:
448,192,122436,128,0,122531:0:0:0:0:
64,192,122531,128,0,122627:0:0:0:0:
320,192,122627,128,0,122722:0:0:0:0:
448,192,122722,128,0,122818:0:0:0:0:
64,192,122913,128,0,123009:0:0:0:0:
192,192,123009,128,0,123104:0:0:0:0:
320,192,123104,128,0,123200:0:0:0:0:
448,192,123200,128,0,123295:0:0:0:0:
64,192,123295,1,0,0:0:0:0:
192,192,123295,1,0,0:0:0:0:
