osu file format v14

[General]
AudioFilename: audio.mp3
AudioLeadIn: 0
PreviewTime: 68962
Countdown: 0
SampleSet: Soft
StackLeniency: 0.7
Mode: 3
LetterboxInBreaks: 0
SpecialStyle: 0
WidescreenStoryboard: 0

[Editor]
DistanceSpacing: 0.4
BeatDivisor: 4
GridSize: 4
TimelineZoom: 2.7

[Metadata]
Title:Daisuke
TitleUnicode:Daisuke
Artist:Y&Co.
ArtistUnicode:Y&Co.
Creator:Kim_GodSSI
Version:Daisuke
Source:Beatmania IIDX 10th Style
Tags:
BeatmapID:1750955
BeatmapSetID:836080

[Difficulty]
HPDrainRate:8
CircleSize:7
OverallDifficulty:7
ApproachRate:5
SliderMultiplier:1.4
SliderTickRate:1

[Events]
//Background and Video events
Video,1050,"meme.avi"
0,0,"57336576_p0.jpg",0,0
//Break Periods
//Storyboard Layer 0 (Background)
//Storyboard Layer 1 (Fail)
//Storyboard Layer 2 (Pass)
//Storyboard Layer 3 (Foreground)
//Storyboard Sound Samples

[TimingPoints]
2657,382.165605095541,4,2,0,0,1,0

[HitObjects]
36,192,2657,5,0,0:0:0:0:
475,192,2657,1,0,0:0:0:0:
329,192,2657,1,0,0:0:0:0:
182,192,2657,1,0,0:0:0:0:
256,192,2848,1,0,0:0:0:0:
109,192,2848,1,0,0:0:0:0:
402,192,3039,1,0,0:0:0:0:
475,192,3039,1,0,0:0:0:0:
36,192,3039,1,0,0:0:0:0:
182,192,3039,1,0,0:0:0:0:
329,192,3230,1,0,0:0:0:0:
109,192,3230,1,0,0:0:0:0:
256,192,3325,1,0,0:0:0:0:
182,192,3421,1,0,0:0:0:0:
36,192,3421,1,0,0:0:0:0:
402,192,3421,1,0,0:0:0:0:
329,192,3516,1,0,0:0:0:0:
402,192,3612,1,0,0:0:0:0:
109,192,3612,1,0,0:0:0:0:
182,192,3707,1,0,0:0:0:0:
256,192,3803,1,0,0:0:0:0:
329,192,3803,1,0,0:0:0:0:
36,192,3803,1,0,0:0:0:0:
475,192,3803,1,0,0:0:0:0:
182,192,3994,1,0,0:0:0:0:
402,192,3994,1,0,0:0:0:0:
36,192,4185,1,0,0:0:0:0:
475,192,4185,1,0,0:0:0:0:
256,192,4185,1,0,0:0:0:0:
109,192,4376,1,0,0:0:0:0:
329,192,4376,1,0,0:0:0:0:
182,192,4567,1,0,0:0:0:0:
36,192,4567,1,0,0:0:0:0:
402,192,4567,1,0,0:0:0:0:
475,192,4567,1,0,0:0:0:0:
256,192,4758,1,0,0:0:0:0:
109,192,4758,1,0,0:0:0:0:
329,192,4854,1,0,0:0:0:0:
402,192,4949,1,0,0:0:0:0:
36,192,4949,1,0,0:0:0:0:
182,192,4949,1,0,0:0:0:0:
256,192,5045,1,0,0:0:0:0:
109,192,5141,1,0,0:0:0:0:
329,192,5141,1,0,0:0:0:0:
475,192,5141,1,0,0:0:0:0:
182,192,5332,1,0,0:0:0:0:
36,192,5332,1,0,0:0:0:0:
475,192,5332,1,0,0:0:0:0:
402,192,5332,1,0,0:0:0:0:
329,192,5523,1,0,0:0:0:0:
256,192,5523,1,0,0:0:0:0:
36,192,5714,1,0,0:0:0:0:
402,192,5714,1,0,0:0:0:0:
475,192,5714,1,0,0:0:0:0:
182,192,5714,1,0,0:0:0:0:
256,192,5905,1,0,0:0:0:0:
109,192,5905,1,0,0:0:0:0:
329,192,6096,1,0,0:0:0:0:
402,192,6096,1,0,0:0:0:0:
475,192,6096,1,0,0:0:0:0:
182,192,6287,1,0,0:0:0:0:
36,192,6287,1,0,0:0:0:0:
402,192,6287,1,0,0:0:0:0:
475,192,6287,1,0,0:0:0:0:
256,192,6478,1,0,0:0:0:0:
109,192,6478,1,0,0:0:0:0:
329,192,6574,1,0,0:0:0:0:
402,192,6669,1,0,0:0:0:0:
182,192,6669,1,0,0:0:0:0:
36,192,6669,1,0,0:0:0:0:
475,192,6669,1,0,0:0:0:0:
256,192,6860,1,0,0:0:0:0:
329,192,6860,1,0,0:0:0:0:
182,192,7051,1,0,0:0:0:0:
36,192,7051,1,0,0:0:0:0:
109,192,7242,1,0,0:0:0:0:
36,192,7242,1,0,0:0:0:0:
329,192,7242,1,0,0:0:0:0:
475,192,7242,1,0,0:0:0:0:
256,192,7434,1,0,0:0:0:0:
182,192,7434,1,0,0:0:0:0:
36,192,7625,1,0,0:0:0:0:
475,192,7625,1,0,0:0:0:0:
402,192,7625,1,0,0:0:0:0:
182,192,7625,1,0,0:0:0:0:
329,192,7816,1,0,0:0:0:0:
256,192,7911,1,0,0:0:0:0:
182,192,8007,1,0,0:0:0:0:
36,192,8007,1,0,0:0:0:0:
475,192,8007,1,0,0:0:0:0:
402,192,8102,1,0,0:0:0:0:
256,192,8198,1,0,0:0:0:0:
109,192,8198,1,0,0:0:0:0:
329,192,8198,1,0,0:0:0:0:
182,192,8389,1,0,0:0:0:0:
36,192,8389,1,0,0:0:0:0:
475,192,8389,1,0,0:0:0:0:
402,192,8389,1,0,0:0:0:0:
329,192,8485,1,0,0:0:0:0:
109,192,8580,1,0,0:0:0:0:
36,192,8580,1,0,0:0:0:0:
182,192,8676,1,0,0:0:0:0:
256,192,8771,1,0,0:0:0:0:
36,192,8771,1,0,0:0:0:0:
402,192,8771,1,0,0:0:0:0:
475,192,8771,1,0,0:0:0:0:
182,192,8962,1,0,0:0:0:0:
329,192,8962,128,0,9153:0:0:0:0:
109,192,9153,1,0,0:0:0:0:
36,192,9153,1,0,0:0:0:0:
475,192,9153,1,0,0:0:0:0:
402,192,9153,1,0,0:0:0:0:
329,192,9344,128,0,9535:0:0:0:0:
256,192,9344,1,0,0:0:0:0:
182,192,9440,1,0,0:0:0:0:
36,192,9535,1,0,0:0:0:0:
475,192,9535,1,0,0:0:0:0:
109,192,9535,1,0,0:0:0:0:
182,192,9631,1,0,0:0:0:0:
402,192,9727,128,0,9918:0:0:0:0:
256,192,9727,1,0,0:0:0:0:
182,192,9918,1,0,0:0:0:0:
36,192,9918,1,0,0:0:0:0:
475,192,10109,128,0,10300:0:0:0:0:
329,192,10109,1,0,0:0:0:0:
256,192,10109,1,0,0:0:0:0:
182,192,10300,1,0,0:0:0:0:
109,192,10300,1,0,0:0:0:0:
36,192,10300,1,0,0:0:0:0:
329,192,10491,128,0,10682:0:0:0:0:
402,192,10491,1,0,0:0:0:0:
475,192,10491,1,0,0:0:0:0:
182,192,10682,1,0,0:0:0:0:
36,192,10682,1,0,0:0:0:0:
329,192,10873,128,0,11064:0:0:0:0:
109,192,10873,1,0,0:0:0:0:
182,192,10969,1,0,0:0:0:0:
256,192,11064,1,0,0:0:0:0:
182,192,11160,1,0,0:0:0:0:
402,192,11255,128,0,11446:0:0:0:0:
475,192,11255,1,0,0:0:0:0:
109,192,11255,1,0,0:0:0:0:
182,192,11446,1,0,0:0:0:0:
36,192,11446,1,0,0:0:0:0:
256,192,11542,1,0,0:0:0:0:
475,192,11637,128,0,11828:0:0:0:0:
109,192,11637,1,0,0:0:0:0:
36,192,11637,1,0,0:0:0:0:
329,192,11637,1,0,0:0:0:0:
36,192,11828,1,0,0:0:0:0:
182,192,11828,1,0,0:0:0:0:
256,192,11924,1,0,0:0:0:0:
329,192,12020,128,0,12211:0:0:0:0:
109,192,12020,1,0,0:0:0:0:
475,192,12020,1,0,0:0:0:0:
402,192,12115,1,0,0:0:0:0:
256,192,12211,1,0,0:0:0:0:
36,192,12211,1,0,0:0:0:0:
109,192,12306,1,0,0:0:0:0:
329,192,12402,128,0,12593:0:0:0:0:
182,192,12402,1,0,0:0:0:0:
475,192,12402,1,0,0:0:0:0:
256,192,12497,1,0,0:0:0:0:
182,192,12593,1,0,0:0:0:0:
109,192,12688,1,0,0:0:0:0:
475,192,12784,128,0,12975:0:0:0:0:
36,192,12784,1,0,0:0:0:0:
256,192,12784,1,0,0:0:0:0:
109,192,12975,1,0,0:0:0:0:
182,192,13071,1,0,0:0:0:0:
402,192,13166,128,0,13357:0:0:0:0:
36,192,13166,1,0,0:0:0:0:
256,192,13166,1,0,0:0:0:0:
109,192,13357,1,0,0:0:0:0:
36,192,13357,1,0,0:0:0:0:
256,192,13357,1,0,0:0:0:0:
475,192,13357,1,0,0:0:0:0:
329,192,13548,1,0,0:0:0:0:
182,192,13739,1,0,0:0:0:0:
329,192,13930,1,0,0:0:0:0:
402,192,14026,1,0,0:0:0:0:
329,192,14121,1,0,0:0:0:0:
182,192,14217,1,0,0:0:0:0:
329,192,14313,1,0,0:0:0:0:
36,192,14504,1,0,0:0:0:0:
109,192,14504,1,0,0:0:0:0:
329,192,14695,1,0,0:0:0:0:
36,192,14886,1,0,0:0:0:0:
475,192,14886,1,0,0:0:0:0:
109,192,14886,128,0,14981:0:0:0:0:
329,192,14886,1,0,0:0:0:0:
182,192,14981,128,0,15077:0:0:0:0:
402,192,14981,1,0,0:0:0:0:
256,192,15077,128,0,15172:0:0:0:0:
475,192,15077,1,0,0:0:0:0:
329,192,15172,128,0,15268:0:0:0:0:
36,192,15172,1,0,0:0:0:0:
402,192,15268,128,0,15364:0:0:0:0:
109,192,15268,1,0,0:0:0:0:
329,192,15364,128,0,15459:0:0:0:0:
182,192,15364,1,0,0:0:0:0:
475,192,15459,128,0,15650:0:0:0:0:
36,192,15459,1,0,0:0:0:0:
109,192,15459,1,0,0:0:0:0:
182,192,15555,1,0,0:0:0:0:
329,192,15650,128,0,15746:0:0:0:0:
256,192,15650,1,0,0:0:0:0:
36,192,15650,1,0,0:0:0:0:
475,192,15746,128,0,15841:0:0:0:0:
109,192,15746,1,0,0:0:0:0:
182,192,15841,1,0,0:0:0:0:
329,192,15937,128,0,16032:0:0:0:0:
109,192,15937,1,0,0:0:0:0:
402,192,16032,128,0,16128:0:0:0:0:
36,192,16032,1,0,0:0:0:0:
256,192,16032,1,0,0:0:0:0:
329,192,16128,128,0,16223:0:0:0:0:
182,192,16128,1,0,0:0:0:0:
475,192,16223,128,0,16319:0:0:0:0:
36,192,16223,1,0,0:0:0:0:
182,192,16319,1,0,0:0:0:0:
329,192,16319,128,0,16414:0:0:0:0:
109,192,16414,128,0,16510:0:0:0:0:
36,192,16414,1,0,0:0:0:0:
256,192,16414,1,0,0:0:0:0:
402,192,16414,1,0,0:0:0:0:
475,192,16414,1,0,0:0:0:0:
182,192,16510,128,0,16606:0:0:0:0:
329,192,16510,1,0,0:0:0:0:
256,192,16606,128,0,16701:0:0:0:0:
402,192,16606,1,0,0:0:0:0:
329,192,16701,128,0,16797:0:0:0:0:
475,192,16701,1,0,0:0:0:0:
36,192,16701,1,0,0:0:0:0:
402,192,16797,128,0,16892:0:0:0:0:
109,192,16797,1,0,0:0:0:0:
329,192,16892,128,0,16988:0:0:0:0:
182,192,16892,1,0,0:0:0:0:
475,192,16988,128,0,17179:0:0:0:0:
109,192,16988,1,0,0:0:0:0:
36,192,16988,1,0,0:0:0:0:
256,192,17083,1,0,0:0:0:0:
329,192,17179,128,0,17274:0:0:0:0:
182,192,17179,1,0,0:0:0:0:
36,192,17179,1,0,0:0:0:0:
475,192,17274,128,0,17370:0:0:0:0:
109,192,17274,1,0,0:0:0:0:
36,192,17370,1,0,0:0:0:0:
329,192,17370,128,0,17465:0:0:0:0:
256,192,17370,1,0,0:0:0:0:
402,192,17465,128,0,17561:0:0:0:0:
182,192,17465,1,0,0:0:0:0:
329,192,17561,128,0,17656:0:0:0:0:
109,192,17561,1,0,0:0:0:0:
36,192,17561,1,0,0:0:0:0:
475,192,17561,1,0,0:0:0:0:
182,192,17656,128,0,17752:0:0:0:0:
402,192,17656,1,0,0:0:0:0:
109,192,17752,128,0,17848:0:0:0:0:
329,192,17752,1,0,0:0:0:0:
256,192,17848,128,0,17943:0:0:0:0:
475,192,17848,1,0,0:0:0:0:
109,192,17943,128,0,18039:0:0:0:0:
329,192,17943,1,0,0:0:0:0:
36,192,17943,1,0,0:0:0:0:
182,192,18039,128,0,18134:0:0:0:0:
402,192,18039,1,0,0:0:0:0:
256,192,18134,128,0,18230:0:0:0:0:
475,192,18134,1,0,0:0:0:0:
329,192,18230,128,0,18325:0:0:0:0:
36,192,18230,1,0,0:0:0:0:
402,192,18325,128,0,18421:0:0:0:0:
109,192,18325,1,0,0:0:0:0:
329,192,18421,128,0,18516:0:0:0:0:
182,192,18421,1,0,0:0:0:0:
475,192,18516,128,0,18707:0:0:0:0:
109,192,18516,1,0,0:0:0:0:
36,192,18516,1,0,0:0:0:0:
256,192,18612,1,0,0:0:0:0:
329,192,18707,128,0,18803:0:0:0:0:
182,192,18707,1,0,0:0:0:0:
36,192,18707,1,0,0:0:0:0:
475,192,18803,128,0,18899:0:0:0:0:
109,192,18803,1,0,0:0:0:0:
182,192,18899,1,0,0:0:0:0:
402,192,18899,1,0,0:0:0:0:
329,192,18994,128,0,19090:0:0:0:0:
36,192,18994,1,0,0:0:0:0:
256,192,19090,128,0,19185:0:0:0:0:
109,192,19090,1,0,0:0:0:0:
475,192,19090,1,0,0:0:0:0:
182,192,19185,128,0,19281:0:0:0:0:
36,192,19185,1,0,0:0:0:0:
402,192,19185,1,0,0:0:0:0:
329,192,19281,128,0,19376:0:0:0:0:
475,192,19281,1,0,0:0:0:0:
256,192,19376,128,0,19472:0:0:0:0:
109,192,19376,1,0,0:0:0:0:
182,192,19472,128,0,19567:0:0:0:0:
36,192,19472,1,0,0:0:0:0:
475,192,19472,1,0,0:0:0:0:
256,192,19567,128,0,19663:0:0:0:0:
402,192,19567,1,0,0:0:0:0:
329,192,19663,128,0,19758:0:0:0:0:
475,192,19663,1,0,0:0:0:0:
36,192,19663,1,0,0:0:0:0:
402,192,19758,128,0,19854:0:0:0:0:
109,192,19758,1,0,0:0:0:0:
475,192,19854,128,0,20045:0:0:0:0:
182,192,19854,1,0,0:0:0:0:
256,192,19949,1,0,0:0:0:0:
329,192,20045,128,0,20141:0:0:0:0:
36,192,20045,1,0,0:0:0:0:
256,192,20141,128,0,20236:0:0:0:0:
109,192,20141,1,0,0:0:0:0:
475,192,20236,1,0,0:0:0:0:
182,192,20236,128,0,20332:0:0:0:0:
36,192,20236,1,0,0:0:0:0:
402,192,20332,1,0,0:0:0:0:
109,192,20332,128,0,20427:0:0:0:0:
329,192,20427,1,0,0:0:0:0:
36,192,20427,128,0,20618:0:0:0:0:
256,192,20523,1,0,0:0:0:0:
329,192,20618,128,0,20714:0:0:0:0:
475,192,20618,1,0,0:0:0:0:
182,192,20714,128,0,20809:0:0:0:0:
402,192,20809,128,0,20905:0:0:0:0:
36,192,20809,1,0,0:0:0:0:
475,192,20809,1,0,0:0:0:0:
256,192,20905,128,0,21000:0:0:0:0:
109,192,21000,128,0,21096:0:0:0:0:
329,192,21000,1,0,0:0:0:0:
475,192,21000,1,0,0:0:0:0:
36,192,21000,1,0,0:0:0:0:
182,192,21096,128,0,21192:0:0:0:0:
402,192,21096,1,0,0:0:0:0:
256,192,21192,128,0,21287:0:0:0:0:
475,192,21192,1,0,0:0:0:0:
329,192,21287,128,0,21383:0:0:0:0:
36,192,21287,1,0,0:0:0:0:
402,192,21383,128,0,21478:0:0:0:0:
109,192,21383,1,0,0:0:0:0:
329,192,21478,128,0,21574:0:0:0:0:
182,192,21478,1,0,0:0:0:0:
475,192,21574,128,0,21765:0:0:0:0:
36,192,21574,1,0,0:0:0:0:
109,192,21574,1,0,0:0:0:0:
182,192,21669,1,0,0:0:0:0:
256,192,21765,128,0,21860:0:0:0:0:
36,192,21765,1,0,0:0:0:0:
402,192,21860,128,0,21956:0:0:0:0:
182,192,21860,1,0,0:0:0:0:
109,192,21956,1,0,0:0:0:0:
182,192,22051,128,0,22147:0:0:0:0:
36,192,22051,1,0,0:0:0:0:
329,192,22147,128,0,22242:0:0:0:0:
475,192,22147,1,0,0:0:0:0:
256,192,22242,128,0,22338:0:0:0:0:
109,192,22242,1,0,0:0:0:0:
402,192,22338,128,0,22434:0:0:0:0:
36,192,22338,1,0,0:0:0:0:
329,192,22434,128,0,22529:0:0:0:0:
182,192,22434,1,0,0:0:0:0:
109,192,22529,128,0,22625:0:0:0:0:
256,192,22529,1,0,0:0:0:0:
475,192,22529,1,0,0:0:0:0:
36,192,22529,1,0,0:0:0:0:
182,192,22625,128,0,22720:0:0:0:0:
402,192,22625,1,0,0:0:0:0:
256,192,22720,128,0,22816:0:0:0:0:
475,192,22720,1,0,0:0:0:0:
329,192,22816,128,0,22911:0:0:0:0:
36,192,22816,1,0,0:0:0:0:
402,192,22911,128,0,23007:0:0:0:0:
109,192,22911,1,0,0:0:0:0:
329,192,23007,128,0,23102:0:0:0:0:
182,192,23007,1,0,0:0:0:0:
475,192,23102,128,0,23293:0:0:0:0:
109,192,23102,1,0,0:0:0:0:
36,192,23102,1,0,0:0:0:0:
256,192,23198,1,0,0:0:0:0:
182,192,23293,128,0,23389:0:0:0:0:
36,192,23293,1,0,0:0:0:0:
402,192,23389,128,0,23485:0:0:0:0:
329,192,23389,1,0,0:0:0:0:
109,192,23485,1,0,0:0:0:0:
329,192,23580,128,0,23676:0:0:0:0:
182,192,23580,1,0,0:0:0:0:
256,192,23676,128,0,23771:0:0:0:0:
109,192,23676,1,0,0:0:0:0:
36,192,23676,1,0,0:0:0:0:
475,192,23771,1,0,0:0:0:0:
182,192,23771,128,0,23867:0:0:0:0:
402,192,23867,1,0,0:0:0:0:
109,192,23867,128,0,23962:0:0:0:0:
329,192,23962,1,0,0:0:0:0:
36,192,23962,128,0,24058:0:0:0:0:
402,192,24058,1,0,0:0:0:0:
182,192,24058,128,0,24153:0:0:0:0:
256,192,24153,128,0,24249:0:0:0:0:
475,192,24153,1,0,0:0:0:0:
329,192,24249,128,0,24344:0:0:0:0:
36,192,24249,1,0,0:0:0:0:
402,192,24344,128,0,24440:0:0:0:0:
109,192,24344,1,0,0:0:0:0:
475,192,24440,128,0,24535:0:0:0:0:
182,192,24440,1,0,0:0:0:0:
329,192,24535,128,0,24631:0:0:0:0:
256,192,24535,1,0,0:0:0:0:
475,192,24631,128,0,24822:0:0:0:0:
36,192,24631,1,0,0:0:0:0:
109,192,24631,1,0,0:0:0:0:
182,192,24727,1,0,0:0:0:0:
256,192,24822,128,0,24918:0:0:0:0:
36,192,24822,1,0,0:0:0:0:
402,192,24918,128,0,25013:0:0:0:0:
109,192,24918,1,0,0:0:0:0:
182,192,25013,1,0,0:0:0:0:
256,192,25109,128,0,25204:0:0:0:0:
109,192,25109,1,0,0:0:0:0:
329,192,25204,128,0,25300:0:0:0:0:
36,192,25204,1,0,0:0:0:0:
475,192,25204,1,0,0:0:0:0:
182,192,25300,128,0,25395:0:0:0:0:
109,192,25300,1,0,0:0:0:0:
402,192,25395,128,0,25491:0:0:0:0:
475,192,25395,1,0,0:0:0:0:
256,192,25491,128,0,25586:0:0:0:0:
109,192,25491,1,0,0:0:0:0:
182,192,25586,128,0,25682:0:0:0:0:
36,192,25586,1,0,0:0:0:0:
329,192,25586,1,0,0:0:0:0:
475,192,25586,1,0,0:0:0:0:
256,192,25682,128,0,25778:0:0:0:0:
402,192,25682,1,0,0:0:0:0:
329,192,25778,128,0,25873:0:0:0:0:
475,192,25778,1,0,0:0:0:0:
36,192,25778,1,0,0:0:0:0:
402,192,25873,128,0,25969:0:0:0:0:
109,192,25873,1,0,0:0:0:0:
475,192,25969,128,0,26160:0:0:0:0:
182,192,25969,1,0,0:0:0:0:
256,192,26064,1,0,0:0:0:0:
36,192,26064,1,0,0:0:0:0:
329,192,26160,128,0,26255:0:0:0:0:
109,192,26160,1,0,0:0:0:0:
256,192,26255,128,0,26351:0:0:0:0:
36,192,26255,1,0,0:0:0:0:
182,192,26351,128,0,26446:0:0:0:0:
475,192,26351,1,0,0:0:0:0:
109,192,26446,128,0,26542:0:0:0:0:
402,192,26446,1,0,0:0:0:0:
36,192,26542,128,0,26733:0:0:0:0:
329,192,26542,1,0,0:0:0:0:
402,192,26637,1,0,0:0:0:0:
256,192,26733,128,0,26828:0:0:0:0:
475,192,26733,1,0,0:0:0:0:
329,192,26828,128,0,26924:0:0:0:0:
36,192,26828,1,0,0:0:0:0:
402,192,26924,128,0,27020:0:0:0:0:
109,192,26924,1,0,0:0:0:0:
475,192,27020,128,0,27115:0:0:0:0:
182,192,27020,1,0,0:0:0:0:
256,192,27115,1,0,0:0:0:0:
36,192,27115,1,0,0:0:0:0:
329,192,27115,1,0,0:0:0:0:
475,192,27306,1,0,0:0:0:0:
329,192,27306,1,0,0:0:0:0:
109,192,27306,1,0,0:0:0:0:
109,192,27497,1,0,0:0:0:0:
329,192,27497,1,0,0:0:0:0:
475,192,27497,1,0,0:0:0:0:
402,192,27497,1,0,0:0:0:0:
36,192,27688,1,0,0:0:0:0:
256,192,27688,1,0,0:0:0:0:
182,192,27688,1,0,0:0:0:0:
36,192,27879,1,0,0:0:0:0:
182,192,27879,1,0,0:0:0:0:
402,192,27879,1,0,0:0:0:0:
36,192,28071,1,0,0:0:0:0:
182,192,28071,1,0,0:0:0:0:
109,192,28071,1,0,0:0:0:0:
402,192,28071,1,0,0:0:0:0:
256,192,28262,1,0,0:0:0:0:
329,192,28262,1,0,0:0:0:0:
475,192,28262,1,0,0:0:0:0:
182,192,28453,1,0,0:0:0:0:
109,192,28453,1,0,0:0:0:0:
36,192,28453,1,0,0:0:0:0:
182,192,28644,1,0,0:0:0:0:
36,192,28644,1,0,0:0:0:0:
329,192,28644,1,0,0:0:0:0:
475,192,28644,1,0,0:0:0:0:
256,192,28835,1,0,0:0:0:0:
402,192,28835,1,0,0:0:0:0:
329,192,28835,1,0,0:0:0:0:
182,192,29026,1,0,0:0:0:0:
36,192,29026,1,0,0:0:0:0:
329,192,29026,1,0,0:0:0:0:
475,192,29026,1,0,0:0:0:0:
182,192,29217,1,0,0:0:0:0:
109,192,29217,1,0,0:0:0:0:
256,192,29217,1,0,0:0:0:0:
182,192,29408,1,0,0:0:0:0:
36,192,29408,1,0,0:0:0:0:
329,192,29408,1,0,0:0:0:0:
475,192,29408,1,0,0:0:0:0:
109,192,29599,1,0,0:0:0:0:
256,192,29599,1,0,0:0:0:0:
402,192,29599,1,0,0:0:0:0:
182,192,29790,1,0,0:0:0:0:
36,192,29790,1,0,0:0:0:0:
329,192,29790,1,0,0:0:0:0:
475,192,29790,1,0,0:0:0:0:
402,192,29981,1,0,0:0:0:0:
329,192,29981,1,0,0:0:0:0:
256,192,29981,1,0,0:0:0:0:
182,192,30172,1,0,0:0:0:0:
36,192,30172,1,0,0:0:0:0:
256,192,30172,1,0,0:0:0:0:
475,192,30172,1,0,0:0:0:0:
329,192,30172,128,0,30268:0:0:0:0:
402,192,30364,128,0,30459:0:0:0:0:
109,192,30364,1,0,0:0:0:0:
256,192,30364,1,0,0:0:0:0:
475,192,30555,128,0,30650:0:0:0:0:
182,192,30555,1,0,0:0:0:0:
36,192,30555,1,0,0:0:0:0:
329,192,30555,1,0,0:0:0:0:
329,192,30746,128,0,30841:0:0:0:0:
109,192,30746,1,0,0:0:0:0:
36,192,30746,1,0,0:0:0:0:
402,192,30841,128,0,30937:0:0:0:0:
256,192,30937,1,0,0:0:0:0:
36,192,30937,1,0,0:0:0:0:
182,192,30937,1,0,0:0:0:0:
475,192,31032,128,0,31128:0:0:0:0:
109,192,31128,1,0,0:0:0:0:
182,192,31128,1,0,0:0:0:0:
329,192,31223,128,0,31319:0:0:0:0:
402,192,31319,128,0,31414:0:0:0:0:
36,192,31319,1,0,0:0:0:0:
109,192,31319,1,0,0:0:0:0:
475,192,31510,128,0,31606:0:0:0:0:
109,192,31510,1,0,0:0:0:0:
256,192,31510,1,0,0:0:0:0:
256,192,31701,128,0,31892:0:0:0:0:
402,192,31701,128,0,31892:0:0:0:0:
109,192,31701,128,0,31892:0:0:0:0:
256,192,32083,128,0,32274:0:0:0:0:
402,192,32083,128,0,32274:0:0:0:0:
109,192,32083,128,0,32274:0:0:0:0:
182,192,32465,128,0,32561:0:0:0:0:
329,192,32465,128,0,32561:0:0:0:0:
475,192,32465,128,0,32561:0:0:0:0:
475,192,32656,128,0,32848:0:0:0:0:
329,192,32656,128,0,32848:0:0:0:0:
182,192,32656,128,0,32848:0:0:0:0:
182,192,33039,128,0,33230:0:0:0:0:
329,192,33039,128,0,33230:0:0:0:0:
475,192,33039,128,0,33230:0:0:0:0:
36,192,33230,1,0,0:0:0:0:
109,192,33230,1,0,0:0:0:0:
256,192,33230,1,0,0:0:0:0:
182,192,33421,1,0,0:0:0:0:
36,192,33421,1,0,0:0:0:0:
329,192,33421,1,0,0:0:0:0:
182,192,33612,1,0,0:0:0:0:
109,192,33612,1,0,0:0:0:0:
329,192,33612,1,0,0:0:0:0:
36,192,33612,1,0,0:0:0:0:
256,192,33803,1,0,0:0:0:0:
475,192,33803,1,0,0:0:0:0:
402,192,33803,1,0,0:0:0:0:
182,192,33994,1,0,0:0:0:0:
329,192,33994,1,0,0:0:0:0:
475,192,33994,1,0,0:0:0:0:
182,192,34185,1,0,0:0:0:0:
329,192,34185,1,0,0:0:0:0:
402,192,34185,1,0,0:0:0:0:
475,192,34185,1,0,0:0:0:0:
256,192,34376,1,0,0:0:0:0:
109,192,34376,1,0,0:0:0:0:
36,192,34376,1,0,0:0:0:0:
182,192,34567,1,0,0:0:0:0:
36,192,34567,1,0,0:0:0:0:
329,192,34567,1,0,0:0:0:0:
109,192,34758,1,0,0:0:0:0:
36,192,34758,1,0,0:0:0:0:
402,192,34758,1,0,0:0:0:0:
475,192,34758,1,0,0:0:0:0:
256,192,34949,1,0,0:0:0:0:
402,192,34949,1,0,0:0:0:0:
109,192,35141,1,0,0:0:0:0:
36,192,35141,1,0,0:0:0:0:
402,192,35141,1,0,0:0:0:0:
475,192,35141,1,0,0:0:0:0:
109,192,35332,1,0,0:0:0:0:
256,192,35332,1,0,0:0:0:0:
182,192,35523,1,0,0:0:0:0:
36,192,35523,1,0,0:0:0:0:
329,192,35523,1,0,0:0:0:0:
475,192,35523,1,0,0:0:0:0:
256,192,35714,1,0,0:0:0:0:
402,192,35714,1,0,0:0:0:0:
329,192,35714,1,0,0:0:0:0:
182,192,35905,1,0,0:0:0:0:
36,192,35905,1,0,0:0:0:0:
329,192,35905,1,0,0:0:0:0:
475,192,35905,1,0,0:0:0:0:
256,192,36096,1,0,0:0:0:0:
182,192,36096,1,0,0:0:0:0:
109,192,36096,1,0,0:0:0:0:
329,192,36287,128,0,36383:0:0:0:0:
36,192,36287,1,0,0:0:0:0:
109,192,36287,1,0,0:0:0:0:
475,192,36287,1,0,0:0:0:0:
402,192,36478,128,0,36574:0:0:0:0:
182,192,36478,1,0,0:0:0:0:
256,192,36478,1,0,0:0:0:0:
475,192,36669,128,0,36765:0:0:0:0:
109,192,36669,1,0,0:0:0:0:
256,192,36669,1,0,0:0:0:0:
36,192,36669,1,0,0:0:0:0:
329,192,36860,128,0,36956:0:0:0:0:
109,192,36860,1,0,0:0:0:0:
182,192,36860,1,0,0:0:0:0:
402,192,36956,128,0,37051:0:0:0:0:
256,192,37051,1,0,0:0:0:0:
36,192,37051,1,0,0:0:0:0:
182,192,37051,1,0,0:0:0:0:
475,192,37147,128,0,37242:0:0:0:0:
182,192,37242,1,0,0:0:0:0:
36,192,37242,1,0,0:0:0:0:
329,192,37338,128,0,37434:0:0:0:0:
402,192,37434,128,0,37529:0:0:0:0:
256,192,37434,1,0,0:0:0:0:
36,192,37434,1,0,0:0:0:0:
109,192,37434,1,0,0:0:0:0:
475,192,37625,128,0,37720:0:0:0:0:
109,192,37625,1,0,0:0:0:0:
256,192,37625,1,0,0:0:0:0:
109,192,37816,128,0,38007:0:0:0:0:
256,192,37816,128,0,38007:0:0:0:0:
402,192,37816,128,0,38007:0:0:0:0:
109,192,38198,128,0,38389:0:0:0:0:
256,192,38198,128,0,38389:0:0:0:0:
402,192,38198,128,0,38389:0:0:0:0:
36,192,38580,128,0,38676:0:0:0:0:
182,192,38580,128,0,38676:0:0:0:0:
329,192,38580,128,0,38676:0:0:0:0:
475,192,38580,128,0,38676:0:0:0:0:
475,192,38771,128,0,38962:0:0:0:0:
329,192,38771,128,0,38962:0:0:0:0:
182,192,38771,128,0,38962:0:0:0:0:
36,192,38771,128,0,38962:0:0:0:0:
36,192,39153,1,0,0:0:0:0:
182,192,39153,1,0,0:0:0:0:
475,192,39153,128,0,39535:0:0:0:0:
36,192,39344,1,0,0:0:0:0:
182,192,39344,1,0,0:0:0:0:
329,192,39344,1,0,0:0:0:0:
402,192,39535,128,0,39727:0:0:0:0:
182,192,39535,1,0,0:0:0:0:
329,192,39727,128,0,39918:0:0:0:0:
182,192,39727,1,0,0:0:0:0:
36,192,39727,1,0,0:0:0:0:
402,192,39918,128,0,40109:0:0:0:0:
36,192,39918,1,0,0:0:0:0:
256,192,40109,128,0,40395:0:0:0:0:
36,192,40109,1,0,0:0:0:0:
182,192,40109,1,0,0:0:0:0:
475,192,40109,1,0,0:0:0:0:
329,192,40109,1,0,0:0:0:0:
475,192,40300,1,0,0:0:0:0:
256,192,40491,128,0,40682:0:0:0:0:
329,192,40491,1,0,0:0:0:0:
475,192,40491,1,0,0:0:0:0:
36,192,40491,1,0,0:0:0:0:
402,192,40682,128,0,41064:0:0:0:0:
36,192,40682,1,0,0:0:0:0:
36,192,40873,1,0,0:0:0:0:
182,192,40873,1,0,0:0:0:0:
329,192,41064,128,0,41255:0:0:0:0:
182,192,41064,1,0,0:0:0:0:
256,192,41255,128,0,41446:0:0:0:0:
36,192,41255,1,0,0:0:0:0:
182,192,41255,1,0,0:0:0:0:
475,192,41255,1,0,0:0:0:0:
329,192,41446,128,0,41637:0:0:0:0:
36,192,41446,1,0,0:0:0:0:
109,192,41637,128,0,41828:0:0:0:0:
36,192,41637,1,0,0:0:0:0:
182,192,41637,1,0,0:0:0:0:
402,192,41637,1,0,0:0:0:0:
475,192,41637,1,0,0:0:0:0:
182,192,41828,128,0,42020:0:0:0:0:
475,192,41828,1,0,0:0:0:0:
256,192,42020,128,0,42211:0:0:0:0:
329,192,42020,1,0,0:0:0:0:
475,192,42020,1,0,0:0:0:0:
36,192,42020,1,0,0:0:0:0:
182,192,42211,128,0,42402:0:0:0:0:
475,192,42211,128,0,42593:0:0:0:0:
36,192,42211,1,0,0:0:0:0:
36,192,42402,1,0,0:0:0:0:
109,192,42402,1,0,0:0:0:0:
329,192,42402,1,0,0:0:0:0:
402,192,42593,128,0,42784:0:0:0:0:
182,192,42593,1,0,0:0:0:0:
329,192,42784,128,0,42975:0:0:0:0:
36,192,42784,1,0,0:0:0:0:
182,192,42784,1,0,0:0:0:0:
475,192,42784,1,0,0:0:0:0:
402,192,42975,128,0,43166:0:0:0:0:
36,192,42975,1,0,0:0:0:0:
256,192,43166,128,0,43453:0:0:0:0:
36,192,43166,1,0,0:0:0:0:
182,192,43166,1,0,0:0:0:0:
475,192,43166,1,0,0:0:0:0:
475,192,43357,1,0,0:0:0:0:
256,192,43548,128,0,43739:0:0:0:0:
329,192,43548,1,0,0:0:0:0:
475,192,43548,1,0,0:0:0:0:
36,192,43548,1,0,0:0:0:0:
402,192,43739,128,0,44121:0:0:0:0:
36,192,43739,1,0,0:0:0:0:
36,192,43930,1,0,0:0:0:0:
182,192,43930,1,0,0:0:0:0:
475,192,43930,1,0,0:0:0:0:
329,192,44121,128,0,44313:0:0:0:0:
182,192,44121,1,0,0:0:0:0:
402,192,44313,128,0,44504:0:0:0:0:
182,192,44313,1,0,0:0:0:0:
36,192,44313,1,0,0:0:0:0:
475,192,44313,1,0,0:0:0:0:
475,192,44504,128,0,44599:0:0:0:0:
36,192,44504,1,0,0:0:0:0:
475,192,44695,128,0,44886:0:0:0:0:
329,192,44695,128,0,44886:0:0:0:0:
182,192,44695,128,0,44886:0:0:0:0:
109,192,45077,128,0,45268:0:0:0:0:
256,192,45077,128,0,45268:0:0:0:0:
402,192,45077,128,0,45268:0:0:0:0:
475,192,45268,128,0,45650:0:0:0:0:
36,192,45459,1,0,0:0:0:0:
182,192,45459,1,0,0:0:0:0:
329,192,45459,1,0,0:0:0:0:
329,192,45650,128,0,45841:0:0:0:0:
182,192,45650,1,0,0:0:0:0:
475,192,45841,128,0,46032:0:0:0:0:
36,192,45841,1,0,0:0:0:0:
182,192,45841,1,0,0:0:0:0:
329,192,46032,128,0,46223:0:0:0:0:
36,192,46032,1,0,0:0:0:0:
402,192,46223,128,0,46606:0:0:0:0:
36,192,46223,1,0,0:0:0:0:
182,192,46223,1,0,0:0:0:0:
182,192,46414,1,0,0:0:0:0:
36,192,46606,1,0,0:0:0:0:
182,192,46606,1,0,0:0:0:0:
329,192,46606,1,0,0:0:0:0:
475,192,46606,1,0,0:0:0:0:
36,192,46797,128,0,47179:0:0:0:0:
475,192,46797,1,0,0:0:0:0:
329,192,46988,1,0,0:0:0:0:
475,192,46988,1,0,0:0:0:0:
182,192,46988,1,0,0:0:0:0:
182,192,47179,128,0,47370:0:0:0:0:
329,192,47179,1,0,0:0:0:0:
36,192,47370,128,0,47561:0:0:0:0:
329,192,47370,1,0,0:0:0:0:
475,192,47370,1,0,0:0:0:0:
182,192,47561,128,0,47752:0:0:0:0:
475,192,47561,1,0,0:0:0:0:
109,192,47752,128,0,48134:0:0:0:0:
329,192,47752,1,0,0:0:0:0:
475,192,47752,1,0,0:0:0:0:
36,192,47752,1,0,0:0:0:0:
329,192,47943,1,0,0:0:0:0:
329,192,48134,1,0,0:0:0:0:
182,192,48134,1,0,0:0:0:0:
36,192,48134,1,0,0:0:0:0:
475,192,48134,1,0,0:0:0:0:
36,192,48325,128,0,48707:0:0:0:0:
256,192,48325,1,0,0:0:0:0:
402,192,48325,1,0,0:0:0:0:
256,192,48516,1,0,0:0:0:0:
109,192,48516,1,0,0:0:0:0:
402,192,48516,1,0,0:0:0:0:
475,192,48707,128,0,49090:0:0:0:0:
109,192,48707,1,0,0:0:0:0:
256,192,48707,1,0,0:0:0:0:
109,192,48899,1,0,0:0:0:0:
256,192,48899,1,0,0:0:0:0:
402,192,48899,1,0,0:0:0:0:
36,192,49090,128,0,49472:0:0:0:0:
256,192,49090,1,0,0:0:0:0:
402,192,49090,1,0,0:0:0:0:
256,192,49281,1,0,0:0:0:0:
402,192,49281,1,0,0:0:0:0:
109,192,49281,1,0,0:0:0:0:
475,192,49472,128,0,49854:0:0:0:0:
109,192,49472,1,0,0:0:0:0:
256,192,49472,1,0,0:0:0:0:
109,192,49663,1,0,0:0:0:0:
256,192,49663,1,0,0:0:0:0:
402,192,49663,1,0,0:0:0:0:
182,192,49854,128,0,50045:0:0:0:0:
256,192,49854,1,0,0:0:0:0:
402,192,49854,1,0,0:0:0:0:
329,192,50045,128,0,50236:0:0:0:0:
36,192,50045,1,0,0:0:0:0:
109,192,50045,1,0,0:0:0:0:
475,192,50045,1,0,0:0:0:0:
182,192,50141,1,0,0:0:0:0:
402,192,50236,128,0,50523:0:0:0:0:
256,192,50236,1,0,0:0:0:0:
36,192,50236,1,0,0:0:0:0:
109,192,50332,1,0,0:0:0:0:
182,192,50427,1,0,0:0:0:0:
109,192,50523,1,0,0:0:0:0:
402,192,50618,128,0,51000:0:0:0:0:
36,192,50618,1,0,0:0:0:0:
256,192,50618,1,0,0:0:0:0:
182,192,50714,1,0,0:0:0:0:
109,192,50809,1,0,0:0:0:0:
36,192,50905,1,0,0:0:0:0:
256,192,50905,1,0,0:0:0:0:
329,192,51000,128,0,51574:0:0:0:0:
182,192,51000,1,0,0:0:0:0:
109,192,51096,1,0,0:0:0:0:
475,192,51096,1,0,0:0:0:0:
36,192,51192,1,0,0:0:0:0:
402,192,51192,1,0,0:0:0:0:
256,192,51287,1,0,0:0:0:0:
182,192,51383,1,0,0:0:0:0:
109,192,51478,1,0,0:0:0:0:
36,192,51574,1,0,0:0:0:0:
256,192,51574,1,0,0:0:0:0:
402,192,51574,1,0,0:0:0:0:
475,192,51574,1,0,0:0:0:0:
182,192,52338,128,0,52529:0:0:0:0:
256,192,52529,128,0,52720:0:0:0:0:
329,192,52720,128,0,52911:0:0:0:0:
402,192,52911,128,0,53102:0:0:0:0:
36,192,53102,1,0,0:0:0:0:
109,192,53102,1,0,0:0:0:0:
182,192,53102,1,0,0:0:0:0:
329,192,53102,1,0,0:0:0:0:
475,192,53102,1,0,0:0:0:0:
256,192,53293,1,0,0:0:0:0:
402,192,53293,1,0,0:0:0:0:
36,192,53485,1,0,0:0:0:0:
475,192,53485,1,0,0:0:0:0:
402,192,53485,1,0,0:0:0:0:
256,192,53485,1,0,0:0:0:0:
109,192,53676,1,0,0:0:0:0:
36,192,53676,1,0,0:0:0:0:
182,192,53867,1,0,0:0:0:0:
36,192,53867,1,0,0:0:0:0:
475,192,53867,1,0,0:0:0:0:
402,192,53867,1,0,0:0:0:0:
329,192,54058,1,0,0:0:0:0:
402,192,54058,1,0,0:0:0:0:
329,192,54249,1,0,0:0:0:0:
256,192,54249,1,0,0:0:0:0:
36,192,54249,1,0,0:0:0:0:
475,192,54249,1,0,0:0:0:0:
182,192,54440,1,0,0:0:0:0:
109,192,54440,1,0,0:0:0:0:
402,192,54631,1,0,0:0:0:0:
329,192,54631,1,0,0:0:0:0:
475,192,54631,1,0,0:0:0:0:
36,192,54631,1,0,0:0:0:0:
256,192,54822,1,0,0:0:0:0:
109,192,54822,1,0,0:0:0:0:
36,192,54822,1,0,0:0:0:0:
182,192,55013,1,0,0:0:0:0:
475,192,55013,1,0,0:0:0:0:
329,192,55013,1,0,0:0:0:0:
402,192,55013,1,0,0:0:0:0:
182,192,55204,1,0,0:0:0:0:
36,192,55204,1,0,0:0:0:0:
36,192,55395,1,0,0:0:0:0:
109,192,55395,1,0,0:0:0:0:
329,192,55395,1,0,0:0:0:0:
475,192,55395,1,0,0:0:0:0:
109,192,55586,1,0,0:0:0:0:
182,192,55586,1,0,0:0:0:0:
182,192,55778,1,0,0:0:0:0:
256,192,55778,1,0,0:0:0:0:
36,192,55778,1,0,0:0:0:0:
329,192,55778,1,0,0:0:0:0:
475,192,55778,1,0,0:0:0:0:
256,192,55969,1,0,0:0:0:0:
329,192,55969,1,0,0:0:0:0:
182,192,56160,1,0,0:0:0:0:
36,192,56160,1,0,0:0:0:0:
402,192,56160,1,0,0:0:0:0:
329,192,56160,1,0,0:0:0:0:
475,192,56160,1,0,0:0:0:0:
256,192,56351,1,0,0:0:0:0:
402,192,56351,1,0,0:0:0:0:
475,192,56351,1,0,0:0:0:0:
182,192,56542,1,0,0:0:0:0:
329,192,56542,1,0,0:0:0:0:
36,192,56542,1,0,0:0:0:0:
475,192,56542,1,0,0:0:0:0:
182,192,56733,1,0,0:0:0:0:
36,192,56733,1,0,0:0:0:0:
36,192,56924,1,0,0:0:0:0:
109,192,56924,1,0,0:0:0:0:
329,192,56924,1,0,0:0:0:0:
475,192,56924,1,0,0:0:0:0:
182,192,56924,1,0,0:0:0:0:
109,192,57115,1,0,0:0:0:0:
182,192,57115,1,0,0:0:0:0:
256,192,57115,1,0,0:0:0:0:
182,192,57306,1,0,0:0:0:0:
256,192,57306,1,0,0:0:0:0:
329,192,57306,1,0,0:0:0:0:
182,192,57497,1,0,0:0:0:0:
36,192,57497,1,0,0:0:0:0:
329,192,57497,1,0,0:0:0:0:
475,192,57497,1,0,0:0:0:0:
256,192,57688,1,0,0:0:0:0:
402,192,57688,1,0,0:0:0:0:
475,192,57688,1,0,0:0:0:0:
36,192,57688,1,0,0:0:0:0:
402,192,57879,1,0,0:0:0:0:
109,192,57879,1,0,0:0:0:0:
256,192,57879,1,0,0:0:0:0:
109,192,58071,1,0,0:0:0:0:
36,192,58071,1,0,0:0:0:0:
329,192,58071,1,0,0:0:0:0:
475,192,58071,1,0,0:0:0:0:
182,192,58262,1,0,0:0:0:0:
256,192,58262,1,0,0:0:0:0:
182,192,58453,1,0,0:0:0:0:
109,192,58453,1,0,0:0:0:0:
36,192,58453,1,0,0:0:0:0:
402,192,58453,1,0,0:0:0:0:
475,192,58453,1,0,0:0:0:0:
182,192,58644,1,0,0:0:0:0:
256,192,58644,1,0,0:0:0:0:
109,192,58835,1,0,0:0:0:0:
36,192,58835,1,0,0:0:0:0:
402,192,58835,1,0,0:0:0:0:
475,192,58835,1,0,0:0:0:0:
182,192,59026,1,0,0:0:0:0:
109,192,59026,1,0,0:0:0:0:
329,192,59026,1,0,0:0:0:0:
402,192,59026,1,0,0:0:0:0:
256,192,59217,1,0,0:0:0:0:
36,192,59217,1,0,0:0:0:0:
475,192,59217,1,0,0:0:0:0:
109,192,59408,1,0,0:0:0:0:
182,192,59408,1,0,0:0:0:0:
256,192,59599,1,0,0:0:0:0:
36,192,59599,1,0,0:0:0:0:
475,192,59599,1,0,0:0:0:0:
329,192,59790,1,0,0:0:0:0:
402,192,59790,1,0,0:0:0:0:
329,192,59981,1,0,0:0:0:0:
256,192,59981,1,0,0:0:0:0:
36,192,59981,1,0,0:0:0:0:
402,192,59981,1,0,0:0:0:0:
182,192,60172,1,0,0:0:0:0:
329,192,60172,1,0,0:0:0:0:
256,192,60172,1,0,0:0:0:0:
256,192,60364,1,0,0:0:0:0:
182,192,60364,1,0,0:0:0:0:
109,192,60364,1,0,0:0:0:0:
182,192,60555,1,0,0:0:0:0:
256,192,60555,1,0,0:0:0:0:
329,192,60555,1,0,0:0:0:0:
36,192,60555,1,0,0:0:0:0:
109,192,60746,1,0,0:0:0:0:
36,192,60746,1,0,0:0:0:0:
402,192,60746,1,0,0:0:0:0:
475,192,60746,1,0,0:0:0:0:
182,192,60937,1,0,0:0:0:0:
329,192,60937,1,0,0:0:0:0:
475,192,60937,1,0,0:0:0:0:
109,192,61128,1,0,0:0:0:0:
36,192,61128,1,0,0:0:0:0:
402,192,61128,1,0,0:0:0:0:
475,192,61128,1,0,0:0:0:0:
182,192,61319,1,0,0:0:0:0:
36,192,61319,1,0,0:0:0:0:
329,192,61319,1,0,0:0:0:0:
256,192,61510,1,0,0:0:0:0:
109,192,61510,1,0,0:0:0:0:
475,192,61510,1,0,0:0:0:0:
36,192,61510,128,0,61892:0:0:0:0:
182,192,61701,1,0,0:0:0:0:
256,192,61701,1,0,0:0:0:0:
475,192,61892,128,0,62274:0:0:0:0:
256,192,61892,1,0,0:0:0:0:
329,192,61892,1,0,0:0:0:0:
329,192,62083,1,0,0:0:0:0:
402,192,62083,1,0,0:0:0:0:
109,192,62274,1,0,0:0:0:0:
36,192,62274,1,0,0:0:0:0:
402,192,62274,1,0,0:0:0:0:
256,192,62274,1,0,0:0:0:0:
109,192,62465,128,0,62656:0:0:0:0:
329,192,62465,1,0,0:0:0:0:
475,192,62465,1,0,0:0:0:0:
182,192,62656,128,0,62848:0:0:0:0:
329,192,62656,1,0,0:0:0:0:
475,192,62656,1,0,0:0:0:0:
36,192,62656,1,0,0:0:0:0:
256,192,62848,128,0,63803:0:0:0:0:
36,192,62848,1,0,0:0:0:0:
36,192,63039,1,0,0:0:0:0:
182,192,63039,1,0,0:0:0:0:
329,192,63039,1,0,0:0:0:0:
475,192,63039,1,0,0:0:0:0:
109,192,63230,1,0,0:0:0:0:
182,192,63230,1,0,0:0:0:0:
182,192,63421,1,0,0:0:0:0:
329,192,63421,1,0,0:0:0:0:
329,192,63612,1,0,0:0:0:0:
402,192,63612,1,0,0:0:0:0:
182,192,63803,1,0,0:0:0:0:
475,192,63803,1,0,0:0:0:0:
36,192,63803,1,0,0:0:0:0:
402,192,63994,128,0,64185:0:0:0:0:
256,192,63994,1,0,0:0:0:0:
109,192,63994,1,0,0:0:0:0:
329,192,64185,128,0,64376:0:0:0:0:
36,192,64185,1,0,0:0:0:0:
182,192,64185,1,0,0:0:0:0:
256,192,64376,128,0,65141:0:0:0:0:
109,192,64376,1,0,0:0:0:0:
36,192,64376,1,0,0:0:0:0:
402,192,64376,1,0,0:0:0:0:
475,192,64376,1,0,0:0:0:0:
109,192,64567,1,0,0:0:0:0:
182,192,64567,1,0,0:0:0:0:
329,192,64567,1,0,0:0:0:0:
402,192,64758,1,0,0:0:0:0:
475,192,64758,1,0,0:0:0:0:
36,192,64758,1,0,0:0:0:0:
329,192,64949,1,0,0:0:0:0:
402,192,64949,1,0,0:0:0:0:
182,192,65141,128,0,65236:0:0:0:0:
402,192,65141,1,0,0:0:0:0:
475,192,65141,128,0,65523:0:0:0:0:
109,192,65236,128,0,65332:0:0:0:0:
36,192,65332,128,0,66860:0:0:0:0:
329,192,65332,1,0,0:0:0:0:
329,192,65523,128,0,65905:0:0:0:0:
109,192,65523,1,0,0:0:0:0:
256,192,65523,1,0,0:0:0:0:
182,192,65714,1,0,0:0:0:0:
475,192,65905,128,0,66287:0:0:0:0:
109,192,65905,1,0,0:0:0:0:
256,192,65905,1,0,0:0:0:0:
402,192,66096,1,0,0:0:0:0:
256,192,66096,1,0,0:0:0:0:
109,192,66096,1,0,0:0:0:0:
329,192,66287,128,0,66669:0:0:0:0:
182,192,66287,1,0,0:0:0:0:
109,192,66478,1,0,0:0:0:0:
256,192,66478,1,0,0:0:0:0:
475,192,66669,128,0,67051:0:0:0:0:
182,192,66669,1,0,0:0:0:0:
109,192,66860,1,0,0:0:0:0:
256,192,66860,1,0,0:0:0:0:
402,192,66860,1,0,0:0:0:0:
329,192,67051,128,0,67434:0:0:0:0:
182,192,67051,1,0,0:0:0:0:
36,192,67051,1,0,0:0:0:0:
109,192,67242,1,0,0:0:0:0:
182,192,67434,128,0,68007:0:0:0:0:
36,192,67434,1,0,0:0:0:0:
475,192,67434,1,0,0:0:0:0:
256,192,67434,1,0,0:0:0:0:
402,192,67625,1,0,0:0:0:0:
329,192,67720,1,0,0:0:0:0:
256,192,67816,1,0,0:0:0:0:
329,192,67911,1,0,0:0:0:0:
402,192,68007,1,0,0:0:0:0:
109,192,68007,1,0,0:0:0:0:
182,192,68102,1,0,0:0:0:0:
256,192,68198,1,0,0:0:0:0:
182,192,68293,1,0,0:0:0:0:
109,192,68389,1,0,0:0:0:0:
402,192,68389,1,0,0:0:0:0:
402,192,69153,128,0,69344:0:0:0:0:
256,192,69344,128,0,69535:0:0:0:0:
109,192,69535,128,0,69727:0:0:0:0:
256,192,69727,128,0,69918:0:0:0:0:
475,192,69918,1,0,0:0:0:0:
36,192,69918,1,0,0:0:0:0:
402,192,69918,128,0,70013:0:0:0:0:
182,192,69918,1,0,0:0:0:0:
329,192,70013,128,0,70109:0:0:0:0:
109,192,70013,1,0,0:0:0:0:
256,192,70109,128,0,70204:0:0:0:0:
36,192,70109,1,0,0:0:0:0:
182,192,70204,128,0,70300:0:0:0:0:
475,192,70204,1,0,0:0:0:0:
109,192,70300,128,0,70395:0:0:0:0:
402,192,70300,1,0,0:0:0:0:
182,192,70395,128,0,70491:0:0:0:0:
329,192,70395,1,0,0:0:0:0:
36,192,70491,128,0,70682:0:0:0:0:
475,192,70491,1,0,0:0:0:0:
402,192,70491,1,0,0:0:0:0:
329,192,70586,1,0,0:0:0:0:
182,192,70682,128,0,70778:0:0:0:0:
256,192,70682,1,0,0:0:0:0:
475,192,70682,1,0,0:0:0:0:
36,192,70778,128,0,70873:0:0:0:0:
402,192,70778,1,0,0:0:0:0:
329,192,70873,1,0,0:0:0:0:
182,192,70969,128,0,71064:0:0:0:0:
402,192,70969,1,0,0:0:0:0:
109,192,71064,128,0,71160:0:0:0:0:
475,192,71064,1,0,0:0:0:0:
256,192,71064,1,0,0:0:0:0:
182,192,71160,128,0,71255:0:0:0:0:
329,192,71160,1,0,0:0:0:0:
36,192,71255,128,0,71351:0:0:0:0:
475,192,71255,1,0,0:0:0:0:
329,192,71351,1,0,0:0:0:0:
182,192,71351,128,0,71446:0:0:0:0:
402,192,71446,128,0,71542:0:0:0:0:
475,192,71446,1,0,0:0:0:0:
256,192,71446,1,0,0:0:0:0:
109,192,71446,1,0,0:0:0:0:
36,192,71446,1,0,0:0:0:0:
329,192,71542,128,0,71637:0:0:0:0:
182,192,71542,1,0,0:0:0:0:
256,192,71637,128,0,71733:0:0:0:0:
109,192,71637,1,0,0:0:0:0:
182,192,71733,128,0,71828:0:0:0:0:
36,192,71733,1,0,0:0:0:0:
475,192,71733,1,0,0:0:0:0:
109,192,71828,128,0,71924:0:0:0:0:
402,192,71828,1,0,0:0:0:0:
182,192,71924,128,0,72020:0:0:0:0:
329,192,71924,1,0,0:0:0:0:
36,192,72020,128,0,72211:0:0:0:0:
402,192,72020,1,0,0:0:0:0:
475,192,72020,1,0,0:0:0:0:
256,192,72115,1,0,0:0:0:0:
182,192,72211,128,0,72306:0:0:0:0:
329,192,72211,1,0,0:0:0:0:
475,192,72211,1,0,0:0:0:0:
36,192,72306,128,0,72402:0:0:0:0:
402,192,72306,1,0,0:0:0:0:
475,192,72402,1,0,0:0:0:0:
182,192,72402,128,0,72497:0:0:0:0:
256,192,72402,1,0,0:0:0:0:
109,192,72497,128,0,72593:0:0:0:0:
329,192,72497,1,0,0:0:0:0:
182,192,72593,128,0,72688:0:0:0:0:
402,192,72593,1,0,0:0:0:0:
475,192,72593,1,0,0:0:0:0:
36,192,72593,1,0,0:0:0:0:
329,192,72688,128,0,72784:0:0:0:0:
109,192,72688,1,0,0:0:0:0:
402,192,72784,128,0,72879:0:0:0:0:
182,192,72784,1,0,0:0:0:0:
256,192,72879,128,0,72975:0:0:0:0:
36,192,72879,1,0,0:0:0:0:
402,192,72975,128,0,73071:0:0:0:0:
182,192,72975,1,0,0:0:0:0:
475,192,72975,1,0,0:0:0:0:
329,192,73071,128,0,73166:0:0:0:0:
109,192,73071,1,0,0:0:0:0:
256,192,73166,128,0,73262:0:0:0:0:
36,192,73166,1,0,0:0:0:0:
182,192,73262,128,0,73357:0:0:0:0:
475,192,73262,1,0,0:0:0:0:
109,192,73357,128,0,73453:0:0:0:0:
402,192,73357,1,0,0:0:0:0:
182,192,73453,128,0,73548:0:0:0:0:
329,192,73453,1,0,0:0:0:0:
36,192,73548,128,0,73739:0:0:0:0:
402,192,73548,1,0,0:0:0:0:
475,192,73548,1,0,0:0:0:0:
256,192,73644,1,0,0:0:0:0:
182,192,73739,128,0,73835:0:0:0:0:
329,192,73739,1,0,0:0:0:0:
475,192,73739,1,0,0:0:0:0:
36,192,73835,128,0,73930:0:0:0:0:
402,192,73835,1,0,0:0:0:0:
329,192,73930,1,0,0:0:0:0:
109,192,73930,1,0,0:0:0:0:
182,192,74026,128,0,74121:0:0:0:0:
475,192,74026,1,0,0:0:0:0:
256,192,74121,128,0,74217:0:0:0:0:
402,192,74121,1,0,0:0:0:0:
36,192,74121,1,0,0:0:0:0:
329,192,74217,128,0,74313:0:0:0:0:
475,192,74217,1,0,0:0:0:0:
109,192,74217,1,0,0:0:0:0:
182,192,74313,128,0,74408:0:0:0:0:
36,192,74313,1,0,0:0:0:0:
256,192,74408,128,0,74504:0:0:0:0:
402,192,74408,1,0,0:0:0:0:
329,192,74504,128,0,74599:0:0:0:0:
475,192,74504,1,0,0:0:0:0:
36,192,74504,1,0,0:0:0:0:
256,192,74599,128,0,74695:0:0:0:0:
109,192,74599,1,0,0:0:0:0:
182,192,74695,128,0,74790:0:0:0:0:
36,192,74695,1,0,0:0:0:0:
475,192,74695,1,0,0:0:0:0:
109,192,74790,128,0,74886:0:0:0:0:
402,192,74790,1,0,0:0:0:0:
36,192,74886,128,0,75077:0:0:0:0:
329,192,74886,1,0,0:0:0:0:
256,192,74981,1,0,0:0:0:0:
182,192,75077,128,0,75172:0:0:0:0:
475,192,75077,1,0,0:0:0:0:
256,192,75172,128,0,75268:0:0:0:0:
402,192,75172,1,0,0:0:0:0:
36,192,75268,1,0,0:0:0:0:
329,192,75268,128,0,75364:0:0:0:0:
475,192,75268,1,0,0:0:0:0:
109,192,75364,1,0,0:0:0:0:
402,192,75364,128,0,75459:0:0:0:0:
182,192,75459,1,0,0:0:0:0:
475,192,75459,128,0,75650:0:0:0:0:
256,192,75555,1,0,0:0:0:0:
182,192,75650,128,0,75746:0:0:0:0:
36,192,75650,1,0,0:0:0:0:
329,192,75746,128,0,75841:0:0:0:0:
109,192,75841,128,0,75937:0:0:0:0:
475,192,75841,1,0,0:0:0:0:
36,192,75841,1,0,0:0:0:0:
256,192,75937,128,0,76032:0:0:0:0:
402,192,76032,128,0,76128:0:0:0:0:
182,192,76032,1,0,0:0:0:0:
36,192,76032,1,0,0:0:0:0:
475,192,76032,1,0,0:0:0:0:
329,192,76128,128,0,76223:0:0:0:0:
109,192,76128,1,0,0:0:0:0:
256,192,76223,128,0,76319:0:0:0:0:
36,192,76223,1,0,0:0:0:0:
182,192,76319,128,0,76414:0:0:0:0:
475,192,76319,1,0,0:0:0:0:
109,192,76414,128,0,76510:0:0:0:0:
402,192,76414,1,0,0:0:0:0:
182,192,76510,128,0,76606:0:0:0:0:
329,192,76510,1,0,0:0:0:0:
36,192,76606,128,0,76797:0:0:0:0:
475,192,76606,1,0,0:0:0:0:
402,192,76606,1,0,0:0:0:0:
329,192,76701,1,0,0:0:0:0:
256,192,76797,128,0,76892:0:0:0:0:
475,192,76797,1,0,0:0:0:0:
109,192,76892,128,0,76988:0:0:0:0:
329,192,76892,1,0,0:0:0:0:
402,192,76988,1,0,0:0:0:0:
329,192,77083,128,0,77179:0:0:0:0:
475,192,77083,1,0,0:0:0:0:
182,192,77179,128,0,77274:0:0:0:0:
36,192,77179,1,0,0:0:0:0:
256,192,77274,128,0,77370:0:0:0:0:
402,192,77274,1,0,0:0:0:0:
109,192,77370,128,0,77465:0:0:0:0:
475,192,77370,1,0,0:0:0:0:
182,192,77465,128,0,77561:0:0:0:0:
329,192,77465,1,0,0:0:0:0:
402,192,77561,128,0,77656:0:0:0:0:
256,192,77561,1,0,0:0:0:0:
36,192,77561,1,0,0:0:0:0:
475,192,77561,1,0,0:0:0:0:
329,192,77656,128,0,77752:0:0:0:0:
109,192,77656,1,0,0:0:0:0:
256,192,77752,128,0,77848:0:0:0:0:
36,192,77752,1,0,0:0:0:0:
182,192,77848,128,0,77943:0:0:0:0:
475,192,77848,1,0,0:0:0:0:
109,192,77943,128,0,78039:0:0:0:0:
402,192,77943,1,0,0:0:0:0:
182,192,78039,128,0,78134:0:0:0:0:
329,192,78039,1,0,0:0:0:0:
36,192,78134,128,0,78325:0:0:0:0:
402,192,78134,1,0,0:0:0:0:
475,192,78134,1,0,0:0:0:0:
256,192,78230,1,0,0:0:0:0:
329,192,78325,128,0,78421:0:0:0:0:
475,192,78325,1,0,0:0:0:0:
109,192,78421,128,0,78516:0:0:0:0:
182,192,78421,1,0,0:0:0:0:
402,192,78516,1,0,0:0:0:0:
182,192,78612,128,0,78707:0:0:0:0:
329,192,78612,1,0,0:0:0:0:
256,192,78707,128,0,78803:0:0:0:0:
402,192,78707,1,0,0:0:0:0:
475,192,78707,1,0,0:0:0:0:
36,192,78803,1,0,0:0:0:0:
329,192,78803,128,0,78899:0:0:0:0:
109,192,78899,1,0,0:0:0:0:
402,192,78899,128,0,78994:0:0:0:0:
182,192,78994,1,0,0:0:0:0:
475,192,78994,128,0,79090:0:0:0:0:
109,192,79090,1,0,0:0:0:0:
329,192,79090,128,0,79185:0:0:0:0:
256,192,79185,128,0,79281:0:0:0:0:
36,192,79185,1,0,0:0:0:0:
182,192,79281,128,0,79376:0:0:0:0:
475,192,79281,1,0,0:0:0:0:
109,192,79376,128,0,79472:0:0:0:0:
402,192,79376,1,0,0:0:0:0:
36,192,79472,128,0,79567:0:0:0:0:
329,192,79472,1,0,0:0:0:0:
182,192,79567,128,0,79663:0:0:0:0:
256,192,79567,1,0,0:0:0:0:
36,192,79663,128,0,79854:0:0:0:0:
475,192,79663,1,0,0:0:0:0:
402,192,79663,1,0,0:0:0:0:
329,192,79758,1,0,0:0:0:0:
256,192,79854,128,0,79949:0:0:0:0:
475,192,79854,1,0,0:0:0:0:
109,192,79949,128,0,80045:0:0:0:0:
402,192,79949,1,0,0:0:0:0:
329,192,80045,1,0,0:0:0:0:
256,192,80141,128,0,80236:0:0:0:0:
402,192,80141,1,0,0:0:0:0:
182,192,80236,128,0,80332:0:0:0:0:
475,192,80236,1,0,0:0:0:0:
36,192,80236,1,0,0:0:0:0:
329,192,80332,128,0,80427:0:0:0:0:
402,192,80332,1,0,0:0:0:0:
109,192,80427,128,0,80523:0:0:0:0:
36,192,80427,1,0,0:0:0:0:
256,192,80523,128,0,80618:0:0:0:0:
402,192,80523,1,0,0:0:0:0:
329,192,80618,128,0,80714:0:0:0:0:
475,192,80618,1,0,0:0:0:0:
182,192,80618,1,0,0:0:0:0:
36,192,80618,1,0,0:0:0:0:
256,192,80714,128,0,80809:0:0:0:0:
109,192,80714,1,0,0:0:0:0:
182,192,80809,128,0,80905:0:0:0:0:
36,192,80809,1,0,0:0:0:0:
475,192,80809,1,0,0:0:0:0:
109,192,80905,128,0,81000:0:0:0:0:
402,192,80905,1,0,0:0:0:0:
36,192,81000,128,0,81192:0:0:0:0:
329,192,81000,1,0,0:0:0:0:
256,192,81096,1,0,0:0:0:0:
475,192,81096,1,0,0:0:0:0:
182,192,81192,128,0,81287:0:0:0:0:
402,192,81192,1,0,0:0:0:0:
256,192,81287,128,0,81383:0:0:0:0:
475,192,81287,1,0,0:0:0:0:
329,192,81383,128,0,81478:0:0:0:0:
36,192,81383,1,0,0:0:0:0:
402,192,81478,128,0,81574:0:0:0:0:
109,192,81478,1,0,0:0:0:0:
475,192,81574,128,0,81765:0:0:0:0:
182,192,81574,1,0,0:0:0:0:
109,192,81669,1,0,0:0:0:0:
256,192,81765,128,0,81860:0:0:0:0:
36,192,81765,1,0,0:0:0:0:
182,192,81860,128,0,81956:0:0:0:0:
475,192,81860,1,0,0:0:0:0:
109,192,81956,128,0,82051:0:0:0:0:
402,192,81956,1,0,0:0:0:0:
36,192,82051,128,0,82147:0:0:0:0:
329,192,82051,1,0,0:0:0:0:
256,192,82147,1,0,0:0:0:0:
475,192,82147,1,0,0:0:0:0:
182,192,82147,1,0,0:0:0:0:
402,192,82338,1,0,0:0:0:0:
329,192,82338,1,0,0:0:0:0:
109,192,82338,1,0,0:0:0:0:
36,192,82529,1,0,0:0:0:0:
475,192,82529,1,0,0:0:0:0:
329,192,82529,1,0,0:0:0:0:
182,192,82529,1,0,0:0:0:0:
109,192,82720,1,0,0:0:0:0:
182,192,82720,1,0,0:0:0:0:
329,192,82720,1,0,0:0:0:0:
36,192,82911,1,0,0:0:0:0:
475,192,82911,1,0,0:0:0:0:
329,192,82911,1,0,0:0:0:0:
109,192,83007,1,0,0:0:0:0:
256,192,83102,1,0,0:0:0:0:
402,192,83102,1,0,0:0:0:0:
182,192,83102,1,0,0:0:0:0:
182,192,83293,1,0,0:0:0:0:
36,192,83293,1,0,0:0:0:0:
329,192,83293,1,0,0:0:0:0:
475,192,83293,1,0,0:0:0:0:
256,192,83485,1,0,0:0:0:0:
329,192,83485,1,0,0:0:0:0:
109,192,83485,1,0,0:0:0:0:
182,192,83676,1,0,0:0:0:0:
36,192,83676,1,0,0:0:0:0:
329,192,83676,1,0,0:0:0:0:
475,192,83676,1,0,0:0:0:0:
402,192,83867,1,0,0:0:0:0:
329,192,83867,1,0,0:0:0:0:
182,192,83867,1,0,0:0:0:0:
182,192,84058,1,0,0:0:0:0:
36,192,84058,1,0,0:0:0:0:
329,192,84058,1,0,0:0:0:0:
475,192,84058,1,0,0:0:0:0:
109,192,84249,1,0,0:0:0:0:
256,192,84249,1,0,0:0:0:0:
475,192,84249,128,0,84631:0:0:0:0:
329,192,84344,1,0,0:0:0:0:
182,192,84440,1,0,0:0:0:0:
36,192,84440,1,0,0:0:0:0:
256,192,84535,1,0,0:0:0:0:
402,192,84631,128,0,84822:0:0:0:0:
109,192,84631,1,0,0:0:0:0:
329,192,84631,1,0,0:0:0:0:
329,192,84822,128,0,85013:0:0:0:0:
182,192,84822,1,0,0:0:0:0:
36,192,84822,1,0,0:0:0:0:
475,192,84822,1,0,0:0:0:0:
402,192,85013,128,0,85204:0:0:0:0:
109,192,85013,1,0,0:0:0:0:
256,192,85013,1,0,0:0:0:0:
36,192,85204,128,0,86733:0:0:0:0:
182,192,85204,1,0,0:0:0:0:
329,192,85204,1,0,0:0:0:0:
475,192,85204,1,0,0:0:0:0:
256,192,85395,1,0,0:0:0:0:
402,192,85395,1,0,0:0:0:0:
329,192,85395,1,0,0:0:0:0:
109,192,85586,1,0,0:0:0:0:
182,192,85586,1,0,0:0:0:0:
475,192,85586,1,0,0:0:0:0:
256,192,85778,1,0,0:0:0:0:
329,192,85778,1,0,0:0:0:0:
109,192,85969,1,0,0:0:0:0:
475,192,85969,1,0,0:0:0:0:
402,192,86064,1,0,0:0:0:0:
182,192,86160,1,0,0:0:0:0:
329,192,86160,1,0,0:0:0:0:
109,192,86351,1,0,0:0:0:0:
475,192,86351,1,0,0:0:0:0:
329,192,86351,1,0,0:0:0:0:
402,192,86542,1,0,0:0:0:0:
256,192,86542,1,0,0:0:0:0:
109,192,86733,1,0,0:0:0:0:
329,192,86733,1,0,0:0:0:0:
475,192,86733,1,0,0:0:0:0:
182,192,86924,1,0,0:0:0:0:
36,192,86924,1,0,0:0:0:0:
402,192,86924,1,0,0:0:0:0:
109,192,87115,1,0,0:0:0:0:
329,192,87115,1,0,0:0:0:0:
475,192,87115,1,0,0:0:0:0:
182,192,87306,1,0,0:0:0:0:
36,192,87306,1,0,0:0:0:0:
402,192,87306,1,0,0:0:0:0:
256,192,87402,1,0,0:0:0:0:
475,192,87497,128,0,87784:0:0:0:0:
329,192,87497,128,0,87784:0:0:0:0:
109,192,87497,128,0,87784:0:0:0:0:
182,192,87879,128,0,88166:0:0:0:0:
36,192,87879,128,0,88166:0:0:0:0:
402,192,87879,128,0,88166:0:0:0:0:
182,192,88262,1,0,0:0:0:0:
36,192,88262,1,0,0:0:0:0:
329,192,88262,1,0,0:0:0:0:
475,192,88262,1,0,0:0:0:0:
402,192,88453,1,0,0:0:0:0:
329,192,88453,1,0,0:0:0:0:
182,192,88644,1,0,0:0:0:0:
36,192,88644,1,0,0:0:0:0:
475,192,88644,1,0,0:0:0:0:
182,192,88835,1,0,0:0:0:0:
256,192,88835,1,0,0:0:0:0:
475,192,88835,128,0,89217:0:0:0:0:
109,192,89026,1,0,0:0:0:0:
36,192,89026,1,0,0:0:0:0:
329,192,89026,1,0,0:0:0:0:
329,192,89217,128,0,89408:0:0:0:0:
182,192,89217,1,0,0:0:0:0:
109,192,89217,1,0,0:0:0:0:
256,192,89408,128,0,89599:0:0:0:0:
36,192,89408,1,0,0:0:0:0:
475,192,89408,1,0,0:0:0:0:
182,192,89408,1,0,0:0:0:0:
402,192,89599,128,0,89790:0:0:0:0:
109,192,89599,1,0,0:0:0:0:
182,192,89790,128,0,90364:0:0:0:0:
256,192,89790,1,0,0:0:0:0:
36,192,89790,1,0,0:0:0:0:
475,192,89790,1,0,0:0:0:0:
329,192,89981,1,0,0:0:0:0:
402,192,89981,1,0,0:0:0:0:
256,192,90172,1,0,0:0:0:0:
36,192,90172,1,0,0:0:0:0:
329,192,90172,1,0,0:0:0:0:
475,192,90172,1,0,0:0:0:0:
402,192,90364,128,0,91319:0:0:0:0:
109,192,90364,1,0,0:0:0:0:
256,192,90364,1,0,0:0:0:0:
182,192,90555,1,0,0:0:0:0:
36,192,90555,1,0,0:0:0:0:
475,192,90555,1,0,0:0:0:0:
109,192,90746,1,0,0:0:0:0:
256,192,90746,1,0,0:0:0:0:
182,192,90937,1,0,0:0:0:0:
36,192,90937,1,0,0:0:0:0:
329,192,90937,1,0,0:0:0:0:
475,192,90937,1,0,0:0:0:0:
109,192,91128,1,0,0:0:0:0:
182,192,91128,1,0,0:0:0:0:
36,192,91319,128,0,91892:0:0:0:0:
475,192,91319,1,0,0:0:0:0:
256,192,91319,1,0,0:0:0:0:
109,192,91319,1,0,0:0:0:0:
329,192,91510,1,0,0:0:0:0:
402,192,91510,1,0,0:0:0:0:
256,192,91701,1,0,0:0:0:0:
109,192,91701,1,0,0:0:0:0:
475,192,91701,1,0,0:0:0:0:
109,192,91892,128,0,92083:0:0:0:0:
182,192,91892,1,0,0:0:0:0:
329,192,91892,1,0,0:0:0:0:
475,192,92083,128,0,92656:0:0:0:0:
256,192,92083,1,0,0:0:0:0:
36,192,92083,1,0,0:0:0:0:
402,192,92083,1,0,0:0:0:0:
109,192,92274,1,0,0:0:0:0:
182,192,92274,1,0,0:0:0:0:
256,192,92465,1,0,0:0:0:0:
36,192,92465,1,0,0:0:0:0:
402,192,92465,1,0,0:0:0:0:
36,192,92656,128,0,92848:0:0:0:0:
182,192,92656,1,0,0:0:0:0:
109,192,92656,1,0,0:0:0:0:
329,192,92848,128,0,93039:0:0:0:0:
256,192,92848,1,0,0:0:0:0:
475,192,92848,1,0,0:0:0:0:
182,192,92943,1,0,0:0:0:0:
475,192,93039,128,0,93230:0:0:0:0:
109,192,93039,1,0,0:0:0:0:
36,192,93039,1,0,0:0:0:0:
182,192,93134,1,0,0:0:0:0:
256,192,93230,128,0,93421:0:0:0:0:
329,192,93230,1,0,0:0:0:0:
36,192,93230,1,0,0:0:0:0:
109,192,93325,1,0,0:0:0:0:
402,192,93421,128,0,93803:0:0:0:0:
182,192,93421,1,0,0:0:0:0:
475,192,93421,1,0,0:0:0:0:
109,192,93516,1,0,0:0:0:0:
36,192,93612,1,0,0:0:0:0:
256,192,93612,1,0,0:0:0:0:
182,192,93707,1,0,0:0:0:0:
329,192,93803,128,0,94376:0:0:0:0:
109,192,93803,1,0,0:0:0:0:
182,192,93899,1,0,0:0:0:0:
256,192,93994,1,0,0:0:0:0:
36,192,93994,1,0,0:0:0:0:
109,192,94090,1,0,0:0:0:0:
402,192,94090,1,0,0:0:0:0:
182,192,94185,1,0,0:0:0:0:
475,192,94185,1,0,0:0:0:0:
256,192,94281,1,0,0:0:0:0:
182,192,94376,1,0,0:0:0:0:
109,192,94376,1,0,0:0:0:0:
36,192,94376,1,0,0:0:0:0:
475,192,94376,1,0,0:0:0:0:
109,192,95141,128,0,95332:0:0:0:0:
402,192,95332,128,0,95523:0:0:0:0:
182,192,95523,128,0,95714:0:0:0:0:
329,192,95714,128,0,95905:0:0:0:0:
182,192,95905,1,0,0:0:0:0:
36,192,95905,1,0,0:0:0:0:
475,192,95905,1,0,0:0:0:0:
182,192,96096,1,0,0:0:0:0:
329,192,96096,1,0,0:0:0:0:
182,192,96287,1,0,0:0:0:0:
36,192,96287,1,0,0:0:0:0:
329,192,96287,1,0,0:0:0:0:
475,192,96287,1,0,0:0:0:0:
329,192,96478,1,0,0:0:0:0:
475,192,96478,1,0,0:0:0:0:
109,192,96669,1,0,0:0:0:0:
36,192,96669,1,0,0:0:0:0:
402,192,96669,1,0,0:0:0:0:
475,192,96669,1,0,0:0:0:0:
329,192,96860,1,0,0:0:0:0:
402,192,96860,1,0,0:0:0:0:
256,192,97051,1,0,0:0:0:0:
329,192,97051,1,0,0:0:0:0:
36,192,97051,1,0,0:0:0:0:
475,192,97051,1,0,0:0:0:0:
182,192,97242,1,0,0:0:0:0:
109,192,97242,1,0,0:0:0:0:
402,192,97242,1,0,0:0:0:0:
256,192,97434,1,0,0:0:0:0:
36,192,97434,1,0,0:0:0:0:
329,192,97434,1,0,0:0:0:0:
475,192,97434,1,0,0:0:0:0:
182,192,97625,1,0,0:0:0:0:
109,192,97625,1,0,0:0:0:0:
256,192,97816,1,0,0:0:0:0:
36,192,97816,1,0,0:0:0:0:
402,192,97816,1,0,0:0:0:0:
475,192,97816,1,0,0:0:0:0:
329,192,98007,1,0,0:0:0:0:
402,192,98007,1,0,0:0:0:0:
182,192,98198,1,0,0:0:0:0:
36,192,98198,1,0,0:0:0:0:
475,192,98198,1,0,0:0:0:0:
256,192,98198,1,0,0:0:0:0:
109,192,98389,1,0,0:0:0:0:
182,192,98389,1,0,0:0:0:0:
182,192,98580,1,0,0:0:0:0:
256,192,98580,1,0,0:0:0:0:
402,192,98580,1,0,0:0:0:0:
256,192,98771,1,0,0:0:0:0:
329,192,98771,1,0,0:0:0:0:
182,192,98962,1,0,0:0:0:0:
36,192,98962,1,0,0:0:0:0:
402,192,98962,1,0,0:0:0:0:
475,192,98962,1,0,0:0:0:0:
109,192,99153,128,0,99344:0:0:0:0:
256,192,99153,1,0,0:0:0:0:
402,192,99153,1,0,0:0:0:0:
182,192,99344,128,0,99535:0:0:0:0:
329,192,99344,1,0,0:0:0:0:
256,192,99535,128,0,100491:0:0:0:0:
402,192,99535,1,0,0:0:0:0:
475,192,99535,1,0,0:0:0:0:
36,192,99535,1,0,0:0:0:0:
109,192,99727,1,0,0:0:0:0:
36,192,99727,1,0,0:0:0:0:
109,192,99918,1,0,0:0:0:0:
182,192,99918,1,0,0:0:0:0:
182,192,100109,1,0,0:0:0:0:
329,192,100109,1,0,0:0:0:0:
36,192,100109,1,0,0:0:0:0:
475,192,100109,1,0,0:0:0:0:
329,192,100300,1,0,0:0:0:0:
402,192,100300,1,0,0:0:0:0:
36,192,100491,1,0,0:0:0:0:
475,192,100491,1,0,0:0:0:0:
182,192,100491,1,0,0:0:0:0:
402,192,100682,128,0,100873:0:0:0:0:
256,192,100682,1,0,0:0:0:0:
109,192,100682,1,0,0:0:0:0:
329,192,100873,128,0,101064:0:0:0:0:
182,192,100873,1,0,0:0:0:0:
36,192,100873,1,0,0:0:0:0:
475,192,100873,1,0,0:0:0:0:
256,192,101064,128,0,101828:0:0:0:0:
109,192,101064,1,0,0:0:0:0:
475,192,101064,1,0,0:0:0:0:
36,192,101255,1,0,0:0:0:0:
402,192,101255,1,0,0:0:0:0:
475,192,101255,1,0,0:0:0:0:
182,192,101255,1,0,0:0:0:0:
109,192,101446,1,0,0:0:0:0:
402,192,101446,1,0,0:0:0:0:
36,192,101637,1,0,0:0:0:0:
182,192,101637,1,0,0:0:0:0:
329,192,101637,1,0,0:0:0:0:
475,192,101637,1,0,0:0:0:0:
182,192,101828,128,0,101924:0:0:0:0:
475,192,101828,1,0,0:0:0:0:
402,192,101828,1,0,0:0:0:0:
109,192,101924,128,0,102020:0:0:0:0:
36,192,102020,128,0,102975:0:0:0:0:
256,192,102020,1,0,0:0:0:0:
402,192,102020,1,0,0:0:0:0:
475,192,102020,1,0,0:0:0:0:
109,192,102211,1,0,0:0:0:0:
182,192,102211,1,0,0:0:0:0:
329,192,102402,1,0,0:0:0:0:
402,192,102402,1,0,0:0:0:0:
475,192,102402,1,0,0:0:0:0:
182,192,102593,1,0,0:0:0:0:
256,192,102593,1,0,0:0:0:0:
475,192,102784,1,0,0:0:0:0:
402,192,102784,1,0,0:0:0:0:
109,192,102975,128,0,103166:0:0:0:0:
329,192,102975,1,0,0:0:0:0:
256,192,102975,1,0,0:0:0:0:
182,192,103166,128,0,103357:0:0:0:0:
475,192,103166,1,0,0:0:0:0:
36,192,103357,128,0,103548:0:0:0:0:
329,192,103357,1,0,0:0:0:0:
402,192,103357,1,0,0:0:0:0:
182,192,103548,128,0,104121:0:0:0:0:
256,192,103548,1,0,0:0:0:0:
475,192,103548,1,0,0:0:0:0:
109,192,103548,1,0,0:0:0:0:
402,192,103739,1,0,0:0:0:0:
256,192,103739,1,0,0:0:0:0:
36,192,103930,1,0,0:0:0:0:
329,192,103930,1,0,0:0:0:0:
475,192,103930,1,0,0:0:0:0:
36,192,104121,128,0,105077:0:0:0:0:
256,192,104121,1,0,0:0:0:0:
402,192,104121,1,0,0:0:0:0:
109,192,104313,1,0,0:0:0:0:
329,192,104313,1,0,0:0:0:0:
475,192,104313,1,0,0:0:0:0:
182,192,104408,1,0,0:0:0:0:
256,192,104504,1,0,0:0:0:0:
182,192,104599,1,0,0:0:0:0:
109,192,104695,1,0,0:0:0:0:
475,192,104695,1,0,0:0:0:0:
402,192,104790,1,0,0:0:0:0:
329,192,104886,1,0,0:0:0:0:
402,192,104981,1,0,0:0:0:0:
475,192,105077,1,0,0:0:0:0:
256,192,105077,1,0,0:0:0:0:
109,192,105077,1,0,0:0:0:0:
402,192,105841,128,0,106032:0:0:0:0:
329,192,106032,128,0,106223:0:0:0:0:
109,192,106223,128,0,106414:0:0:0:0:
182,192,106414,128,0,106606:0:0:0:0:
36,192,106606,1,0,0:0:0:0:
475,192,106606,1,0,0:0:0:0:
109,192,106606,128,0,106701:0:0:0:0:
329,192,106606,1,0,0:0:0:0:
182,192,106701,128,0,106797:0:0:0:0:
402,192,106701,1,0,0:0:0:0:
256,192,106797,128,0,106892:0:0:0:0:
475,192,106797,1,0,0:0:0:0:
329,192,106892,128,0,106988:0:0:0:0:
36,192,106892,1,0,0:0:0:0:
402,192,106988,128,0,107083:0:0:0:0:
109,192,106988,1,0,0:0:0:0:
329,192,107083,128,0,107179:0:0:0:0:
182,192,107083,1,0,0:0:0:0:
475,192,107179,128,0,107370:0:0:0:0:
36,192,107179,1,0,0:0:0:0:
109,192,107179,1,0,0:0:0:0:
182,192,107274,1,0,0:0:0:0:
329,192,107370,128,0,107465:0:0:0:0:
256,192,107370,1,0,0:0:0:0:
36,192,107370,1,0,0:0:0:0:
475,192,107465,128,0,107561:0:0:0:0:
109,192,107465,1,0,0:0:0:0:
182,192,107561,1,0,0:0:0:0:
329,192,107656,128,0,107752:0:0:0:0:
109,192,107656,1,0,0:0:0:0:
402,192,107752,128,0,107848:0:0:0:0:
36,192,107752,1,0,0:0:0:0:
256,192,107752,1,0,0:0:0:0:
329,192,107848,128,0,107943:0:0:0:0:
182,192,107848,1,0,0:0:0:0:
475,192,107943,128,0,108039:0:0:0:0:
36,192,107943,1,0,0:0:0:0:
182,192,108039,1,0,0:0:0:0:
329,192,108039,128,0,108134:0:0:0:0:
109,192,108134,128,0,108230:0:0:0:0:
36,192,108134,1,0,0:0:0:0:
256,192,108134,1,0,0:0:0:0:
402,192,108134,1,0,0:0:0:0:
475,192,108134,1,0,0:0:0:0:
182,192,108230,128,0,108325:0:0:0:0:
329,192,108230,1,0,0:0:0:0:
256,192,108325,128,0,108421:0:0:0:0:
402,192,108325,1,0,0:0:0:0:
329,192,108421,128,0,108516:0:0:0:0:
475,192,108421,1,0,0:0:0:0:
36,192,108421,1,0,0:0:0:0:
402,192,108516,128,0,108612:0:0:0:0:
109,192,108516,1,0,0:0:0:0:
329,192,108612,128,0,108707:0:0:0:0:
182,192,108612,1,0,0:0:0:0:
475,192,108707,128,0,108899:0:0:0:0:
109,192,108707,1,0,0:0:0:0:
36,192,108707,1,0,0:0:0:0:
256,192,108803,1,0,0:0:0:0:
329,192,108899,128,0,108994:0:0:0:0:
182,192,108899,1,0,0:0:0:0:
36,192,108899,1,0,0:0:0:0:
475,192,108994,128,0,109090:0:0:0:0:
109,192,108994,1,0,0:0:0:0:
36,192,109090,1,0,0:0:0:0:
329,192,109090,128,0,109185:0:0:0:0:
256,192,109090,1,0,0:0:0:0:
402,192,109185,128,0,109281:0:0:0:0:
182,192,109185,1,0,0:0:0:0:
329,192,109281,128,0,109376:0:0:0:0:
109,192,109281,1,0,0:0:0:0:
36,192,109281,1,0,0:0:0:0:
475,192,109281,1,0,0:0:0:0:
182,192,109376,128,0,109472:0:0:0:0:
402,192,109376,1,0,0:0:0:0:
109,192,109472,128,0,109567:0:0:0:0:
329,192,109472,1,0,0:0:0:0:
256,192,109567,128,0,109663:0:0:0:0:
475,192,109567,1,0,0:0:0:0:
109,192,109663,128,0,109758:0:0:0:0:
329,192,109663,1,0,0:0:0:0:
36,192,109663,1,0,0:0:0:0:
182,192,109758,128,0,109854:0:0:0:0:
402,192,109758,1,0,0:0:0:0:
256,192,109854,128,0,109949:0:0:0:0:
475,192,109854,1,0,0:0:0:0:
329,192,109949,128,0,110045:0:0:0:0:
36,192,109949,1,0,0:0:0:0:
402,192,110045,128,0,110141:0:0:0:0:
109,192,110045,1,0,0:0:0:0:
329,192,110141,128,0,110236:0:0:0:0:
182,192,110141,1,0,0:0:0:0:
475,192,110236,128,0,110427:0:0:0:0:
109,192,110236,1,0,0:0:0:0:
36,192,110236,1,0,0:0:0:0:
256,192,110332,1,0,0:0:0:0:
329,192,110427,128,0,110523:0:0:0:0:
182,192,110427,1,0,0:0:0:0:
36,192,110427,1,0,0:0:0:0:
475,192,110523,128,0,110618:0:0:0:0:
109,192,110523,1,0,0:0:0:0:
182,192,110618,1,0,0:0:0:0:
402,192,110618,1,0,0:0:0:0:
329,192,110714,128,0,110809:0:0:0:0:
36,192,110714,1,0,0:0:0:0:
256,192,110809,128,0,110905:0:0:0:0:
109,192,110809,1,0,0:0:0:0:
475,192,110809,1,0,0:0:0:0:
182,192,110905,128,0,111000:0:0:0:0:
36,192,110905,1,0,0:0:0:0:
402,192,110905,1,0,0:0:0:0:
329,192,111000,128,0,111096:0:0:0:0:
475,192,111000,1,0,0:0:0:0:
256,192,111096,128,0,111192:0:0:0:0:
109,192,111096,1,0,0:0:0:0:
182,192,111192,128,0,111287:0:0:0:0:
36,192,111192,1,0,0:0:0:0:
475,192,111192,1,0,0:0:0:0:
256,192,111287,128,0,111383:0:0:0:0:
402,192,111287,1,0,0:0:0:0:
329,192,111383,128,0,111478:0:0:0:0:
475,192,111383,1,0,0:0:0:0:
36,192,111383,1,0,0:0:0:0:
402,192,111478,128,0,111574:0:0:0:0:
109,192,111478,1,0,0:0:0:0:
475,192,111574,128,0,111765:0:0:0:0:
182,192,111574,1,0,0:0:0:0:
256,192,111669,1,0,0:0:0:0:
329,192,111765,128,0,111860:0:0:0:0:
36,192,111765,1,0,0:0:0:0:
256,192,111860,128,0,111956:0:0:0:0:
109,192,111860,1,0,0:0:0:0:
475,192,111956,1,0,0:0:0:0:
182,192,111956,128,0,112051:0:0:0:0:
36,192,111956,1,0,0:0:0:0:
402,192,112051,1,0,0:0:0:0:
109,192,112051,128,0,112147:0:0:0:0:
329,192,112147,1,0,0:0:0:0:
36,192,112147,128,0,112338:0:0:0:0:
256,192,112242,1,0,0:0:0:0:
329,192,112338,128,0,112434:0:0:0:0:
475,192,112338,1,0,0:0:0:0:
182,192,112434,128,0,112529:0:0:0:0:
402,192,112529,128,0,112625:0:0:0:0:
36,192,112529,1,0,0:0:0:0:
475,192,112529,1,0,0:0:0:0:
256,192,112625,128,0,112720:0:0:0:0:
109,192,112720,128,0,112816:0:0:0:0:
329,192,112720,1,0,0:0:0:0:
475,192,112720,1,0,0:0:0:0:
36,192,112720,1,0,0:0:0:0:
182,192,112816,128,0,112911:0:0:0:0:
402,192,112816,1,0,0:0:0:0:
256,192,112911,128,0,113007:0:0:0:0:
475,192,112911,1,0,0:0:0:0:
329,192,113007,128,0,113102:0:0:0:0:
36,192,113007,1,0,0:0:0:0:
402,192,113102,128,0,113198:0:0:0:0:
109,192,113102,1,0,0:0:0:0:
329,192,113198,128,0,113293:0:0:0:0:
182,192,113198,1,0,0:0:0:0:
475,192,113293,128,0,113485:0:0:0:0:
36,192,113293,1,0,0:0:0:0:
109,192,113293,1,0,0:0:0:0:
182,192,113389,1,0,0:0:0:0:
256,192,113485,128,0,113580:0:0:0:0:
36,192,113485,1,0,0:0:0:0:
402,192,113580,128,0,113676:0:0:0:0:
182,192,113580,1,0,0:0:0:0:
109,192,113676,1,0,0:0:0:0:
182,192,113771,128,0,113867:0:0:0:0:
36,192,113771,1,0,0:0:0:0:
329,192,113867,128,0,113962:0:0:0:0:
475,192,113867,1,0,0:0:0:0:
256,192,113962,128,0,114058:0:0:0:0:
109,192,113962,1,0,0:0:0:0:
402,192,114058,128,0,114153:0:0:0:0:
36,192,114058,1,0,0:0:0:0:
329,192,114153,128,0,114249:0:0:0:0:
182,192,114153,1,0,0:0:0:0:
109,192,114249,128,0,114344:0:0:0:0:
256,192,114249,1,0,0:0:0:0:
475,192,114249,1,0,0:0:0:0:
36,192,114249,1,0,0:0:0:0:
182,192,114344,128,0,114440:0:0:0:0:
402,192,114344,1,0,0:0:0:0:
256,192,114440,128,0,114535:0:0:0:0:
475,192,114440,1,0,0:0:0:0:
329,192,114535,128,0,114631:0:0:0:0:
36,192,114535,1,0,0:0:0:0:
402,192,114631,128,0,114727:0:0:0:0:
109,192,114631,1,0,0:0:0:0:
329,192,114727,128,0,114822:0:0:0:0:
182,192,114727,1,0,0:0:0:0:
475,192,114822,128,0,115013:0:0:0:0:
109,192,114822,1,0,0:0:0:0:
36,192,114822,1,0,0:0:0:0:
256,192,114918,1,0,0:0:0:0:
182,192,115013,128,0,115109:0:0:0:0:
36,192,115013,1,0,0:0:0:0:
402,192,115109,128,0,115204:0:0:0:0:
329,192,115109,1,0,0:0:0:0:
109,192,115204,1,0,0:0:0:0:
329,192,115300,128,0,115395:0:0:0:0:
182,192,115300,1,0,0:0:0:0:
256,192,115395,128,0,115491:0:0:0:0:
109,192,115395,1,0,0:0:0:0:
36,192,115395,1,0,0:0:0:0:
475,192,115491,1,0,0:0:0:0:
182,192,115491,128,0,115586:0:0:0:0:
402,192,115586,1,0,0:0:0:0:
109,192,115586,128,0,115682:0:0:0:0:
329,192,115682,1,0,0:0:0:0:
36,192,115682,128,0,115778:0:0:0:0:
402,192,115778,1,0,0:0:0:0:
182,192,115778,128,0,115873:0:0:0:0:
256,192,115873,128,0,115969:0:0:0:0:
475,192,115873,1,0,0:0:0:0:
329,192,115969,128,0,116064:0:0:0:0:
36,192,115969,1,0,0:0:0:0:
402,192,116064,128,0,116160:0:0:0:0:
109,192,116064,1,0,0:0:0:0:
475,192,116160,128,0,116255:0:0:0:0:
182,192,116160,1,0,0:0:0:0:
329,192,116255,128,0,116351:0:0:0:0:
256,192,116255,1,0,0:0:0:0:
475,192,116351,128,0,116542:0:0:0:0:
36,192,116351,1,0,0:0:0:0:
109,192,116351,1,0,0:0:0:0:
182,192,116446,1,0,0:0:0:0:
256,192,116542,128,0,116637:0:0:0:0:
36,192,116542,1,0,0:0:0:0:
402,192,116637,128,0,116733:0:0:0:0:
109,192,116637,1,0,0:0:0:0:
182,192,116733,1,0,0:0:0:0:
256,192,116828,128,0,116924:0:0:0:0:
109,192,116828,1,0,0:0:0:0:
329,192,116924,128,0,117020:0:0:0:0:
36,192,116924,1,0,0:0:0:0:
475,192,116924,1,0,0:0:0:0:
182,192,117020,128,0,117115:0:0:0:0:
109,192,117020,1,0,0:0:0:0:
402,192,117115,128,0,117211:0:0:0:0:
475,192,117115,1,0,0:0:0:0:
256,192,117211,128,0,117306:0:0:0:0:
109,192,117211,1,0,0:0:0:0:
182,192,117306,128,0,117402:0:0:0:0:
36,192,117306,1,0,0:0:0:0:
329,192,117306,1,0,0:0:0:0:
475,192,117306,1,0,0:0:0:0:
256,192,117402,128,0,117497:0:0:0:0:
402,192,117402,1,0,0:0:0:0:
329,192,117497,128,0,117593:0:0:0:0:
475,192,117497,1,0,0:0:0:0:
36,192,117497,1,0,0:0:0:0:
402,192,117593,128,0,117688:0:0:0:0:
109,192,117593,1,0,0:0:0:0:
475,192,117688,128,0,117879:0:0:0:0:
182,192,117688,1,0,0:0:0:0:
256,192,117784,1,0,0:0:0:0:
36,192,117784,1,0,0:0:0:0:
329,192,117879,128,0,117975:0:0:0:0:
109,192,117879,1,0,0:0:0:0:
256,192,117975,128,0,118071:0:0:0:0:
36,192,117975,1,0,0:0:0:0:
182,192,118071,128,0,118166:0:0:0:0:
475,192,118071,1,0,0:0:0:0:
109,192,118166,128,0,118262:0:0:0:0:
402,192,118166,1,0,0:0:0:0:
36,192,118262,128,0,118453:0:0:0:0:
329,192,118262,1,0,0:0:0:0:
402,192,118357,1,0,0:0:0:0:
256,192,118453,128,0,118548:0:0:0:0:
475,192,118453,1,0,0:0:0:0:
329,192,118548,128,0,118644:0:0:0:0:
36,192,118548,1,0,0:0:0:0:
402,192,118644,128,0,118739:0:0:0:0:
109,192,118644,1,0,0:0:0:0:
475,192,118739,128,0,118835:0:0:0:0:
182,192,118739,1,0,0:0:0:0:
256,192,118835,1,0,0:0:0:0:
36,192,118835,1,0,0:0:0:0:
329,192,118835,1,0,0:0:0:0:
109,192,118835,1,0,0:0:0:0:
